osu file format v14

[General]
AudioFilename: audio.mp3
AudioLeadIn: 0
PreviewTime: 21426
Countdown: 0
SampleSet: Soft
StackLeniency: 0.3
Mode: 0
LetterboxInBreaks: 0
WidescreenStoryboard: 0

[Editor]
Bookmarks: 9278,21426,22308,36425
DistanceSpacing: 0.1
BeatDivisor: 6
GridSize: 4
TimelineZoom: 2.3

[Metadata]
Title:Hidamari no Uta (Ringtone ver.)
TitleUnicode:陽だまりの詩 (Ringtone ver.)
Artist:Yuyoyuppe
ArtistUnicode:ゆよゆっぺ
Creator:Nice Aesthetics
Version:Expert
Source:
Tags:
BeatmapID:2095393
BeatmapSetID:999373

[Difficulty]
HPDrainRate:5
CircleSize:4
OverallDifficulty:8
ApproachRate:8.5
SliderMultiplier:1.4
SliderTickRate:1

[Events]
//Background and Video events
0,0,"bg.png",0,0
//Break Periods
//Storyboard Layer 0 (Background)
//Storyboard Layer 1 (Fail)
//Storyboard Layer 2 (Pass)
//Storyboard Layer 3 (Foreground)
//Storyboard Layer 4 (Overlay)
//Storyboard Sound Samples

[TimingPoints]
455,441.176470588235,4,2,1,100,1,0
9278,-83.3333333333333,4,2,1,30,0,0
21426,441.176470588235,4,2,1,100,1,0
21426,-77.8210116731517,4,2,1,100,0,1
36425,-83.3333333333333,4,2,1,30,0,0

[HitObjects]
95,131,9278,6,0,L|78:44,1,83.9999974365235,0|0,2:0|2:0,2:0:0:0:
187,131,9719,2,0,L|204:218,1,83.9999974365235,0|0,2:0|2:0,2:0:0:0:
278,131,10160,6,0,L|261:44,1,83.9999974365235,0|0,2:0|2:0,2:0:0:0:
370,131,10601,2,0,L|387:218,1,83.9999974365235,0|0,2:0|2:0,2:0:0:0:
140,238,11043,5,2,2:0:0:0:
197,322,11262,1,2,2:0:0:0:
219,235,11483,5,2,2:0:0:0:
112,329,11703,1,2,2:0:0:0:
315,62,11925,5,2,2:0:0:0:
372,146,12146,1,2,2:0:0:0:
400,55,12367,5,2,2:0:0:0:
293,149,12587,1,2,2:0:0:0:
112,329,12807,6,0,L|24:346,1,83.9999974365235,0|0,2:0|2:0,2:0:0:0:
112,237,13248,2,0,L|199:220,1,83.9999974365235,0|0,2:0|2:0,2:0:0:0:
112,146,13689,6,0,L|25:163,1,83.9999974365235,0|0,2:0|2:0,2:0:0:0:
112,54,14131,2,0,L|198:37,1,83.9999974365235,0|0,2:0|2:0,2:0:0:0:
276,80,14572,5,2,2:0:0:0:
276,80,14793,1,2,2:0:0:0:
333,164,15014,5,2,2:0:0:0:
333,164,15234,1,2,2:0:0:0:
440,70,15454,5,2,2:0:0:0:
440,70,15675,1,2,2:0:0:0:
497,154,15896,5,2,2:0:0:0:
497,154,16116,1,2,2:0:0:0:
95,253,16337,6,0,L|78:340,1,83.9999974365235,0|0,2:0|2:0,2:0:0:0:
203,253,16778,2,0,L|186:335,1,83.9999974365235,0|0,2:0|2:0,2:0:0:0:
295,253,17219,6,0,L|311:170,1,83.9999974365235,0|0,2:0|2:0,2:0:0:0:
387,294,17660,2,0,L|403:211,1,83.9999974365235,0|0,2:0|2:0,2:0:0:0:
276,80,18102,5,2,2:0:0:0:
333,164,18322,1,2,2:0:0:0:
335,23,18543,5,2,2:0:0:0:
392,107,18764,1,2,2:0:0:0:
196,80,18984,5,2,2:0:0:0:
139,164,19205,1,2,2:0:0:0:
137,23,19425,5,2,2:0:0:0:
80,107,19646,1,2,2:0:0:0:
256,192,19866,12,0,21190,2:0:0:0:
119,257,21426,6,10,L|154:319,2,59.9666645621237,10|10|10,3:0|3:0|3:0,3:0:0:0:
245,186,21867,2,6,L|298:159,1,44.9749984215928,6|6,3:0|3:0,3:0:0:0:
228,17,22087,2,6,L|161:49,1,44.9749984215928,6|6,3:0|3:0,3:0:0:0:
106,47,22308,5,4,3:0:0:0:
95,57,22381,1,0,3:0:0:0:
86,69,22455,1,0,3:0:0:0:
80,83,22528,1,0,3:0:0:0:
78,97,22602,1,0,3:0:0:0:
80,112,22675,1,0,3:0:0:0:
86,126,22749,1,0,3:0:0:0:
93,139,22822,1,0,3:0:0:0:
101,152,22896,1,0,3:0:0:0:
110,164,22969,1,0,3:0:0:0:
117,177,23043,1,0,3:0:0:0:
125,190,23116,1,0,3:0:0:0:
130,204,23190,5,12,3:0:0:0:
134,218,23263,1,0,3:0:0:0:
136,233,23337,1,0,3:0:0:0:
135,248,23410,1,0,3:0:0:0:
133,263,23484,1,0,3:0:0:0:
128,277,23558,1,0,3:0:0:0:
124,291,23631,1,0,3:0:0:0:
124,304,23705,1,0,3:0:0:0:
132,318,23778,1,0,3:0:0:0:
141,330,23852,1,0,3:0:0:0:
151,341,23925,1,0,3:0:0:0:
163,350,23999,1,0,3:0:0:0:
176,357,24072,5,12,3:0:0:0:
190,363,24146,1,0,3:0:0:0:
205,366,24219,1,0,3:0:0:0:
220,368,24293,1,0,3:0:0:0:
234,367,24366,1,0,3:0:0:0:
249,364,24440,1,0,3:0:0:0:
263,360,24513,1,0,3:0:0:0:
277,353,24587,1,0,3:0:0:0:
289,345,24660,1,0,3:0:0:0:
301,335,24734,1,0,3:0:0:0:
310,327,24808,1,0,3:0:0:0:
327,316,24881,1,0,3:0:0:0:
349,292,24955,6,2,L|371:264,11,29.9833322810618,2|2|2|2|2|2|2|2|2|2|2|2,3:0|3:0|3:0|3:0|3:0|3:0|3:0|3:0|3:0|3:0|3:0|3:0,3:0:0:0:
374,254,25837,5,4,3:0:0:0:
376,250,25910,1,0,3:0:0:0:
378,246,25984,1,0,3:0:0:0:
381,242,26057,1,0,3:0:0:0:
383,239,26131,1,0,3:0:0:0:
385,235,26204,1,0,3:0:0:0:
388,231,26278,1,0,3:0:0:0:
390,228,26351,1,0,3:0:0:0:
392,224,26425,1,0,3:0:0:0:
395,220,26498,1,0,3:0:0:0:
397,217,26572,1,0,3:0:0:0:
399,213,26645,1,0,3:0:0:0:
402,209,26720,5,12,3:0:0:0:
404,205,26793,1,0,3:0:0:0:
406,201,26867,1,0,3:0:0:0:
408,197,26940,1,0,3:0:0:0:
410,193,27014,1,0,3:0:0:0:
412,189,27087,1,0,3:0:0:0:
414,185,27161,1,0,3:0:0:0:
416,182,27234,1,0,3:0:0:0:
418,178,27308,1,0,3:0:0:0:
420,174,27381,1,0,3:0:0:0:
422,170,27455,1,0,3:0:0:0:
424,166,27528,1,0,3:0:0:0:
427,162,27602,5,12,3:0:0:0:
429,159,27675,1,0,3:0:0:0:
431,155,27749,1,0,3:0:0:0:
433,151,27822,1,0,3:0:0:0:
435,147,27896,1,0,3:0:0:0:
437,143,27970,1,0,3:0:0:0:
439,139,28043,1,0,3:0:0:0:
441,135,28117,1,0,3:0:0:0:
443,132,28190,1,0,3:0:0:0:
445,128,28264,1,0,3:0:0:0:
447,124,28337,1,0,3:0:0:0:
450,120,28411,1,0,3:0:0:0:
455,101,28484,6,2,L|424:71,11,29.9833322810618,2|2|2|2|2|2|2|2|2|2|2|2,3:0|3:0|3:0|3:0|3:0|3:0|3:0|3:0|3:0|3:0|3:0|3:0,3:0:0:0:
417,76,29367,5,4,3:0:0:0:
409,84,29440,1,0,3:0:0:0:
400,92,29514,1,0,3:0:0:0:
390,98,29587,1,0,3:0:0:0:
379,102,29661,1,0,3:0:0:0:
368,105,29734,1,0,3:0:0:0:
356,106,29808,1,0,3:0:0:0:
344,106,29881,1,0,3:0:0:0:
333,104,29955,1,0,3:0:0:0:
321,103,30028,1,0,3:0:0:0:
310,100,30102,1,0,3:0:0:0:
299,97,30175,1,0,3:0:0:0:
287,94,30249,5,12,3:0:0:0:
276,90,30322,1,0,3:0:0:0:
265,87,30396,1,0,3:0:0:0:
254,83,30469,1,0,3:0:0:0:
243,80,30543,1,0,3:0:0:0:
231,78,30617,1,0,3:0:0:0:
220,76,30690,1,0,3:0:0:0:
208,77,30764,1,0,3:0:0:0:
197,80,30837,1,0,3:0:0:0:
189,88,30911,1,0,3:0:0:0:
184,99,30984,1,0,3:0:0:0:
181,110,31058,1,0,3:0:0:0:
180,122,31131,5,12,3:0:0:0:
179,134,31205,1,0,3:0:0:0:
178,145,31278,1,0,3:0:0:0:
177,157,31352,1,0,3:0:0:0:
176,168,31425,1,0,3:0:0:0:
174,180,31499,1,0,3:0:0:0:
170,191,31572,1,0,3:0:0:0:
164,201,31646,1,0,3:0:0:0:
156,209,31719,1,0,3:0:0:0:
146,216,31793,1,0,3:0:0:0:
136,221,31867,1,0,3:0:0:0:
125,226,31940,1,0,3:0:0:0:
117,234,32014,5,12,3:0:0:0:
112,244,32087,1,0,3:0:0:0:
107,255,32161,1,0,3:0:0:0:
102,265,32234,1,0,3:0:0:0:
97,276,32308,1,0,3:0:0:0:
92,291,32381,1,0,0:0:0:0:
94,303,32455,6,2,L|104:342,5,29.9833322810618,2|2|2|2|2|2,3:0|3:0|3:0|3:0|3:0|3:0,3:0:0:0:
183,299,32897,5,4,3:0:0:0:
189,300,32970,1,0,3:0:0:0:
196,300,33044,1,0,3:0:0:0:
203,300,33117,1,0,3:0:0:0:
210,298,33191,1,0,3:0:0:0:
217,296,33264,1,0,3:0:0:0:
223,293,33338,1,0,3:0:0:0:
229,289,33411,1,0,3:0:0:0:
234,284,33485,1,0,3:0:0:0:
239,279,33558,1,0,3:0:0:0:
243,273,33632,1,0,3:0:0:0:
247,267,33705,1,0,3:0:0:0:
250,261,33779,5,12,3:0:0:0:
254,255,33852,1,0,3:0:0:0:
257,249,33926,1,0,3:0:0:0:
261,243,33999,1,0,3:0:0:0:
264,237,34073,1,0,3:0:0:0:
268,231,34147,1,0,3:0:0:0:
271,225,34220,1,0,3:0:0:0:
275,219,34294,1,0,3:0:0:0:
280,214,34367,1,0,3:0:0:0:
284,209,34441,1,0,3:0:0:0:
289,204,34514,1,0,3:0:0:0:
295,199,34588,1,0,3:0:0:0:
301,195,34661,5,12,3:0:0:0:
307,192,34735,1,0,3:0:0:0:
313,189,34808,1,0,3:0:0:0:
320,186,34882,1,0,3:0:0:0:
326,184,34955,1,0,3:0:0:0:
333,182,35029,1,0,3:0:0:0:
339,180,35102,1,0,3:0:0:0:
346,177,35176,1,0,3:0:0:0:
353,175,35249,1,0,3:0:0:0:
359,172,35323,1,0,3:0:0:0:
365,169,35397,1,0,3:0:0:0:
372,166,35470,1,0,3:0:0:0:
385,161,35543,5,12,3:0:0:0:
395,152,35617,1,0,3:0:0:0:
404,143,35691,1,0,3:0:0:0:
411,131,35764,1,0,3:0:0:0:
419,120,35838,1,0,3:0:0:0:
424,110,35911,1,0,3:0:0:0:
427,94,35985,1,0,3:0:0:0:
424,81,36058,1,0,3:0:0:0:
421,69,36132,1,0,3:0:0:0:
418,56,36205,1,0,3:0:0:0:
414,44,36279,1,0,3:0:0:0:
409,32,36352,1,0,3:0:0:0:
400,19,36425,6,0,L|310:-2,1,83.9999974365235,0|0,2:0|2:0,2:0:0:0:
158,22,36867,2,0,L|81:55,1,83.9999974365235,0|0,2:0|2:0,2:0:0:0:
55,312,37308,6,0,L|137:346,1,83.9999974365235,0|0,2:0|2:0,2:0:0:0:
329,348,37750,2,0,L|407:316,1,83.9999974365235,0|0,2:0|2:0,2:0:0:0:
141,132,38190,5,2,2:0:0:0:
237,241,38411,1,2,2:0:0:0:
224,64,38631,5,2,2:0:0:0:
320,173,38852,1,2,2:0:0:0:
393,95,39073,5,2,2:0:0:0:
393,95,39293,1,2,2:0:0:0:
493,180,39514,5,2,2:0:0:0:
493,180,39734,1,2,2:0:0:0:
96,209,39955,6,0,L|149:285,1,83.9999974365235,0|0,2:0|2:0,2:0:0:0:
224,225,40396,6,0,L|175:156,1,83.9999974365235,0|0,2:0|2:0,2:0:0:0:
246,105,40837,6,0,L|299:181,1,83.9999974365235,0|0,2:0|2:0,2:0:0:0:
374,121,41278,6,0,L|325:52,1,83.9999974365235,0|0,2:0|2:0,2:0:0:0:
197,350,41720,5,2,2:0:0:0:
197,224,41940,1,2,2:0:0:0:
71,224,42161,5,2,2:0:0:0:
71,350,42381,1,2,2:0:0:0:
298,111,42602,6,0,L|357:180,1,83.9999974365235,0|0,2:0|2:0,2:0:0:0:
298,111,43043,6,0,L|357:180,1,83.9999974365235,0|0,2:0|2:0,2:0:0:0:
70,62,43484,5,2,2:0:0:0:
70,62,43705,1,2,2:0:0:0:
153,159,43925,5,2,2:0:0:0:
153,159,44146,1,2,2:0:0:0:
36,176,44367,5,2,2:0:0:0:
36,176,44588,1,2,2:0:0:0:
119,273,44808,5,2,2:0:0:0:
119,273,45028,1,2,2:0:0:0:
289,192,45249,6,0,L|375:192,1,83.9999974365235,0|0,2:0|2:0,2:0:0:0:
221,192,45690,6,0,L|130:192,1,83.9999974365235,0|0,2:0|2:0,2:0:0:0:
256,255,46131,6,0,L|256:343,1,83.9999974365235,0|0,2:0|2:0,2:0:0:0:
256,129,46573,2,0,L|256:41,1,83.9999974365235,0|0,2:0|2:0,2:0:0:0:
84,118,47014,5,2,2:0:0:0:
198,230,47234,1,2,2:0:0:0:
84,230,47455,5,2,2:0:0:0:
198,118,47675,1,2,2:0:0:0:
306,229,47896,5,2,2:0:0:0:
306,229,48117,1,2,2:0:0:0:
368,114,48337,5,2,2:0:0:0:
368,114,48558,1,2,2:0:0:0:
83,231,48778,6,0,L|125:307,1,83.9999974365235,0|0,2:0|2:0,2:0:0:0:
151,201,49220,6,0,L|108:111,1,83.9999974365235,0|0,2:0|2:0,2:0:0:0:
368,108,49661,5,2,2:0:0:0:
368,108,49881,1,2,2:0:0:0:
255,192,50102,5,2,2:0:0:0:
255,192,50323,1,2,2:0:0:0:
