osu file format v14

[General]
AudioFilename: audio.mp3
AudioLeadIn: 0
PreviewTime: 21426
Countdown: 0
SampleSet: Soft
StackLeniency: 0.7
Mode: 0
LetterboxInBreaks: 0
WidescreenStoryboard: 1

[Editor]
DistanceSpacing: 0.4
BeatDivisor: 8
GridSize: 8
TimelineZoom: 2.899999

[Metadata]
Title:Hidamari no Uta (Ringtone Ver.)
TitleUnicode:陽だまりの詩 (Ringtone ver.)
Artist:Yuyoyuppe
ArtistUnicode:ゆよゆっぺ
Creator:Nice Aesthetics
Version:entsetzen's Hard
Source:
Tags:
BeatmapID:2262751
BeatmapSetID:999373

[Difficulty]
HPDrainRate:5.1
CircleSize:3.9
OverallDifficulty:8.1
ApproachRate:8.6
SliderMultiplier:1.4
SliderTickRate:2

[Events]
//Background and Video events
0,0,"bg.png",0,0
//Break Periods
//Storyboard Layer 0 (Background)
//Storyboard Layer 1 (Fail)
//Storyboard Layer 2 (Pass)
//Storyboard Layer 3 (Foreground)
//Storyboard Layer 4 (Overlay)
//Storyboard Sound Samples

[TimingPoints]
455,441.176470588235,4,2,62,25,1,0
8837,-100,4,2,62,25,0,0
9278,-100,4,2,62,40,0,0
21426,441.176470588235,4,2,62,75,1,0
21426,-66.6666666666667,4,2,62,75,0,1
21646,-66.6666666666667,4,2,62,50,0,1
21867,-66.6666666666667,4,2,62,80,0,1
22198,-66.6666666666667,4,2,62,80,0,1
22308,-62.5,4,2,62,90,0,1
22381,-62.5,4,2,62,50,0,1
23190,-62.5,4,2,62,90,0,1
23264,-62.5,4,2,62,50,0,1
24073,-62.5,4,2,62,90,0,1
24146,-62.5,4,2,62,50,0,1
24955,-76.9230769230769,4,2,62,90,0,1
25028,-76.9230769230769,4,2,62,50,0,1
25396,-76.9230769230769,4,2,62,90,0,1
25470,-76.9230769230769,4,2,62,50,0,1
25837,-58.8235294117647,4,2,62,90,0,1
25911,-58.8235294117647,4,2,62,50,0,1
26720,-58.8235294117647,4,2,62,90,0,1
26793,-58.8235294117647,4,2,62,50,0,1
27602,-58.8235294117647,4,2,62,90,0,1
27675,-58.8235294117647,4,2,62,50,0,1
28484,-71.4285714285714,4,2,62,90,0,1
28558,-71.4285714285714,4,2,62,50,0,1
28925,-71.4285714285714,4,2,62,90,0,1
28999,-71.4285714285714,4,2,62,50,0,1
29367,-55.5555555555556,4,2,62,90,0,1
29440,-55.5555555555556,4,2,62,50,0,1
30249,-55.5555555555556,4,2,62,90,0,1
30323,-55.5555555555556,4,2,62,50,0,1
31131,-55.5555555555556,4,2,62,90,0,1
31205,-55.5555555555556,4,2,62,50,0,1
32014,-66.6666666666667,4,2,62,90,0,1
32087,-66.6666666666667,4,2,62,50,0,1
32455,-66.6666666666667,4,2,62,90,0,1
32528,-66.6666666666667,4,2,62,50,0,1
32896,-59.8802395209581,4,2,62,90,0,1
32970,-59.8802395209581,4,2,62,50,0,1
33337,-59.8802395209581,4,2,62,90,0,1
33411,-59.8802395209581,4,2,62,50,0,1
33778,-64.5161290322581,4,2,62,90,0,1
33852,-64.5161290322581,4,2,62,50,0,1
34220,-62.111801242236,4,2,62,90,0,1
34293,-62.111801242236,4,2,62,50,0,1
34661,-57.8034682080925,4,2,62,90,0,1
34734,-57.8034682080925,4,2,62,50,0,1
34881,-57.8034682080925,4,2,62,90,0,1
34955,-57.8034682080925,4,2,62,50,0,1
35102,-57.8034682080925,4,2,62,90,0,1
35175,-57.8034682080925,4,2,62,50,0,1
35323,-57.8034682080925,4,2,62,90,0,1
35396,-57.8034682080925,4,2,62,50,0,1
35470,-57.8034682080925,4,2,62,50,0,1
35543,-54.3478260869565,4,2,62,90,0,1
35984,-54.3478260869565,4,2,62,90,0,1
36058,-54.3478260869565,4,2,62,50,0,1
36205,-54.3478260869565,4,2,62,85,0,1
36425,-99.009900990099,4,2,62,90,0,0
36499,-99.009900990099,4,2,0,40,0,0
36646,-99.009900990099,4,2,62,40,0,0
50543,-200,4,2,62,25,0,0

[HitObjects]
256,192,2219,12,0,8837,0:0:0:0:
100,84,9278,6,0,B|91:122|113:154|113:154|140:190|129:237,1,140,2|2,0:0|0:0,0:0:0:0:
117,97,10160,2,0,B|108:135|130:167|130:167|157:203|146:250,1,140,2|2,0:0|0:0,0:0:0:0:
308,176,11043,6,0,L|300:258,1,70,2|0,0:0|0:0,0:0:0:0:
324,160,11484,2,0,L|316:242,1,70,2|0,0:0|0:0,0:0:0:0:
436,176,11925,6,0,L|428:258,1,70,2|0,0:0|0:0,0:0:0:0:
452,160,12366,2,0,L|444:242,1,70,2|0,0:0|0:0,0:0:0:0:
260,331,12807,6,0,P|216:284|236:216,1,140,2|2,0:0|0:0,0:0:0:0:
244,348,13690,2,0,P|199:300|219:232,1,140,2|2,0:0|0:0,0:0:0:0:
184,104,14572,6,0,P|192:137|215:163,1,70,2|0,0:0|0:0,0:0:0:0:
168,119,15013,2,0,P|176:152|199:178,1,70,2|0,0:0|0:0,0:0:0:0:
60,104,15454,6,0,P|68:137|91:163,1,70,2|0,0:0|0:0,0:0:0:0:
44,119,15895,2,0,P|52:152|75:178,1,70,2|0,0:0|0:0,0:0:0:0:
336,112,16337,6,0,P|280:112|320:136,1,140,2|2,0:0|0:0,0:0:0:0:
352,128,17219,2,0,P|296:128|336:152,1,140,2|2,0:0|0:0,0:0:0:0:
144,240,18102,6,0,B|180:212|180:212|186:188,1,70,2|0,0:0|0:0,0:0:0:0:
160,256,18543,2,0,B|196:228|196:228|202:204,1,70,2|0,0:0|0:0,0:0:0:0:
348,288,18984,6,0,B|312:260|312:260|305:236,1,70,2|0,0:0|0:0,0:0:0:0:
332,304,19425,2,0,B|296:276|296:276|289:252,1,70,2|0,0:0|0:0,0:0:0:0:
159,140,19866,6,0,B|136:156|136:188|136:188|176:212|177:257,3,140,2|2|2|2,0:0|0:0|0:0|0:0,0:0:0:0:
96,296,21426,6,0,P|124:320|176:332,1,70.0000026702882,8|8,0:0|0:0,0:0:0:0:
176,328,21646,2,0,L|200:300,2,35.0000013351441,0|0|0,1:0|1:0|1:0,0:0:0:0:
212,324,21867,6,0,P|248:336|272:332,3,52.5000020027161,10|10|10|10,0:0|0:0|0:0|0:0,0:0:0:0:
288,324,22308,5,6,0:0:0:0:
288,324,22381,1,0,1:0:0:0:
288,324,22455,2,0,L|326:328,8,37.3333333333333,0|0|0|0|0|0|0|0|0,1:0|1:0|1:0|1:0|1:0|1:0|1:0|1:0|1:0,1:0:0:0:
400,330,23190,6,0,P|425:279|330:186,1,186.666666666667,6|0,0:0|1:0,1:0:0:0:
333,170,23631,2,0,P|351:153|385:148,4,37.3333333333333,0|0|0|0|0,1:0|1:0|1:0|1:0|1:0,1:0:0:0:
405,77,24073,6,0,L|372:53,10,37.3333333333333,6|0|0|0|0|0|0|0|0|0|0,0:0|1:0|1:0|1:0|1:0|1:0|1:0|1:0|1:0|1:0|1:0,0:0:0:0:
293,81,24955,5,6,0:0:0:0:
293,81,25028,1,0,1:0:0:0:
293,81,25102,2,0,L|265:128,2,30.3333319447836,0|0|0,1:0|1:0|1:0,0:0:0:0:
215,174,25396,5,6,0:0:0:0:
215,174,25469,1,0,1:0:0:0:
215,174,25543,2,0,L|243:221,2,30.3333319447836,0|0|0,1:0|1:0|1:0,0:0:0:0:
174,279,25837,5,6,0:0:0:0:
174,279,25911,1,0,1:0:0:0:
174,279,25984,2,0,L|137:297,8,39.6666674232483,0|0|0|0|0|0|0|0|0,1:0|1:0|1:0|1:0|1:0|1:0|1:0|1:0|1:0,0:0:0:0:
62,262,26720,6,0,P|47:221|54:180,1,79.3333348464966,6|0,0:0|1:0,0:0:0:0:
62,161,26940,2,0,P|81:146|103:137,7,39.6666674232483,0|0|0|0|0|0|0|0,1:0|1:0|1:0|1:0|1:0|1:0|1:0|1:0,0:0:0:0:
166,82,27602,6,0,L|207:99,4,39.6666674232483,6|0|0|0|0,0:0|1:0|1:0|1:0|1:0,0:0:0:0:
250,169,28043,2,0,L|291:152,4,39.6666674232483,0|0|0|0|0,1:0|1:0|1:0|1:0|1:0,0:0:0:0:
365,210,28484,5,6,0:0:0:0:
365,210,28558,1,0,1:0:0:0:
365,210,28631,2,0,L|362:252,2,32.6666656697591,0|0|0,1:0|1:0|1:0,0:0:0:0:
282,265,28925,5,6,0:0:0:0:
282,265,28999,1,0,1:0:0:0:
282,265,29072,2,0,L|268:304,2,32.6666656697591,0|0|0,1:0|1:0|1:0,0:0:0:0:
182,300,29367,5,6,0:0:0:0:
182,300,29441,1,0,1:0:0:0:
181,300,29514,2,0,P|175:319|159:333,8,41.9999987182618,0|0|0|0|0|0|0|0|0,1:0|1:0|1:0|1:0|1:0|1:0|1:0|1:0|1:0,0:0:0:0:
107,236,30249,6,0,B|135:184|135:184|160:174,1,83.9999974365235,6|0,0:0|1:0,0:0:0:0:
183,190,30470,2,0,B|208:169|208:169|209:154,7,41.9999987182618,0|0|0|0|0|0|0|0,1:0|1:0|1:0|1:0|1:0|1:0|1:0|1:0,0:0:0:0:
256,66,31131,6,0,B|271:69|271:69|294:92,10,41.9999987182618,6|0|0|0|0|0|0|0|0|0|0,0:0|1:0|1:0|1:0|1:0|1:0|1:0|1:0|1:0|1:0|1:0,0:0:0:0:
349,159,32014,6,0,L|274:207,2,70.0000026702882,14|0|0,0:0|1:0|1:0,0:0:0:0:
385,248,32455,2,0,L|460:296,2,70.0000026702882,6|0|0,0:0|1:0|1:0,0:0:0:0:
309,279,32896,6,0,L|303:337,10,38.9666654477692,6|0|0|0|0|0|6|0|0|0|0,0:0|1:0|1:0|1:0|1:0|1:0|0:0|1:0|1:0|1:0|1:0,0:0:0:0:
218,260,33778,5,6,0:0:0:0:
218,260,33852,1,0,0:0:0:0:
218,260,33925,2,0,L|212:318,2,36.1666669425964,0|0|0,0:0|1:0|1:0,0:0:0:0:
135,228,34220,5,6,0:0:0:0:
135,228,34294,1,0,0:0:0:0:
135,228,34367,2,0,L|129:286,2,37.5666667239889,0|0|0,0:0|1:0|1:0,0:0:0:0:
80,160,34661,6,0,L|121:135,11,40.366667652181,6|0|0|6|0|0|6|0|0|6|0|0,0:0|1:0|1:0|0:0|1:0|1:0|0:0|1:0|1:0|0:0|1:0|1:0,0:0:0:0:
138,157,35543,6,0,L|184:168,2,42.9333318920899,14|8|8,0:0|0:0|0:0,0:0:0:0:
327,250,35984,6,0,L|373:239,5,42.9333318920899,14|8|8|8|8|8,0:0|0:0|0:0|0:0|0:0|0:0,0:0:0:0:
393,263,36425,6,0,B|416:247|416:215|416:215|375:190|374:145,3,141.399997195129,6|2|2|2,0:0|0:0|0:0|0:0,0:0:0:0:
232,72,38190,6,0,B|252:113|252:113|274:124,1,70.6999985975647,2|0,0:0|0:0,0:0:0:0:
213,84,38631,2,0,B|233:125|233:125|255:136,1,70.6999985975647,2|0,0:0|0:0,0:0:0:0:
139,171,39072,6,0,B|159:212|159:212|181:224,1,70.6999985975647,2|0,0:0|0:0,0:0:0:0:
120,183,39513,2,0,B|140:224|140:224|162:236,1,70.6999985975647,2|0,0:0|0:0,0:0:0:0:
292,294,39955,6,0,P|300:349|318:306,1,141.399997195129,2|2,0:0|0:0,0:0:0:0:
305,275,40837,2,0,P|313:330|331:287,1,141.399997195129,2|2,0:0|0:0,0:0:0:0:
348,155,41720,6,0,P|356:188|379:215,1,70.6999985975647,2|0,0:0|0:0,0:0:0:0:
332,170,42161,2,0,P|340:204|363:230,1,70.6999985975647,2|0,0:0|0:0,0:0:0:0:
227,196,42602,6,0,P|219:162|196:136,1,70.6999985975647,2|0,0:0|0:0,0:0:0:0:
243,180,43043,2,0,P|235:147|212:121,1,70.6999985975647,2|0,0:0|0:0,0:0:0:0:
59,176,43484,6,0,P|119:154|173:200,1,141.399997195129,2|2,0:0|0:0,0:0:0:0:
49,152,44367,2,0,P|111:130|165:176,1,141.399997195129,2|2,0:0|0:0,0:0:0:0:
155,259,45249,6,0,L|73:251,1,70.6999985975647,2|0,0:0|0:0,0:0:0:0:
171,275,45690,2,0,L|89:267,1,70.6999985975647,2|0,0:0|0:0,0:0:0:0:
316,321,46131,6,0,L|234:313,1,70.6999985975647,2|0,0:0|0:0,0:0:0:0:
332,337,46572,2,0,L|250:329,1,70.6999985975647,2|0,0:0|0:0,0:0:0:0:
385,222,47014,6,0,B|358:193|319:194|319:194|274:196|241:161,1,141.399997195129,2|2,0:0|0:0,0:0:0:0:
364,229,47896,2,0,B|337:200|298:201|298:201|253:203|220:168,1,141.399997195129,2|2,0:0|0:0,0:0:0:0:
133,275,48778,6,0,B|160:304|199:303|199:303|244:301|277:336,1,141.399997195129,2|2,0:0|0:0,0:0:0:0:
154,268,49660,2,0,B|181:297|220:296|220:296|265:294|298:329,1,141.399997195129,2|2,0:0|0:0,0:0:0:0:
256,192,50543,5,2,0:0:0:0:
256,192,50653,12,0,55837,0:0:0:0:
