osu file format v14

[General]
AudioFilename: audio.mp3
AudioLeadIn: 0
PreviewTime: 21426
Countdown: 0
SampleSet: Soft
StackLeniency: 0.2
Mode: 0
LetterboxInBreaks: 0
WidescreenStoryboard: 0

[Editor]
DistanceSpacing: 0.4
BeatDivisor: 4
GridSize: 8
TimelineZoom: 2.899999

[Metadata]
Title:Hidamari no Uta (Ringtone Ver.)
TitleUnicode:陽だまりの詩 (Ringtone ver.)
Artist:Yuyoyuppe
ArtistUnicode:ゆよゆっぺ
Creator:Nice Aesthetics
Version:entsetzen's Expert
Source:
Tags:
BeatmapID:2262752
BeatmapSetID:999373

[Difficulty]
HPDrainRate:5.1
CircleSize:3.9
OverallDifficulty:8.1
ApproachRate:8.6
SliderMultiplier:1.4
SliderTickRate:2

[Events]
//Background and Video events
0,0,"bg.png",0,0
//Break Periods
//Storyboard Layer 0 (Background)
//Storyboard Layer 1 (Fail)
//Storyboard Layer 2 (Pass)
//Storyboard Layer 3 (Foreground)
//Storyboard Layer 4 (Overlay)
//Storyboard Sound Samples

[TimingPoints]
455,441.176470588235,4,2,62,25,1,0
8837,-100,4,2,62,25,0,0
9278,-100,4,2,62,40,0,0
21426,441.176470588235,4,2,62,75,1,0
21426,-66.6666666666667,4,2,62,75,0,1
21646,-66.6666666666667,4,2,62,50,0,1
21867,-66.6666666666667,4,2,62,80,0,1
22198,-66.6666666666667,4,2,62,80,0,0
22308,-50.251256281407,4,2,62,90,0,1
22381,-50.251256281407,4,2,62,50,0,1
23190,-50.251256281407,4,2,62,90,0,1
23264,-50.251256281407,4,2,62,50,0,1
24073,-50.251256281407,4,2,62,90,0,1
24146,-50.251256281407,4,2,62,50,0,1
24881,-50.251256281407,4,2,62,50,0,0
24955,-75.187969924812,4,2,62,90,0,1
25028,-75.187969924812,4,2,62,50,0,1
25323,-75.187969924812,4,2,62,50,0,0
25396,-60.2409638554217,4,2,62,90,0,1
25470,-60.2409638554217,4,2,62,50,0,1
25764,-60.2409638554217,4,2,62,50,0,0
25837,-47.6190476190476,4,2,62,90,0,1
25911,-47.6190476190476,4,2,62,50,0,1
26720,-47.6190476190476,4,2,62,90,0,1
26793,-47.6190476190476,4,2,62,50,0,1
27602,-47.6190476190476,4,2,62,90,0,1
27675,-47.6190476190476,4,2,62,50,0,1
28411,-47.6190476190476,4,2,62,50,0,0
28484,-47.6190476190476,4,2,62,90,0,1
28558,-47.6190476190476,4,2,62,50,0,1
28852,-47.6190476190476,4,2,62,50,0,0
28925,-47.6190476190476,4,2,62,90,0,1
28999,-47.6190476190476,4,2,62,50,0,1
29293,-47.6190476190476,4,2,62,50,0,0
29367,-44.4444444444445,4,2,62,90,0,1
29440,-44.4444444444445,4,2,62,50,0,1
30249,-44.4444444444445,4,2,62,90,0,1
30323,-44.4444444444445,4,2,62,50,0,1
31131,-44.4444444444445,4,2,62,90,0,1
31205,-44.4444444444445,4,2,62,50,0,1
31940,-47.39336492891,4,2,62,50,0,0
32014,-47.39336492891,4,2,62,90,0,1
32087,-47.39336492891,4,2,62,50,0,1
32381,-47.39336492891,4,2,62,50,0,0
32455,-47.39336492891,4,2,62,90,0,1
32528,-47.39336492891,4,2,62,50,0,1
32823,-47.39336492891,4,2,62,50,0,0
32896,-49.7512437810945,4,2,62,90,0,1
32970,-49.7512437810945,4,2,62,50,0,1
33337,-49.7512437810945,4,2,62,90,0,1
33411,-49.7512437810945,4,2,62,50,0,1
33778,-53.763440860215,4,2,62,90,0,1
33852,-53.763440860215,4,2,62,50,0,1
34220,-50.5050505050505,4,2,62,90,0,1
34293,-50.5050505050505,4,2,62,50,0,1
34661,-50.5050505050505,4,2,62,90,0,1
34734,-50.5050505050505,4,2,62,50,0,1
34881,-50.5050505050505,4,2,62,90,0,1
34955,-50.5050505050505,4,2,62,50,0,1
35102,-50.5050505050505,4,2,62,90,0,1
35175,-50.5050505050505,4,2,62,50,0,1
35323,-50.5050505050505,4,2,62,90,0,1
35396,-50.5050505050505,4,2,62,50,0,1
35470,-50.5050505050505,4,2,62,50,0,0
35543,-50.5050505050505,4,2,62,90,0,1
35984,-50.5050505050505,4,2,62,90,0,1
36058,-50.5050505050505,4,2,62,50,0,1
36205,-50.5050505050505,4,2,62,85,0,1
36352,-50.5050505050505,4,2,62,80,0,0
36425,-99.009900990099,4,2,62,90,0,1
36499,-99.009900990099,4,2,62,85,0,0
36646,-99.009900990099,4,2,62,40,0,0
50543,-200,4,2,62,25,0,0
50617,-200,4,2,2,20,0,0
50690,-200,4,2,62,15,0,0
50764,-200,4,2,2,10,0,0
55837,-200,4,2,62,5,0,0

[Colours]
Combo1 : 145,247,255
Combo2 : 45,135,189
Combo3 : 154,79,255
Combo4 : 234,28,177

[HitObjects]
256,192,2219,12,0,8837,0:0:0:0:
310,332,9278,6,0,P|340:251|326:184,1,140,2|2,0:0|0:0,0:0:0:0:
202,52,10160,2,0,P|171:132|186:200,1,140,2|2,0:0|0:0,0:0:0:0:
89,332,11043,6,0,L|156:314,1,70,2|0,0:0|0:0,0:0:0:0:
100,320,11484,2,0,L|167:302,1,70,2|0,0:0|0:0,0:0:0:0:
195,200,11925,6,0,L|262:218,1,70,2|0,0:0|0:0,0:0:0:0:
206,212,12366,2,0,L|273:230,1,70,2|0,0:0|0:0,0:0:0:0:
454,159,12807,6,0,L|433:237,1,70,2|0,0:0|0:0,0:0:0:0:
436,92,13249,2,0,L|456:170,1,70,2|0,0:0|0:0,0:0:0:0:
310,120,13690,5,2,0:0:0:0:
310,120,13910,1,0,0:0:0:0:
184,61,14131,5,2,0:0:0:0:
184,61,14351,1,0,0:0:0:0:
58,225,14572,6,0,L|79:147,1,70,2|0,0:0|0:0,0:0:0:0:
76,293,15014,2,0,L|56:215,1,70,2|0,0:0|0:0,0:0:0:0:
125,343,15454,2,0,L|68:286,1,70,2|0,0:0|0:0,0:0:0:0:
193,362,15896,2,0,L|115:341,1,70,2|0,0:0|0:0,0:0:0:0:
394,347,16337,5,2,0:0:0:0:
394,347,16557,1,0,0:0:0:0:
456,245,16778,5,2,0:0:0:0:
456,245,16998,1,0,0:0:0:0:
354,183,17219,5,2,0:0:0:0:
354,183,17439,1,0,0:0:0:0:
292,285,17661,5,2,0:0:0:0:
292,285,17881,1,0,0:0:0:0:
190,105,18102,6,0,L|172:183,3,70,2|0|2|0,0:0|0:0|0:0|0:0,0:0:0:0:
253,236,18984,2,0,L|271:314,3,70,2|0|2|0,0:0|0:0|0:0|0:0,0:0:0:0:
256,192,19866,12,0,21190,0:0:0:0:
121,276,21426,6,0,L|161:290,2,35.0000013351441,8|8|8,0:0|0:0|0:0,0:0:0:0:
204,210,21646,2,0,L|244:196,2,35.0000013351441,0|0|0,1:0|1:0|1:0,0:0:0:0:
306,310,21867,6,0,L|359:284,1,52.5000020027161,10|10,0:0|0:0,0:0:0:0:
369,147,22087,2,0,L|422:173,1,52.5000020027161,10|10,0:0|0:0,0:0:0:0:
444,256,22308,5,6,2:0:0:0:
435,272,22381,1,0,1:0:0:0:
422,285,22455,1,0,1:0:0:0:
405,293,22528,1,0,1:0:0:0:
387,298,22602,1,0,1:0:0:0:
368,299,22676,1,0,1:0:0:0:
349,297,22749,1,0,1:0:0:0:
331,289,22823,1,0,1:0:0:0:
318,275,22896,1,0,1:0:0:0:
309,258,22970,1,0,1:0:0:0:
303,240,23043,1,0,1:0:0:0:
299,221,23117,1,0,1:0:0:0:
296,202,23190,5,6,0:0:0:0:
292,183,23264,1,0,1:0:0:0:
285,165,23337,1,0,1:0:0:0:
277,148,23411,1,0,1:0:0:0:
266,132,23484,1,0,1:0:0:0:
252,119,23558,1,0,1:0:0:0:
235,110,23631,1,0,1:0:0:0:
217,104,23705,1,0,1:0:0:0:
198,101,23778,1,0,1:0:0:0:
179,100,23852,1,0,1:0:0:0:
160,102,23926,1,0,1:0:0:0:
142,108,23999,1,0,1:0:0:0:
128,120,24073,5,6,0:0:0:0:
137,135,24146,1,0,1:0:0:0:
144,152,24220,1,0,1:0:0:0:
145,170,24293,1,0,1:0:0:0:
142,188,24367,1,0,1:0:0:0:
134,204,24440,1,0,1:0:0:0:
121,217,24514,5,0,1:0:0:0:
134,229,24587,1,0,1:0:0:0:
150,237,24661,1,0,1:0:0:0:
167,241,24734,1,0,1:0:0:0:
185,240,24808,1,0,1:0:0:0:
202,234,24881,1,0,1:0:0:0:
218,225,24955,6,0,L|245:189,5,31.0333320547994,6|0|0|0|0|0,0:0|1:0|1:0|1:0|1:0|1:0,0:0:0:0:
248,210,25396,2,0,L|290:189,5,38.7333338948059,6|0|0|0|0|0,0:0|1:0|1:0|1:0|1:0|1:0,0:0:0:0:
301,199,25837,5,6,0:0:0:0:
320,200,25911,1,0,1:0:0:0:
338,194,25984,1,0,1:0:0:0:
354,182,26058,1,0,1:0:0:0:
364,165,26131,1,0,1:0:0:0:
367,145,26205,1,0,1:0:0:0:
364,125,26278,1,0,1:0:0:0:
355,107,26352,1,0,1:0:0:0:
339,95,26425,1,0,1:0:0:0:
320,88,26499,1,0,1:0:0:0:
300,86,26573,1,0,1:0:0:0:
281,91,26646,1,0,1:0:0:0:
264,102,26720,5,6,0:0:0:0:
253,118,26793,1,0,1:0:0:0:
250,137,26867,1,0,1:0:0:0:
253,156,26940,1,0,1:0:0:0:
261,173,27014,1,0,1:0:0:0:
273,187,27087,1,0,1:0:0:0:
290,195,27161,1,0,1:0:0:0:
309,198,27234,1,0,1:0:0:0:
328,198,27308,1,0,1:0:0:0:
346,192,27381,1,0,1:0:0:0:
364,186,27455,1,0,1:0:0:0:
383,183,27528,1,0,1:0:0:0:
402,185,27602,5,6,0:0:0:0:
419,192,27675,1,0,1:0:0:0:
433,205,27749,1,0,1:0:0:0:
442,222,27823,1,0,1:0:0:0:
448,240,27896,1,0,1:0:0:0:
449,259,27970,1,0,1:0:0:0:
446,278,28043,5,0,1:0:0:0:
437,295,28117,1,0,1:0:0:0:
423,309,28190,1,0,1:0:0:0:
404,316,28264,1,0,1:0:0:0:
384,316,28337,1,0,1:0:0:0:
364,312,28411,1,0,1:0:0:0:
339,308,28484,5,6,0:0:0:0:
314,308,28558,1,0,1:0:0:0:
289,308,28631,1,0,1:0:0:0:
264,308,28705,1,0,1:0:0:0:
239,308,28778,1,0,1:0:0:0:
214,308,28852,1,0,1:0:0:0:
189,308,28925,5,6,0:0:0:0:
211,297,28999,1,0,1:0:0:0:
233,286,29073,1,0,1:0:0:0:
255,275,29146,1,0,1:0:0:0:
277,264,29220,1,0,1:0:0:0:
299,253,29293,1,0,1:0:0:0:
321,239,29367,6,0,L|369:209,11,52.5000020027161,6|0|0|0|0|0|0|0|0|0|0|0,0:0|1:0|1:0|1:0|1:0|1:0|1:0|1:0|1:0|1:0|1:0|1:0,0:0:0:0:
382,199,30249,5,6,0:0:0:0:
398,185,30323,1,0,1:0:0:0:
413,170,30396,1,0,1:0:0:0:
427,154,30470,1,0,1:0:0:0:
437,136,30543,1,0,1:0:0:0:
440,115,30617,1,0,1:0:0:0:
434,95,30690,1,0,1:0:0:0:
419,80,30764,1,0,1:0:0:0:
399,74,30837,1,0,1:0:0:0:
378,77,30911,1,0,1:0:0:0:
358,85,30984,1,0,1:0:0:0:
348,103,31058,1,0,1:0:0:0:
338,121,31131,5,6,0:0:0:0:
325,103,31205,1,0,1:0:0:0:
309,88,31279,1,0,1:0:0:0:
288,82,31352,1,0,1:0:0:0:
266,83,31426,1,0,1:0:0:0:
248,94,31500,1,0,1:0:0:0:
236,111,31573,1,0,1:0:0:0:
233,131,31647,1,0,1:0:0:0:
239,150,31720,1,0,1:0:0:0:
250,167,31794,1,0,1:0:0:0:
266,180,31867,1,0,1:0:0:0:
283,192,31940,1,0,1:0:0:0:
301,199,32014,6,0,P|341:200|380:173,11,49.2333343475088,14|0|0|0|0|0|6|0|0|0|0|0,0:0|1:0|1:0|1:0|1:0|1:0|0:0|1:0|1:0|1:0|1:0|1:0,0:0:0:0:
367,200,32896,6,0,L|373:260,11,46.9000001789093,6|0|0|0|0|0|6|0|0|0|0|0,0:0|1:0|1:0|1:0|1:0|1:0|2:0|1:0|1:0|1:0|1:0|1:0,0:0:0:0:
355,252,33778,6,0,L|344:311,5,43.4000013575745,6|0|0|0|0|0,0:0|1:0|1:0|1:0|1:0|1:0,0:0:0:0:
328,290,34220,6,0,L|301:344,5,46.1999998590088,6|0|0|0|0|0,0:0|1:0|1:0|1:0|1:0|1:0,0:0:0:0:
293,333,34661,5,6,0:0:0:0:
279,333,34734,1,0,1:0:0:0:
265,333,34808,1,0,1:0:0:0:
251,333,34881,1,6,0:0:0:0:
237,333,34955,1,0,1:0:0:0:
223,333,35028,1,0,1:0:0:0:
209,333,35102,1,6,0:0:0:0:
195,333,35175,1,0,1:0:0:0:
181,333,35249,1,0,1:0:0:0:
167,333,35323,1,6,0:0:0:0:
153,333,35396,1,0,1:0:0:0:
139,333,35470,1,0,1:0:0:0:
125,333,35543,6,0,L|144:255,2,46.1999998590088,14|8|8,0:0|0:0|0:0,0:0:0:0:
131,141,35984,6,0,L|173:159,1,46.1999998590088,14|8,0:0|0:0,0:0:0:0:
156,116,36131,2,0,L|172:158,1,46.1999998590088,8|8,0:0|0:0,0:0:0:0:
191,116,36278,2,0,L|172:158,1,46.1999998590088,8|8,0:0|0:0,0:0:0:0:
238,134,36425,6,0,L|168:160,1,70.6999985975647,6|0,0:0|0:0,0:0:0:0:
274,250,36867,2,0,L|343:223,1,70.6999985975647,2|0,0:0|0:0,0:0:0:0:
198,210,37308,6,0,L|224:279,1,70.6999985975647,2|0,0:0|0:0,0:0:0:0:
314,174,37750,2,0,L|287:104,1,70.6999985975647,2|0,0:0|0:0,0:0:0:0:
112,68,38190,5,2,0:0:0:0:
112,68,38411,1,0,0:0:0:0:
153,148,38631,5,2,0:0:0:0:
153,148,38852,1,0,0:0:0:0:
112,236,39073,5,2,0:0:0:0:
112,236,39294,1,0,0:0:0:0:
153,316,39514,5,2,0:0:0:0:
153,316,39735,1,0,0:0:0:0:
408,249,39955,6,0,L|396:147,3,70.6999985975647,2|0|2|0,0:0|0:0|0:0|0:0,0:0:0:0:
307,135,40837,2,0,L|319:33,3,70.6999985975647,2|0|2|0,0:0|0:0|0:0|0:0,0:0:0:0:
165,207,41720,5,2,0:0:0:0:
262,189,41940,1,0,0:0:0:0:
161,207,42161,5,2,0:0:0:0:
260,215,42381,1,0,0:0:0:0:
157,207,42602,5,2,0:0:0:0:
250,240,42822,1,0,0:0:0:0:
153,207,43043,5,2,0:0:0:0:
234,262,43263,1,0,0:0:0:0:
102,114,43484,6,0,L|172:82,1,70.6999985975647,2|0,0:0|0:0,0:0:0:0:
61,171,43925,2,0,L|105:108,1,70.6999985975647,2|0,0:0|0:0,0:0:0:0:
54,241,44367,2,0,L|61:164,1,70.6999985975647,2|0,0:0|0:0,0:0:0:0:
83,305,44808,2,0,L|51:234,1,70.6999985975647,2|0,0:0|0:0,0:0:0:0:
360,129,45249,6,0,L|401:194,1,70.6999985975647,2|0,0:0|0:0,0:0:0:0:
297,95,45690,2,0,L|359:127,1,70.6999985975647,2|0,0:0|0:0,0:0:0:0:
184,102,46131,5,2,0:0:0:0:
184,102,46352,1,0,0:0:0:0:
91,167,46573,5,2,0:0:0:0:
91,167,46794,1,0,0:0:0:0:
261,352,47014,6,0,L|272:274,1,70.6999985975647,2|0,0:0|0:0,0:0:0:0:
277,340,47455,2,0,L|288:262,1,70.6999985975647,2|0,0:0|0:0,0:0:0:0:
176,289,47896,6,0,L|165:211,1,70.6999985975647,2|0,0:0|0:0,0:0:0:0:
160,277,48337,2,0,L|149:199,1,70.6999985975647,2|0,0:0|0:0,0:0:0:0:
146,127,48778,6,0,P|210:100|279:111,1,141.399997195129,2|2,0:0|0:0,0:0:0:0:
366,257,49661,2,0,P|301:283|232:272,1,141.399997195129,2|2,0:0|0:0,0:0:0:0:
237,141,50543,6,0,L|292:77|292:77|298:162|298:162|379:192|379:192|299:224|299:224|295:310|295:310|238:244|238:244|154:266|154:266|199:192|199:192|151:118|151:118|235:137,1,840,2|0,0:0|0:0,0:0:0:0:
