osu file format v14

[General]
AudioFilename: audio.mp3
AudioLeadIn: 0
PreviewTime: -1
Countdown: 1
SampleSet: None
StackLeniency: 0.7
Mode: 0
LetterboxInBreaks: 0
WidescreenStoryboard: 0

[Editor]
DistanceSpacing: 0.8
BeatDivisor: 3
GridSize: 16
TimelineZoom: 1

[Metadata]
Title:Hidamari no Uta
TitleUnicode:陽だまりの詩
Artist:Yuyoyuppe
ArtistUnicode:ゆよゆっぺ
Creator:CanDyFloS
Version:vvvvbvvv>?>??>?
Source:
Tags:Motoloid
BeatmapID:1566960
BeatmapSetID:742970

[Difficulty]
HPDrainRate:7
CircleSize:5
OverallDifficulty:10
ApproachRate:8
SliderMultiplier:1.4
SliderTickRate:1

[Events]
//Background and Video events
//Break Periods
//Storyboard Layer 0 (Background)
//Storyboard Layer 1 (Fail)
//Storyboard Layer 2 (Pass)
//Storyboard Layer 3 (Foreground)
//Storyboard Sound Samples

[TimingPoints]
4817,468.75,4,2,0,100,1,0

[HitObjects]
88,251,1848,6,0,L|220:152,1,140
173,290,2473,2,0,L|266:177,4,140
373,80,4660,1,0,0:0:0:0:
225,153,5285,1,0,0:0:0:0:
182,130,5598,1,0,0:0:0:0:
288,60,6067,1,0,0:0:0:0:
348,156,6223,1,0,0:0:0:0:
368,178,6692,1,0,0:0:0:0:
456,189,7160,1,0,0:0:0:0:
338,256,7629,1,0,0:0:0:0:
326,41,7942,1,0,0:0:0:0:
199,256,8098,1,0,0:0:0:0:
348,181,8410,1,0,0:0:0:0:
132,167,8567,1,0,0:0:0:0:
196,200,8879,1,0,0:0:0:0:
169,92,9035,1,0,0:0:0:0:
299,98,9348,1,0,0:0:0:0:
413,98,9504,1,0,0:0:0:0:
340,217,9817,1,0,0:0:0:0:
241,278,10285,1,0,0:0:0:0:
82,210,10910,1,0,0:0:0:0:
232,278,11223,1,0,0:0:0:0:
283,168,11692,1,0,0:0:0:0:
351,182,11848,1,0,0:0:0:0:
429,246,12160,1,0,0:0:0:0:
100,130,12317,1,0,0:0:0:0:
202,307,12629,1,0,0:0:0:0:
342,126,12785,1,0,0:0:0:0:
277,195,13098,1,0,0:0:0:0:
458,202,13567,1,0,0:0:0:0:
258,285,14035,1,0,0:0:0:0:
82,79,14192,1,0,0:0:0:0:
272,42,14504,1,0,0:0:0:0:
112,223,14660,1,0,0:0:0:0:
383,188,14973,1,0,0:0:0:0:
277,91,15442,1,0,0:0:0:0:
134,175,15598,1,0,0:0:0:0:
205,200,15910,1,0,0:0:0:0:
301,294,16379,1,0,0:0:0:0:
381,118,16848,1,0,0:0:0:0:
299,126,17317,1,0,0:0:0:0:
181,64,17785,1,0,0:0:0:0:
276,74,17942,1,0,0:0:0:0:
237,106,18410,1,0,0:0:0:0:
210,60,18879,1,0,0:0:0:0:
188,147,19348,1,0,0:0:0:0:
268,88,19817,1,0,0:0:0:0:
299,125,19973,1,0,0:0:0:0:
333,172,20129,1,0,0:0:0:0:
282,226,20285,1,0,0:0:0:0:
220,214,20598,1,0,0:0:0:0:
181,134,20754,1,0,0:0:0:0:
214,91,20910,1,0,0:0:0:0:
292,77,21223,1,0,0:0:0:0:
357,118,21379,1,0,0:0:0:0:
369,186,21535,1,0,0:0:0:0:
301,255,21848,1,0,0:0:0:0:
218,243,22004,1,0,0:0:0:0:
193,135,22317,1,0,0:0:0:0:
237,59,22473,1,0,0:0:0:0:
294,46,22629,1,0,0:0:0:0:
360,121,22942,1,0,0:0:0:0:
317,223,23098,1,0,0:0:0:0:
225,252,23410,1,0,0:0:0:0:
197,182,23567,1,0,0:0:0:0:
198,129,23723,1,0,0:0:0:0:
206,79,24035,1,0,0:0:0:0:
241,47,24192,1,0,0:0:0:0:
338,84,24348,1,0,0:0:0:0:
288,165,24660,1,0,0:0:0:0:
255,223,24817,1,0,0:0:0:0:
213,211,25129,1,0,0:0:0:0:
197,147,25285,1,0,0:0:0:0:
203,89,25442,1,0,0:0:0:0:
273,40,25754,1,0,0:0:0:0:
330,56,25910,1,0,0:0:0:0:
360,131,26067,1,0,0:0:0:0:
251,215,26379,1,0,0:0:0:0:
190,214,26535,1,0,0:0:0:0:
179,161,26848,1,0,0:0:0:0:
188,107,27004,1,0,0:0:0:0:
234,53,27317,1,0,0:0:0:0:
319,137,27473,1,0,0:0:0:0:
299,241,27629,1,0,0:0:0:0:
180,260,27942,1,0,0:0:0:0:
136,192,28254,2,0,L|245:120,1,93.3333333333333
58,129,29035,1,0,0:0:0:0:
154,112,29348,1,0,0:0:0:0:
214,92,29504,1,0,0:0:0:0:
265,116,29660,1,0,0:0:0:0:
289,184,29973,1,0,0:0:0:0:
229,279,30129,1,0,0:0:0:0:
154,267,30285,1,0,0:0:0:0:
145,180,30598,1,0,0:0:0:0:
161,124,30754,1,0,0:0:0:0:
226,93,31067,1,0,0:0:0:0:
292,119,31223,1,0,0:0:0:0:
307,193,31379,1,0,0:0:0:0:
246,267,31692,1,0,0:0:0:0:
173,177,32004,1,0,0:0:0:0:
208,120,32160,1,0,0:0:0:0:
246,120,32317,1,0,0:0:0:0:
288,160,32629,1,0,0:0:0:0:
269,212,32785,1,0,0:0:0:0:
276,109,32942,1,0,0:0:0:0:
235,285,33254,2,0,L|346:193,1,140
195,129,33723,1,0,0:0:0:0:
191,226,34192,1,0,0:0:0:0:
305,150,34660,1,0,0:0:0:0:
349,110,34817,1,0,0:0:0:0:
404,104,34973,1,0,0:0:0:0:
426,209,35129,1,0,0:0:0:0:
249,261,35442,1,0,0:0:0:0:
146,89,35598,1,0,0:0:0:0:
88,183,36692,1,0,0:0:0:0:
223,126,36848,1,0,0:0:0:0:
372,136,37004,1,0,0:0:0:0:
422,209,37317,1,0,0:0:0:0:
262,249,37473,1,0,0:0:0:0:
83,188,37629,1,0,0:0:0:0:
133,122,37785,1,0,0:0:0:0:
248,62,37942,1,0,0:0:0:0:
369,132,38254,1,0,0:0:0:0:
367,198,38410,1,0,0:0:0:0:
139,195,38567,1,0,0:0:0:0:
106,113,38723,1,0,0:0:0:0:
212,154,39035,1,0,0:0:0:0:
471,134,40129,1,0,0:0:0:0:
309,160,40754,1,0,0:0:0:0:
310,151,40910,1,0,0:0:0:0:
342,132,41067,1,0,0:0:0:0:
366,111,41223,1,0,0:0:0:0:
242,170,42629,1,0,0:0:0:0:
279,165,42785,1,0,0:0:0:0:
338,153,42942,1,0,0:0:0:0:
409,149,43098,1,0,0:0:0:0:
420,152,43254,1,0,0:0:0:0:
427,180,43410,1,0,0:0:0:0:
376,221,43567,1,0,0:0:0:0:
257,237,43723,1,0,0:0:0:0:
192,237,43879,1,0,0:0:0:0:
192,237,44035,1,0,0:0:0:0:
186,233,44192,1,0,0:0:0:0:
221,151,44504,1,0,0:0:0:0:
244,132,44660,1,0,0:0:0:0:
304,97,44817,1,0,0:0:0:0:
350,140,44973,1,0,0:0:0:0:
288,166,45129,1,0,0:0:0:0:
183,194,45285,1,0,0:0:0:0:
197,119,45442,1,0,0:0:0:0:
281,95,45598,1,0,0:0:0:0:
306,148,45910,1,0,0:0:0:0:
254,199,46067,1,0,0:0:0:0:
179,147,46223,1,0,0:0:0:0:
263,113,46535,1,0,0:0:0:0:
348,177,46692,1,0,0:0:0:0:
211,188,46848,1,0,0:0:0:0:
180,103,47160,1,0,0:0:0:0:
377,118,47317,1,0,0:0:0:0:
390,232,47473,1,0,0:0:0:0:
125,85,48410,1,0,0:0:0:0:
214,80,48567,1,0,0:0:0:0:
280,76,48723,1,0,0:0:0:0:
360,108,48879,1,0,0:0:0:0:
359,175,49035,1,0,0:0:0:0:
280,249,49348,1,0,0:0:0:0:
194,258,49504,1,0,0:0:0:0:
165,212,49817,1,0,0:0:0:0:
159,164,49973,1,0,0:0:0:0:
162,124,50129,1,0,0:0:0:0:
181,68,50442,1,0,0:0:0:0:
207,56,50598,1,0,0:0:0:0:
271,68,50754,1,0,0:0:0:0:
297,121,51067,1,0,0:0:0:0:
284,157,51223,1,0,0:0:0:0:
263,201,51379,1,0,0:0:0:0:
239,238,51692,1,0,0:0:0:0:
256,282,51848,1,0,0:0:0:0:
344,283,52160,1,0,0:0:0:0:
339,216,52317,1,0,0:0:0:0:
304,144,52629,1,0,0:0:0:0:
279,85,52785,1,0,0:0:0:0:
423,82,52942,1,0,0:0:0:0:
446,167,53098,1,0,0:0:0:0:
