osu file format v14

[General]
AudioFilename: audio.mp3
AudioLeadIn: 0
PreviewTime: 79985
Countdown: 0
SampleSet: Soft
StackLeniency: 0.8
Mode: 0
LetterboxInBreaks: 0
WidescreenStoryboard: 1

[Editor]
Bookmarks: 41683,80083,118483,144083,150483,156883,182483,188083,195283,220883
DistanceSpacing: 1
BeatDivisor: 8
GridSize: 32
TimelineZoom: 1

[Metadata]
Title:Gerbera
TitleUnicode:Gerbera
Artist:Yuyoyuppe
ArtistUnicode:ゆよゆっぺ
Creator:Seto Kousuke
Version:Senhor's Hard
Source:
Tags:Draw the Emotional meola 巡音ルカ Megurine Luka vocaloid novelty japanese SrSkyPlayer Senhor
BeatmapID:1875198
BeatmapSetID:897583

[Difficulty]
HPDrainRate:4
CircleSize:3.8
OverallDifficulty:6
ApproachRate:7
SliderMultiplier:3.4
SliderTickRate:1

[Events]
//Background and Video events
0,0,"gerbera.jpg",0,0
//Break Periods
2,144283,149583
2,182683,187183
//Storyboard Layer 0 (Background)
//Storyboard Layer 1 (Fail)
//Storyboard Layer 2 (Pass)
//Storyboard Layer 3 (Foreground)
//Storyboard Sound Samples

[TimingPoints]
3283,800,4,2,2,40,1,0
3283,-200,4,2,2,40,0,0
40683,-200,4,2,2,30,0,0
41083,-200,4,2,2,40,0,0
41683,-166.666666666667,4,2,2,60,0,0
79183,-166.666666666667,4,2,2,5,0,0
80083,-100,4,2,1,90,0,1
118483,-125,4,2,1,70,0,0
150483,-117.647058823529,4,2,1,70,0,0
156883,-117.647058823529,4,2,1,80,0,0
188083,-100,4,2,1,80,0,0
195283,-100,4,2,1,90,0,1
220883,-100,4,2,1,90,0,0
220983,-100,4,2,1,80,0,0
221683,-100,4,2,1,70,0,0
223283,-100,4,2,1,60,0,0
224883,-100,4,2,1,50,0,0
225683,-100,4,2,1,45,0,0
226483,-100,4,2,1,40,0,0
227283,-100,4,2,1,35,0,0
228083,-100,4,2,1,30,0,0
228883,-100,4,2,1,25,0,0
229683,-100,4,2,1,20,0,0
230483,-100,4,2,1,30,0,0
231283,-100,4,2,1,40,0,0
232083,-100,4,2,1,50,0,0
232883,-100,4,2,1,60,0,0
233683,-100,4,2,1,5,0,0

[Colours]
Combo1 : 205,139,139
Combo2 : 219,211,168
Combo3 : 129,114,119
Combo4 : 111,143,80
Combo5 : 191,165,166
Combo6 : 137,180,122
Combo7 : 184,82,95
Combo8 : 206,204,119

[HitObjects]
63,80,3283,6,0,B|153:72|123:148|213:140,1,170,2|0,0:0|0:0,0:0:0:0:
280,88,4483,1,0,0:0:0:0:
348,36,4883,6,0,L|438:28,1,85,0|0,0:0|0:0,0:0:0:0:
441,113,5683,2,0,L|351:121,1,85,0|0,0:0|0:0,0:0:0:0:
313,194,6483,6,0,B|287:235|287:235|314:361,1,170,2|0,0:0|0:0,0:0:0:0:
396,337,7683,1,0,0:0:0:0:
479,320,8083,6,0,B|505:279|505:279|478:153,1,170
505,79,9283,1,0,0:0:0:0:
450,13,9683,6,0,P|421:49|424:104,1,85,2|0,0:0|0:0,0:0:0:0:
336,108,10483,2,0,P|301:83|259:82,1,85,0|0,0:0|0:0,0:0:0:0:
181,116,11283,5,2,0:0:0:0:
129,48,11683,1,0,0:0:0:0:
61,100,12083,1,2,0:0:0:0:
113,168,12483,1,0,0:0:0:0:
29,181,12883,6,0,L|22:282,1,85,2|0,0:0|0:0,0:0:0:0:
86,322,13683,2,0,P|121:297|163:296,1,85,0|0,0:0|0:0,0:0:0:0:
230,345,14483,5,2,0:0:0:0:
242,260,14883,1,0,0:0:0:0:
309,312,15283,1,2,0:0:0:0:
321,227,15683,1,0,0:0:0:0:
389,277,16083,6,0,B|473:332|473:332|502:311|511:266,1,170,2|0,0:0|0:0,0:0:0:0:
473,197,17283,1,0,0:0:0:0:
482,112,17683,6,0,B|392:104|422:180|332:172,1,170,0|0,0:0|0:0,0:0:0:0:
338,87,18883,1,0,0:0:0:0:
261,123,19283,6,0,B|234:67|281:17|281:17|225:3,1,170,2|0,0:0|0:0,0:0:0:0:
147,29,20483,1,0,0:0:0:0:
65,54,20883,6,0,P|52:98|75:148,1,85,0|0,0:0|0:0,0:0:0:0:
135,178,21683,2,0,P|148:222|125:272,1,85,0|0,0:0|0:0,0:0:0:0:
184,328,22483,5,2,0:0:0:0:
225,253,22883,1,0,0:0:0:0:
300,294,23283,1,0,0:0:0:0:
259,369,23683,1,0,0:0:0:0:
343,371,24083,6,0,L|427:382,1,85,2|0,0:0|0:0,0:0:0:0:
499,336,24883,2,0,P|510:295|497:255,1,85,2|0,0:0|0:0,0:0:0:0:
449,185,25683,5,2,0:0:0:0:
495,113,26083,1,0,0:0:0:0:
442,46,26483,1,0,0:0:0:0:
361,72,26883,1,0,0:0:0:0:
355,156,27283,6,0,B|295:155|295:155|262:192|262:192|200:193,1,170,2|2,0:0|0:0,0:0:0:0:
171,113,28483,1,2,0:0:0:0:
91,83,28883,5,2,0:0:0:0:
22,137,29283,1,0,0:0:0:0:
102,167,29683,1,0,0:0:0:0:
33,221,30083,1,0,0:0:0:0:
62,300,30483,6,0,B|152:292|122:368|212:360,1,170,2|2,0:0|0:0,0:0:0:0:
276,304,31683,1,0,0:0:0:0:
347,349,32083,6,0,P|361:309|351:269,1,85,2|0,0:0|0:0,0:0:0:0:
412,209,32883,2,0,P|448:230|489:227,1,85,0|0,0:0|0:0,0:0:0:0:
504,143,33683,6,0,B|512:28|512:28|447:-2,1,170,2|2,0:0|0:0,0:0:0:0:
383,36,34883,1,0,0:0:0:0:
300,14,35283,5,2,0:0:0:0:
321,96,35683,1,0,0:0:0:0:
238,73,36083,2,0,L|138:43,1,85,0|0,0:0|0:0,0:0:0:0:
105,116,36883,6,0,L|23:140,1,85,0|0,0:0|0:0,0:0:0:0:
63,215,37683,1,2,0:0:0:0:
11,282,38083,1,0,0:0:0:0:
94,295,38483,6,0,P|135:302|165:331,1,85,2|0,0:0|0:0,0:0:0:0:
240,371,39283,1,0,0:0:0:0:
239,286,39683,1,0,0:0:0:0:
315,323,40083,6,0,P|326:282|312:243,1,85,2|0,0:0|0:0,0:0:0:0:
237,202,40883,1,0,0:0:0:0:
329,43,41683,6,0,P|347:85|325:151,1,101.999996887207,2|0,0:0|0:0,0:0:0:0:
397,205,42483,2,0,P|443:198|500:236,1,101.999996887207,0|0,0:0|0:0,0:0:0:0:
511,312,43283,5,2,0:0:0:0:
441,371,43683,1,0,0:0:0:0:
431,279,44083,1,0,0:0:0:0:
361,338,44483,1,0,0:0:0:0:
284,286,44883,6,0,B|176:276|212:367|104:357,1,203.999993774414,2|0,0:0|0:0,0:0:0:0:
34,296,46083,1,0,0:0:0:0:
42,203,46483,6,0,P|89:219|119:260,1,101.999996887207,2|0,0:0|0:0,0:0:0:0:
195,208,47283,2,0,P|209:159|194:111,1,101.999996887207,0|0,0:0|0:0,0:0:0:0:
158,27,48083,6,0,L|50:13,1,101.999996887207,2|0,0:0|0:0,0:0:0:0:
2,88,48883,2,0,L|110:102,1,101.999996887207,0|0,0:0|0:0,0:0:0:0:
194,111,49683,5,2,0:0:0:0:
249,37,50083,1,0,0:0:0:0:
158,27,50483,1,2,0:0:0:0:
103,101,50883,1,0,0:0:0:0:
194,111,51283,6,0,L|295:124,1,101.999996887207,2|0,0:0|0:0,0:0:0:0:
356,55,52083,2,0,P|384:96|384:147,1,101.999996887207,0|0,0:0|0:0,0:0:0:0:
449,211,52883,5,2,0:0:0:0:
385,276,53283,1,0,0:0:0:0:
320,212,53683,1,2,0:0:0:0:
384,147,54083,1,0,0:0:0:0:
449,211,54483,6,0,P|474:248|465:317,1,101.999996887207,2|0,0:0|0:0,0:0:0:0:
403,363,55283,2,0,L|288:378,1,101.999996887207,0|0,0:0|0:0,0:0:0:0:
241,307,56083,5,2,0:0:0:0:
173,369,56483,1,0,0:0:0:0:
111,301,56883,1,0,0:0:0:0:
179,239,57283,1,0,0:0:0:0:
92,209,57683,6,0,B|50:97|50:97|65:60|118:22,1,203.999993774414,2|0,0:0|0:0,0:0:0:0:
191,57,58883,1,0,0:0:0:0:
279,82,59283,6,0,L|380:67,1,101.999996887207,2|0,0:0|0:0,0:0:0:0:
454,12,60083,2,0,P|471:58|461:108,1,101.999996887207,0|0,0:0|0:0,0:0:0:0:
384,159,60883,6,0,P|370:206|383:255,1,101.999996887207,2|0,0:0|0:0,0:0:0:0:
431,334,61683,2,0,L|330:349,1,101.999996887207,0|0,0:0|0:0,0:0:0:0:
265,283,62483,5,2,0:0:0:0:
242,372,62883,1,0,0:0:0:0:
176,307,63283,1,2,0:0:0:0:
200,218,63683,1,0,0:0:0:0:
110,240,64083,6,0,L|9:255,1,101.999996887207,2|0,0:0|0:0,0:0:0:0:
34,166,64883,2,0,L|135:151,1,101.999996887207,0|0,0:0|0:0,0:0:0:0:
195,81,65683,5,2,0:0:0:0:
255,12,66083,1,0,0:0:0:0:
284,99,66483,1,2,0:0:0:0:
344,30,66883,1,2,0:0:0:0:
373,117,67283,6,0,L|474:132,1,101.999996887207,2|0,0:0|0:0,0:0:0:0:
500,219,68083,1,0,0:0:0:0:
457,300,68483,1,2,0:0:0:0:
410,221,68883,5,0,0:0:0:0:
366,301,69283,1,2,0:0:0:0:
413,380,69683,1,2,0:0:0:0:
457,300,70083,1,2,0:0:0:0:
366,301,70483,6,0,L|265:286,1,101.999996887207,2|0,0:0|0:0,0:0:0:0:
205,356,71283,1,0,0:0:0:0:
176,268,71683,1,0,0:0:0:0:
97,314,72083,6,0,P|84:265|100:217,1,101.999996887207,2|0,0:0|0:0,0:0:0:0:
17,175,72883,2,0,P|50:137|99:124,1,101.999996887207,2|0,0:0|0:0,0:0:0:0:
99,32,73683,6,0,P|147:44|181:82,1,101.999996887207,2|0,0:0|0:0,0:0:0:0:
271,67,74483,2,0,L|377:47,1,101.999996887207,0|0,0:0|0:0,0:0:0:0:
454,86,75283,6,0,P|469:133|456:182,1,101.999996887207,2|0,0:0|0:0,0:0:0:0:
379,232,76083,1,2,0:0:0:0:
459,276,76483,1,0,0:0:0:0:
381,325,76883,5,2,0:0:0:0:
256,192,77083,12,0,79183,0:0:0:0:
76,95,80083,6,0,B|166:86|136:163|226:155,1,170,4|2,3:1|0:2,0:0:0:0:
286,95,80683,1,0,3:2:0:0:
344,32,80883,2,0,P|370:73|367:119,1,85,10|0,3:2|0:0,0:0:0:0:
433,165,81283,1,2,3:2:0:0:
436,283,81483,6,0,P|402:258|360:254,1,85,0|2,3:2|0:2,0:0:0:0:
314,183,81883,2,0,L|335:351,1,170,0|0,3:2|3:2,0:0:0:0:
253,377,82483,1,12,3:0:0:0:
191,318,82683,2,0,P|157:342|115:346,1,85,0|2,3:2|0:2,0:0:0:0:
127,261,83083,1,8,3:2:0:0:
29,192,83283,6,0,B|14:77|14:77|48:33,1,170,4|2,3:1|0:2,0:0:0:0:
129,54,83883,1,0,3:2:0:0:
129,54,83983,1,0,3:2:0:0:
129,54,84083,2,0,L|226:38,1,85,10|0,3:2|0:0,0:0:0:0:
297,25,84483,1,2,3:2:0:0:
260,138,84683,6,0,L|343:151,1,85,0|2,3:2|0:2,0:0:0:0:
414,103,85083,1,0,3:2:0:0:
484,55,85283,2,0,P|500:100|488:144,1,85,2|0,0:2|3:2,0:0:0:0:
484,160,85583,1,0,3:2:0:0:
484,160,85683,2,0,L|497:298,2,127.5,12|4|4,3:0|3:1|3:1,0:0:0:0:
385,227,86483,6,0,B|395:341|395:341|360:385,1,170,4|2,3:1|0:2,0:0:0:0:
284,347,87083,1,0,3:2:0:0:
205,314,87283,2,0,L|118:332,1,85,10|0,3:2|0:0,0:0:0:0:
42,298,87683,1,2,3:2:0:0:
10,183,87883,6,0,P|0:142|14:102,1,85,0|2,3:2|0:2,0:0:0:0:
1,18,88283,2,0,B|91:9|61:86|151:78,1,170,0|0,3:2|3:2,0:0:0:0:
231,50,88883,1,12,3:0:0:0:
308,15,89083,2,0,P|321:54|311:95,1,85,2|0,3:2|0:2,0:0:0:0:
356,167,89483,1,8,3:2:0:0:
471,194,89683,6,0,P|417:193|312:253,1,170,4|2,3:1|0:2,0:0:0:0:
275,320,90283,1,0,3:2:0:0:
275,320,90383,1,0,3:2:0:0:
275,320,90483,2,0,P|222:313|163:307,1,85,10|0,3:2|0:0,0:0:0:0:
134,373,90883,1,2,3:2:0:0:
52,286,91083,6,0,P|41:245|55:205,1,85,0|2,3:2|0:2,0:0:0:0:
104,135,91483,1,0,3:2:0:0:
54,66,91683,2,0,P|92:48|133:54,1,85,2|0,3:2|0:0,0:0:0:0:
190,117,92083,5,12,3:0:0:0:
271,144,92283,1,0,3:2:0:0:
298,63,92483,1,8,3:2:0:0:
217,36,92683,1,8,3:2:0:0:
271,144,92883,6,0,B|361:135|331:212|421:204,1,170,4|2,3:1|0:2,0:0:0:0:
496,165,93483,1,0,3:2:0:0:
490,249,93683,2,0,P|508:286|503:328,1,85,10|0,3:2|0:0,0:0:0:0:
421,302,94083,1,2,3:2:0:0:
320,366,94283,6,0,P|299:329|301:287,1,85,0|2,3:2|0:2,0:0:0:0:
226,247,94683,2,0,B|136:238|166:315|76:307,1,170,0|0,3:2|3:2,0:0:0:0:
84,221,95283,1,12,3:0:0:0:
7,257,95483,2,0,P|-2:216|11:176,1,85,0|2,3:2|0:2,0:0:0:0:
84,131,95883,1,8,3:2:0:0:
41,19,96083,6,0,P|104:38|216:57,1,170,4|2,3:1|0:2,0:0:0:0:
268,114,96683,1,0,3:2:0:0:
268,114,96783,1,0,3:2:0:0:
268,114,96883,2,0,P|293:71|311:34,1,85,10|0,3:2|0:0,0:0:0:0:
388,10,97283,1,2,3:2:0:0:
474,91,97483,6,0,P|432:97|389:102,1,85,0|2,3:2|0:2,0:0:0:0:
334,167,97883,2,0,P|351:250|358:334,1,170,0|0,3:2|3:2,0:0:0:0:
381,354,98383,1,0,3:2:0:0:
381,354,98483,2,0,P|438:343|511:333,2,127.5,12|4|4,3:0|3:1|3:1,0:0:0:0:
272,305,99283,6,0,B|182:296|212:373|122:365,1,170,4|2,3:1|0:2,0:0:0:0:
64,302,99883,1,0,3:2:0:0:
11,234,100083,2,0,P|1:193|14:153,1,85,10|0,3:2|0:0,0:0:0:0:
88,194,100483,1,2,3:2:0:0:
187,128,100683,6,0,P|197:87|184:47,1,85,0|2,3:2|0:2,0:0:0:0:
257,4,101083,2,0,P|289:51|403:48,1,170,0|0,3:2|3:2,0:0:0:0:
467,11,101683,1,12,3:0:0:0:
467,95,101883,2,0,L|468:209,1,85,0|2,3:2|0:2,0:0:0:0:
511,253,102283,1,8,3:2:0:0:
434,343,102483,6,0,B|319:358|319:358|275:324,1,170,4|2,3:1|0:2,0:0:0:0:
234,250,103083,1,0,3:2:0:0:
234,250,103183,1,0,3:2:0:0:
234,250,103283,2,0,P|202:277|189:317,1,85,10|0,3:2|0:0,0:0:0:0:
122,369,103683,1,2,3:2:0:0:
26,297,103883,6,0,L|128:283,1,85,0|2,3:2|0:2,0:0:0:0:
131,203,104283,1,0,3:2:0:0:
153,121,104483,2,0,L|68:132,1,85,2|0,3:2|0:0,0:0:0:0:
98,19,104883,5,12,3:0:0:0:
98,19,105083,1,0,3:2:0:0:
181,41,105283,1,8,3:2:0:0:
153,121,105483,1,8,3:2:0:0:
260,70,105683,6,0,B|350:61|320:138|410:130,1,170,4|0,3:1|0:0,0:0:0:0:
489,99,106283,1,0,3:2:0:0:
474,182,106483,2,0,P|479:224|487:278,1,85,12|0,3:3|0:0,0:0:0:0:
406,298,106883,1,0,3:2:0:0:
297,346,107083,6,0,P|256:330|206:310,1,85,4|0,3:1|0:0,0:0:0:0:
209,230,107483,1,0,3:2:0:0:
198,145,107683,2,0,P|136:153|71:161,1,127.5,4|0,3:1|0:0,0:0:0:0:
58,182,108083,2,0,P|46:133|36:92,1,85,8|0,3:2|3:2,0:0:0:0:
86,29,108483,2,0,P|135:23|178:18,1,85,12|0,3:0|0:0,0:0:0:0:
283,58,108883,6,0,P|346:49|409:41,1,127.5,4|0,3:1|0:0,0:0:0:0:
431,53,109283,1,8,3:2:0:0:
507,90,109483,1,0,3:2:0:0:
438,139,109683,2,0,P|450:178|440:219,1,85,8|0,3:2|0:0,0:0:0:0:
363,182,110083,1,0,3:2:0:0:
255,233,110283,6,0,P|242:272|252:313,1,85,4|0,3:1|0:0,0:0:0:0:
187,368,110683,1,0,3:2:0:0:
116,321,110883,2,0,P|74:292|0:296,1,127.5,0|0,3:2|0:0,0:0:0:0:
4,273,111283,2,0,P|14:232|1:192,1,85,8|0,3:2|3:2,0:0:0:0:
56,127,111683,1,8,3:2:0:0:
122,74,111883,1,8,3:2:0:0:
6,49,112083,6,0,B|96:40|66:117|156:109,1,170,4|0,3:1|0:0,0:0:0:0:
225,60,112683,1,0,3:2:0:0:
295,12,112883,2,0,P|337:7|379:2,1,85,8|0,3:2|0:0,0:0:0:0:
439,64,113283,1,0,3:2:0:0:
411,179,113483,6,0,P|453:174|495:169,1,85,4|0,3:1|0:0,0:0:0:0:
481,253,113883,1,0,3:2:0:0:
465,336,114083,2,0,P|398:342|331:350,1,127.5,4|0,3:1|0:0,0:0:0:0:
316,340,114483,1,8,3:2:0:0:
233,360,114683,1,8,3:2:0:0:
163,311,114883,1,0,3:0:0:0:
176,227,115083,1,0,3:0:0:0:
96,257,115283,5,4,3:1:0:0:
363,282,115883,1,4,3:1:0:0:
251,54,116483,1,4,3:1:0:0:
251,54,116683,1,4,3:1:0:0:
256,192,116883,12,0,118083,0:0:0:0:
486,44,118483,6,0,B|413:36|437:98|365:92,1,136,4|0,3:1|1:0,0:0:0:0:
287,51,119083,1,0,3:2:0:0:
210,5,119283,2,0,L|203:93,1,68,8|0,0:2|1:0,0:0:0:0:
122,104,119683,1,0,1:0:0:0:
188,161,119883,1,0,3:2:0:0:
105,193,120083,6,0,L|98:281,1,68,0|0,1:0|3:2,0:0:0:0:
169,315,120483,1,0,3:2:0:0:
92,359,120683,1,0,1:0:0:0:
92,359,120783,1,0,1:0:0:0:
92,359,120883,2,0,P|164:366|229:374,1,136,8|0,0:2|3:2,0:0:0:0:
278,302,121483,1,0,1:0:0:0:
326,375,121683,5,4,3:2:0:0:
367,297,121883,2,0,L|374:209,1,68,0|0,3:0|1:0,0:0:0:0:
298,180,122283,1,0,3:0:0:0:
222,134,122483,2,0,P|289:125|357:119,1,136,8|0,0:2|1:0,0:0:0:0:
332,34,123083,6,0,L|399:39,1,68,0|0,3:0|1:0,0:0:0:0:
482,7,123483,1,0,3:0:0:0:
467,94,123683,2,0,L|472:161,1,68,0|0,3:0|1:0,0:0:0:0:
500,245,124083,2,0,P|510:281|505:312,1,68,8|0,0:2|1:0,0:0:0:0:
435,364,124483,2,0,P|390:363|344:322,1,102,4|0,3:2|0:0,0:0:0:0:
336,308,124883,6,0,B|263:300|287:362|215:356,1,136,4|0,3:1|1:0,0:0:0:0:
139,312,125483,1,0,3:0:0:0:
65,360,125683,2,0,P|52:328|53:294,1,68,8|0,0:2|1:0,0:0:0:0:
111,226,126083,1,0,1:0:0:0:
24,209,126283,1,0,3:0:0:0:
82,142,126483,6,0,L|76:74,1,68,0|0,1:0|3:0,0:0:0:0:
162,94,126883,1,0,3:0:0:0:
245,122,127083,1,0,1:0:0:0:
245,122,127183,1,0,1:0:0:0:
245,122,127283,2,0,P|304:96|374:124,1,136,8|0,0:2|3:0,0:0:0:0:
339,202,127883,1,0,1:0:0:0:
402,263,128083,5,4,3:2:0:0:
433,180,128283,2,0,L|513:189,1,68,0|0,3:0|1:0,0:0:0:0:
473,103,128683,1,0,3:0:0:0:
500,19,128883,2,0,P|432:11|364:5,1,136,8|0,0:2|1:0,0:0:0:0:
305,71,129483,1,0,3:0:0:0:
305,71,129683,5,0,1:0:0:0:
240,10,129883,1,0,3:0:0:0:
220,96,130083,2,0,L|204:182,1,68,0|0,3:0|1:0,0:0:0:0:
222,187,130383,1,0,1:0:0:0:
222,187,130483,2,0,P|191:169|140:167,1,68,8|0,0:2|1:0,0:0:0:0:
72,179,130883,2,0,P|48:204|35:235,1,68,0|0,1:0|3:0,0:0:0:0:
31,260,131183,1,0,3:0:0:0:
31,260,131283,6,0,B|104:252|80:314|152:308,1,136,4|0,3:1|1:0,0:0:0:0:
233,276,131883,1,0,3:0:0:0:
316,247,132083,2,0,L|310:317,1,68,8|0,0:2|1:0,0:0:0:0:
389,355,132483,1,0,1:0:0:0:
459,301,132683,1,0,3:0:0:0:
430,217,132883,6,0,L|435:149,1,68,0|0,1:0|3:0,0:0:0:0:
351,119,133283,1,0,3:0:0:0:
266,94,133483,1,0,1:0:0:0:
266,94,133583,1,0,1:0:0:0:
266,94,133683,2,0,P|202:106|133:118,1,136,8|0,0:2|3:0,0:0:0:0:
98,200,134283,1,0,1:0:0:0:
185,190,134483,5,4,3:2:0:0:
150,271,134683,2,0,P|155:304|160:338,1,68,0|0,3:0|1:0,0:0:0:0:
81,377,135083,1,0,3:0:0:0:
23,312,135283,2,0,P|11:248|-1:179,1,136,8|0,0:2|1:0,0:0:0:0:
0,89,135883,6,0,P|34:94|74:102,1,68,0|0,3:0|1:0,0:0:0:0:
143,55,136283,1,0,3:0:0:0:
219,11,136483,2,0,P|224:44|230:77,1,68,0|0,3:0|1:0,0:0:0:0:
257,86,136783,1,0,1:0:0:0:
257,86,136883,2,0,P|242:117|245:168,1,68,8|0,0:2|1:0,0:0:0:0:
177,212,137283,2,0,P|217:180|285:187,1,102,4|0,3:2|0:0,0:0:0:0:
285,192,137683,6,0,P|273:256|260:325,1,136,4|0,3:1|1:0,0:0:0:0:
348,323,138283,1,0,3:0:0:0:
423,369,138483,2,0,P|429:335|434:301,1,68,8|0,0:2|1:0,0:0:0:0:
417,214,138883,1,0,1:0:0:0:
501,244,139083,1,0,3:0:0:0:
483,157,139283,6,0,P|477:123|472:89,1,68,0|0,1:0|3:0,0:0:0:0:
476,1,139683,1,0,3:0:0:0:
400,46,139883,1,0,1:0:0:0:
400,46,139983,1,0,1:0:0:0:
400,46,140083,2,0,P|335:39|264:33,1,136,8|0,0:2|3:0,0:0:0:0:
295,117,140683,1,0,1:0:0:0:
207,103,140883,5,4,3:2:0:0:
131,56,141083,2,0,P|97:50|64:57,1,68,0|0,3:0|1:0,0:0:0:0:
99,139,141483,1,0,3:0:0:0:
10,130,141683,2,0,P|-19:190|2:253,1,136,8|0,0:2|1:0,0:0:0:0:
61,319,142283,1,0,3:0:0:0:
61,319,142483,5,0,1:0:0:0:
87,234,142683,1,0,3:0:0:0:
145,300,142883,2,0,P|178:294|211:288,1,68,0|0,3:0|1:0,0:0:0:0:
234,308,143183,1,0,1:0:0:0:
234,308,143283,2,0,P|267:313|300:319,1,68,8|0,0:2|3:0,0:0:0:0:
383,287,143683,1,0,1:0:0:0:
382,198,143883,1,0,3:0:0:0:
297,172,144083,5,4,3:1:0:0:
72,72,150483,6,0,P|126:37|220:58,1,144.500002756119,4|8,3:1|0:2,0:0:0:0:
342,148,151283,2,0,P|376:210|362:279,1,144.500002756119,0|8,3:0|0:2,0:0:0:0:
191,310,152083,6,0,L|43:333,1,144.500002756119,0|8,3:0|0:2,0:0:0:0:
107,168,152883,2,0,L|249:145,1,144.500002756119,0|8,3:0|0:2,0:0:0:0:
362,279,153683,5,12,0:3:0:0:
420,343,153883,2,0,L|502:330,1,72.2500013780594,8|0,0:2|3:0,0:0:0:0:
447,256,154283,1,0,3:0:0:0:
478,175,154483,2,0,P|483:137|468:101,1,72.2500013780594,0|0,3:0|3:0,0:0:0:0:
397,59,154883,1,12,0:3:0:0:
324,105,155083,1,8,0:2:0:0:
312,19,155283,5,0,3:0:0:0:
312,19,155383,1,0,3:0:0:0:
312,19,155483,1,12,0:3:0:0:
242,71,155683,2,0,P|233:105|242:140,1,72.2500013780594,8|0,0:2|3:0,0:0:0:0:
164,178,156083,2,0,P|105:138|36:157,1,144.500002756119,8|0,0:2|0:0,0:0:0:0:
144,293,156883,6,0,B|259:280|221:378|335:369,1,216.750004134178,4|0,3:1|0:0,0:0:0:0:
418,343,157683,2,0,P|466:264|405:157,1,216.750004134178,4|0,3:1|0:0,0:0:0:0:
430,61,158483,6,0,B|314:48|352:146|238:137,1,216.750004134178,4|0,3:1|0:0,0:0:0:0:
167,87,159283,1,8,0:2:0:0:
190,258,159683,1,4,3:1:0:0:
30,193,160083,6,0,P|-21:283|26:375,1,216.750004134178,4|0,3:1|0:0,0:0:0:0:
81,308,160883,2,0,B|157:300|157:300|205:337|205:337|283:329,1,216.750004134178,4|0,3:1|0:0,0:0:0:0:
373,377,161683,6,0,P|421:284|370:194,1,216.750004134178,4|0,3:1|3:0,0:0:0:0:
370,194,162383,1,0,3:0:0:0:
370,194,162483,1,8,0:2:0:0:
296,168,162683,1,8,0:2:0:0:
299,81,162883,1,8,0:2:0:0:
383,59,163083,1,8,0:2:0:0:
429,132,163283,6,0,B|313:119|351:217|237:208,1,216.750004134178,4|0,3:1|0:0,0:0:0:0:
199,130,164083,2,0,B|71:98|71:98|32:126|23:176,1,216.750004134178,4|0,3:1|0:0,0:0:0:0:
21,268,164883,6,0,B|42:324|24:382|24:382|73:356|125:359,1,216.750004134178,4|0,3:1|0:0,0:0:0:0:
169,286,165683,2,0,P|213:305|244:304,1,72.2500013780594,12|0,0:2|3:0,0:0:0:0:
317,338,166083,1,8,0:2:0:0:
303,252,166283,1,8,0:2:0:0:
289,166,166483,6,0,B|405:169|354:261|468:267,1,216.750004134178,4|0,3:1|0:0,0:0:0:0:
459,180,167283,2,0,B|455:120|489:70|489:70|435:80|386:62,1,216.750004134178,4|0,3:1|0:0,0:0:0:0:
295,25,168083,6,0,B|179:12|217:110|103:101,1,216.750004134178,4|0,3:1|3:0,0:0:0:0:
103,101,168783,1,0,3:0:0:0:
103,101,168883,2,0,L|111:180,1,72.2500013780594,12|0,0:2|3:0,0:0:0:0:
35,217,169283,1,8,0:2:0:0:
110,259,169483,1,8,0:2:0:0:
36,304,169683,6,0,B|115:311|115:311|155:356|155:356|231:363,1,216.750004134178,4|0,3:1|0:0,0:0:0:0:
304,314,170483,2,0,P|352:221|301:131,1,216.750004134178,4|0,3:1|0:0,0:0:0:0:
382,70,171283,6,0,P|428:122|446:276,1,216.750004134178,4|0,3:1|0:0,0:0:0:0:
405,337,172083,1,12,0:2:0:0:
244,273,172483,1,4,3:2:0:0:
82,336,172883,6,0,B|50:208|50:208|78:169|128:160,1,216.750004134178,4|0,3:1|0:0,0:0:0:0:
94,78,173683,2,0,B|210:65|172:163|286:154,1,216.750004134178,4|0,3:1|0:0,0:0:0:0:
271,53,174483,6,0,B|330:56|380:22|380:22|370:76|388:125,1,216.750004134178,4|0,3:1|3:2,0:0:0:0:
386,121,175183,1,0,3:2:0:0:
386,121,175283,1,8,0:2:0:0:
471,103,175483,1,8,0:2:0:0:
492,187,175683,1,8,0:2:0:0:
408,211,175883,1,8,0:2:0:0:
470,271,176083,6,0,B|393:294|393:294|364:347|364:347|291:369,1,216.750004134178,4|0,3:1|0:0,0:0:0:0:
248,293,176883,2,0,B|173:278|173:278|138:229|138:229|59:214,1,216.750004134178,4|0,3:1|0:0,0:0:0:0:
41,113,177683,6,0,B|196:144|196:144|239:77,1,216.750004134178,4|0,3:1|0:0,0:0:0:0:
267,17,178483,2,0,P|302:10|338:4,1,72.2500013780594,12|0,0:2|3:0,0:0:0:0:
389,81,178883,1,8,0:2:0:0:
425,2,179083,1,8,0:2:0:0:
475,72,179283,6,0,P|467:156|461:220,1,144.500002756119,4|4,3:1|1:2,0:0:0:0:
386,259,179883,1,0,3:0:0:0:
315,308,180083,2,0,P|308:272|302:236,1,72.2500013780594,8|0,0:2|0:0,0:0:0:0:
220,265,180483,1,4,3:1:0:0:
238,180,180683,1,0,3:0:0:0:
155,205,180883,6,0,L|92:219,2,48.1666675853729,8|8|0,0:2|0:2|3:0,0:0:0:0:
175,119,181283,2,0,L|139:65,2,48.1666675853729,0|0|0,3:0|3:0|3:0,0:0:0:0:
259,93,181683,2,0,L|268:29,1,48.1666675853729,8|8,0:2|0:2,0:0:0:0:
343,86,181949,1,8,0:2:0:0:
365,89,182083,1,8,0:2:0:0:
389,91,182216,1,8,0:2:0:0:
412,94,182349,1,8,0:2:0:0:
435,96,182483,5,0,3:0:0:0:
181,103,188083,6,0,P|124:71|50:94,2,127.5,12|8|8,0:2|0:2|0:2,0:0:0:0:
209,183,188883,6,0,P|198:268|186:359,1,170,4|0,3:1|3:0,0:0:0:0:
342,281,189683,2,0,B|432:272|402:349|492:341,1,170,4|0,3:1|3:0,0:0:0:0:
456,174,190483,6,0,P|466:89|479:-2,1,170,12|0,0:3|3:0,0:0:0:0:
317,62,191283,2,0,P|250:13|172:38,1,170,12|0,0:3|3:0,0:0:0:0:
109,95,191883,1,0,0:0:0:0:
33,55,192083,6,0,P|22:95|33:136,1,85,0|0,3:0|3:0,0:0:0:0:
12,219,192483,2,0,P|54:218|90:197,1,85,0|0,3:0|3:0,0:0:0:0:
134,270,192883,2,0,P|176:270|212:292,1,85,0|0,3:0|3:0,0:0:0:0:
240,211,193283,2,0,P|275:233|295:270,1,85,0|0,3:0|3:0,0:0:0:0:
375,242,193683,6,0,P|378:285|373:304,2,56.6666666666667,8|8|8,0:2|0:2|0:2,0:0:0:0:
424,167,194083,2,0,P|452:199|460:217,2,56.6666666666667,8|8|8,0:2|0:2|0:2,0:0:0:0:
335,162,194483,5,4,3:2:0:0:
404,6,194883,1,0,0:0:0:0:
235,24,195283,6,0,B|145:15|175:92|85:84,1,170,4|2,3:1|0:2,0:0:0:0:
3,60,195883,1,0,3:2:0:0:
22,142,196083,2,0,P|17:187|12:242,1,85,10|0,3:2|0:0,0:0:0:0:
86,270,196483,1,2,3:2:0:0:
191,330,196683,6,0,P|208:292|205:250,1,85,0|2,3:2|0:2,0:0:0:0:
281,210,197083,2,0,P|313:257|427:254,1,170,0|0,3:2|3:2,0:0:0:0:
477,200,197683,1,12,3:0:0:0:
500,118,197883,2,0,P|458:116|421:135,1,85,0|2,3:2|0:2,0:0:0:0:
359,76,198283,1,8,3:2:0:0:
267,1,198483,6,0,P|235:48|121:45,1,170,4|2,3:1|0:2,0:0:0:0:
47,29,199083,1,0,3:2:0:0:
47,29,199183,1,0,3:2:0:0:
47,29,199283,2,0,P|50:75|55:133,1,85,10|0,3:2|0:0,0:0:0:0:
124,160,199683,1,2,3:2:0:0:
48,252,199883,6,0,P|90:258|132:264,1,85,0|2,3:2|0:2,0:0:0:0:
111,347,200283,1,0,3:2:0:0:
193,324,200483,2,0,P|235:317|277:311,1,85,2|0,0:2|3:2,0:0:0:0:
302,327,200783,1,0,3:2:0:0:
302,327,200883,2,0,P|308:264|317:175,2,127.5,12|4|4,3:0|3:1|3:1,0:0:0:0:
416,364,201683,6,0,P|423:286|434:176,1,170,4|2,3:1|0:2,0:0:0:0:
483,127,202283,1,0,3:2:0:0:
453,47,202483,2,0,P|410:40|368:34,1,85,10|0,3:2|0:0,0:0:0:0:
307,93,202883,1,2,3:2:0:0:
213,19,203083,6,0,P|209:61|204:103,1,85,0|2,3:2|0:2,0:0:0:0:
204,188,203483,2,0,P|172:141|58:144,1,170,0|0,3:2|3:2,0:0:0:0:
11,202,204083,1,12,3:0:0:0:
19,286,204283,2,0,P|15:328|10:370,1,85,0|2,3:2|0:2,0:0:0:0:
93,354,204683,1,8,3:2:0:0:
208,324,204883,6,0,B|298:315|268:392|358:384,1,170,4|2,3:1|0:2,0:0:0:0:
433,346,205483,1,0,3:2:0:0:
433,346,205583,1,0,3:2:0:0:
433,346,205683,2,0,P|443:305|432:265,1,85,10|0,3:2|0:0,0:0:0:0:
489,201,206083,1,2,3:2:0:0:
508,83,206283,6,0,P|465:88|423:92,1,85,0|2,3:2|0:2,0:0:0:0:
347,54,206683,1,0,3:2:0:0:
272,13,206883,2,0,P|260:53|271:94,1,85,2|0,3:2|0:0,0:0:0:0:
155,113,207283,5,12,3:0:0:0:
155,113,207483,1,0,3:2:0:0:
75,142,207683,1,8,3:2:0:0:
140,198,207883,1,8,3:2:0:0:
44,273,208083,6,0,P|121:282|231:297,1,170,4|0,3:1|0:0,0:0:0:0:
294,271,208683,1,0,3:2:0:0:
376,249,208883,2,0,P|373:291|369:333,1,85,12|0,3:0|0:0,0:0:0:0:
440,381,209283,1,0,3:2:0:0:
502,278,209483,6,0,P|512:237|501:196,1,85,4|0,3:1|0:0,0:0:0:0:
489,112,209883,1,0,3:2:0:0:
427,52,210083,2,0,P|381:29|300:65,1,127.5,4|0,3:1|0:0,0:0:0:0:
296,70,210483,2,0,L|205:96,1,85,8|0,3:2|3:2,0:0:0:0:
147,40,210883,2,0,L|63:25,1,85,12|0,3:0|0:0,0:0:0:0:
132,122,211283,6,0,P|124:201|115:285,1,127.5,4|0,3:1|0:0,0:0:0:0:
103,267,211683,1,8,3:2:0:0:
37,320,211883,1,0,3:2:0:0:
115,352,212083,2,0,L|198:337,1,85,8|0,3:2|0:0,0:0:0:0:
275,374,212483,1,0,3:2:0:0:
282,255,212683,6,0,L|365:269,1,85,4|0,3:1|0:0,0:0:0:0:
428,326,213083,1,0,3:2:0:0:
446,243,213283,2,0,P|468:197|432:116,1,127.5,0|0,3:2|0:0,0:0:0:0:
432,108,213683,2,0,L|348:93,1,85,8|0,3:2|3:2,0:0:0:0:
313,16,214083,1,8,3:2:0:0:
265,86,214283,1,8,3:2:0:0:
158,34,214483,6,0,P|111:1|5:45,1,170,4|0,3:1|0:0,0:0:0:0:
46,114,215083,1,0,3:2:0:0:
83,190,215283,2,0,L|73:282,1,85,8|0,3:2|0:0,0:0:0:0:
17,339,215683,1,0,3:2:0:0:
137,338,215883,6,0,L|220:352,1,85,4|0,3:1|0:0,0:0:0:0:
275,287,216283,1,0,3:2:0:0:
327,220,216483,2,0,P|381:249|441:231,1,127.5,4|0,3:1|0:0,0:0:0:0:
460,214,216883,5,8,3:2:0:0:
503,142,217083,1,8,3:2:0:0:
446,78,217283,1,0,3:0:0:0:
364,102,217483,1,0,3:0:0:0:
385,19,217683,5,4,3:1:0:0:
433,269,218283,1,4,3:1:0:0:
190,188,218883,1,4,3:1:0:0:
190,188,219083,2,0,L|274:179,1,85,8|0,0:2|3:0,0:0:0:0:
232,290,219483,5,8,0:2:0:0:
259,370,219683,2,0,L|174:378,1,85,8|0,0:2|3:0,0:0:0:0:
137,301,220083,1,0,3:0:0:0:
90,372,220283,1,0,3:0:0:0:
15,330,220483,1,0,3:0:0:0:
57,255,220683,1,0,3:0:0:0:
137,301,220883,1,4,3:1:0:0:
256,192,220983,12,0,233683,0:0:0:0:
