osu file format v14

[General]
AudioFilename: audio.mp3
AudioLeadIn: 0
PreviewTime: 79985
Countdown: 0
SampleSet: Soft
StackLeniency: 0.7
Mode: 0
LetterboxInBreaks: 0
WidescreenStoryboard: 0

[Editor]
Bookmarks: 41683,80083,92883,105683,118483,144083,150483,156883,182483,188083,195283,220883
DistanceSpacing: 1.1
BeatDivisor: 8
GridSize: 32
TimelineZoom: 1.4

[Metadata]
Title:Gerbera
TitleUnicode:Gerbera
Artist:Yuyoyuppe
ArtistUnicode:ゆよゆっぺ
Creator:Seto Kousuke
Version:Insane
Source:
Tags:Draw the Emotional meola 巡音ルカ Megurine Luka vocaloid novelty japanese SrSkyPlayer Senhor
BeatmapID:1875197
BeatmapSetID:897583

[Difficulty]
HPDrainRate:5
CircleSize:4.5
OverallDifficulty:8
ApproachRate:8
SliderMultiplier:3
SliderTickRate:1

[Events]
//Background and Video events
0,0,"gerbera.jpg",0,0
//Break Periods
2,144283,149333
2,182683,187333
//Storyboard Layer 0 (Background)
//Storyboard Layer 1 (Fail)
//Storyboard Layer 2 (Pass)
//Storyboard Layer 3 (Foreground)
//Storyboard Sound Samples

[TimingPoints]
3283,800,4,2,2,40,1,0
3283,-181.818181818181,4,2,2,40,0,0
40683,-181.818181818181,4,2,2,30,0,0
41083,-181.818181818181,4,2,2,40,0,0
41683,-133.333333333333,4,2,2,60,0,0
76883,-1000,4,2,2,60,0,0
76983,-1000,4,2,3,60,0,0
79183,-1000,4,2,1,5,0,0
80083,-83.3333333333333,4,2,1,90,0,1
115283,-133.333333333333,4,2,1,90,0,1
116683,-285.714285714284,4,2,1,90,0,1
118483,-117.647058823529,4,2,1,70,0,0
150483,-153.846153846153,4,2,1,70,0,0
150883,-117.647058823529,4,2,1,70,0,0
151283,-95.238095238095,4,2,1,70,0,0
151683,-80,4,2,1,70,0,0
152083,-68.9655172413793,4,2,1,70,0,0
152483,-60.6060606060606,4,2,1,70,0,0
153683,-117.647058823529,4,2,1,70,0,0
156083,-399.999999999997,4,2,1,70,0,0
156583,-399.999999999997,4,2,1,45,0,0
156883,-117.647058823529,4,2,1,80,0,0
188083,-100,4,2,1,80,0,0
194483,-399.999999999997,4,2,1,80,0,0
195283,-83.3333333333333,4,2,1,90,0,1
217683,-133.333333333333,4,2,1,90,0,1
220883,-285.714285714286,4,2,1,90,0,0
220983,-285.714285714286,4,2,1,50,0,0
230483,-285.714285714286,4,2,1,30,0,0
233583,-285.714285714286,4,2,1,5,0,0

[Colours]
Combo1 : 205,139,139
Combo2 : 219,211,168
Combo3 : 129,114,119
Combo4 : 111,143,80
Combo5 : 191,165,166
Combo6 : 137,180,122
Combo7 : 184,82,95
Combo8 : 206,204,119

[HitObjects]
84,162,3283,6,0,B|165:190|176:134|247:165,1,165.000005035401,2|0,0:0|0:0,0:0:0:0:
320,214,4483,1,0,0:0:0:0:
396,165,4883,2,0,P|407:128|388:84,1,82.5000025177003,0|0,0:0|0:0,0:0:0:0:
230,41,5683,2,0,L|313:42,1,82.5000025177003,0|0,0:0|0:0,0:0:0:0:
450,182,6483,6,0,P|414:222|326:176,1,165.000005035401,2|0,0:0|0:0,0:0:0:0:
255,123,7683,1,0,0:0:0:0:
183,179,8083,2,0,P|147:219|59:173,1,165.000005035401
120,108,9283,1,0,0:0:0:0:
261,164,9683,6,0,B|281:186|281:186|276:256,1,82.5000025177003,2|0,0:0|0:0,0:0:0:0:
203,298,10483,2,0,B|183:275|183:275|187:224,1,82.5000025177003
291,322,11283,1,2,0:0:0:0:
345,249,11683,1,0,0:0:0:0:
411,310,12083,1,2,0:0:0:0:
356,382,12483,1,0,0:0:0:0:
224,266,12883,6,0,P|223:212|250:179,1,82.5000025177003,2|0,0:0|0:0,0:0:0:0:
393,136,13683,2,0,L|311:137,1,82.5000025177003
110,41,14483,5,2,0:0:0:0:
179,99,14883,1,0,0:0:0:0:
402,41,15283,5,2,0:0:0:0:
333,99,15683,1,0,0:0:0:0:
110,41,16083,6,0,P|86:110|149:176,1,165.000005035401,2|0,0:0|0:0,0:0:0:0:
230,189,17283,1,0,0:0:0:0:
304,240,17683,2,0,P|317:289|305:330,1,82.5000025177003,0|0,0:0|0:0,0:0:0:0:
150,364,18483,2,0,L|233:367,1,82.5000025177003,0|0,0:0|0:0,0:0:0:0:
409,327,19283,6,0,B|443:268|370:237|413:165,1,165.000005035401,2|0,0:0|0:0,0:0:0:0:
474,103,20483,1,0,0:0:0:0:
398,52,20883,2,0,B|329:11|298:84|239:50,1,165.000005035401,0|0,0:0|0:0,0:0:0:0:
152,25,22083,1,0,0:0:0:0:
71,139,22483,6,0,L|91:228,1,82.5000025177003,2|0,0:0|0:0,0:0:0:0:
177,199,23283,2,0,L|158:118,1,82.5000025177003
144,284,24083,1,2,0:0:0:0:
221,337,24483,1,0,0:0:0:0:
141,379,24883,1,2,0:0:0:0:
66,330,25283,1,0,0:0:0:0:
231,248,25683,6,0,P|278:263|300:305,1,82.5000025177003,2|0,0:0|0:0,0:0:0:0:
386,289,26483,2,0,P|411:257|451:248,1,82.5000025177003,0|0,0:0|0:0,0:0:0:0:
475,90,27283,5,2,0:0:0:0:
507,176,27683,1,0,0:0:0:0:
433,16,28083,5,2,0:0:0:0:
377,88,28483,1,2,0:0:0:0:
317,156,28883,6,0,B|258:159|258:159|211:141|211:141|150:143,1,165.000005035401,2|0,0:0|0:0,0:0:0:0:
93,75,30083,2,0,P|60:149|104:219,1,165.000005035401,2|0,0:0|0:0,0:0:0:0:
180,258,31283,2,0,P|225:251|262:215,1,82.5000025177003,2|0,0:0|0:0,0:0:0:0:
268,80,32083,6,0,P|332:51|408:110,1,165.000005035401,2|0,0:0|0:0,0:0:0:0:
496,201,33283,1,0,0:0:0:0:
433,266,33683,2,0,L|338:249,1,82.5000025177003,2|0,0:0|0:0,0:0:0:0:
289,317,34483,2,0,L|194:300,1,82.5000025177003,2|0,0:0|0:0,0:0:0:0:
87,336,35283,6,0,B|91:299|103:276|103:276|89:247|89:247|108:209|104:167,1,165.000005035401,2|0,0:0|0:0,0:0:0:0:
173,44,36483,1,0,0:0:0:0:
192,184,36883,1,0,0:0:0:0:
87,88,37283,1,0,0:0:0:0:
239,108,37683,2,0,P|284:114|335:105,1,82.5000025177003,2|0,0:0|0:0,0:0:0:0:
452,30,38483,6,0,P|436:70|447:125,1,82.5000025177003,2|0,0:0|0:0,0:0:0:0:
498,236,39283,1,0,0:0:0:0:
416,195,39683,1,0,0:0:0:0:
358,264,40083,2,0,P|312:281|270:261,2,82.5000025177003,2|0|0,0:0|0:0|0:0,0:0:0:0:
312,89,41683,6,0,P|322:141|316:206,1,112.500004291535,2|0,0:0|0:0,0:0:0:0:
258,319,42483,2,0,P|202:312|137:325,1,112.500004291535,2|0,0:0|0:0,0:0:0:0:
75,354,43083,1,0,0:0:0:0:
75,354,43283,2,0,L|16:305,1,56.2500021457673,2|0,0:0|0:0,0:0:0:0:
95,267,43683,2,0,L|0:190,1,112.500004291535,0|2,0:0|0:0,0:0:0:0:
171,117,44483,1,2,0:0:0:0:
181,211,44683,1,0,0:0:0:0:
181,211,44883,6,0,P|215:251|363:206,1,225.000008583069,2|0,0:0|0:0,0:0:0:0:
171,117,46083,2,0,P|96:193|133:292,1,225.000008583069,2|0,0:0|0:0,0:0:0:0:
233,367,47283,2,0,P|224:312|230:256,1,112.500004291535,2|0,0:0|0:0,0:0:0:0:
327,88,48083,6,0,P|330:141|304:207,1,112.500004291535,2|0,0:0|0:0,0:0:0:0:
425,310,48883,2,0,P|406:257|408:201,1,112.500004291535,2|0,0:0|0:0,0:0:0:0:
458,129,49483,1,0,0:0:0:0:
458,129,49683,2,0,L|456:64,1,56.2500021457673,2|0,0:0|0:0,0:0:0:0:
367,13,50083,2,0,L|371:148,1,112.500004291535,0|2,0:0|0:0,0:0:0:0:
411,242,50883,2,0,L|414:172,1,56.2500021457673,2|0,0:0|0:0,0:0:0:0:
482,136,51283,6,0,B|497:170|497:170|493:249,1,112.500004291535,2|0,0:0|0:0,0:0:0:0:
402,365,52083,2,0,P|363:330|300:348,1,112.500004291535,0|0,0:0|0:0,0:0:0:0:
89,307,52883,5,2,0:0:0:0:
173,276,53283,1,0,0:0:0:0:
345,113,53683,5,2,0:0:0:0:
261,82,54083,1,0,0:0:0:0:
55,189,54483,6,0,P|100:200|171:172,1,112.500004291535,2|0,0:0|0:0,0:0:0:0:
261,82,55283,2,0,P|307:72|373:101,1,112.500004291535,2|0,0:0|0:0,0:0:0:0:
426,169,55883,1,0,0:0:0:0:
426,169,56083,2,0,P|424:198|429:249,1,56.2500021457673,2|0,0:0|0:0,0:0:0:0:
504,123,56483,2,0,P|509:178|506:235,1,112.500004291535,0|2,0:0|0:0,0:0:0:0:
318,196,57283,1,2,0:0:0:0:
246,260,57483,1,0,0:0:0:0:
246,260,57683,6,0,P|191:269|157:133,1,225.000008583069,2|0,0:0|0:0,0:0:0:0:
289,61,58883,2,0,B|249:58|212:70|212:70|156:44|156:44|122:64|53:59,1,225.000008583069,2|0,0:0|0:0,0:0:0:0:
5,165,60083,2,0,L|24:293,1,112.500004291535,0|0,0:0|0:0,0:0:0:0:
147,361,60883,6,0,B|184:359|207:365|207:365|224:352|273:339,1,112.500004291535,2|0,0:0|0:0,0:0:0:0:
391,332,61683,2,0,P|336:314|329:253,1,112.500004291535,2|0,0:0|0:0,0:0:0:0:
370,181,62283,1,0,0:0:0:0:
370,181,62483,2,0,L|427:184,1,56.2500021457673,2|0,0:0|0:0,0:0:0:0:
475,98,62883,2,0,L|342:91,1,112.500004291535,0|2,0:0|0:0,0:0:0:0:
201,114,63683,1,2,0:0:0:0:
145,198,63883,1,0,0:0:0:0:
145,198,64083,6,0,P|133:258|144:321,1,112.500004291535,2|0,0:0|0:0,0:0:0:0:
287,309,64883,2,0,P|293:253|281:198,1,112.500004291535,0|0,0:0|0:0,0:0:0:0:
166,51,65683,5,2,0:0:0:0:
217,124,66083,1,0,0:0:0:0:
368,25,66483,5,2,0:0:0:0:
416,100,66883,1,2,0:0:0:0:
462,176,67283,6,0,B|496:239|467:329|467:329|431:349|398:319,1,225.000008583069,2|0,0:0|0:0,0:0:0:0:
315,268,68483,2,0,P|270:264|198:298,1,112.500004291535,2|0,0:0|0:0,0:0:0:0:
66,296,69283,1,2,0:0:0:0:
138,348,69683,1,2,0:0:0:0:
145,226,70083,2,0,L|116:155,1,56.2500021457673,2|0,0:0|0:0,0:0:0:0:
59,128,70483,6,0,P|104:137|177:97,1,112.500004291535,2|0,0:0|0:0,0:0:0:0:
253,16,71283,1,0,0:0:0:0:
322,153,71683,1,0,0:0:0:0:
441,111,72083,2,0,P|457:59|428:-3,1,112.500004291535,2|0,0:0|0:0,0:0:0:0:
322,153,72883,2,0,P|302:204|318:257,1,112.500004291535,2|0,0:0|0:0,0:0:0:0:
434,355,73683,6,0,L|295:352,1,112.500004291535,2|0,0:0|0:0,0:0:0:0:
242,241,74483,2,0,B|220:219|195:214|195:214|170:222|138:251,1,112.500004291535,0|0,0:0|0:0,0:0:0:0:
18,329,75283,2,0,P|58:287|56:213,1,112.500004291535,2|0,0:0|0:0,0:0:0:0:
27,71,76083,1,2,0:0:0:0:
130,134,76483,1,0,0:0:0:0:
350,26,76883,6,0,L|353:115,1,90,2|0,0:0|0:0,0:0:0:0:
364,148,80083,6,0,P|325:123|267:135,1,89.9999972534181,4|0,3:1|0:0,0:0:0:0:
113,61,80483,1,2,0:2:0:0:
147,244,80683,1,0,3:2:0:0:
147,244,80783,1,0,3:0:0:0:
147,244,80883,2,0,P|162:195|141:146,1,89.9999972534181,10|0,3:2|0:0,0:0:0:0:
51,199,81283,1,2,3:2:0:0:
174,341,81483,6,0,L|289:331,1,89.9999972534181,0|2,3:2|0:2,0:0:0:0:
352,152,81883,1,0,3:2:0:0:
440,335,82083,1,2,0:2:0:0:
491,252,82283,1,0,3:2:0:0:
491,252,82383,1,0,3:0:0:0:
491,252,82483,1,12,3:0:0:0:
400,247,82683,1,0,3:2:0:0:
442,352,82883,1,2,0:2:0:0:
451,171,83083,1,8,3:2:0:0:
311,319,83283,6,0,B|278:328|278:328|203:317,1,89.9999972534181,4|0,3:1|0:0,0:0:0:0:
117,155,83683,1,2,0:2:0:0:
38,330,83883,1,0,3:2:0:0:
38,330,83983,1,0,3:2:0:0:
38,330,84083,2,0,P|44:283|36:227,1,89.9999972534181,10|0,3:2|0:0,0:0:0:0:
90,75,84483,1,2,3:2:0:0:
180,224,84683,6,0,P|225:228|277:204,1,89.9999972534181,0|2,3:2|0:2,0:0:0:0:
295,14,85083,1,0,3:2:0:0:
211,131,85283,1,2,0:2:0:0:
419,61,85483,1,0,3:2:0:0:
419,61,85583,1,0,3:2:0:0:
419,61,85683,5,12,3:0:0:0:
430,142,85983,5,4,3:1:0:0:
441,223,86283,5,4,3:1:0:0:
252,355,86483,6,0,L|146:342,1,89.9999972534181,4|0,3:1|0:0,0:0:0:0:
58,173,86883,1,2,0:2:0:0:
49,353,87083,1,0,3:2:0:0:
49,353,87183,1,0,3:2:0:0:
49,353,87283,1,10,3:2:0:0:
11,262,87483,1,0,0:0:0:0:
109,276,87683,1,2,3:2:0:0:
74,112,87883,6,0,L|69:221,1,89.9999972534181,0|2,3:2|0:2,0:0:0:0:
160,68,88283,1,0,3:2:0:0:
20,29,88483,1,2,0:2:0:0:
169,170,88683,1,0,3:2:0:0:
244,19,88883,1,12,3:0:0:0:
308,166,89084,2,2,P|309:121|306:74,1,89.9999972534181,2|0,3:2|0:2,0:2:0:0:
169,80,89483,1,8,3:2:0:0:
266,244,89683,6,0,P|308:255|351:242,1,89.9999972534181,4|0,3:1|0:0,0:0:0:0:
491,161,90083,1,2,0:2:0:0:
481,334,90283,1,0,3:2:0:0:
481,334,90383,1,0,3:2:0:0:
481,334,90483,2,0,P|434:323|375:345,1,89.9999972534181,10|0,3:2|0:0,0:0:0:0:
191,289,90883,1,2,3:2:0:0:
297,144,91083,6,0,P|301:188|287:231,1,89.9999972534181,0|2,3:2|0:2,0:0:0:0:
207,179,91483,1,0,3:2:0:0:
384,186,91683,1,2,3:2:0:0:
285,44,91883,1,0,0:0:0:0:
124,141,92083,6,0,L|99:192,1,44.999998626709,12|0,3:0|0:0,0:0:0:0:
19,85,92283,1,0,3:2:0:0:
197,31,92483,1,8,3:2:0:0:
197,31,92683,1,8,3:2:0:0:
231,267,92883,6,0,P|206:325|170:340,1,89.9999972534181,4|0,3:1|0:0,0:0:0:0:
104,181,93283,1,2,0:2:0:0:
95,351,93483,1,0,3:2:0:0:
281,193,93683,2,0,P|238:182|195:191,1,89.9999972534181,10|0,3:2|0:0,0:0:0:0:
357,268,94083,1,2,3:2:0:0:
442,118,94283,6,0,L|427:15,1,89.9999972534181,0|2,3:2|0:2,0:0:0:0:
443,214,94683,1,0,3:2:0:0:
331,94,94883,1,2,0:2:0:0:
210,265,95083,1,0,3:2:0:0:
210,265,95183,1,0,3:0:0:0:
210,265,95283,1,12,3:0:0:0:
259,180,95483,1,0,3:2:0:0:
166,180,95683,1,2,0:2:0:0:
259,342,95883,1,8,3:2:0:0:
347,185,96083,6,0,L|342:68,1,89.9999972534181,4|0,3:1|0:0,0:0:0:0:
119,106,96483,1,2,0:2:0:0:
274,28,96683,1,0,3:2:0:0:
274,28,96783,1,0,3:2:0:0:
274,28,96883,2,0,P|232:17|171:45,1,89.9999972534181,10|0,3:2|0:0,0:0:0:0:
22,27,97283,1,2,3:2:0:0:
118,190,97483,6,0,P|131:147|118:105,1,89.9999972534181,0|2,3:2|0:2,0:0:0:0:
35,254,97883,1,0,3:2:0:0:
133,355,98083,1,2,0:2:0:0:
292,183,98283,1,0,3:2:0:0:
292,183,98383,1,0,3:2:0:0:
292,183,98483,5,12,3:0:0:0:
367,213,98783,5,4,3:1:0:0:
373,302,99083,5,4,3:1:0:0:
482,153,99283,6,0,P|487:99|447:64,1,89.9999972534181,4|0,3:1|0:0,0:0:0:0:
277,39,99683,1,2,0:2:0:0:
383,127,99883,1,0,3:2:0:0:
212,225,100083,1,10,3:2:0:0:
241,126,100283,1,0,0:0:0:0:
351,235,100483,1,2,3:2:0:0:
186,315,100683,6,0,L|85:301,1,89.9999972534181,0|2,3:2|0:2,0:0:0:0:
40,98,101083,1,0,3:2:0:0:
22,228,101283,1,2,0:2:0:0:
175,89,101483,1,0,3:2:0:0:
269,253,101683,1,12,3:0:0:0:
359,99,101883,2,0,P|370:138|359:203,1,89.9999972534181,0|2,3:2|0:2,0:0:0:0:
269,44,102283,1,8,3:2:0:0:
494,200,102483,6,0,P|476:261|439:295,1,89.9999972534181,4|0,3:1|0:0,0:0:0:0:
269,253,102883,1,2,0:2:0:0:
362,378,103083,1,0,3:2:0:0:
362,378,103183,1,0,3:2:0:0:
362,378,103283,2,0,P|372:329|366:281,1,89.9999972534181,10|0,3:2|0:0,0:0:0:0:
263,155,103683,1,2,3:2:0:0:
147,340,103883,6,0,P|102:354|60:317,1,89.9999972534181,0|2,3:2|0:2,0:0:0:0:
61,130,104283,1,0,3:2:0:0:
206,242,104483,1,2,3:2:0:0:
198,55,104683,1,0,0:0:0:0:
381,141,104883,5,12,3:0:0:0:
199,148,105083,1,0,3:2:0:0:
379,11,105283,1,8,3:2:0:0:
379,11,105483,1,8,3:2:0:0:
481,280,105683,6,0,P|457:342|343:338,1,179.999994506836,4|0,3:1|0:0,0:0:0:0:
173,162,106283,1,0,3:2:0:0:
372,91,106483,2,0,L|480:109,1,89.9999972534181,12|0,3:3|0:0,0:0:0:0:
224,30,106883,1,0,3:2:0:0:
266,212,107083,6,0,P|286:164|265:115,1,89.9999972534181,4|0,3:1|0:0,0:0:0:0:
121,47,107483,1,0,3:2:0:0:
31,235,107683,2,0,L|36:341,1,89.9999972534181,4|0,3:1|0:0,0:0:0:0:
284,316,108083,1,8,3:2:0:0:
124,203,108283,1,0,3:2:0:0:
452,123,108483,1,12,3:0:0:0:
443,141,108883,6,0,B|397:156|397:156|353:141,1,89.9999972534181,4|0,3:1|0:0,0:0:0:0:
124,36,109283,1,8,3:2:0:0:
351,30,109483,1,0,3:2:0:0:
186,265,109683,1,8,3:2:0:0:
197,254,110083,1,0,3:2:0:0:
65,150,110283,6,0,L|46:275,1,89.9999972534181,4|0,3:1|0:0,0:0:0:0:
201,104,110683,1,0,3:2:0:0:
299,254,110883,1,0,3:2:0:0:
431,66,111083,1,0,3:2:0:0:
497,322,111283,1,8,3:2:0:0:
340,115,111483,1,0,3:2:0:0:
157,338,111683,1,8,3:2:0:0:
410,215,111883,1,8,3:2:0:0:
180,49,112083,6,0,B|145:121|220:145|175:231,1,179.999994506836,4|0,3:1|0:0,0:0:0:0:
19,336,112683,1,0,3:2:0:0:
28,127,112883,2,0,L|25:249,1,89.9999972534181,8|0,3:2|0:0,0:0:0:0:
165,323,113283,1,0,3:2:0:0:
300,119,113483,6,0,L|297:241,1,89.9999972534181,4|0,3:1|0:0,0:0:0:0:
165,81,113883,1,0,3:2:0:0:
389,19,114083,1,4,3:1:0:0:
257,6,114283,1,0,0:0:0:0:
427,186,114483,5,8,3:2:0:0:
167,231,114683,1,8,3:2:0:0:
355,106,114883,1,0,3:0:0:0:
328,346,115083,1,0,3:0:0:0:
161,65,115283,6,0,P|200:83|209:167,1,112.500004291535,4|0,3:1|0:0,0:0:0:0:
57,246,115883,2,0,P|53:203|121:153,1,112.500004291535,4|0,3:1|0:0,0:0:0:0:
289,260,116483,1,4,3:1:0:0:
179,347,116683,6,0,L|184:156,1,183.749994392395,4|2,3:1|0:2,0:0:0:0:
166,136,118483,6,0,P|218:145|266:87,1,127.50000243187,4|0,3:1|1:0,0:0:0:0:
331,25,119083,1,0,3:2:0:0:
402,165,119283,1,8,0:2:0:0:
447,85,119483,1,0,1:0:0:0:
512,154,119683,1,0,1:0:0:0:
466,238,119883,6,0,L|387:242,1,63.7500012159348,0|0,3:2|1:0,0:0:0:0:
319,173,120283,1,0,3:2:0:0:
402,165,120483,1,0,3:2:0:0:
403,325,120683,1,0,1:0:0:0:
403,325,120783,1,0,1:0:0:0:
403,325,120883,2,0,L|317:325,1,63.7500012159348,8|0,0:2|1:0,0:0:0:0:
270,264,121283,2,0,L|207:264,1,63.7500012159348,0|0,3:2|1:0,0:0:0:0:
81,352,121683,5,4,3:2:0:0:
13,227,121883,2,0,L|12:311,1,63.7500012159348,0|0,3:0|1:0,0:0:0:0:
91,180,122283,1,0,3:0:0:0:
7,41,122483,1,8,0:2:0:0:
87,91,122683,1,0,1:0:0:0:
167,34,122883,1,0,1:0:0:0:
242,163,123083,6,0,L|236:232,1,63.7500012159348,0|0,3:0|1:0,0:0:0:0:
245,78,123483,1,0,3:0:0:0:
165,125,123683,1,0,3:0:0:0:
329,132,123883,1,0,1:0:0:0:
329,132,123983,1,0,1:0:0:0:
329,132,124083,2,0,L|330:202,1,63.7500012159348,8|0,0:2|1:0,0:0:0:0:
330,352,124483,1,4,3:2:0:0:
340,339,124883,6,0,P|306:317|217:339,1,127.50000243187,4|0,3:1|1:0,0:0:0:0:
82,322,125483,1,0,3:0:0:0:
159,259,125683,2,0,P|172:221|166:183,1,63.7500012159348,8|0,0:2|1:0,0:0:0:0:
109,116,126083,1,0,1:0:0:0:
109,116,126283,6,0,L|197:112,1,63.7500012159348,0|0,3:0|1:0,0:0:0:0:
296,62,126683,1,0,3:0:0:0:
212,19,126883,1,0,3:0:0:0:
267,167,127083,1,0,1:0:0:0:
267,167,127183,1,0,1:0:0:0:
267,167,127283,2,0,P|262:206|253:237,1,63.7500012159348,8|0,0:2|1:0,0:0:0:0:
388,130,127683,2,0,P|392:169|402:200,1,63.7500012159348,0|0,3:0|1:0,0:0:0:0:
293,51,128083,5,4,3:2:0:0:
380,12,128283,2,0,L|462:12,1,63.7500012159348,0|0,3:0|1:0,0:0:0:0:
280,36,128683,1,0,3:0:0:0:
388,130,128883,1,8,0:2:0:0:
478,94,129083,1,0,1:0:0:0:
486,196,129283,1,0,1:0:0:0:
377,123,129483,6,0,P|337:117|290:133,1,63.7500012159348,0|0,3:0|1:0,0:0:0:0:
157,110,129883,1,0,3:0:0:0:
233,173,130083,1,0,3:0:0:0:
106,289,130283,1,0,1:0:0:0:
106,289,130383,1,0,1:0:0:0:
106,289,130483,1,8,0:2:0:0:
130,199,130683,1,0,1:0:0:0:
205,272,130883,1,0,1:0:0:0:
6,209,131083,1,0,3:0:0:0:
27,206,131183,1,0,3:0:0:0:
43,196,131283,6,0,P|59:131|61:67,1,127.50000243187,4|0,3:1|1:0,0:0:0:0:
145,13,131883,1,0,3:0:0:0:
246,113,132083,2,0,P|279:118|330:100,1,63.7500012159348,8|0,0:2|1:0,0:0:0:0:
380,37,132483,1,0,1:0:0:0:
451,154,132683,6,0,L|461:92,1,63.7500012159348,0|0,3:0|1:0,0:0:0:0:
367,208,133083,1,0,3:0:0:0:
442,279,133283,1,0,3:0:0:0:
320,365,133483,1,0,1:0:0:0:
320,365,133583,1,0,1:0:0:0:
320,365,133683,2,0,L|236:356,1,63.7500012159348,8|0,0:2|1:0,0:0:0:0:
210,279,134083,2,0,L|126:270,1,63.7500012159348,0|0,3:0|1:0,0:0:0:0:
14,350,134483,5,4,3:2:0:0:
62,211,134683,2,0,L|61:294,1,63.7500012159348,0|0,3:0|1:0,0:0:0:0:
4,134,135083,1,0,3:0:0:0:
152,175,135283,2,0,P|188:174|240:159,1,63.7500012159348,8|0,0:2|1:0,0:0:0:0:
271,85,135683,1,0,1:0:0:0:
201,23,135883,6,0,P|164:23|113:39,1,63.7500012159348,0|0,3:0|1:0,0:0:0:0:
290,82,136283,1,0,3:0:0:0:
350,3,136483,1,0,3:0:0:0:
430,158,136683,1,0,1:0:0:0:
430,158,136783,1,0,1:0:0:0:
430,158,136883,2,0,L|362:155,1,63.7500012159348,8|0,0:2|1:0,0:0:0:0:
195,152,137283,1,4,3:2:0:0:
214,147,137683,6,0,P|200:184|254:249,1,127.50000243187,4|0,3:1|1:0,0:0:0:0:
324,314,138283,1,0,3:0:0:0:
173,367,138483,2,0,L|83:355,1,63.7500012159348,8|0,0:2|1:0,0:0:0:0:
23,310,138883,1,0,1:0:0:0:
59,161,139083,6,0,L|64:224,1,63.7500012159348,0|0,3:0|1:0,0:0:0:0:
214,214,139483,1,0,3:0:0:0:
140,270,139683,1,0,3:0:0:0:
167,118,139883,1,0,1:0:0:0:
167,118,139983,1,0,1:0:0:0:
167,118,140083,2,0,P|205:120|248:116,1,63.7500012159348,8|0,0:2|1:0,0:0:0:0:
387,116,140483,2,0,P|348:118|306:114,1,63.7500012159348,0|0,3:0|1:0,0:0:0:0:
197,36,140883,5,4,3:2:0:0:
282,184,141083,2,0,P|287:213|281:260,1,63.7500012159348,0|0,3:0|1:0,0:0:0:0:
266,336,141483,1,0,3:0:0:0:
427,302,141683,1,8,0:2:0:0:
359,373,141883,1,0,1:0:0:0:
372,229,142083,1,0,1:0:0:0:
258,339,142283,6,0,P|220:339|179:327,1,63.7500012159348,0|0,3:0|1:0,0:0:0:0:
87,247,142683,1,0,3:0:0:0:
97,341,142883,1,0,3:0:0:0:
193,225,143083,1,0,1:0:0:0:
193,225,143183,1,0,1:0:0:0:
193,225,143283,1,8,0:2:0:0:
126,160,143483,1,0,3:0:0:0:
256,76,143683,1,0,1:0:0:0:
74,8,143883,1,0,3:0:0:0:
20,238,144083,5,4,3:1:0:0:
279,208,150083,5,4,0:2:0:0:
279,208,150483,6,0,P|247:189|222:189,1,48.7499977684022,4|0,3:1|0:0,0:0:0:0:
243,96,150883,6,0,P|190:110|164:136,1,63.7500012159348,8|0,0:2|0:0,0:0:0:0:
274,297,151283,6,0,P|313:290|345:268,1,78.7499975967408,0|0,3:0|0:0,0:0:0:0:
118,54,151683,6,0,P|101:100|105:149,1,93.75,8|0,0:2|0:0,0:0:0:0:
409,320,152083,6,0,P|427:267|422:211,1,108.750003318787,0|0,3:0|0:0,0:0:0:0:
0,182,152483,6,0,P|40:230|98:257,1,123.750001180172,8|0,0:2|0:0,0:0:0:0:
452,87,152883,6,0,P|389:98|337:135,1,123.750001180172,0|0,3:0|0:0,0:0:0:0:
218,374,153283,6,0,P|239:314|233:250,1,123.750001180172,8|0,0:2|0:0,0:0:0:0:
86,45,153683,5,12,0:3:0:0:
211,184,153883,1,8,0:2:0:0:
37,199,154083,1,0,3:0:0:0:
196,29,154283,1,0,3:0:0:0:
196,29,154483,2,0,P|200:60|197:118,1,63.7500012159348,0|0,3:0|3:0,0:0:0:0:
84,318,154883,5,12,0:3:0:0:
127,168,155083,1,8,0:2:0:0:
311,294,155283,5,0,3:0:0:0:
311,294,155383,1,0,3:0:0:0:
311,294,155483,1,12,0:3:0:0:
105,243,155683,1,8,0:2:0:0:
279,155,155883,1,0,3:0:0:0:
461,362,156083,6,0,B|456:337|456:337|458:323|458:323|454:301,1,56.25,8|0,0:2|0:0,0:0:0:0:
264,328,156883,6,0,P|322:349|338:241,1,191.250003647804,4|0,3:1|0:0,0:0:0:0:
69,224,157683,2,0,B|107:216|147:234|147:234|187:218|187:218|219:223|256:223,1,191.250003647804,4|0,3:1|0:0,0:0:0:0:
413,82,158483,2,0,P|354:60|339:169,1,191.250003647804,4|0,3:1|0:0,0:0:0:0:
512,191,159283,6,0,P|480:176|441:179,1,63.7500012159348,8|0,0:2|0:0,0:0:0:0:
320,319,159683,2,0,P|334:287|332:248,1,63.7500012159348,4|0,3:1|0:0,0:0:0:0:
216,96,160083,6,0,B|156:88|128:52|128:52|100:88|40:96,1,191.250003647804,4|0,3:1|0:0,0:0:0:0:
48,284,160883,2,0,B|97:290|125:326|125:326|153:290|213:282,1,191.250003647804,4|0,3:1|0:0,0:0:0:0:
426,186,161683,2,0,B|361:170|363:214|301:187,1,127.50000243187,4|0,3:1|0:0,0:0:0:0:
174,88,162283,5,0,3:0:0:0:
174,88,162383,1,0,3:0:0:0:
174,88,162483,1,8,0:2:0:0:
276,86,162683,1,8,0:2:0:0:
225,254,162883,1,8,0:2:0:0:
224,13,163083,1,8,0:2:0:0:
113,217,163283,6,0,P|29:204|52:123,1,191.250003647804,4|0,3:1|0:0,0:0:0:0:
337,180,164083,2,0,P|365:149|262:102,1,191.250003647804,4|0,3:1|0:0,0:0:0:0:
221,341,164883,2,0,L|418:317,1,191.250003647804,4|0,3:1|0:0,0:0:0:0:
421,145,165683,5,12,0:2:0:0:
505,245,165883,1,0,3:0:0:0:
507,63,166083,1,8,0:2:0:0:
507,63,166283,1,8,0:2:0:0:
342,216,166483,6,0,B|327:234|289:235|289:235|226:205|154:227,1,191.250003647804,4|0,3:1|0:0,0:0:0:0:
27,49,167283,2,0,P|69:78|179:3,1,191.250003647804,4|0,3:1|0:0,0:0:0:0:
418,53,168083,2,0,P|351:50|311:114,1,127.50000243187,4|0,3:1|0:0,0:0:0:0:
98,216,168683,5,0,3:0:0:0:
98,216,168783,1,0,3:0:0:0:
98,216,168883,1,12,0:2:0:0:
182,128,169083,1,0,3:0:0:0:
202,295,169283,1,8,0:2:0:0:
87,112,169483,1,8,0:2:0:0:
306,182,169683,6,0,P|342:187|384:167,1,63.7500012159348,4|0,3:1|0:0,0:0:0:0:
420,31,170083,2,0,P|415:67|435:109,1,63.7500012159348,0|0,1:0|0:0,0:0:0:0:
305,263,170483,6,0,P|341:268|383:248,1,63.7500012159348,4|0,3:1|0:0,0:0:0:0:
450,160,170883,2,0,P|445:196|465:238,1,63.7500012159348,0|0,1:0|0:0,0:0:0:0:
304,344,171283,6,0,P|340:349|382:329,1,63.7500012159348,4|0,3:1|0:0,0:0:0:0:
458,296,171683,2,0,P|453:332|473:374,1,63.7500012159348,0|0,1:0|0:0,0:0:0:0:
217,341,172083,6,0,P|188:340|138:316,1,63.7500012159348,12|0,0:2|0:0,0:0:0:0:
229,191,172483,1,4,3:2:0:0:
152,92,172683,1,0,0:0:0:0:
48,235,172883,6,0,B|36:203|36:203|47:151,1,63.7500012159348,4|0,3:1|0:0,0:0:0:0:
152,92,173283,2,0,B|123:85|123:85|91:97,1,63.7500012159348,0|0,1:0|0:0,0:0:0:0:
234,251,173683,6,0,B|222:219|222:219|233:167,1,63.7500012159348,4|0,3:1|0:0,0:0:0:0:
338,108,174083,2,0,B|309:101|309:101|277:113,1,63.7500012159348,0|0,1:0|0:0,0:0:0:0:
407,246,174483,6,0,B|395:214|395:214|406:162,1,63.7500012159348,4|0,3:1|0:0,0:0:0:0:
511,103,174883,1,0,1:0:0:0:
436,41,175083,5,0,3:2:0:0:
436,41,175183,1,0,3:2:0:0:
436,41,175283,1,8,0:2:0:0:
362,102,175483,1,8,0:2:0:0:
271,27,175683,1,8,0:2:0:0:
182,156,175883,1,8,0:2:0:0:
47,49,176083,6,0,L|54:143,1,63.7500012159348,4|0,3:1|0:0,0:0:0:0:
105,261,176483,2,0,L|100:197,1,63.7500012159348,0|0,1:0|0:0,0:0:0:0:
147,21,176883,6,0,L|154:115,1,63.7500012159348,4|0,3:1|0:0,0:0:0:0:
205,233,177283,2,0,L|200:169,1,63.7500012159348,0|0,1:0|0:0,0:0:0:0:
255,0,177683,6,0,L|262:94,1,63.7500012159348,4|0,3:1|0:0,0:0:0:0:
313,212,178083,2,0,L|308:148,1,63.7500012159348,0|0,1:0|0:0,0:0:0:0:
422,16,178483,1,12,0:2:0:0:
458,196,178683,1,0,3:0:0:0:
504,90,178883,1,8,0:2:0:0:
504,90,179083,1,8,0:2:0:0:
314,168,179283,6,0,P|278:184|187:144,1,127.50000243187,4|4,3:1|1:2,0:0:0:0:
107,30,179883,1,0,3:0:0:0:
25,193,180083,2,0,L|26:286,1,63.7500012159348,8|0,0:2|0:0,0:0:0:0:
64,107,180483,1,4,3:1:0:0:
144,236,180683,1,0,3:0:0:0:
242,101,180883,6,0,P|243:72|231:33,2,42.5000008106232,8|8|0,0:2|0:2|3:0,0:0:0:0:
325,198,181283,2,0,L|336:266,2,42.5000008106232,0|0|0,3:0|3:0|3:0,0:0:0:0:
420,80,181683,1,8,0:2:0:0:
453,90,181816,1,8,0:2:0:0:
479,113,181949,1,8,0:2:0:0:
492,146,182083,1,8,0:2:0:0:
490,181,182216,1,8,0:2:0:0:
474,212,182349,1,8,0:2:0:0:
445,232,182483,1,0,3:0:0:0:
157,98,188083,6,0,B|123:89|90:103|90:103|69:99|25:68,2,112.5,12|8|8,0:2|0:2|0:2,0:0:0:0:
262,24,188883,2,0,P|247:67|259:100,1,75,4|0,3:1|0:0,0:0:0:0:
404,206,189283,1,0,3:0:0:0:
404,206,189683,2,0,P|364:195|317:218,1,75,4|0,3:1|0:0,0:0:0:0:
158,287,190083,1,0,3:0:0:0:
29,35,190483,6,0,L|36:139,1,75,12|0,0:3|0:0,0:0:0:0:
58,301,190883,1,0,3:0:0:0:
258,31,191283,1,12,0:3:0:0:
348,353,191683,1,0,3:0:0:0:
445,70,192083,5,0,3:0:0:0:
451,145,192283,1,0,3:0:0:0:
417,221,192483,1,0,3:0:0:0:
332,274,192683,1,0,3:0:0:0:
229,266,192883,1,0,3:0:0:0:
155,206,193083,1,0,3:0:0:0:
132,105,193283,1,0,3:0:0:0:
178,11,193483,1,0,3:0:0:0:
400,136,193683,6,0,L|450:142,2,50,8|8|8,0:2|0:2|0:2,0:0:0:0:
278,260,194083,2,0,L|228:266,2,50,8|8|8,0:2|0:2|0:2,0:0:0:0:
462,334,194483,6,0,P|432:328|416:330,1,37.5,4|0,3:2|0:0,0:0:0:0:
400,345,195283,6,0,P|418:305|384:236,1,89.9999972534181,4|0,3:1|0:0,0:0:0:0:
282,125,195683,1,2,0:2:0:0:
414,145,195883,1,0,3:2:0:0:
324,295,196083,2,0,B|292:304|292:304|204:295,1,89.9999972534181,10|0,3:2|0:0,0:0:0:0:
133,161,196483,1,2,3:2:0:0:
111,346,196683,6,0,P|129:305|128:261,1,89.9999972534181,0|2,3:2|0:2,0:0:0:0:
38,137,197083,1,0,3:2:0:0:
180,60,197283,1,2,0:2:0:0:
64,24,197483,1,0,3:2:0:0:
154,177,197683,1,12,3:0:0:0:
323,93,197883,2,0,P|326:140|315:207,1,89.9999972534181,0|2,3:2|0:2,0:0:0:0:
259,13,198283,1,8,3:2:0:0:
452,78,198483,6,0,P|462:121|460:184,1,89.9999972534181,4|0,3:1|0:0,0:0:0:0:
302,284,198883,1,2,0:2:0:0:
497,260,199083,1,0,3:2:0:0:
497,260,199183,1,0,3:2:0:0:
497,260,199283,2,0,P|448:250|397:267,1,89.9999972534181,10|0,3:2|0:0,0:0:0:0:
199,246,199683,1,2,3:2:0:0:
303,372,199883,6,0,P|312:323|295:272,1,89.9999972534181,0|2,3:2|0:2,0:0:0:0:
249,123,200283,1,0,3:2:0:0:
178,241,200483,1,2,0:2:0:0:
34,90,200683,1,0,3:2:0:0:
34,90,200783,1,0,3:2:0:0:
34,90,200883,5,12,3:0:0:0:
36,179,201183,5,4,3:1:0:0:
38,268,201483,5,4,3:1:0:0:
170,67,201683,6,0,P|222:48|263:62,1,89.9999972534181,4|0,3:1|0:0,0:0:0:0:
392,148,202083,1,2,0:2:0:0:
372,13,202283,1,0,3:2:0:0:
220,134,202483,2,0,L|228:245,1,89.9999972534181,10|0,3:2|0:0,0:0:0:0:
360,311,202883,1,2,3:2:0:0:
494,119,203083,6,0,L|486:230,1,89.9999972534181,0|2,3:2|0:2,0:0:0:0:
362,43,203483,1,0,3:2:0:0:
374,179,203683,1,2,0:2:0:0:
457,25,203883,1,0,3:2:0:0:
285,170,204083,1,12,3:0:0:0:
127,60,204283,2,0,P|109:101|117:160,1,89.9999972534181,0|2,3:2|0:2,0:0:0:0:
236,19,204683,1,8,3:2:0:0:
374,179,204883,6,0,L|268:168,1,89.9999972534181,4|0,3:1|0:0,0:0:0:0:
174,334,205283,1,2,0:2:0:0:
208,129,205483,1,0,3:2:0:0:
208,129,205583,1,0,3:2:0:0:
208,129,205683,2,0,P|200:177|206:221,1,89.9999972534181,10|0,3:2|0:0,0:0:0:0:
296,370,206083,1,2,3:2:0:0:
131,249,206283,6,0,P|92:233|26:249,1,89.9999972534181,0|2,3:2|0:2,0:0:0:0:
61,34,206683,1,0,3:2:0:0:
208,129,206883,2,0,P|249:118|293:63,1,89.9999972534181,2|0,3:2|0:0,0:0:0:0:
481,17,207283,1,12,3:0:0:0:
365,157,207483,1,0,3:2:0:0:
512,290,207683,1,8,3:2:0:0:
512,290,207883,1,8,3:2:0:0:
189,365,208083,6,0,P|134:352|182:244,1,179.999994506836,4|0,3:1|0:0,0:0:0:0:
402,171,208683,1,0,3:2:0:0:
243,37,208883,2,0,L|123:56,1,89.9999972534181,12|0,3:0|0:0,0:0:0:0:
408,14,209283,1,0,3:2:0:0:
214,150,209483,6,0,L|94:169,1,89.9999972534181,4|0,3:1|0:0,0:0:0:0:
46,14,209883,1,0,3:2:0:0:
39,239,210083,1,4,3:1:0:0:
153,50,210283,1,0,3:0:0:0:
296,263,210483,1,8,3:2:0:0:
84,141,210683,1,0,3:2:0:0:
395,77,210883,1,12,3:0:0:0:
385,96,211283,6,0,P|332:103|275:60,1,89.9999972534181,4|0,3:1|0:0,0:0:0:0:
60,134,211683,1,8,3:2:0:0:
203,6,211883,1,0,3:2:0:0:
307,323,212083,1,8,3:2:0:0:
316,305,212483,1,0,3:2:0:0:
200,170,212683,6,0,P|187:217|200:279,1,89.9999972534181,4|0,3:1|0:0,0:0:0:0:
348,116,213083,1,0,3:2:0:0:
92,109,213283,1,0,3:2:0:0:
316,0,213483,1,0,3:2:0:0:
279,219,213683,1,8,3:2:0:0:
176,7,213883,1,0,3:2:0:0:
47,289,214083,1,8,3:2:0:0:
376,262,214283,1,8,3:2:0:0:
91,28,214483,6,0,B|93:72|104:97|104:97|80:132|80:132|90:163|86:203,1,179.999994506836,4|0,3:1|0:0,0:0:0:0:
281,347,215083,1,0,3:2:0:0:
321,137,215283,2,0,P|276:133|221:156,1,89.9999972534181,8|0,3:2|0:0,0:0:0:0:
421,260,215683,1,0,3:2:0:0:
498,111,215883,6,0,L|489:16,1,89.9999972534181,4|0,3:1|0:0,0:0:0:0:
291,22,216283,1,0,3:2:0:0:
419,160,216483,2,0,L|387:53,1,89.9999972534181,4|0,3:1|0:0,0:0:0:0:
277,222,216883,1,8,3:2:0:0:
125,45,217083,1,8,3:2:0:0:
104,294,217283,1,0,3:0:0:0:
47,97,217483,1,0,3:0:0:0:
387,236,217683,6,0,P|389:182|325:135,1,112.500004291535,4|0,3:1|0:0,0:0:0:0:
164,223,218283,2,0,L|277:222,1,112.500004291535,4|0,3:1|0:0,0:0:0:0:
464,116,218883,1,4,3:1:0:0:
262,76,219083,2,0,L|268:147,1,56.2500021457673,4|0,3:1|0:0,0:0:0:0:
374,18,219483,5,8,0:2:0:0:
374,18,219683,1,8,0:2:0:0:
363,171,219883,1,0,3:0:0:0:
480,101,220083,2,0,P|490:77|484:32,1,56.2500021457673,0|0,3:0|3:0,0:0:0:0:
342,94,220483,1,0,3:0:0:0:
414,242,220683,1,0,3:0:0:0:
179,243,220883,70,0,B|102:291|143:353|147:374|147:374|168:370|233:407|265:283|265:283|302:407|366:367|387:370|387:370|390:350|445:297|336:227|336:227|465:230|447:157|458:139|458:139|437:129|406:62|308:143|308:143|349:23|274:19|258:3|258:3|244:19|169:28|214:144|214:144|111:65|83:135|65:145|65:145|75:163|59:237|186:230,1,1679.99994873047,4|0,3:1|2:0,0:0:0:0:
