osu file format v14

[General]
AudioFilename: audio.mp3
AudioLeadIn: 0
PreviewTime: 2200
Countdown: 0
SampleSet: Soft
StackLeniency: 0.7
Mode: 0
LetterboxInBreaks: 0
WidescreenStoryboard: 0

[Editor]
DistanceSpacing: 1
BeatDivisor: 4
GridSize: 32
TimelineZoom: 1

[Metadata]
Title:Eternity
TitleUnicode:Eternity
Artist:Yuyoyuppe
ArtistUnicode:ゆよゆっぺ
Creator:Vivyanne
Version:Forever
Source:
Tags:piano misericordia instrumental
BeatmapID:3373994
BeatmapSetID:1652875

[Difficulty]
HPDrainRate:6
CircleSize:6
OverallDifficulty:6
ApproachRate:6
SliderMultiplier:1.4
SliderTickRate:0.5

[Events]
//Background and Video events
0,0,"Naamloos.png",0,0
//Break Periods
//Storyboard Layer 0 (Background)
//Storyboard Layer 1 (Fail)
//Storyboard Layer 2 (Pass)
//Storyboard Layer 3 (Foreground)
//Storyboard Layer 4 (Overlay)
//Storyboard Sound Samples

[TimingPoints]
2200,352.941176470588,3,2,1,30,1,0
2200,-200,3,2,1,30,0,0
3258,-1000,3,2,1,30,0,0
3964,-1000,3,2,1,5,0,0
4317,-1000,3,2,1,30,0,0
5994,-1000,3,2,1,5,0,0
6082,-1000,3,2,1,30,0,0
8199,-1000,3,2,1,5,0,0
8552,-1000,3,2,1,30,0,0
12435,-1000,3,2,1,5,0,0
12788,-1000,3,2,1,30,0,0
14464,-1000,3,2,1,5,0,0
14552,-1000,3,2,1,30,0,0
16670,-1000,3,2,1,5,0,0
17023,-1000,3,2,1,30,0,0
19141,-200,3,2,1,30,0,0
20905,-200,3,2,1,5,0,0
21258,-200,3,2,1,30,0,0
22935,-200,3,2,1,5,0,0
23023,-200,3,2,1,30,0,0
25141,-200,3,2,1,5,0,0
25494,-200,3,2,1,30,0,0
29376,-200,3,2,1,5,0,0
29729,-200,3,2,1,30,0,0
31405,-200,3,2,1,5,0,0
31494,-200,3,2,1,30,0,0
33611,-200,3,2,1,5,0,0
33964,-200,3,2,1,30,0,0
35729,-200,3,2,1,5,0,0
36082,-1000,3,2,1,30,0,0
50464,-1000,3,2,1,5,0,0
50552,-1000,3,2,1,30,0,0
53023,-200,3,2,1,30,0,0
67405,-200,3,2,1,5,0,0
67494,-200,3,2,1,30,0,0
69611,-200,3,2,1,5,0,0
69964,-200,3,2,1,30,0,0
86905,-200,3,2,1,30,0,1
90788,-200,3,2,1,5,0,1
91141,-200,3,2,1,30,0,1
99258,-200,3,2,1,5,0,1
99611,-200,3,2,1,30,0,1
107729,-200,3,2,1,5,0,1
108082,-200,3,2,1,30,0,1
116199,-200,3,2,1,5,0,1
116552,-200,3,2,1,30,0,1
119729,-1000,3,2,1,30,0,1
120435,-1000,3,2,1,5,0,1
120788,-200,3,2,1,30,0,0
125023,365.853658536585,3,2,1,30,1,0
126120,379.746835443038,3,2,1,30,1,0
127259,405.405405405405,3,2,1,30,1,0
128475,441.176470588235,3,2,1,30,1,0
128916,500,3,2,1,30,1,0

[Colours]
Combo1 : 218,167,235
Combo2 : 179,226,240

[HitObjects]
394,52,2200,5,2,0:0:0:0:
384,113,2552,1,0,0:0:0:0:
442,92,2905,1,0,0:0:0:0:
336,73,3258,2,0,L|308:69,1,28,2|0,0:0|0:0,0:0:0:0:
97,121,4317,5,2,0:0:0:0:
107,182,4669,1,0,0:0:0:0:
49,161,5022,1,0,0:0:0:0:
155,142,5376,2,0,L|179:138,1,24.5,2|0,0:0|0:0,0:0:0:0:
185,144,6082,1,2,0:0:0:0:
407,235,6435,5,2,0:0:0:0:
416,173,6788,1,0,0:0:0:0:
345,226,7141,1,0,0:0:0:0:
354,164,7494,2,0,L|359:134,1,28,2|0,0:0|0:0,0:0:0:0:
212,263,8552,5,2,0:0:0:0:
191,317,8905,1,0,0:0:0:0:
249,309,9258,1,0,0:0:0:0:
154,271,9611,5,2,0:0:0:0:
270,255,9964,1,2,0:0:0:0:
228,363,10317,1,2,0:0:0:0:
73,117,10670,5,2,0:0:0:0:
118,169,11023,1,0,0:0:0:0:
20,162,11376,1,0,0:0:0:0:
171,124,11729,2,0,L|197:117,1,28,2|0,0:0|0:0,0:0:0:0:
416,190,12788,5,2,0:0:0:0:
371,242,13141,1,0,0:0:0:0:
469,235,13494,1,0,0:0:0:0:
318,197,13847,2,0,L|294:190,1,24.5,2|0,0:0|0:0,0:0:0:0:
285,194,14552,1,2,0:0:0:0:
72,239,14905,5,2,0:0:0:0:
64,299,15258,1,0,0:0:0:0:
132,247,15611,1,0,0:0:0:0:
124,307,15964,2,0,L|120:336,1,28,2|0,0:0|0:0,0:0:0:0:
356,214,17023,5,2,0:0:0:0:
410,241,17376,1,0,0:0:0:0:
460,207,17729,1,0,0:0:0:0:
413,301,18082,5,6,0:0:0:0:
304,10,19141,5,6,0:0:0:0:
372,14,19494,1,0,0:0:0:0:
300,78,19847,1,0,0:0:0:0:
368,82,20199,2,0,L|361:225,1,140,2|0,0:0|0:0,0:0:0:0:
119,366,21258,5,2,0:0:0:0:
123,298,21611,1,0,0:0:0:0:
51,362,21964,1,0,0:0:0:0:
55,294,22317,2,0,P|65:244|58:160,1,122.5,2|0,0:0|0:0,0:0:0:0:
54,166,23023,1,2,0:0:0:0:
275,32,23376,5,2,0:0:0:0:
269,98,23729,1,0,0:0:0:0:
214,59,24082,1,0,0:0:0:0:
330,71,24435,2,0,B|386:67|386:67|406:83|406:83|473:79,1,140,2|0,0:0|0:0,0:0:0:0:
151,182,25494,5,2,0:0:0:0:
85,176,25847,1,0,0:0:0:0:
124,121,26200,1,0,0:0:0:0:
113,237,26552,5,2,0:0:0:0:
190,127,26905,1,2,0:0:0:0:
58,115,27258,1,2,0:0:0:0:
332,342,27611,5,2,0:0:0:0:
299,284,27964,1,0,0:0:0:0:
389,309,28317,1,0,0:0:0:0:
242,317,28670,2,0,B|191:310|191:310|158:332|158:332|104:324,1,140,2|0,0:0|0:0,0:0:0:0:
21,75,29729,5,2,0:0:0:0:
79,108,30082,1,0,0:0:0:0:
54,18,30435,1,0,0:0:0:0:
46,165,30788,2,0,L|51:288,1,122.5,2|0,0:0|0:0,0:0:0:0:
48,297,31494,1,2,0:0:0:0:
278,66,31847,5,2,0:0:0:0:
207,71,32199,1,0,0:0:0:0:
283,137,32553,1,0,0:0:0:0:
212,142,32905,2,0,B|220:253|220:253|196:232,1,140,2|0,0:0|0:0,0:0:0:0:
355,333,33964,5,2,0:0:0:0:
419,299,34317,1,0,0:0:0:0:
480,337,34670,1,0,0:0:0:0:
421,227,35023,6,0,B|406:132|443:187|432:84,1,140,2|0,0:0|0:0,0:0:0:0:
140,32,36082,5,6,0:0:0:0:
133,39,36435,1,0,0:0:0:0:
149,22,36788,1,0,0:0:0:0:
147,45,37141,1,0,0:0:0:0:
135,25,37494,1,0,0:0:0:0:
156,34,37847,1,0,0:0:0:0:
311,138,38199,5,2,0:0:0:0:
303,130,38552,1,0,0:0:0:0:
319,147,38905,1,0,0:0:0:0:
317,124,39258,1,0,0:0:0:0:
305,144,39611,1,0,0:0:0:0:
326,135,39964,1,0,0:0:0:0:
125,229,40317,5,2,0:0:0:0:
118,240,40670,1,0,0:0:0:0:
129,219,41023,1,0,0:0:0:0:
132,242,41376,1,0,0:0:0:0:
116,225,41729,1,0,0:0:0:0:
139,230,42082,1,0,0:0:0:0:
426,347,42435,5,2,0:0:0:0:
373,306,42788,1,0,0:0:0:0:
377,295,43141,1,0,0:0:0:0:
426,347,43494,5,2,0:0:0:0:
357,364,43847,1,2,0:0:0:0:
308,312,44199,1,2,0:0:0:0:
439,92,44552,5,2,0:0:0:0:
436,108,44905,1,0,0:0:0:0:
441,80,45258,1,0,0:0:0:0:
425,98,45611,1,0,0:0:0:0:
452,89,45964,1,0,0:0:0:0:
428,84,46317,1,0,0:0:0:0:
196,135,46670,5,2,0:0:0:0:
199,151,47023,1,0,0:0:0:0:
194,123,47376,1,0,0:0:0:0:
210,141,47729,1,0,0:0:0:0:
183,132,48082,1,0,0:0:0:0:
207,127,48435,1,0,0:0:0:0:
403,298,48788,5,2,0:0:0:0:
395,317,49141,1,0,0:0:0:0:
415,315,49494,1,0,0:0:0:0:
402,308,49847,6,0,L|376:305,1,24.5,2|0,0:0|0:0,0:0:0:0:
370,310,50552,1,2,0:0:0:0:
50,239,50905,5,2,0:0:0:0:
107,270,51258,1,0,0:0:0:0:
162,236,51611,1,0,0:0:0:0:
108,334,51964,5,2,0:0:0:0:
106,344,52317,1,0,0:0:0:0:
104,354,52670,1,0,0:0:0:0:
360,296,53023,5,6,0:0:0:0:
390,236,53376,1,0,0:0:0:0:
426,291,53729,1,0,0:0:0:0:
360,296,54082,5,0,0:0:0:0:
420,176,54435,1,0,0:0:0:0:
493,287,54788,1,0,0:0:0:0:
179,235,55141,5,2,0:0:0:0:
149,175,55494,1,0,0:0:0:0:
113,230,55847,1,0,0:0:0:0:
179,235,56200,5,0,0:0:0:0:
119,115,56553,1,0,0:0:0:0:
46,226,56906,1,0,0:0:0:0:
339,137,57258,5,2,0:0:0:0:
369,77,57611,1,0,0:0:0:0:
405,132,57964,1,0,0:0:0:0:
339,137,58317,5,0,0:0:0:0:
399,17,58670,1,0,0:0:0:0:
472,128,59023,1,0,0:0:0:0:
198,12,59376,5,2,0:0:0:0:
133,110,59729,1,0,0:0:0:0:
133,121,60082,1,0,0:0:0:0:
198,12,60435,5,2,0:0:0:0:
250,117,60788,1,2,0:0:0:0:
185,215,61141,1,2,0:0:0:0:
447,25,61494,5,6,0:0:0:0:
487,75,61847,1,0,0:0:0:0:
437,115,62199,1,0,0:0:0:0:
447,25,62552,5,0,0:0:0:0:
497,139,62905,1,0,0:0:0:0:
373,125,63258,1,0,0:0:0:0:
138,124,63611,5,2,0:0:0:0:
98,174,63964,1,0,0:0:0:0:
148,214,64316,1,0,0:0:0:0:
138,124,64670,5,0,0:0:0:0:
88,238,65022,1,0,0:0:0:0:
212,224,65375,1,0,0:0:0:0:
400,251,65729,5,2,0:0:0:0:
440,301,66082,1,0,0:0:0:0:
390,341,66434,1,0,0:0:0:0:
350,291,66788,6,0,B|311:285|311:285|271:305|271:305|222:298,1,122.5,2|0,0:0|0:0,0:0:0:0:
228,307,67494,1,2,0:0:0:0:
7,337,67847,5,2,0:0:0:0:
57,377,68200,1,0,0:0:0:0:
97,327,68552,1,0,0:0:0:0:
47,287,68905,5,2,0:0:0:0:
44,294,69258,2,0,L|49:220,1,70,2|0,0:0|0:0,0:0:0:0:
156,3,69964,5,6,0:0:0:0:
217,79,70317,1,0,0:0:0:0:
182,170,70670,1,0,0:0:0:0:
156,3,71023,5,2,0:0:0:0:
217,79,71376,1,0,0:0:0:0:
182,170,71729,1,0,0:0:0:0:
76,367,72082,5,2,0:0:0:0:
147,276,72435,1,0,0:0:0:0:
238,347,72788,1,0,0:0:0:0:
76,367,73141,5,2,0:0:0:0:
147,276,73494,1,0,0:0:0:0:
238,347,73847,1,0,0:0:0:0:
434,366,74199,5,2,0:0:0:0:
408,199,74552,1,2,0:0:0:0:
373,290,74905,1,0,0:0:0:0:
434,366,75258,5,2,0:0:0:0:
470,275,75611,1,0,0:0:0:0:
408,199,75964,1,0,0:0:0:0:
491,48,76317,5,2,0:0:0:0:
371,27,76670,1,0,0:0:0:0:
470,168,77023,1,2,0:0:0:0:
350,147,77376,5,2,0:0:0:0:
371,27,77729,1,2,0:0:0:0:
491,48,78082,1,2,0:0:0:0:
173,6,78435,5,2,0:0:0:0:
164,111,78788,1,0,0:0:0:0:
155,218,79141,1,0,0:0:0:0:
173,6,79494,5,2,0:0:0:0:
164,111,79847,1,0,0:0:0:0:
155,218,80200,1,0,0:0:0:0:
481,128,80552,5,2,0:0:0:0:
401,53,80905,1,0,0:0:0:0:
296,84,81258,1,0,0:0:0:0:
481,128,81611,5,2,0:0:0:0:
401,53,81964,1,0,0:0:0:0:
296,84,82317,1,0,0:0:0:0:
346,351,82670,5,6,0:0:0:0:
310,242,83023,1,2,0:0:0:0:
419,207,83376,1,2,0:0:0:0:
346,351,83729,5,2,0:0:0:0:
310,242,84082,1,0,0:0:0:0:
419,207,84435,1,0,0:0:0:0:
189,354,84788,5,6,0:0:0:0:
171,224,85141,1,0,0:0:0:0:
68,304,85494,1,0,0:0:0:0:
220,288,85847,5,2,0:0:0:0:
117,368,86200,1,2,0:0:0:0:
99,238,86553,1,2,0:0:0:0:
433,372,86905,5,6,0:0:0:0:
438,304,87258,1,0,0:0:0:0:
365,367,87611,1,0,0:0:0:0:
370,299,87964,1,0,0:0:0:0:
433,372,88317,1,2,0:0:0:0:
438,304,88670,1,2,0:0:0:0:
246,370,89023,5,6,0:0:0:0:
233,299,89376,1,0,0:0:0:0:
179,346,89729,1,0,0:0:0:0:
300,323,90082,2,0,L|309:176,1,140,6|0,0:0|0:0,0:0:0:0:
391,11,91141,5,6,0:0:0:0:
442,65,91494,1,0,0:0:0:0:
370,82,91847,1,0,0:0:0:0:
318,28,92199,1,0,0:0:0:0:
391,11,92552,1,2,0:0:0:0:
370,82,92905,1,2,0:0:0:0:
117,8,93258,5,6,0:0:0:0:
67,124,93611,1,0,0:0:0:0:
192,109,93964,1,0,0:0:0:0:
92,66,94317,5,2,0:0:0:0:
130,117,94670,1,2,0:0:0:0:
156,59,95023,1,2,0:0:0:0:
416,174,95376,5,6,0:0:0:0:
404,251,95729,1,0,0:0:0:0:
343,202,96082,1,0,0:0:0:0:
416,174,96435,1,0,0:0:0:0:
477,223,96788,1,2,0:0:0:0:
404,251,97141,1,2,0:0:0:0:
148,354,97494,5,6,0:0:0:0:
210,325,97847,1,0,0:0:0:0:
265,364,98199,1,0,0:0:0:0:
216,258,98552,2,0,B|242:163|197:209|223:116,1,140,6|0,0:0|0:0,0:0:0:0:
425,13,99611,5,6,0:0:0:0:
417,84,99964,1,0,0:0:0:0:
354,5,100317,1,0,0:0:0:0:
346,76,100670,1,0,0:0:0:0:
425,13,101023,1,2,0:0:0:0:
417,84,101376,1,2,0:0:0:0:
512,260,101729,5,6,0:0:0:0:
424,183,102082,1,0,0:0:0:0:
313,219,102435,1,0,0:0:0:0:
457,279,102788,5,2,0:0:0:0:
413,240,103141,1,2,0:0:0:0:
358,259,103494,1,2,0:0:0:0:
133,314,103847,5,6,0:0:0:0:
198,340,104199,1,0,0:0:0:0:
253,296,104552,1,0,0:0:0:0:
188,270,104905,1,0,0:0:0:0:
133,314,105258,1,2,0:0:0:0:
198,340,105611,1,2,0:0:0:0:
75,102,105964,5,6,0:0:0:0:
70,175,106317,1,0,0:0:0:0:
9,134,106670,1,0,0:0:0:0:
136,143,107023,2,0,B|184:139|184:139|217:155|217:155|274:150,1,140,6|0,0:0|0:0,0:0:0:0:
471,35,108082,5,6,0:0:0:0:
402,18,108435,1,0,0:0:0:0:
385,87,108788,1,0,0:0:0:0:
454,104,109141,1,0,0:0:0:0:
471,35,109494,1,2,0:0:0:0:
402,18,109847,1,2,0:0:0:0:
74,3,110199,5,6,0:0:0:0:
201,34,110552,1,0,0:0:0:0:
109,128,110905,1,0,0:0:0:0:
137,18,111258,5,2,0:0:0:0:
154,81,111611,1,2,0:0:0:0:
89,65,111964,1,2,0:0:0:0:
72,279,112317,5,6,0:0:0:0:
137,259,112670,1,0,0:0:0:0:
121,325,113023,1,0,0:0:0:0:
187,306,113376,1,0,0:0:0:0:
137,259,113729,1,2,0:0:0:0:
72,279,114082,1,2,0:0:0:0:
326,370,114435,5,6,0:0:0:0:
378,319,114788,1,0,0:0:0:0:
448,338,115141,1,0,0:0:0:0:
360,249,115494,2,0,B|364:200|364:200|344:165|344:165|349:100,1,140,6|0,0:0|0:0,0:0:0:0:
91,5,116552,5,6,0:0:0:0:
73,69,116905,1,0,0:0:0:0:
120,117,117258,1,0,0:0:0:0:
138,53,117611,1,0,0:0:0:0:
73,69,117964,1,2,0:0:0:0:
91,5,118317,1,2,0:0:0:0:
388,186,118670,5,6,0:0:0:0:
426,131,119023,1,0,0:0:0:0:
480,170,119376,1,0,0:0:0:0:
333,147,119729,2,0,L|306:144,1,28,6|0,0:0|0:0,0:0:0:0:
256,192,120788,5,6,0:0:0:0:
256,54,121141,1,0,0:0:0:0:
256,43,121494,1,0,0:0:0:0:
256,192,121847,5,2,0:0:0:0:
353,94,122199,1,0,0:0:0:0:
361,86,122552,1,0,0:0:0:0:
256,192,122905,5,2,0:0:0:0:
393,192,123258,1,0,0:0:0:0:
405,191,123611,1,0,0:3:0:0:
256,192,123964,5,2,0:0:0:0:
353,289,124317,1,0,0:0:0:0:
361,297,124670,1,0,0:3:0:0:
256,192,125023,5,2,0:0:0:0:
256,329,125388,1,0,0:0:0:0:
256,341,125754,1,0,0:3:0:0:
256,192,126120,5,2,0:0:0:0:
158,289,126499,1,0,0:0:0:0:
150,297,126879,1,0,0:3:0:0:
256,192,127259,5,2,0:0:0:0:
118,191,127664,1,0,0:0:0:0:
106,192,128069,1,0,0:3:0:0:
256,192,128475,5,2,0:0:0:0:
158,94,128916,1,0,0:0:0:0:
150,86,129416,1,6,0:0:0:0:
