osu file format v14

[General]
AudioFilename: audio.mp3
AudioLeadIn: 0
PreviewTime: 2200
Countdown: 0
SampleSet: Soft
StackLeniency: 0.7
Mode: 0
LetterboxInBreaks: 0
WidescreenStoryboard: 1

[Editor]
DistanceSpacing: 1
BeatDivisor: 4
GridSize: 32
TimelineZoom: 1

[Metadata]
Title:Eternity
TitleUnicode:Eternity
Artist:Yuyoyuppe
ArtistUnicode:ゆよゆっぺ
Creator:Vivyanne
Version:Normal
Source:
Tags:piano misericordia instrumental
BeatmapID:3381596
BeatmapSetID:1652875

[Difficulty]
HPDrainRate:4
CircleSize:3
OverallDifficulty:4
ApproachRate:5
SliderMultiplier:1
SliderTickRate:0.5

[Events]
//Background and Video events
0,0,"Naamloos.png",0,0
//Break Periods
//Storyboard Layer 0 (Background)
//Storyboard Layer 1 (Fail)
//Storyboard Layer 2 (Pass)
//Storyboard Layer 3 (Foreground)
//Storyboard Layer 4 (Overlay)
//Storyboard Sound Samples

[TimingPoints]
2200,352.941176470588,3,2,1,30,1,0
2200,-100,3,2,1,30,0,0
3258,-100,3,2,1,30,0,0
4317,-100,3,2,1,30,0,0
6082,-100,3,2,1,30,0,0
8552,-100,3,2,1,30,0,0
12788,-100,3,2,1,30,0,0
14552,-100,3,2,1,30,0,0
17023,-100,3,2,1,30,0,0
19141,-100,3,2,1,30,0,0
21258,-100,3,2,1,30,0,0
23023,-100,3,2,1,30,0,0
25494,-100,3,2,1,30,0,0
29729,-100,3,2,1,30,0,0
31494,-100,3,2,1,30,0,0
33964,-100,3,2,1,30,0,0
36082,-100,3,2,1,30,0,0
50552,-100,3,2,1,30,0,0
53023,-100,3,2,1,30,0,0
67494,-100,3,2,1,30,0,0
69964,-100,3,2,1,30,0,0
86905,-100,3,2,1,30,0,1
91141,-100,3,2,1,30,0,1
99611,-100,3,2,1,30,0,1
108082,-100,3,2,1,30,0,1
116552,-100,3,2,1,30,0,1
119729,-100,3,2,1,30,0,1
120788,-100,3,2,1,30,0,0
125023,365.853658536585,3,2,1,30,1,0
126120,379.746835443038,3,2,1,30,1,0
127259,405.405405405405,3,2,1,30,1,0
128475,441.176470588235,3,2,1,30,1,0
128916,500,3,2,1,30,1,0

[Colours]
Combo1 : 218,167,235
Combo2 : 179,226,240

[HitObjects]
113,161,2200,6,0,L|120:276,2,100,2|0|0,0:0|0:0|0:0,0:0:0:0:
77,67,3258,1,2,0:0:0:0:
363,155,4317,6,0,P|359:100|372:46,2,100,2|0|0,0:0|0:0|0:0,0:0:0:0:
420,237,5376,1,2,0:0:0:0:
254,350,6082,1,2,0:0:0:0:
254,350,6435,6,0,P|307:356|356:332,2,100,2|0|0,0:0|0:0|0:0,0:0:0:0:
183,278,7494,1,2,0:0:0:0:
447,137,8552,6,0,P|436:191|442:246,2,100,2|0|0,0:0|0:0|0:0,0:0:0:0:
505,55,9611,1,2,0:0:0:0:
404,45,9964,1,2,0:0:0:0:
344,127,10317,1,2,0:0:0:0:
279,203,10670,6,0,P|288:257|276:312,2,100,2|0|0,0:0|0:0|0:0,0:0:0:0:
237,110,11729,1,2,0:0:0:0:
13,309,12788,6,0,L|19:195,2,100,2|0|0,0:0|0:0|0:0,0:0:0:0:
85,378,13847,1,2,0:0:0:0:
283,353,14552,1,2,0:0:0:0:
283,353,14905,6,0,P|336:367|394:355,2,100,2|0|0,0:0|0:0|0:0,0:0:0:0:
203,291,15964,1,2,0:0:0:0:
447,116,17023,6,0,L|454:14,2,100,2|0|0,0:0|0:0|0:0,0:0:0:0:
468,213,18082,1,6,0:0:0:0:
175,147,19141,6,0,L|67:139,2,100,6|0|0,0:0|0:0|0:0,0:0:0:0:
226,232,20199,2,0,P|287:187|412:219,1,200,2|0,0:0|0:0,0:0:0:0:
469,284,21258,2,0,L|459:388,2,100,2|0|0,0:0|0:0|0:0,0:0:0:0:
505,190,22317,1,2,0:0:0:0:
382,32,23023,1,2,0:0:0:0:
382,32,23376,6,0,L|489:22,2,100,2|0|0,0:0|0:0|0:0,0:0:0:0:
285,6,24435,2,0,P|291:60|293:208,1,200,2|0,0:0|0:0,0:0:0:0:
329,298,25494,2,0,P|364:300|438:285,2,100,2|0|0,0:0|0:0|0:0,0:0:0:0:
231,283,26552,1,2,0:0:0:0:
169,360,26905,1,2,0:0:0:0:
71,345,27258,1,2,0:0:0:0:
34,252,27611,6,0,P|18:194|34:145,2,100,2|0|0,0:0|0:0|0:0,0:0:0:0:
119,199,28670,2,0,L|326:178,1,200,2|0,0:0|0:0,0:0:0:0:
379,99,29729,2,0,L|372:-1,2,100,2|0|0,0:0|0:0|0:0,0:0:0:0:
417,192,30788,1,2,0:0:0:0:
280,338,31494,1,2,0:0:0:0:
280,338,31847,6,0,L|283:230,2,100,2|0|0,0:0|0:0|0:0,0:0:0:0:
187,376,32905,2,0,P|198:320|177:166,1,200,2|0,0:0|0:0,0:0:0:0:
106,113,33964,6,0,P|49:147|-3:134,2,100,2|0|0,0:0|0:0|0:0,0:0:0:0:
164,31,35023,1,2,0:0:0:0:
153,330,36082,5,6,0:0:0:0:
118,89,38199,1,2,0:0:0:0:
359,54,40317,1,2,0:0:0:0:
394,295,42435,1,2,0:0:0:0:
256,32,43494,1,2,0:0:0:0:
394,295,44552,5,2,0:0:0:0:
359,54,46670,1,2,0:0:0:0:
118,89,48788,1,2,0:0:0:0:
406,172,49847,1,2,0:0:0:0:
153,330,50905,1,2,0:0:0:0:
256,48,51964,1,2,0:0:0:0:
422,297,53023,6,0,P|442:271|452:109,1,200,6|0,0:0|0:0,0:0:0:0:
387,34,54082,2,0,L|169:18,1,200,0|0,0:0|0:0,0:0:0:0:
119,92,55141,2,0,P|73:165|79:277,1,200,2|0,0:0|0:0,0:0:0:0:
175,299,56199,2,0,P|221:226|215:114,1,200,0|0,0:0|0:0,0:0:0:0:
154,36,57258,6,0,P|257:66|360:30,1,200,2|0,0:0|0:0,0:0:0:0:
438,9,58317,2,0,L|423:226,1,200,0|0,0:0|0:0,0:0:0:0:
455,303,59376,1,2,0:0:0:0:
160,361,60435,1,2,0:0:0:0:
118,269,60788,1,2,0:0:0:0:
219,279,61141,1,2,0:0:0:0:
261,372,61494,6,0,P|244:284|295:175,1,200,6|0,0:0|0:0,0:0:0:0:
386,192,62552,2,0,P|403:280|352:389,1,200
293,304,63611,2,0,P|239:282|123:349,1,200,2|0,0:0|0:0,0:0:0:0:
28,376,64670,2,0,P|49:307|14:183,1,200,0|0,0:0|0:0,0:0:0:0:
55,94,65729,6,0,P|38:27|56:-20,2,100,2|0|0,0:0|0:0|0:0,0:0:0:0:
143,141,66788,1,2,0:0:0:0:
315,37,67494,1,2,0:0:0:0:
315,37,67847,2,0,P|294:158|293:250,1,200,2|0,0:0|0:0,0:0:0:0:
318,331,68905,1,2,0:0:0:0:
417,319,69258,1,2,0:0:0:0:
473,127,69964,6,0,P|423:135|370:114,1,100,6|0,0:0|0:0,0:0:0:0:
309,45,70670,1,0,0:0:0:0:
260,132,71023,2,0,L|263:252,2,100,2|0|0,0:0|0:0|0:0,0:0:0:0:
179,72,72082,6,0,P|124:73|73:110,1,100,2|0,0:0|0:0,0:0:0:0:
38,183,72788,1,0,0:0:0:0:
61,280,73141,2,0,P|35:330|33:387,2,100,2|0|0,0:0|0:0|0:0,0:0:0:0:
149,233,74199,5,2,0:0:0:0:
198,319,74552,1,2,0:0:0:0:
284,270,74905,1,0,0:0:0:0:
353,342,75258,2,0,L|459:354,2,100,2|0|0,0:0|0:0|0:0,0:0:0:0:
273,280,76317,6,0,P|268:228|279:173,1,100,2|0,0:0|0:0,0:0:0:0:
329,96,77023,1,2,0:0:0:0:
414,149,77376,1,2,0:0:0:0:
465,63,77729,1,2,0:0:0:0:
380,10,78082,1,2,0:0:0:0:
279,11,78435,6,0,P|220:36|171:25,1,100,2|0,0:0|0:0,0:0:0:0:
88,7,79141,1,0,0:0:0:0:
21,81,79494,2,0,L|16:186,2,100,2|0|0,0:0|0:0|0:0,0:0:0:0:
102,23,80552,6,0,P|152:24|192:62,1,100,2|0,0:0|0:0,0:0:0:0:
227,147,81258,1,0,0:0:0:0:
313,96,81611,2,0,P|298:48|311:1,2,100,2|0|0,0:0|0:0|0:0,0:0:0:0:
396,151,82670,5,6,0:0:0:0:
432,244,83023,1,2,0:0:0:0:
369,321,83376,1,2,0:0:0:0:
278,279,83729,2,0,P|284:328|269:384,2,100,2|0|0,0:0|0:0|0:0,0:0:0:0:
243,184,84788,6,0,P|237:135|252:79,2,100,6|0|0,0:0|0:0|0:0,0:0:0:0:
185,266,85847,1,2,0:0:0:0:
127,348,86199,1,2,0:0:0:0:
45,290,86552,1,2,0:0:0:0:
103,208,86905,6,0,P|115:157|102:97,1,100,6|0,0:0|0:0,0:0:0:0:
79,14,87611,1,0,0:0:0:0:
176,35,87964,2,0,P|235:47|294:35,1,100,0|2,0:0|0:0,0:0:0:0:
370,13,88670,1,2,0:0:0:0:
436,87,89023,6,0,P|424:141|431:194,2,100,6|0|0,0:0|0:0|0:0,0:0:0:0:
502,12,90082,1,6,0:0:0:0:
505,312,91141,6,0,P|446:308|387:332,1,100,6|0,0:0|0:0,0:0:0:0:
321,372,91847,1,0,0:0:0:0:
289,277,92199,2,0,P|288:205|301:156,2,100,0|2|2,0:0|0:0|0:0,0:0:0:0:
234,361,93258,5,6,0:0:0:0:
147,310,93611,1,0,0:0:0:0:
60,360,93964,1,0,0:0:0:0:
61,259,94317,1,2,0:0:0:0:
148,209,94670,1,2,0:0:0:0:
235,260,95023,1,2,0:0:0:0:
323,306,95376,6,0,P|365:291|423:301,1,100,6|0,0:0|0:0,0:0:0:0:
509,342,96082,1,0,0:0:0:0:
489,243,96435,2,0,L|500:124,1,100,0|2,0:0|0:0,0:0:0:0:
508,43,97141,1,2,0:0:0:0:
415,81,97494,6,0,P|370:61|306:71,2,100,6|0|0,0:0|0:0|0:0,0:0:0:0:
354,160,98552,1,6,0:0:0:0:
91,14,99611,6,0,P|103:50|99:128,1,100,6|0,0:0|0:0,0:0:0:0:
49,196,100317,1,0,0:0:0:0:
107,277,100670,2,0,P|119:313|115:391,2,100,0|2|2,0:0|0:0|0:0,0:0:0:0:
194,228,101729,5,6,0:0:0:0:
289,259,102082,1,0,0:0:0:0:
384,290,102435,1,0,0:0:0:0:
461,226,102788,1,2,0:0:0:0:
366,195,103141,1,2,0:0:0:0:
271,164,103494,1,2,0:0:0:0:
175,134,103847,6,0,P|118:130|73:157,1,100,6|0,0:0|0:0,0:0:0:0:
42,241,104552,1,0,0:0:0:0:
108,315,104905,2,0,P|165:319|210:292,1,100,0|2,0:0|0:0,0:0:0:0:
242,207,105611,1,2,0:0:0:0:
320,268,105964,6,0,P|324:327|306:380,2,100,6|0|0,0:0|0:0|0:0,0:0:0:0:
369,180,107023,1,6,0:0:0:0:
145,380,108082,6,0,P|160:339|153:282,1,100,6|0,0:0|0:0,0:0:0:0:
103,197,108788,1,0,0:0:0:0:
54,109,109141,2,0,P|47:59|62:12,2,100,0|2|2,0:0|0:0|0:0,0:0:0:0:
150,82,110199,5,6,0:0:0:0:
177,178,110552,1,0,0:0:0:0:
81,205,110905,1,0,0:0:0:0:
108,301,111258,1,2,0:0:0:0:
204,274,111611,1,2,0:0:0:0:
177,178,111964,1,2,0:0:0:0:
275,195,112317,6,0,P|318:179|385:182,1,100,6|0,0:0|0:0,0:0:0:0:
455,234,113023,1,0,0:0:0:0:
512,150,113376,2,0,P|522:108|499:39,1,100,0|2,0:0|0:0,0:0:0:0:
420,6,114082,1,2,0:0:0:0:
341,68,114435,6,0,P|290:45|235:54,2,100,6|0|0,0:0|0:0|0:0,0:0:0:0:
382,159,115494,1,6,0:0:0:0:
105,44,116552,6,0,P|163:34|209:56,1,100,6|0,0:0|0:0,0:0:0:0:
231,144,117258,1,0,0:0:0:0:
265,237,117611,2,0,P|311:252|359:241,2,100,0|2|2,0:0|0:0|0:0,0:0:0:0:
177,286,118670,5,6,0:0:0:0:
87,331,119023,1,0,0:0:0:0:
93,230,119376,1,0,0:0:0:0:
3,275,119729,5,6,0:0:0:0:
256,112,120788,6,0,L|256:10,2,100,6|0|0,0:0|0:0|0:0,0:0:0:0:
352,142,121847,2,0,P|356:91|380:39,2,100,2|0|0,0:0|0:0|0:0,0:0:0:0:
352,242,122905,2,0,P|355:291|374:337,2,100,2|0|0,0:0|0:0|0:3,0:0:0:0:
256,272,123964,2,0,L|256:374,2,100,2|0|0,0:0|0:0|0:3,0:0:0:0:
160,242,125023,2,0,P|156:291|137:337,2,100,2|0|0,0:0|0:0|0:3,0:0:0:0:
160,141,126120,2,0,P|156:92|137:46,2,100,2|0|0,0:0|0:0|0:3,0:0:0:0:
256,112,127259,2,0,L|256:10,2,100,2|0|0,0:0|0:0|0:3,0:0:0:0:
352,142,128475,5,2,0:0:0:0:
256,112,128916,1,0,0:0:0:0:
160,142,129416,1,6,0:0:0:0:
