osu file format v14

[General]
AudioFilename: audio.mp3
AudioLeadIn: 0
PreviewTime: 37375
Countdown: 0
SampleSet: Soft
StackLeniency: 0.9
Mode: 0
LetterboxInBreaks: 0
WidescreenStoryboard: 1

[Editor]
Bookmarks: 18250,18812,19562,19843,20125,20500,21062,21812,22093,22375,22750,94492,177378
DistanceSpacing: 1
BeatDivisor: 3
GridSize: 16
TimelineZoom: 1.4

[Metadata]
Title:Emerald Galaxy
TitleUnicode:Emerald Galaxy
Artist:Yuyoyuppe
ArtistUnicode:ゆよゆっぺ
Creator:pishifat
Version:Normal
Source:
Tags:metal MRML2​-​MOtOLOiD ROCK MUSIC LIVE​!​RALLY 2- featured artist
BeatmapID:1442760
BeatmapSetID:682286

[Difficulty]
HPDrainRate:4
CircleSize:3
OverallDifficulty:4
ApproachRate:5
SliderMultiplier:0.999999999999999
SliderTickRate:1

[Events]
//Background and Video events
0,0,"h1ci1h0llzsmkkbbe9gl.jpg",0,0
//Break Periods
2,102438,108538
2,126137,141538
//Storyboard Layer 0 (Background)
//Storyboard Layer 1 (Fail)
//Storyboard Layer 2 (Pass)
//Storyboard Layer 3 (Foreground)
//Storyboard Sound Samples

[TimingPoints]
281,375,6,2,0,80,1,0
17437,-90.9090909090909,6,2,0,5,0,0
17531,-90.9090909090909,6,2,0,80,0,0
17537,-90.9090909090909,6,2,2,20,0,0
17656,-90.9090909090909,6,2,1,35,0,0
17781,-90.9090909090909,6,2,2,50,0,0
17906,-90.9090909090909,6,2,1,65,0,0
18031,-90.9090909090909,6,2,2,80,0,0
18156,-90.9090909090909,6,2,1,100,0,0
18218,-90.9090909090909,6,2,0,5,0,0
18281,375,6,2,0,90,1,0
18281,-90.9090909090909,6,2,0,90,0,0
22781,-90.9090909090909,6,2,0,60,0,0
22968,-90.9090909090909,6,2,0,5,0,0
23062,-90.9090909090909,6,2,0,73,0,0
23249,-90.9090909090909,6,2,0,5,0,0
23343,-90.9090909090909,6,2,0,88,0,0
23531,-90.9090909090909,6,2,0,5,0,0
23624,-90.9090909090909,6,2,0,100,0,0
23812,-90.9090909090909,6,2,0,5,0,0
23906,375,6,2,0,80,1,0
23906,-90.9090909090909,6,2,0,80,0,0
26156,-90.9090909090909,6,2,0,90,0,0
28406,-90.9090909090909,6,2,0,50,0,0
28593,-90.9090909090909,6,2,0,5,0,0
28687,-90.9090909090909,6,2,0,60,0,0
28874,-90.9090909090909,6,2,0,5,0,0
28968,-90.9090909090909,6,2,0,70,0,0
29156,-90.9090909090909,6,2,0,5,0,0
29249,-90.9090909090909,6,2,0,80,0,0
29437,-90.9090909090909,6,2,0,5,0,0
29531,-90.9090909090909,6,2,0,90,0,0
29718,-90.9090909090909,6,2,0,5,0,0
29812,-90.9090909090909,6,2,0,100,0,0
29999,-90.9090909090909,6,2,0,5,0,0
30093,-90.9090909090909,6,2,0,100,0,0
30281,300,13,2,0,73,1,0
30281,-90.9090909090909,13,2,0,73,0,0
30731,-90.9090909090909,13,2,0,73,0,0
31481,-90.9090909090909,13,2,0,73,0,0
32081,-90.9090909090909,13,2,0,73,0,0
32531,-90.9090909090909,13,2,0,73,0,0
33281,-90.9090909090909,13,2,0,73,0,0
34631,-90.9090909090909,13,2,0,73,0,0
35381,-90.9090909090909,13,2,0,73,0,0
36431,-90.9090909090909,13,2,0,73,0,0
37181,-90.9090909090909,13,2,0,73,0,0
38081,-90.9090909090909,13,2,0,73,0,0
38531,-90.9090909090909,13,2,0,73,0,0
39281,-90.9090909090909,13,2,0,73,0,0
40331,-90.9090909090909,13,2,0,73,0,0
41081,-90.9090909090909,13,2,0,73,0,0
42431,-90.9090909090909,13,2,0,73,0,0
43181,-90.9090909090909,13,2,0,73,0,0
44231,-90.9090909090909,13,2,0,73,0,0
44681,-90.9090909090909,13,2,0,73,0,0
46331,-90.9090909090909,13,2,0,73,0,0
47081,-90.9090909090909,13,2,0,73,0,0
48131,-90.9090909090909,13,2,0,73,0,0
48881,-90.9090909090909,13,2,0,73,0,0
50231,-90.9090909090909,13,2,0,73,0,0
50981,-90.9090909090909,13,2,0,73,0,0
52031,-90.9090909090909,13,2,0,73,0,0
52481,-90.9090909090909,13,2,0,73,0,0
53681,300,7,2,0,80,1,0
53681,-90.9090909090909,7,2,0,80,0,0
57581,-90.9090909090909,7,2,0,60,0,0
57881,-90.9090909090909,7,2,0,80,0,0
61631,-90.9090909090909,7,2,0,70,0,0
62081,-90.9090909090909,7,2,0,70,0,0
66281,300,4,2,0,70,1,0
66281,-90.9090909090909,7,2,0,70,0,0
68681,300,3,2,0,70,1,0
68681,-90.9090909090909,7,2,0,70,0,0
69581,-90.9090909090909,7,2,0,80,0,0
70481,-90.9090909090909,7,2,0,90,0,0
70931,-90.9090909090909,3,2,0,70,0,0
71306,-90.9090909090909,3,2,0,5,0,0
71381,428.571428571429,4,2,0,90,1,0
71381,-66.6666666666667,4,2,0,90,0,1
84238,-66.6666666666667,4,2,0,90,0,0
85095,-66.6666666666667,4,2,0,90,0,1
98809,-66.6666666666667,4,2,0,90,0,0
100881,-66.6666666666667,4,2,0,5,0,0
100952,-66.6666666666667,4,2,0,90,0,0
101738,-66.6666666666667,4,2,0,5,0,0
101809,-66.6666666666667,4,2,0,90,0,0
102238,300,6,2,0,80,1,0
110038,300,13,2,0,80,1,0
110038,-90.9090909090909,13,2,0,80,0,0
121738,300,14,2,0,80,1,0
121738,-90.9090909090909,14,2,0,80,0,0
125938,300,4,2,0,80,1,0
142738,-90.9090909090909,4,2,0,40,0,0
145138,-105.263157894737,4,2,0,60,0,0
154138,-90.9090909090909,4,2,0,80,0,0
154363,-90.9090909090909,4,2,0,80,0,0
154738,-105.263157894737,4,2,0,80,0,0
154813,-105.263157894737,4,2,0,60,0,0
160138,-105.263157894737,4,2,0,65,0,0
160738,-100,4,2,0,70,0,0
161338,-95.2380952380952,4,2,0,75,0,0
161938,-90.9090909090909,4,2,0,80,0,0
162538,-90.9090909090909,4,2,0,85,0,0
163138,-90.9090909090909,4,2,0,80,0,0
163438,-90.9090909090909,4,2,0,80,0,0
163738,-90.9090909090909,4,2,0,75,0,0
163888,-90.9090909090909,4,2,0,70,0,0
164038,-90.9090909090909,4,2,0,65,0,0
164188,-90.9090909090909,4,2,0,60,0,0
164338,375,6,2,0,90,1,0
164338,-90.9090909090909,6,2,0,90,0,0
168838,-90.9090909090909,6,2,0,60,0,0
169025,-90.9090909090909,6,2,0,5,0,0
169119,-90.9090909090909,6,2,0,73,0,0
169306,-90.9090909090909,6,2,0,5,0,0
169400,-90.9090909090909,6,2,0,88,0,0
169588,-90.9090909090909,6,2,0,5,0,0
169681,-90.9090909090909,6,2,0,100,0,0
169869,-90.9090909090909,6,2,0,5,0,0
169963,375,6,2,0,80,1,0
169963,-90.9090909090909,6,2,0,80,0,0
172213,-90.9090909090909,6,2,0,90,0,0
174463,-90.9090909090909,6,2,0,50,0,0
174650,-90.9090909090909,6,2,0,5,0,0
174744,-90.9090909090909,6,2,0,60,0,0
174931,-90.9090909090909,6,2,0,5,0,0
175025,-90.9090909090909,6,2,0,70,0,0
175213,-90.9090909090909,6,2,0,5,0,0
175306,-90.9090909090909,6,2,0,80,0,0
175494,-90.9090909090909,6,2,0,5,0,0
175588,-90.9090909090909,6,2,0,90,0,0
175775,-90.9090909090909,6,2,0,5,0,0
175869,-90.9090909090909,6,2,0,100,0,0
176056,-90.9090909090909,6,2,0,5,0,0
176150,-90.9090909090909,6,2,0,100,0,0
176338,428.571428571429,4,2,0,60,1,0
178052,-90.9090909090909,4,2,0,80,0,1
178909,-90.9090909090909,4,2,0,80,0,0
179766,-90.9090909090909,4,2,0,80,0,0
180623,-90.9090909090909,4,2,0,80,0,0
181480,-90.9090909090909,4,2,0,80,0,0
182338,-90.9090909090909,4,2,0,80,0,0
183195,-90.9090909090909,4,2,0,80,0,0
184052,-90.9090909090909,4,2,0,80,0,0
184909,-90.9090909090909,4,2,0,80,0,0
185766,-90.9090909090909,4,2,0,80,0,0
186623,-90.9090909090909,4,2,0,80,0,0
187480,-90.9090909090909,4,2,0,80,0,0
188338,-90.9090909090909,4,2,0,80,0,0
189195,-90.9090909090909,4,2,0,80,0,0
190052,-83.3333333333333,4,2,0,80,0,0
190909,-74.0740740740741,4,2,0,80,0,0
191766,-66.6666666666667,4,2,0,90,0,1
205480,-66.6666666666667,4,2,0,90,0,0
207552,-66.6666666666667,4,2,0,5,0,0
207623,-66.6666666666667,4,2,0,90,0,0
208409,-66.6666666666667,4,2,0,5,0,0
208480,-66.6666666666667,4,2,0,90,0,0
210980,-66.6666666666667,4,2,0,5,0,0
211052,-66.6666666666667,4,2,0,90,0,0
211480,-66.6666666666667,4,2,0,80,0,0
211909,-66.6666666666667,4,2,0,70,0,0
213195,-66.6666666666667,4,2,0,100,0,0
213266,-66.6666666666667,4,2,0,50,0,0

[Colours]
Combo1 : 99,242,57
Combo2 : 243,248,86
Combo3 : 254,101,223
Combo4 : 47,191,234

[HitObjects]
256,192,15281,12,2,17531,0:0:0:0:
405,119,18281,6,0,P|385:85|384:39,1,82.5000025177002,0|4,1:0|0:3,0:0:0:0:
463,61,18843,2,0,L|429:199,1,137.500004196167,0|4,1:0|0:3,0:0:0:0:
414,275,19593,2,0,P|454:273|490:253,2,82.5000025177002,0|4|8,1:0|0:3|0:3,0:0:0:0:
333,199,20531,6,0,P|297:178|256:177,1,82.5000025177002,0|4,1:0|0:3,0:0:0:0:
226,253,21093,2,0,L|194:94,1,137.500004196167,0|4,1:0|0:3,0:0:0:0:
140,60,21843,2,0,P|175:39|216:38,2,82.5000025177002,0|4|0,1:0|0:3|1:0,0:0:0:0:
60,136,22781,6,0,B|41:172|41:172|50:233,1,82.5000025177002,4|4,0:1|0:1,0:0:0:0:
119,252,23343,2,0,B|125:293|125:293|106:329,1,82.5000025177002,4|4,0:1|0:1,0:0:0:0:
179,366,23906,6,0,P|242:342|294:353,1,110.000003356934,2|0,0:0|1:0,0:0:0:0:
388,376,24656,2,0,P|442:380|491:358,1,110.000003356934,4|0,0:3|1:0,0:0:0:0:
423,271,25406,1,4,0:3:0:0:
477,175,25781,2,0,L|473:112,1,55.0000016784668,4|0,0:3|1:0,0:0:0:0:
470,65,26156,6,0,B|424:36|424:36|350:56,1,110.000003356934,4|0,0:3|1:0,0:0:0:0:
320,73,26718,2,0,L|141:53,1,165.0000050354,4|0,0:3|1:0,0:0:0:0:
101,47,27468,2,0,L|10:35,2,82.5000025177002,0|4|0,1:0|0:3|1:0,0:0:0:0:
163,137,28406,6,0,B|148:175|148:175|103:195,1,82.5000025177002,4|4,0:1|0:1,0:0:0:0:
137,270,28968,2,0,B|177:263|177:263|217:291,1,82.5000025177002,4|4,0:1|0:1,0:0:0:0:
266,226,29531,2,0,B|240:194|240:194|244:145,1,82.5000025177002,4|4,2:1|2:1,0:0:0:0:
266,73,30093,1,0,1:0:0:0:
266,73,30281,6,0,L|329:66,1,55.0000016784668,4|4,0:2|0:3,0:0:0:0:
430,54,30731,2,0,P|458:138|452:169,1,110.000003356934,0|4,1:0|0:3,0:0:0:0:
412,258,31331,1,4,0:3:0:0:
412,258,31481,2,0,L|474:268,2,55.0000016784668,0|4|4,1:0|0:3|0:3,0:0:0:0:
305,232,32081,6,0,L|228:241,1,55.0000016784668,6|4,0:3|0:3,0:0:0:0:
153,185,32531,2,0,P|165:119|199:82,2,110.000003356934,0|4|4,1:0|0:3|0:3,0:0:0:0:
160,239,33281,2,0,B|114:211|114:211|43:222,1,110.000003356934,0|4,1:0|0:3,0:0:0:0:
95,323,33881,1,0,1:0:0:0:
203,340,34181,6,0,L|264:332,1,55.0000016784668,4|4,0:2|0:3,0:0:0:0:
367,320,34631,2,0,P|419:347|479:341,1,110.000003356934,0|4,1:0|0:3,0:0:0:0:
446,236,35231,1,4,0:3:0:0:
446,236,35381,2,0,L|440:172,2,55.0000016784668,0|4|4,1:0|0:3|0:3,0:0:0:0:
343,189,35981,6,0,L|351:126,1,55.0000016784668,6|0,0:3|0:0,0:0:0:0:
320,30,36431,2,0,P|374:28|422:54,2,110.000003356934,0|4|4,1:0|0:3|0:3,0:0:0:0:
272,57,37181,2,0,L|204:62,1,55.0000016784668,0|4,1:0|0:3,0:0:0:0:
162,67,37481,2,0,B|192:112|192:112|179:188,1,110.000003356934,0|0,1:0|1:0,0:0:0:0:
95,233,38081,6,0,L|37:228,1,55.0000016784668,4|4,0:0|0:3,0:0:0:0:
54,337,38531,1,0,1:0:0:0:
163,322,38831,1,4,0:3:0:0:
274,314,39131,1,4,0:3:0:0:
274,314,39281,2,0,L|392:326,1,110.000003356934,0|0,1:0|1:0,0:0:0:0:
437,336,39731,1,2,0:0:0:0:
437,336,39881,6,0,L|507:326,1,55.0000016784668,6|4,0:3|0:3,0:0:0:0:
447,226,40331,1,0,1:0:0:0:
400,126,40631,1,4,0:3:0:0:
359,23,40931,1,4,0:3:0:0:
359,23,41081,2,0,L|234:38,1,110.000003356934,0|0,1:0|1:0,0:0:0:0:
196,49,41531,1,0,1:0:0:0:
196,49,41681,1,0,1:0:0:0:
247,146,41981,6,0,L|240:212,1,55.0000016784668,4|4,0:0|0:3,0:0:0:0:
226,310,42431,1,0,1:0:0:0:
138,244,42731,1,4,0:3:0:0:
32,274,43031,1,4,0:3:0:0:
32,274,43181,2,0,L|21:211,1,55.0000016784668,0|4,1:0|0:3,0:0:0:0:
11,165,43481,1,0,1:0:0:0:
94,93,43781,6,0,L|163:102,1,55.0000016784668,6|4,0:3|0:3,0:0:0:0:
248,53,44231,1,0,1:0:0:0:
339,114,44531,1,4,0:3:0:0:
339,114,44681,2,0,B|352:156|352:156|346:177|346:177|360:228,1,110.000003356934,0|4,1:0|0:3,0:0:0:0:
247,225,45281,2,0,B|234:267|234:267|240:288|240:288|226:339,1,110.000003356934,0|0,1:0|1:0,0:0:0:0:
325,382,45881,6,0,L|379:375,1,55.0000016784668,4|4,0:0|0:3,0:0:0:0:
488,358,46331,1,0,1:0:0:0:
422,270,46631,1,4,0:3:0:0:
487,181,46931,1,4,0:3:0:0:
487,181,47081,2,0,L|376:168,1,110.000003356934,0|4,1:0|0:3,0:0:0:0:
332,136,47531,1,2,0:0:0:0:
332,136,47681,6,0,L|259:144,1,55.0000016784668,6|4,0:3|0:3,0:0:0:0:
184,82,48131,1,0,1:0:0:0:
106,159,48431,1,4,0:3:0:0:
0,127,48731,1,4,0:3:0:0:
0,127,48881,2,0,L|19:254,1,110.000003356934,0|0,1:0|1:0,0:0:0:0:
29,289,49331,1,0,1:0:0:0:
29,289,49481,1,0,1:0:0:0:
111,361,49781,6,0,L|183:374,1,55.0000016784668,4|4,0:0|0:3,0:0:0:0:
259,313,50231,1,0,1:0:0:0:
360,356,50531,1,4,0:3:0:0:
456,302,50831,1,4,0:3:0:0:
456,302,50981,2,0,L|471:178,1,110.000003356934,0|4,1:0|0:3,0:0:0:0:
480,138,51431,1,2,0:0:0:0:
480,138,51581,6,0,L|475:77,1,55.0000016784668,6|4,0:3|0:3,0:0:0:0:
386,18,52031,1,0,1:0:0:0:
322,108,52331,1,4,0:3:0:0:
322,108,52481,2,0,B|280:121|280:121|259:115|259:115|208:129,1,110.000003356934,0|4,1:0|0:3,0:0:0:0:
161,31,53081,2,0,B|118:19|118:19|97:25|97:25|55:12,1,110.000003356934,0|0,1:0|1:0,0:0:0:0:
0,110,53681,6,0,P|38:120|23:196,1,110.000003356934,6|6,0:3|0:3,0:0:0:0:
146,320,55481,6,0,P|108:310|123:234,2,110.000003356934,6|6|6,0:3|0:3|0:3,0:0:0:0:
42,182,57581,5,0,1:0:0:0:
116,101,57881,2,0,P|154:111|139:187,1,110.000003356934,6|6,0:3|0:3,0:0:0:0:
276,302,59681,6,0,P|228:281|233:229,1,110.000003356934,6|6,0:3|0:3,0:0:0:0:
327,172,60281,6,0,P|334:236|408:201,2,165.0000050354,6|6|6,0:3|0:3|0:3,0:0:0:0:
425,39,61631,2,0,L|479:48,2,55.0000016784668,0|4|0,1:0|0:3|1:0,0:0:0:0:
370,30,62081,6,0,L|244:47,1,110.000003356934,6|6,0:3|0:3,0:0:0:0:
151,61,62681,1,0,1:0:0:0:
151,61,62831,2,0,L|25:40,2,110.000003356934,4|4|4,0:3|0:3|0:3,0:0:0:0:
196,92,63581,2,0,P|205:135|195:170,1,55.0000016784668,0|4,1:0|0:3,0:0:0:0:
184,196,63881,5,6,0:3:0:0:
275,256,64181,1,6,0:3:0:0:
359,186,64481,2,0,L|475:174,1,110.000003356934,6|0,0:3|1:0,0:0:0:0:
508,212,64931,2,0,L|494:326,1,110.000003356934,4|4,0:3|0:3,0:0:0:0:
393,365,65531,1,4,0:3:0:0:
393,365,65681,2,0,L|386:302,2,55.0000016784668,0|4|0,1:0|0:3|1:0,0:0:0:0:
283,351,66281,6,0,L|152:336,1,110.000003356934,6|6,0:3|0:3,0:0:0:0:
101,255,66881,1,0,1:0:0:0:
101,255,67031,2,0,L|219:237,2,110.000003356934,4|4|4,0:3|0:3|0:3,0:0:0:0:
53,226,67781,2,0,P|39:170|41:150,1,55.0000016784668,0|4,1:0|0:3,0:0:0:0:
63,123,68081,1,6,0:3:0:0:
157,67,68381,2,0,L|221:73,1,55.0000016784668,0|0,1:0|1:0,0:0:0:0:
265,82,68681,6,0,P|334:67|432:15,1,165.0000050354,6|6,2:3|2:3,0:0:0:0:
306,184,69581,2,0,P|237:169|139:117,1,165.0000050354,6|6,2:3|2:3,0:0:0:0:
265,288,70481,2,0,P|334:273|432:221,1,165.0000050354,6|8,2:3|0:3,0:0:0:0:
418,231,71381,6,0,P|371:288|394:387,2,150.000005722046,4|0|12,0:1|1:0|0:3,0:0:0:0:
507,109,72666,2,0,P|459:113|402:77,1,100.000003814697,0|0,1:0|1:0,0:0:0:0:
373,60,73095,2,0,P|302:43|219:109,1,150.000005722046,4|0,0:0|1:0,0:0:0:0:
190,223,73952,2,0,P|146:245|96:241,1,100.000003814697,12|4,0:3|0:3,0:0:0:0:
49,223,74381,2,0,L|38:160,2,50.0000019073487,4|4|0,0:3|0:3|1:0,0:0:0:0:
8,251,74809,6,0,P|-5:324|39:384,2,150.000005722046,4|0|12,1:0|1:3|0:3,0:0:0:0:
141,183,76095,2,0,P|191:207|220:274,1,100.000003814697,0|0,1:0|1:0,0:0:0:0:
228,291,76523,2,0,P|317:338|378:306,1,150.000005722046,4|0,0:0|1:0,0:0:0:0:
407,181,77381,2,0,P|403:126|431:79,1,100.000003814697,0|4,1:0|0:3,0:0:0:0:
463,57,77809,2,0,L|530:65,2,50.0000019073487,0|0|0,1:0|1:0|1:0,0:0:0:0:
441,11,78238,6,0,P|353:4|286:79,1,150.000005722046,4|0,0:1|1:0,0:0:0:0:
254,124,78952,1,4,0:3:0:0:
254,124,79095,2,0,P|166:131|99:56,1,150.000005722046,12|0,0:3|1:0,0:0:0:0:
96,4,79809,1,0,1:0:0:0:
96,4,79952,1,4,0:2:0:0:
0,124,80381,1,0,1:0:0:0:
33,271,80809,1,6,0:3:0:0:
172,326,81238,1,6,0:3:0:0:
299,248,81666,6,0,P|369:207|463:242,2,150.000005722046,4|0|12,0:1|1:0|0:3,0:0:0:0:
172,326,82952,2,0,P|102:315|67:276,1,100.000003814697,0|0,1:0|1:0,0:0:0:0:
61,251,83381,2,0,L|54:121,1,100.000003814697,0|4,1:0|0:3,0:0:0:0:
102,132,83809,2,0,L|109:2,1,100.000003814697,0|4,1:0|0:3,0:0:0:0:
148,2,84238,1,0,1:0:0:0:
259,102,84666,2,0,L|255:173,2,50.0000019073487,8|8|4,0:3|0:3|0:3,0:0:0:0:
267,52,85095,6,0,P|348:53|371:250,1,300.000011444092,4|0,0:1|1:0,0:0:0:0:
245,227,86381,1,4,0:3:0:0:
159,273,86666,1,0,1:0:0:0:
159,273,86809,2,0,P|238:268|292:331,2,150.000005722046,4|0|12,0:0|1:3|0:3,0:0:0:0:
21,332,88095,2,0,L|13:408,2,50.0000019073487,4|4|0,0:3|0:3|1:0,0:0:0:0:
51,290,88523,6,0,B|83:211|50:136|25:166|-15:89|18:5,1,300.000011444092,4|0,0:1|1:0,0:0:0:0:
156,63,89809,2,0,L|262:49,1,100.000003814697,0|0,1:0|1:0,0:0:0:0:
305,47,90238,2,0,P|360:108|342:186,1,150.000005722046,4|0,0:0|1:0,0:0:0:0:
231,259,91095,1,0,1:0:0:0:
95,194,91523,2,0,L|88:129,2,50.0000019073487,0|0|0,1:0|1:0|1:0,0:0:0:0:
49,216,91952,6,0,P|-2:267|3:340,1,150.000005722046,4|0,0:1|1:0,0:0:0:0:
99,370,92666,1,4,0:3:0:0:
99,370,92809,2,0,P|150:318|223:324,1,150.000005722046,6|0,0:3|1:3,0:0:0:0:
316,359,93523,1,0,1:0:0:0:
316,359,93666,1,4,0:0:0:0:
465,372,94095,1,0,1:0:0:0:
478,222,94523,1,12,0:3:0:0:
328,205,94952,1,6,0:3:0:0:
350,56,95381,6,0,L|506:27,2,150.000005722046,4|0|6,0:1|1:0|0:3,0:0:0:0:
201,38,96666,2,0,P|149:41|94:76,1,100.000003814697,0|0,1:0|1:0,0:0:0:0:
92,112,97095,6,0,L|27:117,2,50.0000019073487,8|8|8,0:3|0:3|0:3,0:0:0:0:
118,154,97523,2,0,B|131:210|131:210|115:242|115:242|135:326,1,150.000005722046,8|4,0:3|0:3,0:0:0:0:
219,339,98238,2,0,L|286:331,1,50.0000019073487,4|8,1:2|0:3,0:0:0:0:
312,309,98523,2,0,L|384:318,1,50.0000019073487,8|8,0:3|0:3,0:0:0:0:
406,337,98809,5,4,0:0:0:0:
110,285,99666,1,4,0:0:0:0:
363,125,100523,2,0,L|510:149,1,150.000005722046,4|4,0:0|0:3,0:0:0:0:
483,297,101381,2,0,L|335:272,1,150.000005722046,4|0,0:0|1:0,0:0:0:0:
222,170,102238,5,4,0:1:0:0:
32,40,109738,5,0,1:0:0:0:
144,59,110038,6,0,L|208:48,1,55.0000016784668,4|4,1:1|0:3,0:0:0:0:
138,161,110488,2,0,L|202:150,1,55.0000016784668,4|0,0:3|1:0,0:0:0:0:
128,268,110938,2,0,L|192:257,1,55.0000016784668,4|4,0:3|0:3,0:0:0:0:
122,373,111388,2,0,L|186:362,1,55.0000016784668,4|4,0:3|0:3,0:0:0:0:
277,321,111838,6,0,L|331:330,1,55.0000016784668,0|4,1:0|0:3,0:0:0:0:
295,219,112288,2,0,L|349:228,1,55.0000016784668,4|0,0:3|1:0,0:0:0:0:
315,116,112738,2,0,L|369:125,1,55.0000016784668,4|4,0:3|0:3,0:0:0:0:
333,18,113188,2,0,L|387:27,2,55.0000016784668,0|4|4,1:0|0:3|0:3,0:0:0:0:
278,7,113638,1,0,1:0:0:0:
181,48,113938,6,0,L|171:125,1,55.0000016784668,4|4,0:1|0:3,0:0:0:0:
63,96,114388,2,0,L|73:173,1,55.0000016784668,4|0,0:3|1:0,0:0:0:0:
161,211,114838,2,0,L|151:288,1,55.0000016784668,4|4,0:3|0:3,0:0:0:0:
43,259,115288,2,0,L|53:336,1,55.0000016784668,4|4,0:3|0:3,0:0:0:0:
140,377,115738,6,0,L|217:367,1,55.0000016784668,0|4,1:0|0:3,0:0:0:0:
259,280,116188,2,0,L|336:290,1,55.0000016784668,4|0,0:3|1:0,0:0:0:0:
373,380,116638,2,0,L|450:370,1,55.0000016784668,4|4,0:3|0:3,0:0:0:0:
457,266,117088,2,0,L|534:276,2,55.0000016784668,0|4|4,1:0|0:3|0:3,0:0:0:0:
413,231,117538,1,0,1:0:0:0:
436,123,117838,6,0,P|434:94|414:52,1,55.0000016784668,4|4,0:1|0:3,0:0:0:0:
315,81,118288,2,0,P|298:56|260:30,1,55.0000016784668,4|0,0:3|1:0,0:0:0:0:
189,105,118738,2,0,P|162:92|116:88,1,55.0000016784668,4|4,0:3|0:3,0:0:0:0:
92,189,119188,2,0,P|63:191|21:211,1,55.0000016784668,4|4,0:3|0:3,0:0:0:0:
96,293,119638,6,0,P|98:322|118:364,1,55.0000016784668,0|4,1:0|0:3,0:0:0:0:
217,335,120088,2,0,P|233:359|271:385,1,55.0000016784668,4|0,0:3|1:0,0:0:0:0:
343,311,120538,2,0,P|369:323|415:327,1,55.0000016784668,4|4,0:3|0:3,0:0:0:0:
440,227,120988,2,0,P|469:225|511:205,2,55.0000016784668,0|4|4,1:0|0:3|0:3,0:0:0:0:
388,206,121438,1,0,1:0:0:0:
415,99,121738,6,0,P|376:95|341:112,1,55.0000016784668,4|4,0:1|0:3,0:0:0:0:
280,174,122188,2,0,P|257:142|255:103,1,55.0000016784668,4|0,0:3|1:0,0:0:0:0:
279,20,122638,2,0,P|240:16|205:33,1,55.0000016784668,4|4,0:3|0:3,0:0:0:0:
143,94,123088,2,0,P|120:62|118:23,1,55.0000016784668,4|4,0:3|0:3,0:0:0:0:
7,40,123538,6,0,P|-11:93|-7:116,1,55.0000016784668,0|4,1:0|0:3,0:0:0:0:
4,199,123988,2,0,P|40:241|62:249,1,55.0000016784668,4|0,0:3|1:0,0:0:0:0:
140,282,124438,2,0,P|194:271|212:256,1,55.0000016784668,4|4,0:3|0:3,0:0:0:0:
280,205,124888,2,0,P|298:151|294:129,2,55.0000016784668,0|4|4,1:0|0:3|0:3,0:0:0:0:
293,258,125338,2,0,B|336:266|336:266|354:290|354:290|389:303|389:303|410:331|410:331|442:338|442:338|468:369,1,220.000006713867,0|2,1:0|0:3,0:0:0:0:
256,192,142738,12,0,144538,0:0:0:0:
129,31,145138,6,0,P|64:60|10:106,1,142.499996194839,4|4,0:0|0:3,0:0:0:0:
115,318,146338,2,0,P|218:276|393:258,1,284.999992389679,0|4,1:0|0:3,0:0:0:0:
468,205,147538,6,0,P|488:119|490:51,2,142.499996194839,4|4|4,0:3|0:3|0:3,0:0:0:0:
389,257,148738,2,0,P|255:207|196:205,1,189.999994926453,0|4,1:0|0:3,0:0:0:0:
125,375,149938,6,0,P|193:366|284:338,1,142.499996194839,4|4,0:0|0:3,0:0:0:0:
453,202,151138,2,0,P|324:141|183:122,1,284.999992389679,0|4,1:0|0:3,0:0:0:0:
136,39,152338,6,0,P|218:15|288:20,2,142.499996194839,4|4|4,0:3|0:3|0:3,0:0:0:0:
67,104,153538,2,0,P|51:186|54:246,1,142.499996194839,0|8,1:0|0:3,0:0:0:0:
77,294,154138,1,2,0:3:0:0:
185,309,154438,2,0,L|254:318,1,55.0000016784668,0|0,1:0|1:0,0:0:0:0:
286,305,154738,6,0,P|367:327|428:367,1,142.499996194839,4|4,0:0|0:3,0:0:0:0:
512,140,155938,2,0,P|379:88|225:65,1,284.999992389679,0|4,1:0|0:3,0:0:0:0:
163,124,157138,6,0,P|101:149|21:160,2,142.499996194839,4|4|4,0:3|0:3|0:3,0:0:0:0:
249,163,158338,2,0,P|202:230|90:289,1,189.999994926453,0|4,1:0|0:3,0:0:0:0:
279,369,159538,5,4,0:0:0:0:
362,322,159838,2,0,L|371:210,2,94.9999974632263,0|0|0,1:0|1:0|1:0,0:0:0:0:
457,351,160738,2,0,L|466:237,1,99.9999999999999,0|0,1:0|1:0,0:0:0:0:
437,150,161338,2,0,L|427:27,1,104.999996795654,0|0,1:0|1:0,0:0:0:0:
333,101,161938,5,4,1:2:0:0:
248,30,162238,2,0,L|179:46,1,55.0000016784668,0|0,1:0|1:0,1:0:0:0:
141,57,162538,1,0,1:0:0:0:
115,163,162838,2,0,L|172:217,1,55.0000016784668,0|0,1:0|1:0,1:0:0:0:
194,239,163138,2,0,L|208:304,2,55.0000016784668,0|0|0,1:0|1:0|1:0,0:0:0:0:
301,212,163738,2,0,L|318:279,2,55.0000016784668,0|0|0,1:0|1:0|1:0,0:0:0:0:
260,180,164188,1,0,1:0:0:0:
223,144,164338,6,0,P|202:98|207:58,1,82.5000025177002,0|4,1:0|0:3,0:0:0:0:
284,86,164900,2,0,L|439:116,1,137.500004196167,0|4,1:0|0:3,0:0:0:0:
500,127,165650,2,0,P|500:86|481:50,2,82.5000025177002,0|4|8,1:0|0:3|0:3,0:0:0:0:
447,223,166588,6,0,P|388:240|365:272,1,82.5000025177002,0|4,1:0|0:3,0:0:0:0:
439,305,167150,2,0,L|282:334,1,137.500004196167,0|4,1:0|0:3,0:0:0:0:
221,334,167900,2,0,P|238:275|270:252,2,82.5000025177002,0|4|0,1:0|0:3|1:0,0:0:0:0:
116,369,168838,6,0,B|86:338|86:338|78:274,1,82.5000025177002,4|4,0:1|0:1,0:0:0:0:
71,217,169400,2,0,B|101:186|101:186|109:122,1,82.5000025177002,4|4,0:1|0:1,0:0:0:0:
114,64,169963,6,0,P|180:38|230:47,1,110.000003356934,2|0,0:0|1:0,0:0:0:0:
290,125,170713,2,0,P|356:151|406:142,1,110.000003356934,4|0,0:3|1:0,0:0:0:0:
483,84,171463,1,4,0:3:0:0:
497,193,171838,1,4,0:3:0:0:
408,258,172213,6,0,B|352:249|352:249|289:290,1,110.000003356934,4|0,0:3|1:0,0:0:0:0:
266,314,172775,2,0,L|95:287,1,165.0000050354,4|0,0:3|1:0,0:0:0:0:
48,282,173525,2,0,L|64:382,2,82.5000025177002,0|4|0,1:0|0:3|1:0,0:0:0:0:
43,171,174463,6,0,B|76:148|76:148|134:153,1,82.5000025177002,4|4,0:1|0:1,0:0:0:0:
144,73,175025,2,0,B|180:90|180:90|205:142,1,82.5000025177002,4|4,0:1|0:1,0:0:0:0:
279,114,175588,2,0,B|282:154|282:154|249:201,1,82.5000025177002,4|4,0:1|0:1,0:0:0:0:
178,210,176150,1,4,0:1:0:0:
71,67,178052,5,4,0:1:0:0:
71,67,178909,1,2,0:3:0:0:
89,241,179766,1,4,0:1:0:0:
89,241,180623,1,2,1:3:0:0:
162,192,181052,1,4,0:3:0:0:
235,143,181480,5,4,0:1:0:0:
235,143,182338,1,2,0:3:0:0:
401,200,183195,1,4,0:1:0:0:
401,200,184052,1,2,1:3:0:0:
332,255,184480,1,4,0:3:0:0:
264,312,184909,6,0,L|139:326,1,110.000003356934,4|2,0:1|0:0,0:0:0:0:
141,237,185766,2,0,L|31:249,1,110.000003356934,2|2,0:3|0:0,0:0:0:0:
21,161,186623,2,0,L|130:148,1,110.000003356934,4|2,0:1|0:0,0:0:0:0:
121,61,187480,2,0,L|230:48,1,110.000003356934,2|2,0:3|0:0,0:0:0:0:
317,36,188338,6,0,L|426:23,2,110.000003356934,4|2|0,0:1|0:2|1:0,0:0:0:0:
230,48,189623,1,4,0:3:0:0:
283,118,190052,2,0,P|274:171|239:238,1,119.999996337891,0|4,1:0|0:3,0:0:0:0:
208,327,190909,2,0,P|260:288|329:271,1,135.000000514984,0|0,1:0|1:0,0:0:0:0:
452,262,191766,6,0,B|369:285|300:223|345:204|248:144|150:197,1,300.000011444092,4|0,0:1|1:0,0:0:0:0:
72,291,193052,1,4,0:3:0:0:
42,195,193338,1,0,1:0:0:0:
42,195,193480,2,0,L|26:14,2,150.000005722046,4|4|12,0:0|0:3|0:3,0:0:0:0:
171,271,194766,2,0,L|178:331,2,50.0000019073487,4|4|4,0:3|0:3|0:3,0:0:0:0:
162,221,195195,6,0,P|174:123|364:24,1,300.000011444092,4|0,0:1|1:0,0:0:0:0:
404,155,196480,2,0,L|416:266,1,100.000003814697,0|0,1:0|1:0,0:0:0:0:
422,304,196909,2,0,P|372:349|276:318,1,150.000005722046,4|0,0:0|1:0,0:0:0:0:
250,193,197766,1,0,1:0:0:0:
136,290,198195,2,0,L|127:343,2,50.0000019073487,0|0|0,1:0|1:0|1:0,0:0:0:0:
87,276,198623,6,0,P|36:225|41:152,1,150.000005722046,4|0,0:1|1:0,0:0:0:0:
124,96,199337,1,4,0:3:0:0:
124,96,199480,2,0,P|194:114|225:180,1,150.000005722046,6|0,0:3|1:0,0:0:0:0:
245,277,200194,1,0,1:0:0:0:
245,277,200338,1,4,0:0:0:0:
381,337,200766,1,0,1:0:0:0:
505,253,201195,1,12,0:3:0:0:
366,195,201623,1,6,0:3:0:0:
245,277,202052,6,0,L|89:306,2,150.000005722046,4|0|6,0:1|1:0|0:3,0:0:0:0:
366,195,203337,2,0,P|365:145|340:102,1,100.000003814697,0|0,1:0|1:0,0:0:0:0:
296,79,203766,6,0,L|302:12,2,50.0000019073487,8|8|8,0:3|0:3|0:3,0:0:0:0:
254,107,204194,2,0,B|196:112|196:112|167:92|167:92|110:99,1,150.000005722046,8|4,0:3|0:3,0:0:0:0:
43,174,204909,2,0,P|46:198|56:221,1,50.0000019073487,0|8,1:0|0:3,0:0:0:0:
93,256,205195,2,0,P|110:267|155:275,1,50.0000019073487,8|8,0:3|0:3,0:0:0:0:
187,277,205480,5,4,0:0:0:0:
468,172,206338,1,4,0:0:0:0:
208,32,207195,2,0,L|27:53,1,150.000005722046,4|4,0:0|0:3,0:0:0:0:
77,198,208052,2,0,L|226:180,1,150.000005722046,4|0,0:0|1:0,0:0:0:0:
346,91,208909,5,4,0:0:0:0:
164,329,209766,1,4,0:0:0:0:
462,361,210623,2,0,L|477:195,1,150.000005722046,4|4,0:0|0:3,0:0:0:0:
436,66,211480,2,0,P|390:64|326:100,1,100.000003814697,0|4,1:0|0:3,0:0:0:0:
328,134,211909,2,0,L|337:206,2,50.0000019073487,0|0|0,1:3|1:0|1:0,0:0:0:0:
256,321,213195,5,4,1:0:0:0:
256,192,213338,12,0,219052,0:0:0:0:
