osu file format v14

[General]
AudioFilename: audio.mp3
AudioLeadIn: 0
PreviewTime: 37375
Countdown: 0
SampleSet: Soft
StackLeniency: 0.4
Mode: 0
LetterboxInBreaks: 0
WidescreenStoryboard: 1

[Editor]
Bookmarks: 18250,18812,19562,19843,20125,20500,21062,21812,22093,22375,22750,94492,177378
DistanceSpacing: 0.2
BeatDivisor: 6
GridSize: 4
TimelineZoom: 2.999999

[Metadata]
Title:Emerald Galaxy
TitleUnicode:Emerald Galaxy
Artist:Yuyoyuppe
ArtistUnicode:ゆよゆっぺ
Creator:pishifat
Version:Insane
Source:
Tags:metal MRML2​-​MOtOLOiD ROCK MUSIC LIVE​!​RALLY 2- featured artist
BeatmapID:1442759
BeatmapSetID:682286

[Difficulty]
HPDrainRate:6
CircleSize:4.2
OverallDifficulty:8
ApproachRate:9
SliderMultiplier:2
SliderTickRate:1

[Events]
//Background and Video events
0,0,"h1ci1h0llzsmkkbbe9gl.jpg",0,0
//Break Periods
2,102438,109138
2,126138,142138
//Storyboard Layer 0 (Background)
//Storyboard Layer 1 (Fail)
//Storyboard Layer 2 (Pass)
//Storyboard Layer 3 (Foreground)
//Storyboard Sound Samples

[TimingPoints]
281,375,6,2,0,80,1,0
17437,-100,6,2,0,5,0,0
17531,-200,6,2,0,80,0,0
17537,-100,6,2,2,20,0,0
17656,-100,6,2,1,35,0,0
17781,-100,6,2,2,50,0,0
17906,-100,6,2,1,65,0,0
18031,-100,6,2,2,80,0,0
18156,-100,6,2,1,100,0,0
18218,-100,6,2,0,5,0,0
18281,375,6,2,0,90,1,0
18281,-100,6,2,0,90,0,0
22781,-100,6,2,0,60,0,0
22968,-100,6,2,0,5,0,0
23062,-90.9090909090909,6,2,0,73,0,0
23249,-83.3333333333333,6,2,0,5,0,0
23343,-76.9230769230769,6,2,0,88,0,0
23531,-71.4285714285714,6,2,0,5,0,0
23624,-66.6666666666667,6,2,0,100,0,0
23812,-62.5,6,2,0,5,0,0
23906,375,6,2,0,80,1,0
26156,-100,6,2,0,90,0,0
28406,-125,6,2,0,50,0,0
28593,-100,6,2,0,5,0,0
28687,-105.263157894737,6,2,0,60,0,0
28874,-100,6,2,0,5,0,0
28968,-90.9090909090909,6,2,0,70,0,0
29156,-100,6,2,0,5,0,0
29249,-80,6,2,0,80,0,0
29437,-100,6,2,0,5,0,0
29531,-71.4285714285714,6,2,0,90,0,0
29718,-100,6,2,0,5,0,0
29812,-60.459492140266,6,2,0,100,0,0
29999,-100,6,2,0,5,0,0
30093,-66.6666666666667,6,2,0,100,0,0
30281,300,13,2,0,73,1,0
30281,-100,13,2,0,73,0,0
30731,-100,13,2,0,73,0,0
31481,-100,13,2,0,73,0,0
32081,-100,13,2,0,73,0,0
32531,-100,13,2,0,73,0,0
33281,-133.333333333333,13,2,0,73,0,0
34631,-100,13,2,0,73,0,0
35381,-100,13,2,0,73,0,0
36431,-100,13,2,0,73,0,0
37181,-133.333333333333,13,2,0,73,0,0
38081,-100,13,2,0,73,0,0
38531,-100,13,2,0,73,0,0
39281,-100,13,2,0,73,0,0
40331,-100,13,2,0,73,0,0
41081,-117.647058823529,13,2,0,73,0,0
42431,-100,13,2,0,73,0,0
43181,-100,13,2,0,73,0,0
44231,-100,13,2,0,73,0,0
44681,-117.647058823529,13,2,0,73,0,0
46331,-100,13,2,0,73,0,0
47081,-100,13,2,0,73,0,0
48131,-100,13,2,0,73,0,0
48881,-117.647058823529,13,2,0,73,0,0
50231,-100,13,2,0,73,0,0
50981,-100,13,2,0,73,0,0
52031,-100,13,2,0,73,0,0
52481,-117.647058823529,13,2,0,73,0,0
53681,300,7,2,0,80,1,0
53681,-100,7,2,0,80,0,0
57581,-200,7,2,0,60,0,0
57881,-100,7,2,0,80,0,0
61631,-133.333333333333,7,2,0,70,0,0
62081,-133.333333333333,7,2,0,70,0,0
66281,300,4,2,0,70,1,0
66281,-133.333333333333,7,2,0,70,0,0
68681,300,3,2,0,70,1,0
68681,-100,7,2,0,70,0,0
69581,-100,7,2,0,80,0,0
70481,-100,7,2,0,90,0,0
70931,-100,3,2,0,70,0,0
71306,-100,3,2,0,5,0,0
71381,428.571428571429,4,2,0,90,1,0
71381,-100,4,2,0,90,0,1
84238,-100,4,2,0,90,0,0
85095,-100,4,2,0,90,0,1
98238,-83.3333333333333,4,2,0,90,0,1
98523,-71.4285714285714,4,2,0,90,0,1
98809,-100,4,2,0,90,0,0
100881,-100,4,2,0,5,0,0
100952,-100,4,2,0,90,0,0
101738,-100,4,2,0,5,0,0
101809,-100,4,2,0,90,0,0
102238,300,6,2,0,80,1,0
109738,-133.333333333333,6,2,0,80,0,0
110038,300,13,2,0,80,1,0
110038,-133.333333333333,13,2,0,80,0,0
113563,-100,13,2,0,80,0,0
113938,-133.333333333333,13,2,0,80,0,0
117538,-100,13,2,0,80,0,0
117838,-133.333333333333,13,2,0,80,0,0
121438,-100,13,2,0,80,0,0
121738,300,14,2,0,80,1,0
121738,-100,14,2,0,80,0,0
125038,-133.333333333333,14,2,0,80,0,0
125938,300,4,2,0,80,1,0
142738,-100,4,2,0,40,0,0
145138,-153.846153846154,4,2,0,60,0,0
145438,-200,4,2,0,60,0,0
147538,-153.846153846154,4,2,0,60,0,0
147838,-200,4,2,0,60,0,0
149938,-153.846153846154,4,2,0,60,0,0
150238,-200,4,2,0,60,0,0
152338,-153.846153846154,4,2,0,60,0,0
152638,-200,4,2,0,60,0,0
154138,-153.846153846154,4,2,0,80,0,0
154438,-125,4,2,0,80,0,0
154738,-153.846153846154,4,2,0,80,0,0
154813,-200,4,2,0,60,0,0
157138,-153.846153846154,4,2,0,60,0,0
157438,-200,4,2,0,60,0,0
160138,-100,4,2,0,65,0,0
160738,-100,4,2,0,70,0,0
161338,-100,4,2,0,75,0,0
161938,-100,4,2,0,80,0,0
162538,-100,4,2,0,85,0,0
163138,-100,4,2,0,80,0,0
163738,-133.333333333333,4,2,0,75,0,0
163888,-100,4,2,0,70,0,0
164038,-133.333333333333,4,2,0,65,0,0
164188,-100,4,2,0,60,0,0
164338,375,6,2,0,90,1,0
164338,-100,6,2,0,90,0,0
168838,-100,6,2,0,60,0,0
169025,-100,6,2,0,5,0,0
169119,-90.9090909090909,6,2,0,73,0,0
169306,-100,6,2,0,5,0,0
169400,-76.9230769230769,6,2,0,88,0,0
169588,-100,6,2,0,5,0,0
169681,-66.6666666666667,6,2,0,100,0,0
169869,-100,6,2,0,5,0,0
169963,375,6,2,0,80,1,0
172213,-100,6,2,0,90,0,0
174463,-125,6,2,0,50,0,0
174650,-100,6,2,0,5,0,0
174744,-105.263157894737,6,2,0,60,0,0
174931,-100,6,2,0,5,0,0
175025,-90.9090909090909,6,2,0,70,0,0
175213,-100,6,2,0,5,0,0
175306,-80,6,2,0,80,0,0
175494,-100,6,2,0,5,0,0
175588,-71.4285714285714,6,2,0,90,0,0
175775,-100,6,2,0,5,0,0
175869,-62.5,6,2,0,100,0,0
176056,-100,6,2,0,5,0,0
176150,-73.1101038163474,6,2,0,100,0,0
176338,428.571428571429,4,2,0,60,1,0
177338,-100,4,2,0,5,0,0
177409,-50,4,2,0,60,0,0
178052,-100,4,2,0,80,0,1
178909,-100,4,2,0,80,0,0
179766,-100,4,2,0,80,0,0
180623,-100,4,2,0,80,0,0
181480,-100,4,2,0,80,0,0
182338,-100,4,2,0,80,0,0
183195,-100,4,2,0,80,0,0
184052,-100,4,2,0,80,0,0
184909,-100,4,2,0,80,0,0
185766,-100,4,2,0,80,0,0
186623,-100,4,2,0,80,0,0
187480,-100,4,2,0,80,0,0
188338,-100,4,2,0,80,0,0
189195,-133.333333333333,4,2,0,80,0,0
190052,-100,4,2,0,80,0,0
190480,-133.333333333333,4,2,0,80,0,0
191338,-100,4,2,0,80,0,0
191766,-100,4,2,0,90,0,1
204909,-83.3333333333333,4,2,0,90,0,1
205195,-71.4285714285714,4,2,0,90,0,1
205480,-100,4,2,0,90,0,0
207552,-100,4,2,0,5,0,0
207623,-100,4,2,0,90,0,0
208409,-100,4,2,0,5,0,0
208480,-100,4,2,0,90,0,0
210980,-100,4,2,0,5,0,0
211052,-100,4,2,0,90,0,0
211480,-100,4,2,0,80,0,0
211909,-100,4,2,0,70,0,0
213195,-100,4,2,0,100,0,0
213266,-100,4,2,0,50,0,0

[Colours]
Combo1 : 99,242,57
Combo2 : 243,248,86
Combo3 : 254,101,223
Combo4 : 47,191,234

[HitObjects]
256,192,15281,12,0,18093,0:0:0:0:
132,58,18281,5,0,1:0:0:0:
83,71,18374,1,0,1:0:0:0:
96,119,18468,1,0,1:0:0:0:
145,106,18562,1,4,0:3:0:0:
371,44,18843,5,0,1:0:0:0:
415,52,18937,1,0,1:0:0:0:
430,95,19031,1,0,1:0:0:0:
401,129,19124,1,0,1:0:0:0:
357,121,19218,1,0,1:0:0:0:
342,79,19312,1,4,0:3:0:0:
476,233,19593,5,0,1:0:0:0:
466,276,19687,1,0,1:0:0:0:
423,354,19874,5,4,0:3:0:0:
391,323,19968,1,4,0:3:0:0:
298,263,20156,5,8,0:3:0:0:
341,250,20249,1,8,0:3:0:0:
384,237,20343,1,4,0:3:0:0:
153,282,20531,5,0,1:0:0:0:
104,268,20624,1,0,1:0:0:0:
91,316,20718,1,0,1:0:0:0:
140,330,20812,1,4,0:3:0:0:
123,40,21093,5,0,1:0:0:0:
167,48,21187,1,0,1:0:0:0:
182,91,21281,1,0,1:0:0:0:
153,125,21374,1,0,1:0:0:0:
109,117,21468,1,0,1:0:0:0:
94,75,21562,1,4,0:3:0:0:
317,40,21843,5,0,1:0:0:0:
308,84,21937,1,0,1:0:0:0:
399,68,22124,5,4,0:3:0:0:
390,112,22218,1,4,0:3:0:0:
482,96,22406,5,0,1:0:0:0:
473,140,22499,1,0,1:0:0:0:
464,183,22593,1,4,0:3:0:0:
295,268,22781,6,0,B|251:241|251:241|171:249,1,100,4|0,0:1|0:0,0:0:0:0:
194,258,23062,6,0,B|242:288|242:288|322:277,1,110.000003356934,4|0,0:1|0:0,0:0:0:0:
310,261,23343,6,0,B|255:228|255:228|187:238,1,129.999994049073,4|0,0:1|0:0,0:0:0:0:
174,261,23624,6,0,B|238:301|238:301|324:287,1,150.000005722046,4|0,0:1|0:0,0:0:0:0:
397,277,23906,6,0,P|445:297|459:324,3,50,2|2|2|0,0:0|0:0|0:0|0:0,0:0:0:0:
454,307,24281,1,0,1:0:0:0:
370,196,24468,6,0,P|411:164|441:165,1,50,2|2,0:0|0:0,0:0:0:0:
456,100,24656,2,0,P|478:88|493:69,3,50,4|2|2|0,0:3|0:0|0:0|0:0,0:0:0:0:
499,54,25031,1,0,1:0:0:0:
279,115,25218,6,0,P|278:140|287:164,2,50,2|2|4,0:0|0:0|0:3,0:0:0:0:
288,97,25499,1,2,0:0:0:0:
300,84,25593,1,2,0:0:0:0:
161,40,25781,5,4,0:3:0:0:
198,16,25874,1,4,0:3:0:0:
242,19,25968,1,0,1:0:0:0:
81,133,26156,5,4,0:3:0:0:
32,120,26249,1,4,0:3:0:0:
45,72,26343,1,4,0:3:0:0:
94,85,26437,1,4,0:3:0:0:
62,103,26531,1,0,1:0:0:0:
188,210,26718,5,4,0:3:0:0:
232,202,26812,1,4,0:3:0:0:
247,159,26906,1,4,0:3:0:0:
218,125,26999,1,4,0:3:0:0:
174,133,27093,1,4,0:3:0:0:
159,175,27187,1,4,0:3:0:0:
203,168,27281,1,0,1:0:0:0:
82,229,27468,5,0,1:0:0:0:
38,215,27562,1,0,1:0:0:0:
176,304,27749,5,4,0:3:0:0:
220,290,27843,1,4,0:3:0:0:
86,381,28031,5,0,1:0:0:0:
42,367,28124,1,0,1:0:0:0:
0,350,28218,1,8,0:3:0:0:
269,225,28406,6,0,B|295:252|295:252|302:293,1,80,4|0,0:1|0:0,0:0:0:0:
308,310,28687,6,0,B|349:288|349:288|412:302,1,94.9999974632264,4|0,0:1|0:0,0:0:0:0:
415,302,28968,6,0,B|408:244|408:244|444:191,1,110.000003356934,4|0,0:1|0:0,0:0:0:0:
445,188,29249,6,0,B|382:175|382:175|342:124,1,125,4|0,0:1|2:0,0:0:0:0:
334,113,29531,6,0,B|299:173|299:173|222:197,1,139.999995727539,4|0,2:1|2:0,0:0:0:0:
216,199,29812,6,0,B|174:133|174:133|79:110,1,165.400001123093,4|0,2:1|2:0,0:0:0:0:
70,109,30093,6,0,P|42:137|50:199,1,75.0000028610231,0|0,1:0|1:0,0:0:0:0:
79,273,30281,5,4,0:2:0:0:
79,273,30431,1,4,0:3:0:0:
128,339,30731,1,0,1:0:0:0:
204,307,31031,1,4,0:3:0:0:
260,377,31331,1,4,0:3:0:0:
260,377,31481,5,0,1:0:0:0:
324,350,31631,1,4,0:3:0:0:
367,295,31781,1,4,0:3:0:0:
382,226,31931,1,2,0:0:0:0:
372,156,32081,5,6,0:3:0:0:
372,156,32231,1,4,0:3:0:0:
443,103,32531,1,0,1:0:0:0:
363,66,32831,1,4,0:3:0:0:
292,118,33131,1,4,0:3:0:0:
292,118,33281,5,0,1:0:0:0:
234,158,33431,1,4,0:3:0:0:
165,172,33581,1,4,0:3:0:0:
96,157,33731,1,0,1:0:0:0:
92,165,33806,1,0,1:0:0:0:
89,173,33881,2,0,P|43:173|10:200,1,75.0000028610231,0|0,1:0|1:0,0:0:0:0:
16,197,34106,1,0,1:0:0:0:
15,205,34181,6,0,L|31:299,1,75.0000028610231,4|4,0:2|0:3,0:0:0:0:
42,368,34631,1,0,1:0:0:0:
109,313,34931,1,4,0:3:0:0:
192,353,35231,1,4,0:3:0:0:
192,353,35381,5,0,1:0:0:0:
233,296,35531,1,4,0:3:0:0:
216,228,35681,1,4,0:3:0:0:
252,168,35831,1,2,0:0:0:0:
323,154,35981,5,6,0:3:0:0:
323,154,36131,1,0,0:0:0:0:
389,205,36431,1,0,1:0:0:0:
374,287,36731,1,4,0:3:0:0:
293,311,37031,1,4,0:3:0:0:
293,311,37181,5,0,1:0:0:0:
229,274,37331,1,4,0:3:0:0:
159,264,37481,1,0,1:0:0:0:
150,265,37556,1,0,1:0:0:0:
141,266,37631,1,0,1:0:0:0:
132,267,37706,1,4,1:3:0:0:
123,268,37781,2,0,L|72:256,3,37.5000014305115,0|0|0|0,1:0|1:0|1:0|1:0,0:0:0:0:
34,209,38081,5,4,0:0:0:0:
34,209,38231,1,4,0:3:0:0:
118,138,38531,1,0,1:0:0:0:
14,99,38831,1,4,0:3:0:0:
104,35,39131,1,4,0:3:0:0:
104,35,39281,5,0,1:0:0:0:
174,72,39431,1,4,0:3:0:0:
252,87,39581,1,0,1:0:0:0:
331,82,39731,1,2,0:0:0:0:
406,56,39881,5,6,0:3:0:0:
406,56,40031,1,4,0:3:0:0:
489,127,40331,1,0,1:0:0:0:
444,227,40631,1,4,0:3:0:0:
512,320,40931,1,4,0:3:0:0:
512,320,41081,5,0,1:0:0:0:
446,365,41231,1,4,0:3:0:0:
369,342,41381,2,0,P|308:346|269:384,1,85.0000016212464,0|0,1:0|1:0,0:0:0:0:
281,368,41606,1,0,1:0:0:0:
275,379,41681,2,0,P|246:335|248:274,1,85.0000016212464,0|0,1:0|1:0,0:0:0:0:
249,291,41906,1,0,1:0:0:0:
258,279,41981,6,0,L|162:270,1,85.0000016212464,4|4,0:0|0:3,0:0:0:0:
90,197,42431,1,0,1:0:0:0:
195,164,42731,1,4,0:3:0:0:
114,88,43031,1,4,0:3:0:0:
114,88,43181,5,0,1:0:0:0:
38,114,43331,1,4,0:3:0:0:
0,184,43481,1,0,1:0:0:0:
13,262,43631,1,2,0:0:0:0:
76,318,43781,5,6,0:3:0:0:
76,318,43931,1,4,0:3:0:0:
175,270,44231,1,0,1:0:0:0:
259,340,44531,1,4,0:3:0:0:
259,340,44681,6,0,L|339:351,2,56.6666677474976,0|0|0,1:0|1:0|1:0,0:0:0:0:
294,261,44981,2,0,L|350:268,2,56.6666677474976,4|4|4,0:3|0:3|0:3,0:0:0:0:
333,185,45281,2,0,L|389:192,2,56.6666677474976,0|4|4,1:0|0:3|0:3,0:0:0:0:
432,115,45581,6,0,L|375:107,2,56.6666677474976,0|0|0,1:0|1:0|1:0,0:0:0:0:
334,33,45881,5,4,0:0:0:0:
334,33,46031,1,4,0:3:0:0:
243,95,46331,1,0,1:0:0:0:
136,120,46631,1,4,0:3:0:0:
27,102,46931,1,4,0:3:0:0:
27,102,47081,5,0,1:0:0:0:
90,53,47231,1,4,0:3:0:0:
136,120,47381,1,4,0:3:0:0:
72,168,47531,1,2,0:0:0:0:
62,251,47681,5,6,0:3:0:0:
62,251,47831,1,4,0:3:0:0:
157,309,48131,1,0,1:0:0:0:
224,219,48431,1,4,0:3:0:0:
327,270,48731,1,4,0:3:0:0:
327,270,48881,5,0,1:0:0:0:
369,337,49031,1,4,0:3:0:0:
450,352,49181,2,0,P|481:297|477:255,1,85.0000016212464,0|0,1:0|1:0,0:0:0:0:
473,264,49406,1,0,1:0:0:0:
461,253,49481,2,0,P|430:198|434:156,1,85.0000016212464,0|0,1:0|1:0,0:0:0:0:
434,163,49706,1,0,1:0:0:0:
442,152,49781,6,0,L|317:139,1,85.0000016212464,4|4,0:0|0:3,0:0:0:0:
279,64,50231,1,0,1:0:0:0:
248,169,50531,1,4,0:3:0:0:
168,93,50831,1,4,0:3:0:0:
168,93,50981,5,0,1:0:0:0:
107,145,51131,1,4,0:3:0:0:
88,222,51281,1,4,0:3:0:0:
109,298,51431,1,2,0:0:0:0:
160,366,51581,5,6,0:3:0:0:
160,366,51731,1,4,0:3:0:0:
214,270,52031,1,0,1:0:0:0:
331,294,52331,1,4,0:3:0:0:
331,294,52481,6,0,L|341:376,2,56.6666677474976,0|0|0,1:0|1:0|1:0,0:0:0:0:
284,211,52781,2,0,L|207:178,2,56.6666677474976,4|4|4,0:3|0:3|0:3,0:0:0:0:
375,212,53081,2,0,L|441:162,2,56.6666677474976,0|4|4,1:0|0:3|0:3,0:0:0:0:
372,98,53381,6,0,L|326:132,2,56.6666677474976,0|0|0,1:0|1:0|1:0,0:0:0:0:
446,49,53681,5,6,0:3:0:0:
446,49,53981,1,6,0:3:0:0:
372,98,55481,5,6,0:3:0:0:
372,98,55781,1,6,0:3:0:0:
372,98,56081,1,6,0:3:0:0:
294,57,57581,6,0,L|288:19,3,25,0|0|0|0,1:0|1:0|1:0|1:0,0:0:0:0:
288,14,57881,1,6,0:3:0:0:
288,14,58181,1,6,0:3:0:0:
210,58,59681,5,6,0:3:0:0:
210,58,59981,1,6,0:3:0:0:
210,58,60281,5,6,0:3:0:0:
133,106,60731,1,6,0:3:0:0:
58,154,61181,1,6,0:3:0:0:
214,270,61631,5,0,1:0:0:0:
214,270,61706,1,0,1:0:0:0:
214,270,61781,2,0,L|206:337,3,37.5000014305115,4|4|0|0,1:3|1:3|1:0|1:0,0:0:0:0:
209,324,62081,5,6,0:3:0:0:
286,352,62381,1,6,0:3:0:0:
354,309,62681,1,0,1:0:0:0:
354,309,62831,1,4,0:3:0:0:
435,322,63131,1,4,0:3:0:0:
487,258,63431,1,4,0:3:0:0:
487,258,63581,2,0,L|477:154,1,75.0000028610231,0|4,1:0|0:3,0:0:0:0:
459,53,63881,5,6,0:3:0:0:
398,109,64181,1,6,0:3:0:0:
459,53,64481,1,6,0:3:0:0:
381,29,64781,1,0,1:0:0:0:
381,29,64931,1,4,0:3:0:0:
316,79,65231,1,4,0:3:0:0:
238,57,65531,1,4,0:3:0:0:
238,57,65681,2,0,L|148:64,1,75.0000028610231,0|4,1:0|0:3,0:0:0:0:
145,74,65906,1,4,0:3:0:0:
127,85,65981,2,0,L|65:77,3,37.5000014305115,0|0|0|0,1:0|1:0|1:0|1:0,0:0:0:0:
73,78,66281,5,6,0:3:0:0:
45,155,66581,1,6,0:3:0:0:
103,218,66881,1,0,1:0:0:0:
103,218,67031,1,4,0:3:0:0:
83,298,67331,1,4,0:3:0:0:
146,357,67631,1,4,0:3:0:0:
146,357,67781,2,0,L|224:349,1,75.0000028610231,0|4,1:0|0:3,0:0:0:0:
339,336,68081,5,6,0:3:0:0:
339,336,68381,2,0,L|387:345,3,37.5000014305115,0|0|0|0,1:0|1:0|1:0|1:0,0:0:0:0:
393,346,68681,5,6,2:3:0:0:
270,253,69131,1,6,2:3:0:0:
444,285,69581,5,6,2:3:0:0:
197,188,70031,1,6,2:3:0:0:
503,225,70481,5,6,2:3:0:0:
118,122,70931,1,8,0:3:0:0:
118,122,71381,6,0,P|152:118|185:98,2,66.6666666666667,4|4|4,0:1|0:3|0:3,0:0:0:0:
0,180,71809,2,0,P|67:186|125:237,1,133.333333333333,0|4,1:0|0:3,0:0:0:0:
170,329,72238,2,0,P|136:325|103:305,2,66.6666666666667,12|4|4,0:3|0:3|0:3,0:0:0:0:
286,232,72666,2,0,P|282:264|266:294,1,66.6666666666667,0|4,1:0|0:3,0:0:0:0:
195,254,72952,1,0,1:0:0:0:
226,174,73095,6,0,B|304:160|271:221|384:182,1,133.333333333333,4|4,0:0|0:3,0:0:0:0:
452,90,73523,2,0,P|384:112|369:132,1,66.6666666666667,0|4,1:0|0:3,0:0:0:0:
469,254,73809,1,4,0:3:0:0:
482,174,73952,6,0,B|404:160|437:221|324:182,1,133.333333333333,12|4,0:3|0:3,0:0:0:0:
295,136,74381,1,4,0:3:0:0:
226,94,74523,1,4,0:3:0:0:
146,99,74666,1,0,1:0:0:0:
81,145,74809,6,0,P|64:174|72:252,2,66.6666666666667,4|4|4,1:0|0:3|0:3,0:0:0:0:
212,308,75238,2,0,P|163:263|144:200,1,133.333333333333,0|4,1:3|0:3,0:0:0:0:
293,186,75666,2,0,P|231:218|209:215,2,66.6666666666667,12|4|4,0:3|0:3|0:3,0:0:0:0:
389,111,76095,2,0,P|420:120|444:143,1,66.6666666666667,0|4,1:0|0:3,0:0:0:0:
375,191,76381,1,0,1:0:0:0:
299,93,76523,6,0,P|349:35|439:29,1,133.333333333333,4|4,0:0|0:3,0:0:0:0:
444,143,76952,2,0,P|420:120|389:111,2,66.6666666666667,0|4|4,1:0|0:3|0:3,0:0:0:0:
475,257,77381,6,0,L|466:346,1,66.6666666666667,0|4,1:0|0:3,0:0:0:0:
468,323,77595,1,4,0:3:0:0:
468,323,77666,1,4,0:3:0:0:
388,283,77809,1,0,1:0:0:0:
320,348,77952,1,0,1:0:0:0:
235,312,78095,1,0,1:0:0:0:
168,374,78238,6,0,P|96:362|32:291,1,133.333333333333,4|4,0:1|0:3,0:0:0:0:
16,252,78666,2,0,P|33:185|24:158,1,66.6666666666667,0|4,1:0|0:3,0:0:0:0:
4,113,78952,1,4,0:3:0:0:
117,182,79095,6,0,P|189:170|253:99,1,133.333333333333,12|4,0:3|0:3,0:0:0:0:
332,24,79523,2,0,P|310:96|321:132,1,66.6666666666667,0|4,1:0|0:3,0:0:0:0:
447,143,79809,1,0,1:0:0:0:
456,63,79952,6,0,P|383:85|367:112,2,66.6666666666667,4|4|4,0:0|0:3|0:3,0:0:0:0:
411,235,80381,2,0,P|355:183|324:182,2,66.6666666666667,0|4|4,1:0|0:3|0:3,0:0:0:0:
239,282,80809,2,0,P|255:208|240:180,2,66.6666666666667,6|4|4,0:3|0:3|0:3,0:0:0:0:
112,156,81238,2,0,P|184:133|200:106,2,66.6666666666667,6|4|0,0:3|0:3|1:0,0:0:0:0:
0,46,81666,6,0,P|94:52|138:105,1,133.333333333333,4|4,0:1|0:3,0:0:0:0:
259,140,82095,1,0,1:0:0:0:
333,98,82238,2,0,P|345:19|333:-5,1,66.6666666666667,4|4,0:3|0:3,0:0:0:0:
330,180,82523,6,0,P|385:214|450:209,1,133.333333333333,12|4,0:3|0:3,0:0:0:0:
512,284,82952,2,0,P|478:285|448:299,1,66.6666666666667,0|4,1:0|0:3,0:0:0:0:
266,384,83238,1,0,1:0:0:0:
412,374,83381,6,0,L|313:361,1,66.6666666666667,0|4,1:0|0:3,0:0:0:0:
162,343,83666,1,4,0:3:0:0:
299,297,83809,6,0,L|232:305,1,66.6666666666667,0|4,1:0|0:3,0:0:0:0:
30,329,84095,1,4,0:3:0:0:
83,151,84238,5,0,1:0:0:0:
108,268,84381,1,4,0:3:0:0:
114,265,84452,1,4,0:3:0:0:
120,262,84523,1,4,0:3:0:0:
126,259,84595,1,4,0:3:0:0:
131,257,84666,2,0,L|137:199,5,33.3333333333333,8|8|8|8|4|4,0:3|0:3|0:3|0:3|0:3|0:3,0:0:0:0:
164,197,85095,6,0,P|214:204|247:226,2,66.6666666666667,4|4|4,0:1|0:3|0:3,0:0:0:0:
301,252,85523,2,0,P|351:245|384:223,2,66.6666666666667,4|4|4,0:3|0:3|0:3,0:0:0:0:
430,175,85952,2,0,P|439:123|386:39,1,133.333333333333,0|4,1:0|0:3,0:0:0:0:
258,40,86381,2,0,P|288:27|321:25,1,66.6666666666667,4|4,0:3|0:3,0:0:0:0:
307,109,86666,1,0,1:0:0:0:
170,92,86809,6,0,P|168:58|178:27,2,66.6666666666667,4|4|4,0:0|0:3|0:3,0:0:0:0:
281,231,87238,2,0,P|313:173|306:108,1,133.333333333333,0|4,1:3|0:3,0:0:0:0:
169,177,87666,2,0,P|201:172|231:157,2,66.6666666666667,12|4|4,0:3|0:3|0:3,0:0:0:0:
99,136,88095,1,4,0:3:0:0:
69,210,88238,1,4,0:3:0:0:
45,286,88381,1,0,1:0:0:0:
83,355,88523,6,0,P|132:373|173:366,2,66.6666666666667,4|4|4,0:1|0:3|0:3,0:0:0:0:
211,319,88952,2,0,P|260:301|301:308,2,66.6666666666667,4|4|4,0:3|0:3|0:3,0:0:0:0:
426,330,89381,2,0,P|390:270|323:242,1,133.333333333333,0|4,1:0|0:3,0:0:0:0:
176,207,89809,2,0,P|209:203|238:189,1,66.6666666666667,0|4,1:0|0:3,0:0:0:0:
182,125,90095,1,0,1:0:0:0:
318,159,90238,6,0,P|321:93|288:36,1,133.333333333333,4|4,0:0|0:3,0:0:0:0:
145,24,90666,2,0,P|174:38|207:41,2,66.6666666666667,0|4|4,1:0|0:3|0:3,0:0:0:0:
19,19,91095,6,0,L|28:104,1,66.6666666666667,0|4,1:0|0:3,0:0:0:0:
26,85,91309,1,4,0:3:0:0:
26,85,91381,1,4,0:3:0:0:
116,147,91523,1,0,1:0:0:0:
48,221,91666,1,0,1:0:0:0:
125,284,91809,1,0,1:0:0:0:
59,359,91952,6,0,P|109:328|190:340,1,133.333333333333,4|4,0:1|0:3,0:0:0:0:
321,324,92381,2,0,P|265:350|233:347,1,66.6666666666667,0|4,1:0|0:3,0:0:0:0:
257,268,92666,1,4,0:3:0:0:
393,281,92809,2,0,P|405:329|397:367,2,66.6666666666667,6|4|4,0:3|0:3|0:3,0:0:0:0:
332,161,93238,2,0,P|331:127|342:96,1,66.6666666666667,0|4,1:3|0:3,0:0:0:0:
404,41,93523,1,0,1:0:0:0:
474,154,93666,6,0,P|436:138|394:140,2,66.6666666666667,4|4|4,0:0|0:3|0:3,0:0:0:0:
323,13,94095,2,0,P|286:31|260:65,2,66.6666666666667,0|4|4,1:0|0:3|0:3,0:0:0:0:
117,38,94523,2,0,P|107:78|117:119,2,66.6666666666667,12|4|4,0:3|0:3|0:3,0:0:0:0:
3,211,94952,2,0,P|27:243|65:263,2,66.6666666666667,6|4|0,0:3|0:3|1:0,0:0:0:0:
191,79,95381,6,0,P|258:105|289:175,1,133.333333333333,4|4,0:1|0:3,0:0:0:0:
331,279,95809,2,0,P|339:227|364:197,1,66.6666666666667,0|4,1:0|0:3,0:0:0:0:
423,185,96095,1,4,0:3:0:0:
509,342,96238,2,0,P|447:320|413:264,1,133.333333333333,6|4,0:3|0:3,0:0:0:0:
490,135,96666,2,0,P|503:165|504:198,1,66.6666666666667,0|4,1:0|0:3,0:0:0:0:
416,104,96952,1,0,1:0:0:0:
423,185,97095,6,0,L|336:175,1,66.6666666666667,8|8,0:3|0:3,0:0:0:0:
356,177,97309,1,8,0:3:0:0:
356,177,97381,1,8,0:3:0:0:
285,217,97523,2,0,L|293:297,2,66.6666666666667,8|8|8,0:3|0:3|0:3,0:0:0:0:
232,91,97952,6,0,L|224:171,1,66.6666666666667,4|4,0:3|0:3,0:0:0:0:
78,80,98238,2,0,L|175:37,1,79.9999975585938,4|8,1:2|0:3,0:0:0:0:
168,223,98523,2,0,L|76:154,1,93.3333304850261,8|8,0:3|0:3,0:0:0:0:
256,13,98809,5,4,0:0:0:0:
256,13,99238,1,2,0:0:0:0:
256,104,99666,1,4,0:0:0:0:
256,104,100095,1,2,0:3:0:0:
256,192,100523,1,4,0:0:0:0:
256,192,100952,1,4,0:3:0:0:
256,280,101381,1,4,0:0:0:0:
256,280,101810,1,0,1:0:0:0:
256,371,102238,5,4,0:1:0:0:
64,25,109738,6,0,L|69:62,3,37.5000014305115,0|0|0|0,1:0|1:0|1:0|1:0,0:0:0:0:
76,84,110038,5,4,1:1:0:0:
76,84,110188,1,4,0:3:0:0:
203,21,110488,1,4,0:3:0:0:
203,21,110638,1,0,1:0:0:0:
99,168,110938,5,4,0:3:0:0:
99,168,111088,1,4,0:3:0:0:
226,105,111388,1,4,0:3:0:0:
226,105,111538,1,4,0:3:0:0:
121,253,111838,5,0,1:0:0:0:
121,253,111988,1,4,0:3:0:0:
248,190,112288,1,4,0:3:0:0:
248,190,112438,1,0,1:0:0:0:
144,337,112738,5,4,0:3:0:0:
144,337,112888,1,4,0:3:0:0:
271,274,113188,1,0,1:0:0:0:
271,274,113338,6,0,P|304:292|356:283,1,75.0000028610231,4|4,0:3|0:3,0:0:0:0:
495,196,113638,2,0,P|432:204|395:262,1,100,0|8,1:0|0:3,0:0:0:0:
348,378,113938,5,4,0:1:0:0:
348,378,114088,1,4,0:3:0:0:
484,284,114388,1,4,0:3:0:0:
484,284,114538,1,0,1:0:0:0:
275,304,114838,5,4,0:3:0:0:
275,304,114988,1,4,0:3:0:0:
413,213,115288,1,4,0:3:0:0:
413,213,115438,1,4,0:3:0:0:
201,232,115738,5,0,1:0:0:0:
201,232,115888,1,4,0:3:0:0:
340,139,116188,1,4,0:3:0:0:
340,139,116338,1,0,1:0:0:0:
129,159,116638,5,4,0:3:0:0:
129,159,116788,1,4,0:3:0:0:
268,68,117088,1,0,1:0:0:0:
268,68,117238,6,0,P|264:33|236:-1,1,75.0000028610231,4|4,0:3|0:3,0:0:0:0:
88,33,117538,2,0,P|135:64|198:61,1,100,0|8,1:0|0:3,0:0:0:0:
397,14,117838,5,4,0:1:0:0:
397,14,117988,1,4,0:3:0:0:
339,199,118288,1,4,0:3:0:0:
339,199,118438,1,0,1:0:0:0:
253,37,118738,5,4,0:3:0:0:
253,37,118888,1,4,0:3:0:0:
261,230,119188,1,4,0:3:0:0:
261,230,119338,1,4,0:3:0:0:
115,99,119638,5,0,1:0:0:0:
115,99,119788,1,4,0:3:0:0:
189,277,120088,1,4,0:3:0:0:
189,277,120238,1,0,1:0:0:0:
19,209,120538,5,4,0:3:0:0:
19,209,120688,1,4,0:3:0:0:
149,351,120988,1,0,1:0:0:0:
149,351,121138,6,0,P|94:346|50:314,1,75.0000028610231,4|4,0:3|0:3,0:0:0:0:
203,184,121438,2,0,P|204:254|174:288,1,100,0|8,1:0|0:3,0:0:0:0:
19,209,121738,5,4,0:1:0:0:
19,209,121888,1,4,0:3:0:0:
234,356,122188,1,4,0:3:0:0:
234,356,122338,1,0,1:0:0:0:
79,101,122638,5,4,0:3:0:0:
79,101,122788,1,4,0:3:0:0:
149,351,123088,1,4,0:3:0:0:
149,351,123238,1,4,0:3:0:0:
199,47,123538,5,0,1:0:0:0:
199,47,123688,1,4,0:3:0:0:
91,283,123988,1,4,0:3:0:0:
91,283,124138,1,0,1:0:0:0:
331,81,124438,5,4,0:3:0:0:
331,81,124588,1,4,0:3:0:0:
96,192,124888,1,0,1:0:0:0:
96,192,125038,6,0,P|168:171|187:177,1,75.0000028610231,4|4,0:3|0:3,0:0:0:0:
337,293,125338,1,0,1:0:0:0:
354,287,125413,1,0,1:0:0:0:
371,281,125488,1,0,1:0:0:0:
388,275,125563,1,0,1:0:0:0:
406,269,125638,2,0,L|415:206,3,37.5000014305115,0|0|0|0,1:0|1:0|1:0|1:0,0:0:0:0:
490,261,125938,5,2,0:3:0:0:
256,192,142738,12,0,144838,0:0:0:0:
190,258,145138,6,0,P|262:250|328:209,1,129.999994049073,4|0,0:0|0:0,0:0:0:0:
347,305,145588,1,4,0:3:0:0:
347,305,145738,2,0,P|384:261|401:212,1,100,2|0,0:0|0:0,0:0:0:0:
41,123,146338,2,0,P|143:169|232:176,1,200,0|2,1:0|0:0,0:0:0:0:
229,176,147238,1,4,0:3:0:0:
422,0,147538,6,0,P|397:59|406:127,1,129.999994049073,4|0,0:3|0:0,0:0:0:0:
410,242,147988,1,4,0:3:0:0:
410,242,148138,2,0,P|398:220|380:202,1,50,2|0,0:0|0:0,0:0:0:0:
321,145,148438,1,4,0:3:0:0:
321,145,148738,2,0,P|234:193|174:194,1,150,0|0,1:0|0:0,0:0:0:0:
229,114,149338,1,4,0:3:0:0:
229,114,149638,2,0,L|217:74,3,25,2|0|0|0,0:0|0:0|0:0|0:0,0:0:0:0:
219,74,149938,6,0,P|157:34|96:21,1,129.999994049073,4|0,0:0|0:0,0:0:0:0:
130,113,150388,1,4,0:3:0:0:
130,113,150538,2,0,P|80:111|32:132,1,100,2|0,0:0|0:0,0:0:0:0:
8,366,151138,2,0,P|22:293|99:189,1,200,0|2,1:0|0:0,0:0:0:0:
95,193,152038,1,4,0:3:0:0:
166,296,152338,6,0,P|237:288|291:250,1,129.999994049073,4|0,0:3|0:0,0:0:0:0:
336,336,152788,1,4,0:3:0:0:
336,336,152938,2,0,P|350:316|359:273,1,50,2|0,0:0|0:0,0:0:0:0:
419,229,153238,1,4,0:3:0:0:
419,229,153538,2,0,P|413:177|379:119,1,100,0|0,1:0|0:0,0:0:0:0:
327,86,153988,1,8,0:3:0:0:
257,215,154138,6,0,L|172:203,1,64.9999970245363,2|4,0:3|0:3,0:0:0:0:
327,86,154438,2,0,L|248:100,1,80,0|0,1:0|1:0,0:0:0:0:
44,156,154738,6,0,P|12:109|1:27,1,129.999994049073,4|0,0:0|0:0,0:0:0:0:
159,133,155188,1,4,0:3:0:0:
159,133,155338,2,0,P|115:109|79:66,1,100,2|0,0:0|0:0,0:0:0:0:
363,61,155938,2,0,P|287:78|168:49,1,200,0|2,1:0|0:0,0:0:0:0:
170,50,156838,1,4,0:3:0:0:
299,185,157138,6,0,P|376:147|428:149,1,129.999994049073,4|0,0:3|0:0,0:0:0:0:
383,227,157588,1,4,0:3:0:0:
383,227,157738,2,0,P|432:235|448:244,1,50,2|0,0:0|0:0,0:0:0:0:
488,300,158038,1,4,0:3:0:0:
488,300,158338,2,0,P|408:340|334:346,1,150,0|0,1:0|0:0,0:0:0:0:
268,320,158938,1,4,0:3:0:0:
268,320,159238,2,0,L|255:280,3,25,2|2|2|2,0:0|0:0|0:0|0:0,0:0:0:0:
256,280,159538,5,4,0:0:0:0:
256,16,159838,5,0,1:0:0:0:
256,88,160138,1,0,1:0:0:0:
256,160,160438,1,0,1:0:0:0:
256,16,160738,5,0,1:0:0:0:
256,88,161038,1,0,1:0:0:0:
256,160,161338,1,0,1:0:0:0:
256,232,161638,1,0,1:0:0:0:
256,16,161938,5,4,1:2:0:0:
256,16,162238,5,0,1:0:0:0:
256,88,162388,1,0,1:0:0:0:
256,160,162538,1,0,1:0:0:0:
256,232,162688,1,0,1:0:0:0:
256,304,162838,1,0,1:0:0:0:
256,376,162988,1,0,1:0:0:0:
190,341,163138,5,0,1:0:0:0:
177,340,163213,1,0,1:0:0:0:
165,340,163288,1,0,1:0:0:0:
152,341,163363,1,0,1:0:0:0:
140,343,163438,1,0,1:0:0:0:
128,347,163513,1,0,1:0:0:0:
116,351,163588,1,0,1:0:0:0:
105,356,163663,1,0,1:0:0:0:
94,363,163738,2,0,L|46:356,3,37.5000014305115,0|0|0|0,1:0|1:0|1:0|1:0,0:0:0:0:
54,274,164038,2,0,L|16:279,3,37.5000014305115,0|0|0|0,1:0|1:0|1:0|1:0,0:0:0:0:
124,233,164338,5,0,1:0:0:0:
173,246,164432,1,0,1:0:0:0:
186,198,164526,1,0,1:0:0:0:
137,185,164619,1,4,0:3:0:0:
23,23,164900,5,0,1:0:0:0:
67,14,164994,1,0,1:0:0:0:
96,49,165088,1,0,1:0:0:0:
81,91,165181,1,0,1:0:0:0:
37,99,165275,1,0,1:0:0:0:
8,65,165369,1,4,0:3:0:0:
229,116,165650,5,0,1:0:0:0:
272,105,165744,1,0,1:0:0:0:
329,30,165931,5,4,0:3:0:0:
372,41,166025,1,4,0:3:0:0:
418,124,166213,5,8,0:3:0:0:
461,113,166307,1,8,0:3:0:0:
504,103,166400,1,4,0:3:0:0:
463,201,166588,5,0,1:0:0:0:
414,214,166681,1,0,1:0:0:0:
427,262,166775,1,0,1:0:0:0:
476,249,166869,1,4,0:3:0:0:
282,226,167150,5,0,1:0:0:0:
248,255,167244,1,0,1:0:0:0:
256,299,167338,1,0,1:0:0:0:
298,314,167431,1,0,1:0:0:0:
333,285,167525,1,0,1:0:0:0:
324,241,167619,1,4,0:3:0:0:
160,368,167900,5,0,1:0:0:0:
117,359,167994,1,0,1:0:0:0:
39,315,168181,5,4,0:3:0:0:
70,283,168275,1,4,0:3:0:0:
130,190,168463,5,0,1:0:0:0:
143,233,168556,1,0,1:0:0:0:
156,276,168650,1,4,0:3:0:0:
241,122,168838,6,0,B|277:87|277:87|367:79,1,100,4|0,0:1|0:0,0:0:0:0:
337,96,169119,6,0,B|281:100|281:100|236:146,1,110.000003356934,4|0,0:1|0:0,0:0:0:0:
244,159,169400,6,0,B|289:113|289:113|366:109,1,129.999994049073,4|0,0:1|0:0,0:0:0:0:
367,123,169681,6,0,B|294:128|294:128|238:189,1,150.000005722046,4|0,0:1|0:0,0:0:0:0:
239,271,169963,6,0,P|266:269|309:240,3,50,2|2|2|2,0:0|0:0|0:0|0:0,0:0:0:0:
301,249,170338,1,0,1:0:0:0:
124,308,170525,6,0,P|148:319|200:316,1,50,2|2,0:0|0:0,0:0:0:0:
252,352,170713,2,0,P|276:355|298:366,3,50,4|2|2|0,0:3|0:0|0:0|0:0,0:0:0:0:
311,378,171088,1,0,1:0:0:0:
412,285,171275,6,0,P|402:261|401:237,2,50,2|2|4,0:0|0:0|0:3,0:0:0:0:
421,302,171556,1,2,0:0:0:0:
435,311,171650,1,2,0:0:0:0:
453,174,171838,5,4,0:3:0:0:
413,153,171932,1,4,0:3:0:0:
370,159,172025,1,0,1:0:0:0:
281,102,172213,5,4,0:3:0:0:
330,89,172306,1,4,0:3:0:0:
317,41,172400,1,4,0:3:0:0:
268,54,172494,1,4,0:3:0:0:
300,72,172588,1,0,1:0:0:0:
174,179,172775,5,4,0:3:0:0:
130,171,172869,1,4,0:3:0:0:
115,128,172963,1,4,0:3:0:0:
144,94,173056,1,4,0:3:0:0:
188,102,173150,1,4,0:3:0:0:
203,144,173244,1,4,0:3:0:0:
159,137,173338,1,0,1:0:0:0:
280,198,173525,5,0,1:0:0:0:
324,184,173619,1,0,1:0:0:0:
211,272,173806,5,4,0:3:0:0:
167,258,173900,1,4,0:3:0:0:
203,372,174088,5,0,1:0:0:0:
247,358,174181,1,0,1:0:0:0:
290,344,174275,1,4,0:3:0:0:
37,278,174463,6,0,L|25:172,1,80,4|0,0:1|0:0,0:0:0:0:
13,208,174744,6,0,L|57:107,1,94.9999974632264,4|0,0:1|0:0,0:0:0:0:
35,118,175025,6,0,L|131:48,1,110.000003356934,4|0,0:1|0:0,0:0:0:0:
110,46,175306,6,0,L|248:29,1,125,4|0,0:1|0:0,0:0:0:0:
225,15,175588,6,0,L|365:77,1,139.999995727539,4|0,0:1|0:0,0:0:0:0:
355,59,175869,6,0,L|456:199,1,160,4|0,0:1|0:0,0:0:0:0:
465,188,176150,6,0,B|241:-124|-92:49|-53:407|267:373|419:167|215:54|158:185,1,866.666626993817,4|0,0:1|0:3,0:0:0:0:
159,200,177409,2,4,P|205:194|226:157,3,66.6666666666667,4|4|4|4,0:3|0:3|0:3|0:3,0:3:0:0:
100,327,178052,5,4,0:1:0:0:
100,327,178909,1,2,0:3:0:0:
71,254,179766,5,4,0:1:0:0:
71,254,180623,1,2,1:3:0:0:
71,254,181052,2,0,L|-6:264,2,66.6666666666667,4|4|4,0:3|0:3|0:3,0:0:0:0:
149,227,181480,5,4,0:1:0:0:
149,227,182338,1,2,0:3:0:0:
177,301,183195,5,4,0:1:0:0:
177,301,184053,1,2,1:3:0:0:
177,301,184480,2,0,L|192:381,2,66.6666666666667,4|4|4,0:3|0:3|0:3,0:0:0:0:
261,318,184909,5,4,0:1:0:0:
261,318,185338,1,2,0:0:0:0:
331,275,185766,1,2,0:3:0:0:
331,275,186195,1,2,0:0:0:0:
170,163,186623,5,4,0:1:0:0:
247,190,187052,1,2,0:0:0:0:
170,163,187480,1,2,0:3:0:0:
247,190,187909,1,2,0:0:0:0:
93,73,188338,5,4,0:1:0:0:
93,73,188766,1,2,0:2:0:0:
170,45,189195,1,0,1:0:0:0:
170,45,189623,2,0,L|101:37,2,50.0000019073487,4|4|4,0:3|0:3|0:3,0:0:0:0:
247,21,190052,5,0,1:0:0:0:
304,77,190195,2,0,L|312:127,2,33.3333333333333,0|0|0,1:0|1:0|1:0,0:0:0:0:
357,18,190480,2,0,P|411:29|423:41,1,50.0000019073487,8|8,0:3|0:3,0:0:0:0:
461,82,190766,1,8,0:3:0:0:
329,205,190909,2,0,P|372:170|385:170,1,50.0000019073487,0|4,1:0|0:3,0:0:0:0:
444,159,191195,1,4,0:3:0:0:
436,288,191338,2,0,L|440:254,5,33.3333333333333,0|0|0|0|0|0,1:0|1:0|1:0|1:0|1:0|1:0,0:0:0:0:
433,309,191766,6,0,P|400:322|342:315,2,66.6666666666667,4|4|4,0:1|0:3|0:3,0:0:0:0:
296,280,192195,2,0,P|263:267|205:274,2,66.6666666666667,4|4|4,0:3|0:3|0:3,0:0:0:0:
150,275,192623,2,0,P|221:233|242:164,1,133.333333333333,0|4,1:0|0:3,0:0:0:0:
87,168,193052,2,0,P|135:185|172:184,1,66.6666666666667,4|4,0:3|0:3,0:0:0:0:
156,17,193338,1,0,1:0:0:0:
145,101,193480,6,0,P|177:96|208:83,2,66.6666666666667,4|4|4,0:0|0:3|0:3,0:0:0:0:
11,151,193909,2,0,P|69:205|66:279,1,133.333333333333,4|4,0:3|0:3,0:0:0:0:
143,319,194338,2,0,P|158:269|183:244,2,66.6666666666667,12|4|4,0:3|0:3|0:3,0:0:0:0:
196,378,194766,1,4,0:3:0:0:
274,364,194909,1,4,0:3:0:0:
352,350,195052,1,4,0:3:0:0:
415,301,195195,6,0,P|400:251|375:226,2,66.6666666666667,4|4|4,0:1|0:3|0:3,0:0:0:0:
340,172,195623,2,0,P|355:122|380:97,2,66.6666666666667,4|4|4,0:3|0:3|0:3,0:0:0:0:
512,50,196052,2,0,P|447:56|393:19,1,133.333333333333,0|4,1:0|0:3,0:0:0:0:
240,85,196480,2,0,P|290:65|312:40,1,66.6666666666667,0|4,1:0|0:3,0:0:0:0:
234,5,196766,1,0,1:0:0:0:
172,137,196909,6,0,P|173:202|211:255,1,133.333333333333,4|4,0:0|0:3,0:0:0:0:
324,310,197338,2,0,P|271:327|235:319,2,66.6666666666667,0|4|4,1:0|0:3|0:3,0:0:0:0:
414,245,197766,6,0,L|406:156,1,66.6666666666667,0|4,1:0|0:3,0:0:0:0:
408,178,197980,1,4,0:3:0:0:
408,178,198052,1,4,0:3:0:0:
486,116,198195,1,0,1:0:0:0:
402,60,198338,1,0,1:0:0:0:
328,127,198480,1,0,1:0:0:0:
244,71,198623,6,0,P|194:44|94:53,1,133.333333333333,4|4,0:1|0:3,0:0:0:0:
164,201,199052,2,0,P|212:189|245:163,1,66.6666666666667,0|4,1:0|0:3,0:0:0:0:
168,119,199338,1,4,0:3:0:0:
84,250,199480,2,0,P|134:277|234:268,1,133.333333333333,6|4,0:3|0:3,0:0:0:0:
347,222,199909,2,0,P|299:234|266:260,1,66.6666666666667,0|4,1:0|0:3,0:0:0:0:
343,305,200195,1,0,1:0:0:0:
415,175,200338,6,0,P|399:122|368:94,2,66.6666666666667,4|4|4,0:0|0:3|0:3,0:0:0:0:
284,242,200766,2,0,P|296:188|283:148,2,66.6666666666667,0|4|4,1:0|0:3|0:3,0:0:0:0:
137,234,201195,2,0,P|174:193|183:152,2,66.6666666666667,12|4|4,0:3|0:3|0:3,0:0:0:0:
13,153,201623,2,0,P|66:136|94:105,2,66.6666666666667,6|4|0,0:3|0:3|1:0,0:0:0:0:
108,55,202052,6,0,P|185:54|237:103,1,133.333333333333,4|4,0:1|0:3,0:0:0:0:
345,191,202480,2,0,P|399:177|427:153,1,66.6666666666667,0|4,1:0|0:3,0:0:0:0:
271,159,202766,1,4,0:3:0:0:
451,253,202909,2,0,P|487:199|476:109,1,133.333333333333,6|4,0:3|0:3,0:0:0:0:
310,59,203338,2,0,P|350:90|386:95,1,66.6666666666667,0|4,1:0|0:3,0:0:0:0:
439,58,203623,1,0,1:0:0:0:
407,171,203766,6,0,L|327:183,1,66.6666666666667,8|8,0:3|0:3,0:0:0:0:
341,180,203980,1,8,0:3:0:0:
341,180,204052,1,8,0:3:0:0:
294,264,204195,2,0,L|375:277,2,66.6666666666667,8|8|8,0:3|0:3|0:3,0:0:0:0:
179,286,204623,6,0,L|120:328,1,66.6666666666667,4|4,0:3|0:3,0:0:0:0:
219,178,204909,2,0,L|209:91,1,79.9999975585938,0|8,1:0|0:3,0:0:0:0:
294,264,205195,2,0,L|385:309,1,93.3333304850261,8|8,0:3|0:3,0:0:0:0:
134,143,205480,5,4,0:0:0:0:
134,143,205909,1,2,0:0:0:0:
378,143,206338,5,4,0:0:0:0:
378,143,206767,1,2,0:3:0:0:
100,218,207195,5,4,0:0:0:0:
100,218,207624,1,4,0:3:0:0:
412,218,208052,5,4,0:0:0:0:
412,218,208481,1,0,1:0:0:0:
134,64,208909,5,4,0:0:0:0:
134,64,209338,1,2,0:0:0:0:
378,64,209767,5,4,0:0:0:0:
378,64,210196,1,2,0:3:0:0:
256,268,210623,5,4,0:0:0:0:
256,268,211052,1,4,0:3:0:0:
256,8,211480,5,0,1:0:0:0:
256,88,211623,2,0,L|256:128,2,33.3333333333333,4|4|4,0:3|0:3|0:3,0:0:0:0:
256,8,211909,1,0,1:3:0:0:
184,48,212052,1,0,1:0:0:0:
324,48,212195,1,0,1:0:0:0:
256,356,213195,5,4,1:0:0:0:
256,192,213266,12,0,219052,0:0:0:0:
