osu file format v14

[General]
AudioFilename: audio.mp3
AudioLeadIn: 0
PreviewTime: 37375
Countdown: 0
SampleSet: Soft
StackLeniency: 0.4
Mode: 0
LetterboxInBreaks: 0
WidescreenStoryboard: 1

[Editor]
Bookmarks: 18250,18812,19562,19843,20125,20500,21062,21812,22093,22375,22750,94492,177378
DistanceSpacing: 0.8
BeatDivisor: 4
GridSize: 4
TimelineZoom: 4.799998

[Metadata]
Title:Emerald Galaxy
TitleUnicode:Emerald Galaxy
Artist:Yuyoyuppe
ArtistUnicode:ゆよゆっぺ
Creator:pishifat
Version:Hard
Source:
Tags:metal MRML2​-​MOtOLOiD ROCK MUSIC LIVE​!​RALLY 2- featured artist
BeatmapID:1442758
BeatmapSetID:682286

[Difficulty]
HPDrainRate:5
CircleSize:4
OverallDifficulty:6.5
ApproachRate:7.5
SliderMultiplier:0.999999999999999
SliderTickRate:1

[Events]
//Background and Video events
0,0,"h1ci1h0llzsmkkbbe9gl.jpg",0,0
//Break Periods
2,102438,108913
2,126138,141913
//Storyboard Layer 0 (Background)
//Storyboard Layer 1 (Fail)
//Storyboard Layer 2 (Pass)
//Storyboard Layer 3 (Foreground)
//Storyboard Sound Samples

[TimingPoints]
281,375,6,2,0,80,1,0
17156,-100,6,2,0,30,0,0
17437,-71.4285714285714,6,2,0,5,0,0
17531,-100,6,2,0,80,0,0
17537,-100,6,2,2,20,0,0
17656,-71.4285714285714,6,2,1,35,0,0
17781,-71.4285714285714,6,2,2,50,0,0
17906,-71.4285714285714,6,2,1,65,0,0
18031,-71.4285714285714,6,2,2,80,0,0
18156,-71.4285714285714,6,2,1,100,0,0
18187,-71.4285714285714,6,2,0,5,0,0
18281,375,6,2,0,90,1,0
18281,-71.4285714285714,6,2,0,90,0,0
22781,-71.4285714285714,6,2,0,60,0,0
22968,-71.4285714285714,6,2,0,5,0,0
23062,-71.4285714285714,6,2,0,73,0,0
23249,-71.4285714285714,6,2,0,5,0,0
23343,-71.4285714285714,6,2,0,88,0,0
23531,-71.4285714285714,6,2,0,5,0,0
23624,-71.4285714285714,6,2,0,100,0,0
23812,-71.4285714285714,6,2,0,5,0,0
23906,375,6,2,0,80,1,0
23906,-76.9230769230769,6,2,0,80,0,0
26156,-71.4285714285714,6,2,0,90,0,0
28406,-71.4285714285714,6,2,0,50,0,0
28593,-71.4285714285714,6,2,0,5,0,0
28687,-71.4285714285714,6,2,0,60,0,0
28874,-71.4285714285714,6,2,0,5,0,0
28968,-71.4285714285714,6,2,0,70,0,0
29156,-71.4285714285714,6,2,0,5,0,0
29249,-71.4285714285714,6,2,0,80,0,0
29437,-71.4285714285714,6,2,0,5,0,0
29531,-71.4285714285714,6,2,0,90,0,0
29718,-71.4285714285714,6,2,0,5,0,0
29812,-71.4285714285714,6,2,0,100,0,0
29999,-71.4285714285714,6,2,0,5,0,0
30093,-71.4285714285714,6,2,0,100,0,0
30281,300,13,2,0,73,1,0
30281,-83.3333333333333,13,2,0,73,0,0
30731,-83.3333333333333,13,2,0,73,0,0
31481,-83.3333333333333,13,2,0,73,0,0
32081,-83.3333333333333,13,2,0,73,0,0
32531,-83.3333333333333,13,2,0,73,0,0
33281,-83.3333333333333,13,2,0,73,0,0
34631,-83.3333333333333,13,2,0,73,0,0
35381,-83.3333333333333,13,2,0,73,0,0
36431,-83.3333333333333,13,2,0,73,0,0
37181,-83.3333333333333,13,2,0,73,0,0
38081,-83.3333333333333,13,2,0,73,0,0
38531,-83.3333333333333,13,2,0,73,0,0
39281,-83.3333333333333,13,2,0,73,0,0
40331,-83.3333333333333,13,2,0,73,0,0
41081,-83.3333333333333,13,2,0,73,0,0
42431,-83.3333333333333,13,2,0,73,0,0
43181,-83.3333333333333,13,2,0,73,0,0
44231,-83.3333333333333,13,2,0,73,0,0
44681,-83.3333333333333,13,2,0,73,0,0
46331,-83.3333333333333,13,2,0,73,0,0
47081,-83.3333333333333,13,2,0,73,0,0
48131,-83.3333333333333,13,2,0,73,0,0
48881,-83.3333333333333,13,2,0,73,0,0
50231,-83.3333333333333,13,2,0,73,0,0
50981,-83.3333333333333,13,2,0,73,0,0
52031,-83.3333333333333,13,2,0,73,0,0
52481,-83.3333333333333,13,2,0,73,0,0
53681,300,7,2,0,80,1,0
53681,-100,7,2,0,80,0,0
57581,-100,7,2,0,60,0,0
57881,-100,7,2,0,80,0,0
61631,-71.4285714285714,7,2,0,70,0,0
62081,-83.3333333333333,7,2,0,70,0,0
66281,300,4,2,0,70,1,0
66281,-83.3333333333333,7,2,0,70,0,0
68681,300,3,2,0,70,1,0
68681,-100,7,2,0,70,0,0
69581,-90.9090909090909,7,2,0,80,0,0
70481,-83.3333333333333,7,2,0,90,0,0
70931,-71.4285714285714,3,2,0,70,0,0
71306,-71.4285714285714,3,2,0,5,0,0
71381,428.571428571429,4,2,0,90,1,0
71381,-62.5,4,2,0,90,0,1
84238,-62.5,4,2,0,90,0,0
85095,-62.5,4,2,0,90,0,1
98809,-76.9230769230769,4,2,0,90,0,0
100881,-62.5,4,2,0,5,0,0
100952,-76.9230769230769,4,2,0,90,0,0
101738,-62.5,4,2,0,5,0,0
101809,-62.5,4,2,0,90,0,0
102238,300,6,2,0,80,1,0
110038,300,13,2,0,80,1,0
110038,-71.4285714285714,13,2,0,80,0,0
121738,300,14,2,0,80,1,0
121738,-71.4285714285714,14,2,0,80,0,0
125938,300,4,2,0,80,1,0
142738,-71.4285714285714,4,2,0,40,0,0
145138,-100,4,2,0,60,0,0
154138,-83.3333333333333,4,2,0,80,0,0
154363,-71.4285714285714,4,2,0,80,0,0
154738,-100,4,2,0,80,0,0
154813,-100,4,2,0,60,0,0
160138,-71.4285714285714,4,2,0,65,0,0
160738,-71.4285714285714,4,2,0,70,0,0
161338,-71.4285714285714,4,2,0,75,0,0
161938,-71.4285714285714,4,2,0,80,0,0
162538,-71.4285714285714,4,2,0,85,0,0
163138,-71.4285714285714,4,2,0,80,0,0
163438,-76.9230769230769,4,2,0,80,0,0
163738,-83.3333333333333,4,2,0,75,0,0
163888,-71.4285714285714,4,2,0,70,0,0
164038,-90.9090909090909,4,2,0,65,0,0
164188,-71.4285714285714,4,2,0,60,0,0
164338,375,6,2,0,90,1,0
164338,-71.4285714285714,6,2,0,90,0,0
168838,-71.4285714285714,6,2,0,60,0,0
169025,-71.4285714285714,6,2,0,5,0,0
169119,-71.4285714285714,6,2,0,73,0,0
169306,-71.4285714285714,6,2,0,5,0,0
169400,-71.4285714285714,6,2,0,88,0,0
169588,-71.4285714285714,6,2,0,5,0,0
169681,-71.4285714285714,6,2,0,100,0,0
169869,-71.4285714285714,6,2,0,5,0,0
169963,375,6,2,0,80,1,0
169963,-76.9230769230769,6,2,0,80,0,0
172213,-71.4285714285714,6,2,0,90,0,0
174463,-71.4285714285714,6,2,0,50,0,0
174650,-71.4285714285714,6,2,0,5,0,0
174744,-71.4285714285714,6,2,0,60,0,0
174931,-71.4285714285714,6,2,0,5,0,0
175025,-71.4285714285714,6,2,0,70,0,0
175213,-71.4285714285714,6,2,0,5,0,0
175306,-71.4285714285714,6,2,0,80,0,0
175494,-71.4285714285714,6,2,0,5,0,0
175588,-71.4285714285714,6,2,0,90,0,0
175775,-71.4285714285714,6,2,0,5,0,0
175869,-71.4285714285714,6,2,0,100,0,0
176056,-71.4285714285714,6,2,0,5,0,0
176150,-90.9090909090909,6,2,0,100,0,0
176338,428.571428571429,4,2,0,60,1,0
178052,-71.4285714285714,4,2,0,80,0,1
178909,-71.4285714285714,4,2,0,80,0,0
179766,-71.4285714285714,4,2,0,80,0,0
180623,-71.4285714285714,4,2,0,80,0,0
181480,-71.4285714285714,4,2,0,80,0,0
182338,-71.4285714285714,4,2,0,80,0,0
183195,-71.4285714285714,4,2,0,80,0,0
184052,-71.4285714285714,4,2,0,80,0,0
184909,-83.3333333333333,4,2,0,80,0,0
185766,-83.3333333333333,4,2,0,80,0,0
186623,-83.3333333333333,4,2,0,80,0,0
187480,-83.3333333333333,4,2,0,80,0,0
188338,-83.3333333333333,4,2,0,80,0,0
189195,-71.4285714285714,4,2,0,80,0,0
191766,-62.5,4,2,0,90,0,1
205480,-76.9230769230769,4,2,0,90,0,0
207552,-71.4285714285714,4,2,0,5,0,0
207623,-76.9230769230769,4,2,0,90,0,0
208409,-71.4285714285714,4,2,0,5,0,0
208480,-76.9230769230769,4,2,0,90,0,0
210980,-71.4285714285714,4,2,0,5,0,0
211052,-76.9230769230769,4,2,0,90,0,0
211480,-71.4285714285714,4,2,0,80,0,0
211909,-76.9230769230769,4,2,0,70,0,0
213195,-71.4285714285714,4,2,0,100,0,0
213266,-71.4285714285714,4,2,0,50,0,0

[Colours]
Combo1 : 99,242,57
Combo2 : 243,248,86
Combo3 : 254,101,223
Combo4 : 47,191,234

[HitObjects]
256,192,15281,12,0,17156,0:0:0:0:
242,104,17531,6,0,P|190:44|103:58,1,175,2|0,0:0|0:0,0:0:0:0:
103,59,18281,6,0,L|107:109,3,34.9999989318848,0|0|0|4,1:0|1:0|1:0|0:3,0:0:0:0:
183,216,18843,6,0,L|185:181,5,34.9999989318848,0|0|0|0|0|4,1:0|1:0|1:0|1:0|1:0|0:3,0:0:0:0:
31,135,19593,6,0,L|35:185,1,34.9999989318848,0|0,1:0|1:0,0:0:0:0:
32,255,19874,2,0,L|61:296,1,34.9999989318848,4|4,0:3|0:3,0:0:0:0:
94,358,20156,2,0,L|139:379,2,34.9999989318848,8|8|4,0:3|0:3|0:3,0:0:0:0:
141,285,20531,6,0,L|146:240,3,34.9999989318848,0|0|0|4,1:0|1:0|1:0|0:3,0:0:0:0:
233,163,21093,6,0,L|236:197,5,34.9999989318848,0|0|0|0|0|4,1:0|1:0|1:0|1:0|1:0|0:3,0:0:0:0:
322,266,21843,6,0,L|318:300,1,34.9999989318848,0|0,1:0|1:0,0:0:0:0:
389,212,22124,2,0,L|403:244,1,34.9999989318848,4|4,0:3|0:3,0:0:0:0:
421,134,22406,2,0,L|449:154,2,34.9999989318848,0|0|4,1:0|1:0|0:3,0:0:0:0:
354,85,22781,6,0,B|310:54|310:54|241:75,1,104.999996795654,4|4,0:1|0:1,0:0:0:0:
261,69,23343,2,0,B|211:84|211:84|167:53,1,104.999996795654,4|4,0:1|0:1,0:0:0:0:
168,54,23906,6,0,L|110:63,3,32.4999985122681,2|2|2|2,0:0|0:0|0:0|0:0,0:0:0:0:
120,62,24281,1,0,1:0:0:0:
86,142,24468,6,0,L|144:151,5,32.4999985122681,2|2|4|2|2|2,0:0|0:0|0:3|0:0|0:0|0:0,0:0:0:0:
134,150,25031,1,0,1:0:0:0:
165,231,25218,6,0,L|117:237,2,32.4999985122681,2|2|4,0:0|0:0|0:3,0:0:0:0:
181,229,25499,2,0,L|213:224,1,32.4999985122681,2|2,0:0|0:0,0:0:0:0:
251,314,25781,2,0,L|202:306,2,32.4999985122681,4|4|0,0:3|0:3|1:0,0:0:0:0:
341,274,26156,6,0,L|346:229,3,34.9999989318848,4|4|4|4,0:3|0:3|0:3|0:3,0:0:0:0:
347,221,26531,1,0,1:0:0:0:
432,224,26718,6,0,L|427:179,5,34.9999989318848,4|4|4|4|4|4,0:3|0:3|0:3|0:3|0:3|0:3,0:0:0:0:
425,170,27281,1,0,1:0:0:0:
345,135,27468,6,0,L|350:90,1,34.9999989318848,0|0,1:0|1:0,0:0:0:0:
254,97,27749,2,0,L|280:60,1,34.9999989318848,4|4,0:3|0:3,0:0:0:0:
188,21,28031,2,0,L|229:2,2,34.9999989318848,0|0|8,1:0|1:0|0:3,0:0:0:0:
107,57,28406,6,0,B|64:85|64:85|75:157,1,104.999996795654,4|4,0:1|0:1,0:0:0:0:
215,182,28968,2,0,B|163:184|163:184|137:252,1,104.999996795654,4|4,0:1|0:1,0:0:0:0:
242,344,29531,2,0,B|196:320|196:320|139:366,1,104.999996795654,4|4,2:1|2:1,0:0:0:0:
47,304,30093,1,0,1:0:0:0:
47,304,30187,1,0,1:0:0:0:
47,304,30281,6,0,L|43:235,1,59.9999981689453,4|4,0:2|0:3,0:0:0:0:
43,244,30731,2,0,P|36:193|6:106,2,119.999996337891,0|4|4,1:0|0:3|0:3,0:0:0:0:
125,278,31481,1,0,1:0:0:0:
125,278,31631,1,4,0:3:0:0:
183,217,31781,2,0,P|228:203|253:205,1,59.9999981689453,4|2,0:3|0:0,0:0:0:0:
319,232,32081,6,0,L|389:239,1,59.9999981689453,6|4,0:3|0:3,0:0:0:0:
379,238,32531,2,0,P|462:234|524:215,2,119.999996337891,0|4|4,1:0|0:3|0:3,0:0:0:0:
356,157,33281,2,0,P|394:146|423:129,2,59.9999981689453,0|4|4,1:0|0:3|0:3,0:0:0:0:
297,99,33731,1,0,1:0:0:0:
294,90,33806,1,0,1:0:0:0:
291,81,33881,2,0,P|264:67|235:60,1,59.9999981689453,0|0,1:0|1:0,0:0:0:0:
225,61,34106,1,0,1:0:0:0:
216,63,34181,6,0,L|210:140,1,59.9999981689453,4|4,0:2|0:3,0:0:0:0:
211,122,34631,2,0,P|232:231|247:258,2,119.999996337891,0|4|4,1:0|0:3|0:3,0:0:0:0:
135,85,35381,1,0,1:0:0:0:
135,85,35531,1,4,0:3:0:0:
56,115,35681,2,0,P|39:147|35:191,1,59.9999981689453,4|2,0:3|0:0,0:0:0:0:
73,248,35981,6,0,L|143:256,1,59.9999981689453,6|0,0:3|0:0,0:0:0:0:
132,254,36431,2,0,P|190:264|244:290,2,119.999996337891,0|4|4,1:0|0:3|0:3,0:0:0:0:
123,172,37181,2,0,P|168:158|208:160,1,59.9999981689453,0|4,1:0|0:3,0:0:0:0:
261,184,37481,2,0,L|303:190,3,29.9999990844727,0|0|0|4,1:0|1:0|1:0|0:3,0:0:0:0:
306,193,37781,2,0,L|348:199,3,29.9999990844727,0|0|0|0,1:0|1:0|1:0|1:0,0:0:0:0:
351,200,38081,6,0,P|399:191|429:177,1,59.9999981689453,4|4,0:0|0:3,0:0:0:0:
409,187,38531,2,0,L|420:60,1,119.999996337891,0|4,1:0|0:3,0:0:0:0:
419,67,39131,1,4,0:3:0:0:
330,103,39281,2,0,L|323:43,1,59.9999981689453,0|4,1:0|0:3,0:0:0:0:
251,3,39581,1,0,1:0:0:0:
194,64,39731,1,2,0:0:0:0:
119,23,39881,6,0,P|76:31|45:54,1,59.9999981689453,6|4,0:3|0:3,0:0:0:0:
62,38,40331,2,0,L|75:178,1,119.999996337891,0|4,1:0|0:3,0:0:0:0:
73,157,40931,1,4,0:3:0:0:
155,206,41081,2,0,L|165:137,2,59.9999981689453,0|4|0,1:0|0:3|1:0,0:0:0:0:
143,295,41531,1,0,1:0:0:0:
150,299,41606,1,0,1:0:0:0:
157,303,41681,2,0,L|226:297,1,59.9999981689453,0|0,1:0|1:0,0:0:0:0:
225,300,41906,1,0,1:0:0:0:
233,302,41981,6,0,P|262:353|266:375,1,59.9999981689453,4|4,0:0|0:3,0:0:0:0:
262,353,42431,2,0,L|399:365,1,119.999996337891,0|4,1:0|0:3,0:0:0:0:
381,363,43031,1,4,0:3:0:0:
426,293,43181,2,0,L|496:300,1,59.9999981689453,0|4,1:0|0:3,0:0:0:0:
467,215,43481,1,0,1:0:0:0:
467,215,43631,1,2,0:0:0:0:
399,159,43781,6,0,P|355:172|329:192,1,59.9999981689453,6|4,0:3|0:3,0:0:0:0:
344,180,44231,2,0,L|215:193,1,119.999996337891,0|4,1:0|0:3,0:0:0:0:
157,138,44681,6,0,L|152:83,2,39.9999987792969,0|0|0,1:0|1:0|1:0,0:0:0:0:
90,165,44981,2,0,L|58:119,2,39.9999987792969,4|4|4,0:3|0:3|0:3,0:0:0:0:
39,221,45281,2,0,L|-11:197,2,39.9999987792969,0|4|4,1:0|0:3|0:3,0:0:0:0:
25,295,45581,2,0,L|-16:298,2,39.9999987792969,0|0|0,1:0|1:0|1:0,0:0:0:0:
98,270,45881,6,0,P|145:279|175:303,1,59.9999981689453,4|4,0:0|0:3,0:0:0:0:
155,284,46331,2,0,L|280:299,1,119.999996337891,0|4,1:0|0:3,0:0:0:0:
274,298,46931,1,4,0:3:0:0:
232,212,47081,2,0,L|310:203,1,59.9999981689453,0|4,1:0|0:3,0:0:0:0:
370,236,47381,1,4,0:3:0:0:
442,192,47531,1,2,0:0:0:0:
365,151,47681,6,0,P|375:92|386:75,1,59.9999981689453,6|4,0:3|0:3,0:0:0:0:
375,93,48131,2,0,L|504:109,1,119.999996337891,0|4,1:0|0:3,0:0:0:0:
494,107,48731,1,4,0:3:0:0:
442,192,48881,2,0,L|515:201,2,59.9999981689453,0|4|0,1:0|0:3|1:0,0:0:0:0:
358,184,49331,1,0,1:0:0:0:
349,187,49406,1,0,1:0:0:0:
340,190,49481,2,0,L|274:198,1,59.9999981689453,0|0,1:0|1:0,0:0:0:0:
271,195,49706,1,0,1:0:0:0:
262,193,49781,6,0,P|247:145|252:113,1,59.9999981689453,4|4,0:0|0:3,0:0:0:0:
248,136,50231,2,0,L|261:-2,1,119.999996337891,0|4,1:0|0:3,0:0:0:0:
259,16,50831,1,4,0:3:0:0:
171,69,50981,2,0,L|103:78,1,59.9999981689453,0|4,1:0|0:3,0:0:0:0:
27,89,51281,1,4,0:3:0:0:
27,89,51431,1,2,0:0:0:0:
79,157,51581,6,0,P|77:196|66:225,1,59.9999981689453,6|4,0:3|0:3,0:0:0:0:
71,215,52031,2,0,L|201:234,1,119.999996337891,0|4,1:0|0:3,0:0:0:0:
261,268,52481,6,0,L|269:326,2,39.9999987792969,0|0|0,1:0|1:0|1:0,0:0:0:0:
318,213,52781,2,0,L|326:155,2,39.9999987792969,4|4|4,0:3|0:3|0:3,0:0:0:0:
350,282,53081,2,0,L|358:340,2,39.9999987792969,0|4|4,1:0|0:3|0:3,0:0:0:0:
407,227,53381,2,0,L|415:169,2,39.9999987792969,0|0|0,1:0|1:0|1:0,0:0:0:0:
445,294,53681,6,0,P|486:329|501:388,1,99.9999999999999,6|6,0:3|0:3,0:0:0:0:
407,227,55481,6,0,P|416:173|460:131,2,99.9999999999999,6|6|6,0:3|0:3|0:3,0:0:0:0:
239,284,57581,2,0,L|262:295,3,25,0|0|0|0,1:0|1:0|1:0|1:0,0:0:0:0:
274,301,57881,6,0,P|322:309|368:291,1,99.9999999999999,6|6,0:3|0:3,0:0:0:0:
197,184,59681,6,0,P|148:192|102:174,1,99.9999999999999,6|6,0:3|0:3,0:0:0:0:
8,191,60281,2,0,P|43:235|150:277,2,150,6|6|6,0:3|0:3|0:3,0:0:0:0:
171,17,61631,1,0,1:0:0:0:
241,62,61781,2,0,L|290:69,3,34.9999989318848,4|4|0|0,0:3|0:3|1:0|1:0,0:0:0:0:
291,69,62081,6,0,P|339:61|399:13,1,119.999996337891,6|6,0:3|0:3,0:0:0:0:
394,19,62681,1,0,1:0:0:0:
472,59,62831,2,0,L|480:126,1,59.9999981689453,4|2,0:3|0:0,0:0:0:0:
417,175,63131,2,0,L|409:242,1,59.9999981689453,4|2,0:3|0:0,0:0:0:0:
452,304,63431,1,4,0:3:0:0:
385,355,63581,2,0,P|337:340|307:343,1,59.9999981689453,0|4,1:0|0:3,0:0:0:0:
248,364,63881,6,0,P|199:356|140:308,2,119.999996337891,6|6|6,0:3|0:3|0:3,0:0:0:0:
248,364,64781,1,0,1:0:0:0:
327,340,64931,2,0,L|333:267,1,59.9999981689453,4|2,0:3|0:0,0:0:0:0:
270,223,65231,2,0,L|264:150,1,59.9999981689453,4|2,0:3|0:0,0:0:0:0:
327,106,65531,1,4,0:3:0:0:
301,26,65681,2,0,P|265:4|220:-3,1,59.9999981689453,0|4,1:0|0:3,0:0:0:0:
162,14,65981,2,0,L|104:19,3,29.9999990844727,0|0|0|0,1:0|1:0|1:0|1:0,0:0:0:0:
116,17,66281,6,0,P|77:62|66:120,1,119.999996337891,6|6,0:3|0:3,0:0:0:0:
66,120,66881,1,0,1:0:0:0:
153,100,67031,2,0,L|221:110,1,59.9999981689453,4|2,0:3|0:0,0:0:0:0:
271,168,67331,2,0,L|330:159,1,59.9999981689453,4|2,0:3|0:0,0:0:0:0:
399,116,67631,1,4,0:3:0:0:
464,171,67781,2,0,P|451:198|449:227,1,59.9999981689453,0|4,1:0|0:3,0:0:0:0:
507,288,68081,5,6,0:3:0:0:
317,245,68381,2,0,L|323:291,3,29.9999990844727,0|0|0|0,1:0|1:0|1:0|1:0,0:0:0:0:
326,295,68681,6,0,P|259:287|207:353,1,150,6|6,2:3|2:3,0:0:0:0:
56,175,69581,6,0,P|123:167|180:246,1,165.0000050354,6|6,2:3|2:3,0:0:0:0:
360,79,70481,6,0,P|293:71|230:163,1,179.999994506836,6|8,2:3|0:3,0:0:0:0:
230,153,71381,6,0,L|312:169,2,53.3333333333333,4|4|4,0:1|0:3|0:3,0:0:0:0:
160,203,71809,2,0,L|78:219,2,53.3333333333333,0|4|4,1:0|0:3|0:3,0:0:0:0:
237,239,72238,2,0,L|319:255,2,53.3333333333333,12|4|4,0:3|0:3|0:3,0:0:0:0:
168,288,72666,2,0,L|86:304,1,53.3333333333333,0|4,1:0|0:3,0:0:0:0:
40,315,72952,1,0,1:0:0:0:
92,371,73095,6,0,L|201:388,1,106.666666666667,4|4,0:0|0:3,0:0:0:0:
285,374,73523,2,0,L|337:363,2,53.3333333333333,0|4|4,1:0|0:3|0:3,0:0:0:0:
296,284,73952,2,0,L|408:261,1,106.666666666667,12|4,0:3|0:3,0:0:0:0:
468,213,74381,2,0,P|486:153|483:136,1,53.3333333333333,4|4,0:3|0:3,0:0:0:0:
444,89,74666,1,0,1:0:0:0:
359,100,74809,6,0,L|254:78,1,106.666666666667,4|4,1:0|0:3,0:0:0:0:
180,118,75238,2,0,L|190:170,2,53.3333333333333,0|4|4,1:3|0:3|0:3,0:0:0:0:
120,56,75666,2,0,L|130:3,2,53.3333333333333,12|4|4,0:3|0:3|0:3,0:0:0:0:
61,117,76095,2,0,L|71:169,1,53.3333333333333,0|4,1:0|0:3,0:0:0:0:
88,244,76381,1,0,1:0:0:0:
109,317,76523,6,0,L|214:339,1,106.666666666667,4|4,0:0|0:3,0:0:0:0:
291,304,76952,2,0,L|343:294,2,53.3333333333333,0|4|4,1:0|0:3|0:3,0:0:0:0:
218,245,77381,5,0,1:0:0:0:
275,176,77523,2,0,L|316:166,2,26.6666666666666,4|4|4,0:3|0:3|0:3,0:0:0:0:
188,167,77809,1,0,1:0:0:0:
188,167,77952,1,0,1:0:0:0:
188,167,78095,1,0,1:0:0:0:
240,102,78238,6,0,L|262:-3,1,106.666666666667,4|4,0:1|0:3,0:0:0:0:
342,36,78666,2,0,L|332:88,1,53.3333333333333,0|4,1:0|0:3,0:0:0:0:
378,150,78952,1,4,0:3:0:0:
434,203,79095,6,0,L|456:308,1,106.666666666667,12|4,0:3|0:3,0:0:0:0:
369,303,79523,2,0,L|359:251,2,53.3333333333333,0|4|0,1:0|0:3|1:0,0:0:0:0:
313,368,79952,6,0,L|261:378,2,53.3333333333333,4|4|4,0:0|0:3|0:3,0:0:0:0:
280,287,80381,2,0,L|236:257,2,53.3333333333333,0|4|4,1:0|0:3|0:3,0:0:0:0:
313,206,80809,2,0,L|303:154,2,53.3333333333333,6|4|4,0:3|0:3|0:3,0:0:0:0:
393,172,81238,2,0,L|422:128,2,53.3333333333333,6|4|0,0:3|0:3|1:0,0:0:0:0:
352,79,81666,6,0,L|247:57,1,106.666666666667,4|4,0:1|0:3,0:0:0:0:
165,91,82095,2,0,L|113:101,2,53.3333333333333,0|4|4,1:0|0:3|0:3,0:0:0:0:
233,145,82523,2,0,L|285:155,2,53.3333333333333,12|4|4,0:3|0:3|0:3,0:0:0:0:
156,181,82952,2,0,L|104:191,1,53.3333333333333,0|4,1:0|0:3,0:0:0:0:
48,246,83238,1,0,1:0:0:0:
99,304,83381,6,0,L|204:326,1,106.666666666667,0|4,1:0|0:3,0:0:0:0:
273,275,83809,2,0,L|378:253,1,106.666666666667,0|4,1:0|0:3,0:0:0:0:
455,271,84238,5,0,1:0:0:0:
431,197,84381,2,0,L|439:156,3,26.6666666666666,4|4|4|4,0:3|0:3|0:3|0:3,0:0:0:0:
439,153,84666,2,0,L|430:109,5,26.6666666666666,8|8|8|8|4|4,0:3|0:3|0:3|0:3|0:3|0:3,0:0:0:0:
430,110,85095,6,0,P|377:86|323:81,1,106.666666666667,4|4,0:1|0:3,0:0:0:0:
224,51,85523,2,0,P|264:22|284:17,2,53.3333333333333,4|4|4,0:3|0:3|0:3,0:0:0:0:
129,116,85952,2,0,P|136:67|147:49,2,53.3333333333333,0|4|4,1:0|0:3|0:3,0:0:0:0:
113,232,86381,2,0,P|94:212|82:188,1,53.3333333333333,4|4,0:3|0:3,0:0:0:0:
41,291,86666,1,0,1:0:0:0:
41,291,86809,6,0,P|94:315|148:320,1,106.666666666667,4|4,0:0|0:3,0:0:0:0:
253,294,87238,2,0,P|213:265|193:260,2,53.3333333333333,0|4|4,1:3|0:3|0:3,0:0:0:0:
302,364,87666,2,0,P|354:357|402:334,1,106.666666666667,12|4,0:3|0:3,0:0:0:0:
499,283,88095,2,0,P|491:331|480:349,2,53.3333333333333,4|4|0,0:3|0:3|1:0,0:0:0:0:
436,224,88523,6,0,P|413:175|406:123,1,106.666666666667,4|4,0:1|0:3,0:0:0:0:
386,37,88952,2,0,P|332:79|323:104,2,53.3333333333333,4|4|4,0:3|0:3|0:3,0:0:0:0:
279,5,89381,2,0,P|253:68|258:95,2,53.3333333333333,0|4|4,1:0|0:3|0:3,0:0:0:0:
170,33,89809,2,0,P|179:100|197:121,1,53.3333333333333,0|4,1:0|0:3,0:0:0:0:
244,140,90095,1,0,1:0:0:0:
244,140,90238,6,0,P|221:188|214:240,1,106.666666666667,4|4,0:0|0:3,0:0:0:0:
274,303,90666,2,0,P|302:289|355:287,2,53.3333333333333,0|4|4,1:0|0:3|0:3,0:0:0:0:
205,358,91095,5,0,1:0:0:0:
137,323,91238,2,0,L|131:273,2,26.6666666666666,4|4|4,0:3|0:3|0:3,0:0:0:0:
81,377,91523,1,0,1:0:0:0:
81,377,91666,1,0,1:0:0:0:
81,377,91809,1,0,1:0:0:0:
29,307,91952,6,0,P|22:254|0:206,1,106.666666666667,4|4,0:1|0:3,0:0:0:0:
1,118,92381,2,0,P|37:128|75:166,1,53.3333333333333,0|4,1:0|0:3,0:0:0:0:
107,185,92666,1,4,0:3:0:0:
171,226,92809,2,0,P|223:219|271:196,1,106.666666666667,6|4,0:3|0:3,0:0:0:0:
294,112,93238,2,0,P|317:99|343:93,1,53.3333333333333,0|4,1:3|0:3,0:0:0:0:
418,101,93523,1,0,1:0:0:0:
489,128,93666,6,0,P|502:157|504:197,2,53.3333333333333,4|4|4,0:0|0:3|0:3,0:0:0:0:
427,220,94095,2,0,P|415:249|388:279,2,53.3333333333333,0|4|4,1:0|0:3|0:3,0:0:0:0:
318,241,94523,2,0,P|289:254|249:256,2,53.3333333333333,12|4|4,0:3|0:3|0:3,0:0:0:0:
226,178,94952,2,0,P|196:166|166:139,2,53.3333333333333,6|4|0,0:3|0:3|1:0,0:0:0:0:
207,66,95381,6,0,P|154:72|106:95,1,106.666666666667,4|4,0:1|0:3,0:0:0:0:
19,107,95809,2,0,P|36:47|46:36,2,53.3333333333333,0|4|4,1:0|0:3|0:3,0:0:0:0:
76,178,96238,2,0,P|136:195|147:205,2,53.3333333333333,6|4|4,0:3|0:3|0:3,0:0:0:0:
125,276,96666,2,0,P|185:259|196:249,1,53.3333333333333,0|4,1:0|0:3,0:0:0:0:
232,214,96952,1,0,1:0:0:0:
295,253,97095,5,8,0:3:0:0:
363,222,97238,2,0,L|368:180,2,26.6666666666666,8|8|8,0:3|0:3|0:3,0:0:0:0:
434,249,97523,2,0,L|443:180,1,53.3333333333333,8|8,0:3|0:3,0:0:0:0:
508,260,97809,1,4,0:3:0:0:
508,260,97952,2,0,L|514:207,1,53.3333333333333,4|4,0:3|0:3,0:0:0:0:
488,135,98238,5,4,1:2:0:0:
488,135,98381,1,8,0:3:0:0:
512,62,98523,1,8,0:3:0:0:
512,62,98666,1,8,0:3:0:0:
448,12,98809,6,0,P|388:16|320:57,1,129.999994049072,4|2,0:0|0:0,0:0:0:0:
64,12,99666,2,0,P|124:16|192:57,1,129.999994049072,4|2,0:0|0:3,0:0:0:0:
337,231,100523,5,4,0:0:0:0:
295,110,100952,1,4,0:3:0:0:
174,152,101381,1,4,0:0:0:0:
216,273,101809,1,0,1:0:0:0:
256,192,102238,5,4,0:1:0:0:
121,91,109738,6,0,L|105:62,3,25,0|0|0|0,1:0|1:0|1:0|1:0,0:0:0:0:
99,57,110038,6,0,L|27:72,1,69.9999978637695,4|4,1:1|0:3,0:0:0:0:
30,71,110488,2,0,L|22:144,1,69.9999978637695,4|0,0:3|1:0,0:0:0:0:
22,140,110938,2,0,L|89:170,1,69.9999978637695,4|4,0:3|0:3,0:0:0:0:
85,168,111388,2,0,L|134:113,1,69.9999978637695,4|4,0:3|0:3,0:0:0:0:
262,35,111838,6,0,L|334:50,1,69.9999978637695,0|4,1:0|0:3,0:0:0:0:
331,49,112288,2,0,L|338:122,1,69.9999978637695,4|0,0:3|1:0,0:0:0:0:
339,118,112738,2,0,L|271:148,1,69.9999978637695,4|4,0:3|0:3,0:0:0:0:
276,146,113188,2,0,L|226:91,2,69.9999978637695,0|4|4,1:0|0:3|0:3,0:0:0:0:
336,203,113638,1,0,1:0:0:0:
309,280,113788,1,8,0:3:0:0:
366,338,113938,6,0,L|441:349,1,69.9999978637695,4|4,0:1|0:3,0:0:0:0:
435,348,114388,2,0,L|446:273,1,69.9999978637695,4|0,0:3|1:0,0:0:0:0:
445,278,114838,2,0,L|370:267,1,69.9999978637695,4|4,0:3|0:3,0:0:0:0:
375,267,115288,2,0,L|364:336,1,69.9999978637695,4|4,0:3|0:3,0:0:0:0:
230,373,115738,6,0,L|155:384,1,69.9999978637695,0|4,1:0|0:3,0:0:0:0:
161,383,116188,2,0,L|150:308,1,69.9999978637695,4|0,0:3|1:0,0:0:0:0:
151,313,116638,2,0,L|225:302,1,69.9999978637695,4|4,0:3|0:3,0:0:0:0:
221,302,117088,2,0,L|231:371,2,69.9999978637695,0|4|4,1:0|0:3|0:3,0:0:0:0:
176,233,117538,1,0,1:0:0:0:
217,166,117688,1,8,0:3:0:0:
180,94,117838,6,0,L|113:63,1,69.9999978637695,4|4,0:1|0:3,0:0:0:0:
116,64,118288,2,0,L|122:137,1,69.9999978637695,4|0,0:3|1:0,0:0:0:0:
122,133,118738,2,0,L|55:102,1,69.9999978637695,4|4,0:3|0:3,0:0:0:0:
58,103,119188,2,0,L|64:176,1,69.9999978637695,4|4,0:3|0:3,0:0:0:0:
8,291,119638,6,0,L|75:260,1,69.9999978637695,0|4,1:0|0:3,0:0:0:0:
72,261,120088,2,0,L|65:334,1,69.9999978637695,4|0,0:3|1:0,0:0:0:0:
66,330,120538,2,0,L|133:299,1,69.9999978637695,4|4,0:3|0:3,0:0:0:0:
130,300,120988,2,0,L|123:373,2,69.9999978637695,0|4|4,1:0|0:3|0:3,0:0:0:0:
212,286,121438,1,0,1:0:0:0:
267,348,121588,1,8,0:3:0:0:
347,334,121738,6,0,L|340:264,1,69.9999978637695,4|4,0:1|0:3,0:0:0:0:
340,264,122188,2,0,L|333:194,1,69.9999978637695,4|0,0:3|1:0,0:0:0:0:
333,194,122638,2,0,L|326:124,1,69.9999978637695,4|4,0:3|0:3,0:0:0:0:
326,124,123088,2,0,L|319:54,1,69.9999978637695,4|4,0:3|0:3,0:0:0:0:
192,54,123538,6,0,L|186:124,1,69.9999978637695,0|4,1:0|0:3,0:0:0:0:
185,124,123988,2,0,L|179:194,1,69.9999978637695,4|0,0:3|1:0,0:0:0:0:
178,194,124438,2,0,L|172:264,1,69.9999978637695,4|4,0:3|0:3,0:0:0:0:
171,264,124888,2,0,L|165:334,2,69.9999978637695,0|4|4,1:0|0:3|0:3,0:0:0:0:
256,249,125338,2,0,L|256:297,3,34.9999989318848,0|0|0|0,1:0|1:0|1:0|1:0,0:0:0:0:
256,304,125638,2,0,L|256:352,3,34.9999989318848,0|0|0|0,1:0|1:0|1:0|1:0,0:0:0:0:
256,356,125938,5,2,0:3:0:0:
256,192,142738,12,2,144838,0:0:0:0:
6,175,145138,6,0,P|28:110|16:60,1,99.9999999999999,4|0,0:0|0:0,0:0:0:0:
103,49,145588,1,4,0:3:0:0:
103,49,145738,2,0,P|168:71|218:59,1,99.9999999999999,2|0,0:0|0:0,0:0:0:0:
197,66,146338,2,0,P|246:63|334:188,1,200,0|2,1:0|0:0,0:0:0:0:
213,271,147238,1,4,0:3:0:0:
213,271,147538,6,0,P|262:273|307:253,1,99.9999999999999,4|0,0:3|0:0,0:0:0:0:
381,307,147988,1,4,0:3:0:0:
381,307,148138,2,0,P|414:312|444:326,1,50,2|0,0:0|0:0,0:0:0:0:
486,384,148438,1,4,0:3:0:0:
486,384,148738,6,0,P|484:335|504:290,1,99.9999999999999,0|0,1:0|0:0,0:0:0:0:
399,104,149338,2,0,P|419:149|417:198,1,99.9999999999999,4|2,0:3|0:0,0:0:0:0:
301,312,149938,6,0,P|252:314|207:294,1,99.9999999999999,4|0,0:0|0:0,0:0:0:0:
170,216,150388,1,4,0:3:0:0:
170,216,150538,2,0,P|172:167|152:122,1,99.9999999999999,2|0,0:0|0:0,0:0:0:0:
151,121,151138,2,0,B|257:92|234:173|361:141,1,200,0|2,1:0|0:0,0:0:0:0:
512,213,152038,1,4,0:3:0:0:
512,213,152338,6,0,P|463:215|418:195,1,99.9999999999999,4|0,0:3|0:0,0:0:0:0:
338,236,152788,1,4,0:3:0:0:
338,236,152938,2,0,P|299:259|287:279,1,50,2|0,0:0|0:0,0:0:0:0:
270,342,153238,1,4,0:3:0:0:
270,342,153538,6,0,P|224:321|175:323,1,99.9999999999999,0|0,1:0|0:0,0:0:0:0:
100,357,153988,1,8,0:3:0:0:
42,298,154138,6,0,L|30:221,1,59.9999981689453,2|4,0:3|0:3,0:0:0:0:
129,207,154438,2,0,L|141:124,1,69.9999978637695,0|0,1:0|1:0,0:0:0:0:
153,40,154738,6,0,P|234:75|265:71,1,99.9999999999999,4|0,0:0|0:0,0:0:0:0:
336,62,155188,1,4,0:3:0:0:
336,62,155338,2,0,P|328:111|301:152,1,99.9999999999999,2|0,0:0|0:0,0:0:0:0:
301,152,155938,2,0,P|338:229|455:231,1,200,0|2,1:0|0:0,0:0:0:0:
243,363,156838,1,4,0:3:0:0:
243,363,157138,6,0,P|292:355|333:328,1,99.9999999999999,4|0,0:3|0:0,0:0:0:0:
258,277,157588,1,4,0:3:0:0:
258,277,157738,2,0,P|214:268|199:259,1,50,2|0,0:0|0:0,0:0:0:0:
150,211,158038,1,4,0:3:0:0:
150,211,158338,6,0,P|142:161|115:120,1,99.9999999999999,0|0,1:0|0:0,0:0:0:0:
281,5,158938,2,0,P|253:46|246:95,1,99.9999999999999,4|2,0:3|0:0,0:0:0:0:
402,187,159538,5,4,0:0:0:0:
402,187,159838,1,0,1:0:0:0:
303,219,160138,1,0,1:0:0:0:
208,254,160438,1,0,1:0:0:0:
331,149,160738,1,0,1:0:0:0:
236,184,161038,1,0,1:0:0:0:
360,77,161338,1,0,1:0:0:0:
265,112,161638,1,0,1:0:0:0:
391,8,161938,5,4,1:2:0:0:
391,8,162238,1,0,1:0:0:0:
360,77,162388,1,0,1:0:0:0:
331,149,162538,2,0,L|339:226,1,69.9999978637695,0|0,1:0|1:0,0:0:0:0:
265,112,162838,2,0,L|272:42,1,69.9999978637695,0|0,1:0|1:0,0:0:0:0:
196,147,163138,6,0,L|202:194,3,34.9999989318848,0|0|0|0,1:0|1:0|1:0|1:0,0:0:0:0:
146,172,163438,2,0,L|172:205,3,32.4999985122681,0|0|0|0,1:0|1:0|1:0|1:0,0:0:0:0:
117,219,163738,2,0,L|155:235,3,29.9999990844727,0|0|0|0,1:0|1:0|1:0|1:0,0:0:0:0:
113,274,164038,2,0,L|154:267,3,27.5000008392334,0|0|0|0,1:0|1:0|1:0|1:0,0:0:0:0:
138,315,164338,6,0,L|145:361,3,34.9999989318848,0|0|0|4,1:0|1:0|1:0|0:3,0:0:0:0:
271,275,164900,6,0,L|264:321,5,34.9999989318848,0|0|0|0|0|4,1:0|1:0|1:0|1:0|1:0|0:3,0:0:0:0:
395,359,165650,6,0,L|389:324,1,34.9999989318848,0|0,1:0|1:0,0:0:0:0:
482,282,165931,2,0,L|449:269,1,34.9999989318848,4|4,0:3|0:3,0:0:0:0:
458,168,166213,2,0,L|430:189,2,34.9999989318848,8|8|4,0:3|0:3|0:3,0:0:0:0:
395,75,166588,6,0,L|399:109,3,34.9999989318848,0|0|0|4,1:0|1:0|1:0|0:3,0:0:0:0:
263,135,167150,6,0,L|258:169,5,34.9999989318848,0|0|0|0|0|4,1:0|1:0|1:0|1:0|1:0|0:3,0:0:0:0:
115,100,167900,6,0,L|57:112,1,34.9999989318848,0|0,1:0|1:0,0:0:0:0:
13,179,168181,2,0,L|71:191,1,34.9999989318848,4|4,0:3|0:3,0:0:0:0:
110,259,168463,2,0,L|52:271,2,34.9999989318848,0|0|4,1:0|1:0|0:3,0:0:0:0:
173,322,168838,6,0,B|211:357|211:357|296:345,1,104.999996795654,4|4,0:1|0:1,0:0:0:0:
263,349,169400,2,0,B|315:341|315:341|353:376,1,104.999996795654,4|4,0:1|0:1,0:0:0:0:
353,376,169963,6,0,L|397:380,3,32.4999985122681,2|2|2|2,0:0|0:0|0:0|0:0,0:0:0:0:
403,380,170338,1,0,1:0:0:0:
433,289,170525,6,0,L|389:293,5,32.4999985122681,2|2|4|2|2|2,0:0|0:0|0:3|0:0|0:0|0:0,0:0:0:0:
383,293,171088,1,0,1:0:0:0:
452,205,171275,6,0,L|500:211,2,32.4999985122681,2|2|4,0:0|0:0|0:3,0:0:0:0:
436,203,171556,2,0,L|404:198,1,32.4999985122681,2|2,0:0|0:0,0:0:0:0:
366,115,171838,2,0,L|418:105,2,32.4999985122681,4|4|0,0:3|0:3|1:0,0:0:0:0:
295,64,172213,6,0,L|291:17,3,34.9999989318848,4|4|4|4,0:3|0:3|0:3|0:3,0:0:0:0:
290,12,172588,1,0,1:0:0:0:
200,108,172775,6,0,L|202:73,5,34.9999989318848,4|4|4|4|4|4,0:3|0:3|0:3|0:3|0:3|0:3,0:0:0:0:
204,55,173338,1,0,1:0:0:0:
116,148,173525,6,0,L|107:83,1,34.9999989318848,0|0,1:0|1:0,0:0:0:0:
56,201,173806,2,0,L|-4:176,1,34.9999989318848,4|4,0:3|0:3,0:0:0:0:
71,279,174088,2,0,L|19:319,2,34.9999989318848,0|0|4,1:0|1:0|0:3,0:0:0:0:
154,268,174463,6,0,B|206:282|206:282|232:348,1,104.999996795654,4|4,0:1|0:1,0:0:0:0:
325,180,175025,2,0,B|338:232|338:232|294:287,1,104.999996795654,4|4,0:1|0:1,0:0:0:0:
512,145,175588,2,0,B|473:183|473:183|403:172,1,104.999996795654,4|4,0:1|0:1,0:0:0:0:
256,34,176150,5,4,0:1:0:0:
256,192,176244,12,4,177623,0:3:0:0:
42,43,178052,5,4,0:1:0:0:
42,43,178909,1,2,0:3:0:0:
470,43,179766,5,4,0:1:0:0:
470,43,180623,1,2,1:3:0:0:
411,287,181052,2,0,L|368:248,2,46.666665242513,4|4|4,0:3|0:3|0:3,0:0:0:0:
470,341,181480,5,4,0:1:0:0:
470,341,182337,1,2,0:3:0:0:
42,341,183195,5,4,0:1:0:0:
42,341,184052,1,2,1:3:0:0:
101,97,184480,2,0,L|144:136,2,46.666665242513,4|4|4,0:3|0:3|0:3,0:0:0:0:
42,43,184909,6,0,P|99:49|148:9,1,119.999996337891,4|2,0:1|0:0,0:0:0:0:
470,43,185766,2,0,P|413:49|364:9,1,119.999996337891,2|2,0:3|0:0,0:0:0:0:
470,341,186623,6,0,P|413:335|364:375,1,119.999996337891,4|2,0:1|0:0,0:0:0:0:
42,341,187480,2,0,P|99:335|148:375,1,119.999996337891,2|2,0:3|0:0,0:0:0:0:
256,112,188338,6,0,L|256:240,2,119.999996337891,4|2|0,0:1|0:2|1:0,0:0:0:0:
256,315,189623,2,0,L|256:379,2,46.666665242513,4|4|4,0:3|0:3|0:3,0:0:0:0:
333,268,190052,5,0,1:0:0:0:
402,236,190195,2,0,L|435:241,2,23.3333326212565,0|0|0,1:0|1:0|1:0,0:0:0:0:
401,163,190480,2,0,L|463:171,2,46.666665242513,8|8|8,0:3|0:3|0:3,0:0:0:0:
407,90,190909,2,0,L|469:98,2,46.666665242513,0|4|4,1:0|0:3|0:3,0:0:0:0:
354,32,191338,2,0,L|322:40,5,23.3333326212565,0|0|0|0|0|0,1:0|1:0|1:0|1:0|1:0|1:0,0:0:0:0:
312,51,191766,6,0,P|279:99|264:151,1,106.666666666667,4|4,0:1|0:3,0:0:0:0:
252,234,192195,2,0,P|292:263|312:268,2,53.3333333333333,4|4|4,0:3|0:3|0:3,0:0:0:0:
166,221,192623,2,0,P|173:270|184:288,2,53.3333333333333,0|4|4,1:0|0:3|0:3,0:0:0:0:
113,152,193052,2,0,P|94:172|82:196,1,53.3333333333333,4|4,0:3|0:3,0:0:0:0:
41,93,193337,1,0,1:0:0:0:
41,93,193480,6,0,P|94:69|148:64,1,106.666666666667,4|4,0:0|0:3,0:0:0:0:
253,90,193909,2,0,P|213:119|193:124,2,53.3333333333333,4|4|4,0:3|0:3|0:3,0:0:0:0:
302,20,194337,2,0,P|354:27|402:50,1,106.666666666667,12|4,0:3|0:3,0:0:0:0:
499,101,194766,2,0,P|491:53|480:35,2,53.3333333333333,4|4|4,0:3|0:3|0:3,0:0:0:0:
436,160,195194,6,0,P|413:209|406:261,1,106.666666666667,4|4,0:1|0:3,0:0:0:0:
386,347,195623,2,0,P|332:305|323:280,2,53.3333333333333,4|4|4,0:3|0:3|0:3,0:0:0:0:
279,379,196052,2,0,P|253:316|258:289,2,53.3333333333333,0|4|4,1:0|0:3|0:3,0:0:0:0:
170,351,196480,2,0,P|179:284|197:263,1,53.3333333333333,0|4,1:0|0:3,0:0:0:0:
244,244,196766,1,0,1:0:0:0:
244,244,196909,6,0,P|221:196|214:144,1,106.666666666667,4|4,0:0|0:3,0:0:0:0:
274,81,197337,2,0,P|302:95|355:97,2,53.3333333333333,0|4|4,1:0|0:3|0:3,0:0:0:0:
205,26,197766,5,0,1:0:0:0:
137,61,197909,2,0,L|131:111,2,26.6666666666666,4|4|4,0:3|0:3|0:3,0:0:0:0:
74,12,198194,1,0,1:0:0:0:
74,12,198337,1,0,1:0:0:0:
74,12,198480,1,0,1:0:0:0:
29,77,198623,6,0,P|22:130|0:178,1,106.666666666667,4|4,0:1|0:3,0:0:0:0:
1,266,199052,2,0,P|37:256|75:218,1,53.3333333333333,0|4,1:0|0:3,0:0:0:0:
107,199,199337,1,4,0:3:0:0:
171,158,199480,2,0,P|223:165|271:188,1,106.666666666667,6|4,0:3|0:3,0:0:0:0:
294,272,199909,2,0,P|317:285|343:291,1,53.3333333333333,0|4,1:0|0:3,0:0:0:0:
419,283,200194,1,0,1:0:0:0:
489,256,200337,6,0,P|502:227|504:187,2,53.3333333333333,4|4|4,0:0|0:3|0:3,0:0:0:0:
427,164,200766,2,0,P|415:135|388:105,2,53.3333333333333,0|4|4,1:0|0:3|0:3,0:0:0:0:
318,143,201195,2,0,P|289:130|249:128,2,53.3333333333333,12|4|4,0:3|0:3|0:3,0:0:0:0:
226,206,201623,2,0,P|196:218|166:245,2,53.3333333333333,6|4|0,0:3|0:3|1:0,0:0:0:0:
207,318,202052,6,0,P|154:312|106:289,1,106.666666666667,4|4,0:1|0:3,0:0:0:0:
19,277,202480,2,0,P|36:337|46:348,2,53.3333333333333,0|4|4,1:0|0:3|0:3,0:0:0:0:
76,206,202909,2,0,P|136:189|147:179,2,53.3333333333333,6|4|4,0:3|0:3|0:3,0:0:0:0:
125,108,203338,2,0,P|185:125|196:135,1,53.3333333333333,0|4,1:0|0:3,0:0:0:0:
232,170,203623,1,0,1:0:0:0:
295,131,203766,5,8,0:3:0:0:
360,165,203909,2,0,L|398:158,2,26.6666666666666,8|8|8,0:3|0:3|0:3,0:0:0:0:
297,205,204195,2,0,L|288:276,1,53.3333333333333,8|8,0:3|0:3,0:0:0:0:
369,241,204480,1,4,0:3:0:0:
369,241,204623,2,0,L|375:294,1,53.3333333333333,4|4,0:3|0:3,0:0:0:0:
319,349,204909,5,0,1:0:0:0:
319,349,205052,1,8,0:3:0:0:
242,332,205195,1,8,0:3:0:0:
242,332,205338,1,8,0:3:0:0:
162,347,205480,6,0,P|128:288|114:225,1,129.999994049072,4|2,0:0|0:0,0:0:0:0:
350,347,206338,2,0,P|384:288|398:225,1,129.999994049072,4|2,0:0|0:3,0:0:0:0:
70,96,207195,6,0,P|102:133|178:123,1,129.999994049072,4|4,0:0|0:3,0:0:0:0:
442,96,208052,2,0,P|410:133|334:123,1,129.999994049072,4|0,0:0|1:0,0:0:0:0:
114,228,208909,6,0,P|80:308|88:368,1,129.999994049072,4|2,0:0|0:0,0:0:0:0:
398,228,209766,2,0,P|432:308|424:368,1,129.999994049072,4|2,0:0|0:3,0:0:0:0:
256,144,210623,6,0,L|256:14,1,129.999994049072,4|4,0:0|0:3,0:0:0:0:
256,224,211480,1,0,1:0:0:0:
213,297,211623,2,0,L|184:304,2,23.3333326212565,4|4|4,0:3|0:3|0:3,0:0:0:0:
304,304,211909,1,0,1:3:0:0:
304,304,212052,1,0,1:0:0:0:
304,304,212195,1,0,1:0:0:0:
256,192,213195,5,4,1:0:0:0:
256,192,213266,12,0,219052,0:0:0:0:
