osu file format v14

[General]
AudioFilename: audio.mp3
AudioLeadIn: 0
PreviewTime: 37375
Countdown: 0
SampleSet: Soft
StackLeniency: 0.4
Mode: 0
LetterboxInBreaks: 0
WidescreenStoryboard: 1

[Editor]
Bookmarks: 18250,18812,19562,19843,20125,20500,21062,21812,22093,22375,22750,94492,177378
DistanceSpacing: 1
BeatDivisor: 4
GridSize: 16
TimelineZoom: 1

[Metadata]
Title:Emerald Galaxy
TitleUnicode:Emerald Galaxy
Artist:Yuyoyuppe
ArtistUnicode:ゆよゆっぺ
Creator:pishifat
Version:Easy
Source:
Tags:metal MRML2​-​MOtOLOiD ROCK MUSIC LIVE​!​RALLY 2- featured artist
BeatmapID:1442756
BeatmapSetID:682286

[Difficulty]
HPDrainRate:2
CircleSize:2.5
OverallDifficulty:2
ApproachRate:3
SliderMultiplier:0.999999999999999
SliderTickRate:1

[Events]
//Background and Video events
0,0,"h1ci1h0llzsmkkbbe9gl.jpg",0,0
//Break Periods
2,102438,108598
2,126138,138898
//Storyboard Layer 0 (Background)
//Storyboard Layer 1 (Fail)
//Storyboard Layer 2 (Pass)
//Storyboard Layer 3 (Foreground)
//Storyboard Sound Samples

[TimingPoints]
281,375,6,2,0,80,1,0
17437,-111.111111111111,6,2,0,5,0,0
17531,-111.111111111111,6,2,0,80,0,0
17537,-111.111111111111,6,2,2,20,0,0
17656,-111.111111111111,6,2,1,35,0,0
17781,-111.111111111111,6,2,2,50,0,0
17906,-111.111111111111,6,2,1,65,0,0
18031,-111.111111111111,6,2,2,80,0,0
18156,-111.111111111111,6,2,1,100,0,0
18218,-111.111111111111,6,2,0,5,0,0
18281,375,6,2,0,90,1,0
18281,-111.111111111111,6,2,0,90,0,0
22781,-111.111111111111,6,2,0,60,0,0
22968,-111.111111111111,6,2,0,5,0,0
23062,-111.111111111111,6,2,0,73,0,0
23249,-111.111111111111,6,2,0,5,0,0
23343,-111.111111111111,6,2,0,88,0,0
23531,-111.111111111111,6,2,0,5,0,0
23624,-111.111111111111,6,2,0,100,0,0
23812,-111.111111111111,6,2,0,5,0,0
23906,375,6,2,0,80,1,0
23906,-111.111111111111,6,2,0,80,0,0
26156,-111.111111111111,6,2,0,90,0,0
28406,-111.111111111111,6,2,0,50,0,0
28593,-111.111111111111,6,2,0,5,0,0
28687,-111.111111111111,6,2,0,60,0,0
28874,-111.111111111111,6,2,0,5,0,0
28968,-111.111111111111,6,2,0,70,0,0
29156,-111.111111111111,6,2,0,5,0,0
29249,-111.111111111111,6,2,0,80,0,0
29437,-111.111111111111,6,2,0,5,0,0
29531,-111.111111111111,6,2,0,90,0,0
29718,-111.111111111111,6,2,0,5,0,0
29812,-111.111111111111,6,2,0,100,0,0
29999,-111.111111111111,6,2,0,5,0,0
30093,-111.111111111111,6,2,0,100,0,0
30281,300,13,2,0,73,1,0
30281,-111.111111111111,13,2,0,73,0,0
30731,-111.111111111111,13,2,0,73,0,0
31481,-111.111111111111,13,2,0,73,0,0
32081,-111.111111111111,13,2,0,73,0,0
32531,-111.111111111111,13,2,0,73,0,0
33281,-111.111111111111,13,2,0,73,0,0
34631,-111.111111111111,13,2,0,73,0,0
35381,-111.111111111111,13,2,0,73,0,0
36431,-111.111111111111,13,2,0,73,0,0
37181,-111.111111111111,13,2,0,73,0,0
38081,-111.111111111111,13,2,0,73,0,0
38531,-111.111111111111,13,2,0,73,0,0
39281,-111.111111111111,13,2,0,73,0,0
40331,-111.111111111111,13,2,0,73,0,0
41081,-111.111111111111,13,2,0,73,0,0
42431,-111.111111111111,13,2,0,73,0,0
43181,-111.111111111111,13,2,0,73,0,0
44231,-111.111111111111,13,2,0,73,0,0
44681,-111.111111111111,13,2,0,73,0,0
46331,-111.111111111111,13,2,0,73,0,0
47081,-111.111111111111,13,2,0,73,0,0
48131,-111.111111111111,13,2,0,73,0,0
48881,-111.111111111111,13,2,0,73,0,0
50231,-111.111111111111,13,2,0,73,0,0
50981,-111.111111111111,13,2,0,73,0,0
52031,-111.111111111111,13,2,0,73,0,0
52481,-111.111111111111,13,2,0,73,0,0
53681,300,7,2,0,80,1,0
53681,-111.111111111111,7,2,0,80,0,0
57581,-111.111111111111,7,2,0,60,0,0
57881,-111.111111111111,7,2,0,80,0,0
61631,-111.111111111111,7,2,0,70,0,0
62081,-111.111111111111,7,2,0,70,0,0
66281,300,4,2,0,70,1,0
66281,-111.111111111111,7,2,0,70,0,0
68681,300,3,2,0,70,1,0
68681,-111.111111111111,7,2,0,70,0,0
69581,-111.111111111111,7,2,0,80,0,0
70481,-111.111111111111,7,2,0,90,0,0
70931,-111.111111111111,3,2,0,70,0,0
71306,-111.111111111111,3,2,0,5,0,0
71381,428.571428571429,4,2,0,90,1,0
71381,-74.0740740740741,4,2,0,90,0,1
84238,-74.0740740740741,4,2,0,90,0,0
85095,-74.0740740740741,4,2,0,90,0,1
98809,-74.0740740740741,4,2,0,90,0,0
100881,-74.0740740740741,4,2,0,5,0,0
100952,-74.0740740740741,4,2,0,90,0,0
101738,-74.0740740740741,4,2,0,5,0,0
101809,-74.0740740740741,4,2,0,90,0,0
102238,300,6,2,0,80,1,0
110038,300,13,2,0,80,1,0
110038,-111.111111111111,13,2,0,80,0,0
121738,300,14,2,0,80,1,0
121738,-111.111111111111,14,2,0,80,0,0
125938,300,4,2,0,80,1,0
142738,-111.111111111111,4,2,0,40,0,0
145138,-111.111111111111,4,2,0,60,0,0
154138,-111.111111111111,4,2,0,80,0,0
154363,-111.111111111111,4,2,0,80,0,0
154738,-111.111111111111,4,2,0,80,0,0
154813,-111.111111111111,4,2,0,60,0,0
160138,-111.111111111111,4,2,0,65,0,0
160738,-111.111111111111,4,2,0,70,0,0
161338,-111.111111111111,4,2,0,75,0,0
161938,-111.111111111111,4,2,0,80,0,0
162538,-111.111111111111,4,2,0,85,0,0
163138,-111.111111111111,4,2,0,80,0,0
163438,-111.111111111111,4,2,0,80,0,0
163738,-111.111111111111,4,2,0,75,0,0
163888,-111.111111111111,4,2,0,70,0,0
164038,-111.111111111111,4,2,0,65,0,0
164188,-111.111111111111,4,2,0,60,0,0
164338,375,6,2,0,90,1,0
164338,-111.111111111111,6,2,0,90,0,0
168838,-111.111111111111,6,2,0,60,0,0
169025,-111.111111111111,6,2,0,5,0,0
169119,-111.111111111111,6,2,0,73,0,0
169306,-111.111111111111,6,2,0,5,0,0
169400,-111.111111111111,6,2,0,88,0,0
169588,-111.111111111111,6,2,0,5,0,0
169681,-111.111111111111,6,2,0,100,0,0
169869,-111.111111111111,6,2,0,5,0,0
169963,375,6,2,0,80,1,0
169963,-111.111111111111,6,2,0,80,0,0
172213,-111.111111111111,6,2,0,90,0,0
174463,-111.111111111111,6,2,0,50,0,0
174650,-111.111111111111,6,2,0,5,0,0
174744,-111.111111111111,6,2,0,60,0,0
174931,-111.111111111111,6,2,0,5,0,0
175025,-111.111111111111,6,2,0,70,0,0
175213,-111.111111111111,6,2,0,5,0,0
175306,-111.111111111111,6,2,0,80,0,0
175494,-111.111111111111,6,2,0,5,0,0
175588,-111.111111111111,6,2,0,90,0,0
175775,-111.111111111111,6,2,0,5,0,0
175869,-111.111111111111,6,2,0,100,0,0
176056,-111.111111111111,6,2,0,5,0,0
176150,-111.111111111111,6,2,0,100,0,0
176338,428.571428571429,4,2,0,60,1,0
178052,-111.111111111111,4,2,0,80,0,1
178909,-111.111111111111,4,2,0,80,0,0
179766,-111.111111111111,4,2,0,80,0,0
180623,-111.111111111111,4,2,0,80,0,0
181480,-111.111111111111,4,2,0,80,0,0
182338,-111.111111111111,4,2,0,80,0,0
183195,-111.111111111111,4,2,0,80,0,0
184052,-111.111111111111,4,2,0,80,0,0
184909,-111.111111111111,4,2,0,80,0,0
185766,-111.111111111111,4,2,0,80,0,0
186623,-111.111111111111,4,2,0,80,0,0
187480,-111.111111111111,4,2,0,80,0,0
188338,-111.111111111111,4,2,0,80,0,0
189195,-99.9999999999999,4,2,0,80,0,0
190909,-86.9565217391304,4,2,0,80,0,0
191766,-74.0740740740741,4,2,0,90,0,1
205480,-74.0740740740741,4,2,0,90,0,0
207552,-74.0740740740741,4,2,0,5,0,0
207623,-74.0740740740741,4,2,0,90,0,0
208409,-74.0740740740741,4,2,0,5,0,0
208480,-74.0740740740741,4,2,0,90,0,0
210980,-74.0740740740741,4,2,0,5,0,0
211052,-74.0740740740741,4,2,0,90,0,0
211480,-74.0740740740741,4,2,0,80,0,0
211909,-74.0740740740741,4,2,0,70,0,0
213195,-74.0740740740741,4,2,0,100,0,0
213266,-74.0740740740741,4,2,0,50,0,0

[Colours]
Combo1 : 99,242,57
Combo2 : 243,248,86
Combo3 : 254,101,223
Combo4 : 47,191,234

[HitObjects]
27,30,18281,6,0,P|102:33|171:61,1,134.999995880127,0|0,1:0|1:0,0:0:0:0:
306,154,19593,2,0,P|349:148|385:134,2,67.4999979400635,0|4|8,1:0|0:3|0:3,0:0:0:0:
230,202,20531,6,0,P|212:301|214:341,1,134.999995880127,0|0,1:0|1:0,0:0:0:0:
392,348,21843,2,0,P|372:293|370:265,2,67.4999979400635,0|4|0,1:0|0:3|1:0,0:0:0:0:
481,359,22781,2,0,B|515:304|515:304|506:229,1,134.999995880127,4|4,0:1|0:1,0:0:0:0:
492,99,23906,6,0,P|427:75|389:81,1,89.999997253418,2|0,0:0|1:0,0:0:0:0:
334,128,24656,2,0,P|269:152|231:146,1,89.999997253418,4|0,0:3|1:0,0:0:0:0:
173,102,25406,1,4,0:3:0:0:
102,157,25781,1,4,0:3:0:0:
34,216,26156,6,0,L|42:360,1,134.999995880127,4|4,0:3|0:3,0:0:0:0:
213,298,27468,2,0,L|209:220,2,67.4999979400635,0|4|0,1:0|0:3|1:0,0:0:0:0:
284,353,28406,6,0,B|347:339|347:339|417:377,1,134.999995880127,4|4,0:1|0:1,0:0:0:0:
475,255,29531,2,0,B|413:220|413:220|392:159,1,134.999995880127,4|0,2:1|1:0,0:0:0:0:
371,106,30281,6,0,B|339:74|339:74|246:89,1,134.999995880127,4|0,0:2|1:0,0:0:0:0:
161,103,31031,1,4,0:3:0:0:
72,116,31331,2,0,B|40:148|40:148|55:241,1,134.999995880127,4|4,0:3|0:3,0:0:0:0:
77,323,32081,5,6,0:3:0:0:
200,269,32531,2,0,L|304:280,1,89.999997253418,0|4,1:0|0:3,0:0:0:0:
379,287,33131,2,0,B|423:265|423:265|435:159,1,134.999995880127,4|4,0:3|0:3,0:0:0:0:
442,90,33881,1,0,1:0:0:0:
371,34,34181,6,0,B|338:70|338:70|234:60,1,134.999995880127,4|0,0:2|1:0,0:0:0:0:
170,24,34931,1,4,0:3:0:0:
106,87,35231,2,0,B|76:122|76:122|93:218,1,134.999995880127,4|4,0:3|0:3,0:0:0:0:
177,235,35981,5,6,0:3:0:0:
206,366,36431,2,0,L|103:354,1,89.999997253418,0|4,1:0|0:3,0:0:0:0:
28,373,37031,2,0,B|-11:336|-11:336|6:247,1,134.999995880127,4|0,0:3|1:0,0:0:0:0:
23,168,37781,1,0,1:0:0:0:
40,79,38081,6,0,B|81:49|81:49|182:70,1,134.999995880127,4|0,0:0|1:0,0:0:0:0:
250,89,38831,2,0,B|331:105|331:105|379:66,1,134.999995880127,4|0,0:3|1:0,0:0:0:0:
459,54,39581,1,0,1:0:0:0:
509,128,39881,5,6,0:3:0:0:
404,213,40331,2,0,L|398:315,1,89.999997253418,0|4,1:0|0:3,0:0:0:0:
341,372,40931,2,0,B|312:328|312:328|214:313,1,134.999995880127,4|0,0:3|1:0,0:0:0:0:
141,304,41681,1,0,1:0:0:0:
51,292,41981,6,0,B|14:257|14:257|32:156,1,134.999995880127,4|0,0:0|1:0,0:0:0:0:
73,95,42731,1,4,0:3:0:0:
159,118,43031,2,0,B|196:154|196:154|293:138,1,134.999995880127,4|0,0:3|1:0,0:0:0:0:
361,174,43781,6,0,B|338:220|338:220|256:235,1,134.999995880127,6|0,0:3|1:0,0:0:0:0:
124,205,44681,2,0,P|84:185|24:190,1,89.999997253418,0|4,1:0|0:3,0:0:0:0:
0,267,45281,2,0,P|35:305|76:319,1,89.999997253418,0|0,1:0|1:0,2:0:0:0:
152,355,45881,6,0,B|189:319|189:319|286:335,1,134.999995880127,4|0,0:0|1:0,0:0:0:0:
359,350,46631,1,4,0:3:0:0:
442,309,46931,2,0,B|406:274|406:274|415:183,1,134.999995880127,4|4,0:3|0:3,0:0:0:0:
424,100,47681,5,6,0:3:0:0:
316,22,48131,2,0,B|210:39,1,89.999997253418,0|4,1:0|0:3,0:0:0:0:
140,10,48731,2,0,B|100:42|100:42|117:134,1,134.999995880127,4|0,0:3|1:0,0:0:0:0:
180,186,49481,1,0,1:0:0:0:
128,259,49781,6,0,B|90:218|90:218|-1:230,1,134.999995880127,4|0,0:0|1:0,0:0:0:0:
57,310,50531,1,4,0:3:0:0:
137,349,50831,2,0,B|184:336|184:336|234:245,1,134.999995880127,4|4,0:3|0:3,0:0:0:0:
268,181,51581,6,0,B|300:141|300:141|384:154,1,134.999995880127,6|0,0:3|1:0,0:0:0:0:
495,228,52481,2,0,P|516:188|515:134,1,89.999997253418,0|4,1:0|0:3,0:0:0:0:
485,59,53081,2,0,P|450:29|397:18,1,89.999997253418,0|0,1:0|1:0,0:0:0:0:
323,49,53681,6,0,L|233:38,1,89.999997253418,6|6,0:3|0:3,0:0:0:0:
459,199,55481,6,0,L|369:188,2,89.999997253418,6|6|6,0:3|0:3|0:3,0:0:0:0:
130,177,57581,5,0,1:0:0:0:
205,131,57881,2,0,L|295:142,1,89.999997253418,6|6,0:3|0:3,0:0:0:0:
27,251,59681,6,0,L|117:262,1,89.999997253418,6|6,0:3|0:3,0:0:0:0:
130,177,60281,2,0,L|-15:160,2,134.999995880127,6|6|6,0:3|0:3|0:3,0:0:0:0:
263,194,61631,1,0,1:0:0:0:
396,214,62081,6,0,P|420:178|418:117,1,89.999997253418,6|6,0:3|0:3,0:0:0:0:
389,48,62681,2,0,L|525:26,2,134.999995880127,0|4|0,1:0|0:3|1:0,0:0:0:0:
301,29,63881,5,6,0:3:0:0:
225,77,64181,1,6,0:3:0:0:
137,56,64481,1,6,0:3:0:0:
71,118,64781,2,0,L|58:266,2,134.999995880127,0|4|0,1:0|0:3|1:0,0:0:0:0:
137,56,65981,1,0,1:0:0:0:
225,77,66281,6,0,P|247:118|249:167,1,89.999997253418,6|6,0:3|0:3,0:0:0:0:
234,249,66881,2,0,L|381:268,2,134.999995880127,0|4|0,1:0|0:3|1:0,0:0:0:0:
157,296,68081,1,6,0:3:0:0:
94,231,68381,1,0,1:0:0:0:
22,285,68681,6,0,P|44:213|43:140,1,134.999995880127,6|6,2:3|2:3,0:0:0:0:
156,78,69581,2,0,P|158:145|178:209,1,134.999995880127,6|6,2:3|2:3,0:0:0:0:
268,310,70481,2,0,P|332:289|399:287,1,134.999995880127,6|8,2:3|0:3,0:0:0:0:
473,175,71381,6,0,L|486:32,2,135.000000514984,4|0|12,0:1|1:0|0:3,0:0:0:0:
399,287,72666,1,0,1:0:0:0:
340,165,73095,2,0,P|277:136|211:147,1,135.000000514984,4|0,0:0|1:0,0:0:0:0:
188,278,73952,2,0,P|125:307|59:296,1,135.000000514984,12|4,0:3|0:3,0:0:0:0:
14,170,74809,6,0,L|-11:31,2,135.000000514984,4|0|12,1:0|1:3|0:3,0:0:0:0:
61,297,76095,1,0,1:0:0:0:
179,360,76523,2,0,P|248:350|302:309,1,135.000000514984,4|0,0:0|1:0,0:0:0:0:
315,177,77381,1,0,1:0:0:0:
193,234,77809,1,0,1:0:0:0:
206,99,78238,6,0,L|55:80,2,135.000000514984,4|0|12,0:1|1:0|0:3,0:0:0:0:
332,51,79523,1,0,1:0:0:0:
443,126,79952,2,0,P|474:189|467:272,1,135.000000514984,4|0,0:0|1:0,0:0:0:0:
382,352,80809,2,0,P|315:352|255:321,1,135.000000514984,6|6,0:3|0:3,0:0:0:0:
153,233,81666,6,0,L|133:381,2,135.000000514984,4|0|12,0:1|1:0|0:3,0:0:0:0:
261,153,82952,1,0,1:0:0:0:
140,90,83381,1,0,1:0:0:0:
253,17,83809,1,0,1:0:0:0:
374,75,84238,1,0,1:0:0:0:
387,209,84666,1,8,0:3:0:0:
275,285,85095,6,0,B|222:255|132:282|165:317|96:354|15:318,1,270.000001029968,4|0,0:1|1:0,0:0:0:0:
69,195,86381,1,4,0:3:0:0:
32,65,86809,2,0,P|111:66|165:99,1,135.000000514984,4|0,0:0|1:3,0:0:0:0:
271,166,87666,2,0,P|350:165|404:132,1,135.000000514984,12|4,0:3|0:3,0:0:0:0:
491,40,88523,6,0,P|440:123|453:300,1,270.000001029968,4|0,0:1|1:0,0:0:0:0:
337,368,89809,1,0,1:0:0:0:
263,254,90238,2,0,P|217:227|120:230,1,135.000000514984,4|0,0:0|1:0,0:0:0:0:
40,318,91095,1,0,1:0:0:0:
6,187,91523,1,0,1:0:0:0:
107,97,91952,6,0,L|250:73,1,135.000000514984,4|0,0:1|1:0,0:0:0:0:
337,168,92809,2,0,L|470:190,1,135.000000514984,6|0,0:3|1:3,0:0:0:0:
506,320,93666,2,0,P|429:333|378:380,1,135.000000514984,4|0,0:0|1:0,0:0:0:0:
280,284,94523,2,0,P|203:271|152:224,1,135.000000514984,12|6,0:3|0:3,0:0:0:0:
158,100,95381,6,0,L|310:72,2,135.000000514984,4|0|6,0:1|1:0|0:3,0:0:0:0:
48,21,96666,1,0,1:0:0:0:
32,155,97095,1,8,0:3:0:0:
91,275,97523,1,8,0:3:0:0:
211,335,97952,1,4,0:3:0:0:
345,328,98381,1,8,0:3:0:0:
440,233,98809,5,4,0:0:0:0:
180,159,99666,1,4,0:0:0:0:
433,141,100523,2,0,L|295:124,1,135.000000514984,4|4,0:0|0:3,0:0:0:0:
176,67,101381,2,0,L|38:50,1,135.000000514984,4|0,0:0|1:0,0:0:0:0:
84,178,102238,5,4,0:1:0:0:
74,303,110038,6,0,P|138:295|193:245,1,134.999995880127,4|4,1:1|0:3,0:0:0:0:
266,361,110938,2,0,P|291:301|275:228,1,134.999995880127,4|4,0:3|0:3,0:0:0:0:
413,225,111838,2,0,P|374:173|303:150,1,134.999995880127,0|4,1:0|0:3,0:0:0:0:
367,28,112738,2,0,P|303:36|248:86,2,134.999995880127,4|0|0,0:3|1:0|1:0,0:0:0:0:
453,52,113938,6,0,L|410:199,1,134.999995880127,4|4,0:1|0:3,0:0:0:0:
362,305,114838,2,0,L|324:175,1,134.999995880127,4|4,0:3|0:3,0:0:0:0:
273,50,115738,2,0,L|235:179,1,134.999995880127,0|4,1:0|0:3,0:0:0:0:
183,304,116638,2,0,L|145:174,2,134.999995880127,4|0|0,0:3|1:0|1:0,0:0:0:0:
252,360,117838,6,0,P|327:350|386:316,1,134.999995880127,4|4,0:1|0:3,0:0:0:0:
510,351,118738,2,0,P|500:276|466:217,1,134.999995880127,4|4,0:3|0:3,0:0:0:0:
498,92,119638,2,0,P|423:102|364:135,1,134.999995880127,0|4,1:0|0:3,0:0:0:0:
240,101,120538,2,0,P|250:176|284:235,2,134.999995880127,4|0|0,0:3|1:0|1:0,0:0:0:0:
179,33,121738,6,0,L|45:55,1,134.999995880127,4|4,0:1|0:3,0:0:0:0:
159,127,122638,2,0,L|25:149,1,134.999995880127,4|4,0:3|0:3,0:0:0:0:
139,221,123538,2,0,L|5:243,1,134.999995880127,0|4,1:0|0:3,0:0:0:0:
118,316,124438,2,0,L|-23:338,2,134.999995880127,4|0|0,0:3|1:0|1:0,0:0:0:0:
203,346,125638,1,0,1:0:0:0:
256,274,125938,5,2,0:3:0:0:
256,192,140338,12,0,143938,0:0:0:0:
56,37,145138,6,0,P|52:103|94:154,2,134.999995880127,4|4|0,0:0|0:3|0:0,0:0:0:0:
138,74,146338,2,0,L|411:98,1,269.999991760254,0|4,1:0|0:3,0:0:0:0:
452,19,147538,2,0,P|494:69|490:135,2,134.999995880127,4|4|4,0:3|0:3|0:3,0:0:0:0:
407,97,148738,1,0,1:0:0:0:
228,83,149338,2,0,L|135:74,1,89.999997253418,4|2,0:3|0:0,0:0:0:0:
84,146,149938,6,0,P|87:211|45:262,2,134.999995880127,4|4|0,0:0|0:3|0:0,0:0:0:0:
1,182,151138,2,0,L|240:324,1,269.999991760254,0|4,1:0|0:3,0:0:0:0:
315,356,152338,2,0,P|318:290|276:239,2,134.999995880127,4|4|4,0:3|0:3|0:3,0:0:0:0:
234,319,153538,1,0,1:0:0:0:
342,175,154138,1,2,0:3:0:0:
302,94,154438,1,0,1:0:0:0:
216,65,154738,6,0,P|169:101|85:87,2,134.999995880127,4|4|0,0:0|0:3|0:0,0:0:0:0:
139,16,155938,2,0,L|185:286,1,269.999991760254,0|4,1:0|0:3,0:0:0:0:
228,360,157138,2,0,P|162:368|108:330,2,134.999995880127,4|4|4,0:3|0:3|0:3,0:0:0:0:
276,283,158338,1,0,1:0:0:0:
443,349,158938,2,0,L|452:252,1,89.999997253418,4|2,0:3|0:0,0:0:0:0:
461,169,159538,6,0,P|428:150|374:149,1,89.999997253418,4|0,0:0|1:0,0:0:0:0:
381,58,160138,2,0,P|343:64|301:98,1,89.999997253418,0|0,1:0|1:0,0:0:0:0:
249,24,160738,2,0,P|224:53|214:106,1,89.999997253418,0|0,1:0|1:0,0:0:0:0:
125,84,161338,2,0,P|125:122|151:169,2,89.999997253418,0|0|4,1:0|1:0|1:2,0:0:0:0:
214,103,162238,5,0,1:0:0:0:
303,96,162538,1,0,1:0:0:0:
377,148,162838,1,0,1:0:0:0:
408,232,163138,2,0,L|398:330,1,89.999997253418,0|0,1:0|1:0,0:0:0:0:
309,309,163738,2,0,L|318:219,1,89.999997253418,0|0,1:0|1:0,0:0:0:0:
229,253,164338,6,0,P|154:250|85:222,1,134.999995880127,0|0,1:0|1:0,0:0:0:0:
4,85,165650,2,0,P|7:51|17:19,2,67.4999979400635,0|4|8,1:0|0:3|0:3,0:0:0:0:
74,140,166588,6,0,P|141:139|206:123,1,134.999995880127,0|0,1:0|1:0,0:0:0:0:
381,79,167900,2,0,P|413:86|444:100,2,67.4999979400635,0|4|0,1:0|0:3|1:0,0:0:0:0:
305,128,168838,2,0,B|271:183|271:183|280:258,1,134.999995880127,4|4,0:1|0:1,0:0:0:0:
367,354,169963,6,0,P|411:351|451:331,1,89.999997253418,2|0,0:0|1:0,0:0:0:0:
492,251,170713,2,0,P|489:206|469:166,1,89.999997253418,4|0,0:3|1:0,0:0:0:0:
380,154,171463,1,4,0:3:0:0:
333,77,171838,1,4,0:3:0:0:
243,65,172213,6,0,L|108:72,1,134.999995880127,4|4,0:3|0:3,0:0:0:0:
162,244,173525,2,0,L|242:238,2,67.4999979400635,0|4|0,1:0|0:3|1:0,0:0:0:0:
76,271,174463,6,0,B|139:279|139:279|192:339,1,134.999995880127,4|4,0:1|0:1,0:0:0:0:
317,300,175588,2,0,B|339:233|339:233|314:173,1,134.999995880127,4|4,0:1|0:1,0:0:0:0:
64,64,178052,5,4,0:1:0:0:
64,320,179766,1,4,0:1:0:0:
256,320,180623,1,2,1:3:0:0:
352,320,181052,1,4,0:3:0:0:
448,320,181480,5,4,0:1:0:0:
448,64,183195,1,4,0:1:0:0:
256,64,184052,1,2,1:3:0:0:
160,64,184481,1,4,0:3:0:0:
64,64,184909,5,4,0:1:0:0:
256,160,185766,1,2,0:3:0:0:
64,256,186623,1,4,0:1:0:0:
256,352,187480,1,2,0:3:0:0:
448,256,188338,1,4,0:1:0:0:
256,160,189195,1,0,1:0:0:0:
256,256,189623,1,4,0:3:0:0:
256,352,190052,6,0,P|224:366|155:360,1,99.9999999999999,0|8,1:0|0:3,0:0:0:0:
78,281,190909,2,0,P|68:206|94:161,1,115.000002193451,0|0,1:0|1:0,0:0:0:0:
204,110,191766,6,0,B|257:140|347:113|314:78|383:41|464:77,1,270.000001029968,4|0,0:1|1:0,0:0:0:0:
410,201,193052,1,4,0:3:0:0:
449,329,193480,2,0,P|370:328|316:295,1,135.000000514984,4|4,0:0|0:3,0:0:0:0:
217,216,194337,2,0,P|138:217|84:250,1,135.000000514984,12|4,0:3|0:3,0:0:0:0:
23,361,195194,6,0,L|62:77,1,270.000001029968,4|0,0:1|1:0,0:0:0:0:
170,15,196480,1,0,1:0:0:0:
301,45,196909,2,0,P|332:99|317:195,1,135.000000514984,4|0,0:0|1:0,0:0:0:0:
209,232,197766,1,0,1:0:0:0:
324,301,198194,1,0,1:0:0:0:
207,370,198623,6,0,L|70:351,1,135.000000514984,4|0,0:1|1:0,0:0:0:0:
10,231,199480,2,0,L|31:75,1,135.000000514984,6|0,0:3|1:0,0:0:0:0:
132,11,200337,2,0,P|209:24|260:71,1,135.000000514984,4|0,0:0|1:0,0:0:0:0:
241,193,201194,2,0,P|318:180|369:133,1,135.000000514984,12|6,0:3|0:3,0:0:0:0:
471,67,202052,6,0,L|488:210,2,135.000000514984,4|0|6,0:1|1:0|0:3,0:0:0:0:
349,8,203337,1,0,1:0:0:0:
214,15,203766,1,8,0:3:0:0:
106,94,204194,1,8,0:3:0:0:
68,223,204623,1,4,0:3:0:0:
98,353,205052,1,8,0:3:0:0:
195,260,205480,5,4,0:0:0:0:
464,279,206338,1,4,0:0:0:0:
217,168,207195,2,0,L|375:182,1,135.000000514984,4|4,0:0|0:3,0:0:0:0:
430,70,208052,2,0,L|295:58,1,135.000000514984,4|0,0:0|1:0,0:0:0:0:
160,49,208909,5,4,0:0:0:0:
196,316,209766,1,4,0:0:0:0:
410,151,210623,2,0,L|274:167,1,135.000000514984,4|4,0:0|0:3,0:0:0:0:
142,185,211480,1,0,1:0:0:0:
8,203,211909,2,0,L|19:298,1,90.0000003433227,0|0,1:3|1:0,0:0:0:0:
256,76,213195,5,4,1:0:0:0:
256,192,213338,12,0,219052,0:0:0:0:
