osu file format v14

[General]
AudioFilename: audio.mp3
AudioLeadIn: 0
PreviewTime: 53043
Countdown: 0
SampleSet: Normal
StackLeniency: 0.7
Mode: 1
LetterboxInBreaks: 0
WidescreenStoryboard: 0

[Editor]
DistanceSpacing: 1
BeatDivisor: 4
GridSize: 32
TimelineZoom: 3.099999

[Metadata]
Title:Dekoboko Speed Star
TitleUnicode:凸凹スピードスター
Artist:Yuyoyuppe
ArtistUnicode:ゆよゆっぺ
Creator:Aloda
Version:Inner Oni
Source:アイドルマスター シンデレラガールズ スターライトステージ
Tags:
BeatmapID:1888224
BeatmapSetID:904647

[Difficulty]
HPDrainRate:7
CircleSize:2
OverallDifficulty:7.5
ApproachRate:8
SliderMultiplier:1.4
SliderTickRate:1

[Events]
//Background and Video events
0,0,"ss (2019-01-03 at 03.16.41).jpg",0,0
//Break Periods
2,5678,7989
2,51656,52337
2,89221,89902
//Storyboard Layer 0 (Background)
//Storyboard Layer 1 (Fail)
//Storyboard Layer 2 (Pass)
//Storyboard Layer 3 (Foreground)
//Storyboard Sound Samples

[TimingPoints]
1435,260.869565217391,4,1,0,80,1,0
53087,-98.0392156862745,4,1,0,80,0,0
53152,-96.1538461538461,4,1,0,80,0,0
53217,-94.3396226415094,4,1,0,80,0,0
53282,-92.5925925925926,4,1,0,80,0,0
53348,-90.9090909090909,4,1,0,80,0,0
53413,-89.2857142857143,4,1,0,80,0,0
53478,-87.719298245614,4,1,0,80,0,0
53521,-86.2068965517241,4,1,0,80,0,0
53565,-84.7457627118644,4,1,0,80,0,0
53608,-83.3333333333333,4,1,0,80,0,1
66261,-81.9672131147541,4,1,0,80,0,1
66391,-80.6451612903226,4,1,0,80,0,1
66521,-79.3650793650794,4,1,0,80,0,1
66652,-78.125,4,1,0,80,0,1
66782,-76.9230769230769,4,1,0,80,0,1
66913,-75.7575757575758,4,1,0,80,0,1
67043,-74.6268656716418,4,1,0,80,0,1
67174,-73.5294117647059,4,1,0,80,0,1
67239,-72.992700729927,4,1,0,80,0,1
67304,-72.463768115942,4,1,0,80,0,1
67369,-71.9424460431655,4,1,0,80,0,1
67434,-71.4285714285714,4,1,0,80,0,1
67500,-70.9219858156028,4,1,0,80,0,1
67565,-70.4225352112676,4,1,0,80,0,1
67630,-69.9300699300699,4,1,0,80,0,1
67695,-69.4444444444444,4,1,0,80,0,1
67761,-68.9655172413793,4,1,0,80,0,1
67826,-68.4931506849315,4,1,0,80,0,1
67891,-68.0272108843537,4,1,0,80,0,1
67956,-67.5675675675676,4,1,0,80,0,1
68021,-67.1140939597315,4,1,0,80,0,1
68087,-66.6666666666667,4,1,0,80,0,1
68152,-66.2251655629139,4,1,0,80,0,1
68217,-65.7894736842105,4,1,0,80,0,0
69000,-83.3333333333333,4,1,0,80,0,0
71130,-100,4,1,0,80,0,0
92739,-98.0392156862745,4,1,0,80,0,0
92804,-96.1538461538461,4,1,0,80,0,0
92869,-94.3396226415094,4,1,0,80,0,0
92934,-92.5925925925926,4,1,0,80,0,0
93000,-90.9090909090909,4,1,0,80,0,0
93065,-89.2857142857143,4,1,0,80,0,0
93130,-87.719298245614,4,1,0,80,0,0
93173,-86.2068965517241,4,1,0,80,0,0
93217,-84.7457627118644,4,1,0,80,0,0
93261,-83.3333333333333,4,1,0,80,0,1
105896,-81.9672131147541,4,1,0,80,0,1
106026,-80.6451612903226,4,1,0,80,0,1
106156,-79.3650793650794,4,1,0,80,0,1
106287,-78.125,4,1,0,80,0,1
106417,-76.9230769230769,4,1,0,80,0,1
106548,-75.7575757575758,4,1,0,80,0,1
106678,-74.6268656716418,4,1,0,80,0,1
106809,-73.5294117647059,4,1,0,80,0,1
106874,-72.992700729927,4,1,0,80,0,1
106939,-72.463768115942,4,1,0,80,0,1
107004,-71.9424460431655,4,1,0,80,0,1
107069,-71.4285714285714,4,1,0,80,0,1
107135,-70.9219858156028,4,1,0,80,0,1
107200,-70.4225352112676,4,1,0,80,0,1
107265,-69.9300699300699,4,1,0,80,0,1
107330,-69.4444444444444,4,1,0,80,0,1
107396,-68.9655172413793,4,1,0,80,0,1
107461,-68.4931506849315,4,1,0,80,0,1
107526,-68.0272108843537,4,1,0,80,0,1
107591,-67.5675675675676,4,1,0,80,0,1
107656,-67.1140939597315,4,1,0,80,0,1
107722,-66.6666666666667,4,1,0,80,0,1
107787,-66.2251655629139,4,1,0,80,0,1
107870,-65.7894736842105,4,1,0,80,0,0
108652,-83.3333333333333,4,1,0,80,0,0
110739,-100,4,1,0,80,0,0
123000,-80,4,1,0,80,0,0

[HitObjects]
256,192,391,12,0,1304,0:0:0:0:
256,192,1435,5,4,0:0:0:0:
256,192,1695,1,8,0:0:0:0:
256,192,1956,1,4,0:0:0:0:
256,192,2217,1,8,0:0:0:0:
256,192,2478,1,4,0:0:0:0:
256,192,2739,1,8,0:0:0:0:
256,192,3000,1,4,0:0:0:0:
256,192,3261,1,8,0:0:0:0:
256,192,3521,1,4,0:0:0:0:
256,192,3782,1,8,0:0:0:0:
256,192,4043,1,4,0:0:0:0:
256,192,4304,1,8,0:0:0:0:
256,192,4565,1,4,0:0:0:0:
256,192,5087,1,4,0:0:0:0:
256,192,5348,1,8,0:0:0:0:
256,192,5478,1,4,0:0:0:0:
288,192,8739,5,8,0:0:0:0:
256,192,9000,1,8,0:0:0:0:
256,192,9261,1,8,0:0:0:0:
256,192,9521,1,8,0:0:0:0:
256,192,9652,1,8,0:0:0:0:
256,192,9782,1,8,0:0:0:0:
256,192,9848,1,0,0:0:0:0:
256,192,9913,1,8,0:0:0:0:
256,192,9978,1,0,0:0:0:0:
256,192,10043,1,8,0:0:0:0:
256,192,10174,1,8,0:0:0:0:
256,192,10304,1,0,0:0:0:0:
256,192,10369,1,8,0:0:0:0:
256,192,10434,1,8,0:0:0:0:
256,192,10500,1,0,0:0:0:0:
256,192,10565,1,0,0:0:0:0:
256,192,10695,1,0,0:0:0:0:
256,192,10761,1,8,0:0:0:0:
256,192,10826,1,8,0:0:0:0:
256,192,10891,1,0,0:0:0:0:
256,192,10956,1,8,0:0:0:0:
256,192,11021,1,0,0:0:0:0:
256,192,11087,1,8,0:0:0:0:
256,192,11217,1,8,0:0:0:0:
256,192,11348,1,0,0:0:0:0:
256,192,11478,1,0,0:0:0:0:
256,192,11543,1,0,0:0:0:0:
256,192,11608,1,8,0:0:0:0:
256,192,11674,1,0,0:0:0:0:
256,192,11739,1,8,0:0:0:0:
256,192,11804,1,8,0:0:0:0:
256,192,11869,1,0,0:0:0:0:
256,192,12000,1,8,0:0:0:0:
256,192,12130,1,0,0:0:0:0:
256,192,12261,1,8,0:0:0:0:
256,192,12391,1,0,0:0:0:0:
256,192,12456,1,0,0:0:0:0:
256,192,12521,1,8,0:0:0:0:
256,192,12587,1,8,0:0:0:0:
256,192,12652,1,0,0:0:0:0:
256,192,12782,1,0,0:0:0:0:
256,192,12913,1,12,0:0:0:0:
256,192,13174,1,12,0:0:0:0:
256,192,13434,1,12,0:0:0:0:
256,192,13695,1,0,0:0:0:0:
256,192,13956,1,8,0:0:0:0:
256,192,14021,1,0,0:0:0:0:
256,192,14087,1,8,0:0:0:0:
256,192,14152,1,0,0:0:0:0:
256,192,14217,1,8,0:0:0:0:
256,192,14348,1,8,0:0:0:0:
256,192,14478,1,0,0:0:0:0:
256,192,14543,1,8,0:0:0:0:
256,192,14608,1,8,0:0:0:0:
256,192,14674,1,0,0:0:0:0:
256,192,14739,1,0,0:0:0:0:
256,192,14869,1,0,0:0:0:0:
256,192,14935,1,8,0:0:0:0:
256,192,15000,1,8,0:0:0:0:
256,192,15065,1,0,0:0:0:0:
256,192,15130,1,8,0:0:0:0:
256,192,15195,1,0,0:0:0:0:
256,192,15261,1,8,0:0:0:0:
256,192,15391,1,0,0:0:0:0:
256,192,15521,1,8,0:0:0:0:
256,192,15587,1,0,0:0:0:0:
256,192,15652,1,0,0:0:0:0:
256,192,15717,1,8,0:0:0:0:
256,192,15782,1,0,0:0:0:0:
256,192,15913,1,8,0:0:0:0:
256,192,15978,1,8,0:0:0:0:
256,192,16043,1,4,0:0:0:0:
256,192,16174,1,4,0:0:0:0:
256,192,16434,1,12,0:0:0:0:
256,192,16695,1,12,0:0:0:0:
256,192,16956,1,4,0:0:0:0:
256,192,17087,1,8,0:0:0:0:
256,192,17152,1,8,0:0:0:0:
256,192,17217,1,8,0:0:0:0:
256,192,17282,1,8,0:0:0:0:
256,192,17348,1,0,0:0:0:0:
256,192,17478,1,8,0:0:0:0:
256,192,17608,1,8,0:0:0:0:
256,192,17739,1,4,0:0:0:0:
256,192,17869,1,0,0:0:0:0:
256,192,18000,1,8,0:0:0:0:
256,192,18130,1,4,0:0:0:0:
256,192,18391,1,8,0:0:0:0:
256,192,18652,1,8,0:0:0:0:
256,192,18913,1,8,0:0:0:0:
256,192,19174,1,4,0:0:0:0:
256,192,19434,1,8,0:0:0:0:
256,192,19695,1,8,0:0:0:0:
256,192,19956,1,8,0:0:0:0:
256,192,20217,1,4,0:0:0:0:
256,192,20478,1,8,0:0:0:0:
256,192,20739,1,8,0:0:0:0:
256,192,20869,1,8,0:0:0:0:
256,192,21000,1,8,0:0:0:0:
256,192,21130,1,4,0:0:0:0:
256,192,21391,1,4,0:0:0:0:
256,192,21652,1,4,0:0:0:0:
256,192,21782,1,8,0:0:0:0:
256,192,21848,1,0,0:0:0:0:
256,192,21913,1,0,0:0:0:0:
256,192,21978,1,0,0:0:0:0:
256,192,22043,1,8,0:0:0:0:
256,192,22174,1,0,0:0:0:0:
256,192,22304,1,12,0:0:0:0:
256,192,22434,1,0,0:0:0:0:
256,192,22500,1,0,0:0:0:0:
256,192,22565,1,8,0:0:0:0:
256,192,22695,1,0,0:0:0:0:
256,192,22826,1,8,0:0:0:0:
256,192,22891,1,0,0:0:0:0:
256,192,22956,1,8,0:0:0:0:
256,192,23021,1,8,0:0:0:0:
256,192,23087,1,0,0:0:0:0:
256,192,23217,1,0,0:0:0:0:
256,192,23282,1,0,0:0:0:0:
256,192,23348,1,8,0:0:0:0:
256,192,23478,1,0,0:0:0:0:
256,192,23608,1,8,0:0:0:0:
256,192,23739,1,8,0:0:0:0:
256,192,23804,1,8,0:0:0:0:
256,192,23869,1,0,0:0:0:0:
256,192,23934,1,8,0:0:0:0:
256,192,24000,1,0,0:0:0:0:
256,192,24065,1,0,0:0:0:0:
256,192,24130,1,8,0:0:0:0:
256,192,24261,1,0,0:0:0:0:
256,192,24326,1,0,0:0:0:0:
256,192,24391,1,8,0:0:0:0:
256,192,24521,1,0,0:0:0:0:
256,192,24652,1,8,0:0:0:0:
256,192,24717,1,0,0:0:0:0:
256,192,24782,1,0,0:0:0:0:
256,192,24848,1,8,0:0:0:0:
256,192,24913,1,0,0:0:0:0:
256,192,25043,1,8,0:0:0:0:
256,192,25174,1,8,0:0:0:0:
256,192,25239,1,8,0:0:0:0:
256,192,25304,1,0,0:0:0:0:
256,192,25434,1,8,0:0:0:0:
256,192,25500,1,0,0:0:0:0:
256,192,25565,1,0,0:0:0:0:
256,192,25630,1,0,0:0:0:0:
256,192,25695,1,8,0:0:0:0:
256,192,25761,1,8,0:0:0:0:
256,192,25826,1,0,0:0:0:0:
256,192,25891,1,0,0:0:0:0:
256,192,25956,1,0,0:0:0:0:
256,192,26021,1,0,0:0:0:0:
256,192,26087,1,0,0:0:0:0:
256,192,26152,1,0,0:0:0:0:
256,192,26217,1,8,0:0:0:0:
256,192,26478,1,4,0:0:0:0:
256,192,26739,1,8,0:0:0:0:
256,192,27000,1,8,0:0:0:0:
256,192,27261,1,8,0:0:0:0:
256,192,27391,1,0,0:0:0:0:
256,192,27521,1,4,0:0:0:0:
256,192,27782,1,8,0:0:0:0:
256,192,28043,1,8,0:0:0:0:
256,192,28304,1,8,0:0:0:0:
256,192,28434,1,0,0:0:0:0:
256,192,28565,1,4,0:0:0:0:
256,192,28826,1,8,0:0:0:0:
256,192,29087,1,8,0:0:0:0:
256,192,29217,1,8,0:0:0:0:
256,192,29348,1,8,0:0:0:0:
256,192,29478,1,4,0:0:0:0:
256,192,29739,1,4,0:0:0:0:
256,192,30000,1,4,0:0:0:0:
256,192,30130,1,4,0:0:0:0:
256,192,30261,1,0,0:0:0:0:
256,192,30326,1,0,0:0:0:0:
256,192,30391,1,8,0:0:0:0:
256,192,30521,1,0,0:0:0:0:
256,192,30652,1,12,0:0:0:0:
256,192,30782,1,0,0:0:0:0:
256,192,30848,1,0,0:0:0:0:
256,192,30913,1,8,0:0:0:0:
256,192,31043,1,0,0:0:0:0:
256,192,31174,1,8,0:0:0:0:
256,192,31239,1,0,0:0:0:0:
256,192,31304,1,8,0:0:0:0:
256,192,31369,1,8,0:0:0:0:
256,192,31435,1,0,0:0:0:0:
256,192,31565,1,0,0:0:0:0:
256,192,31630,1,0,0:0:0:0:
256,192,31696,1,8,0:0:0:0:
256,192,31826,1,0,0:0:0:0:
256,192,31956,1,8,0:0:0:0:
256,192,32087,1,8,0:0:0:0:
256,192,32152,1,8,0:0:0:0:
256,192,32217,1,0,0:0:0:0:
256,192,32282,1,8,0:0:0:0:
256,192,32348,1,0,0:0:0:0:
256,192,32413,1,0,0:0:0:0:
256,192,32478,1,8,0:0:0:0:
256,192,32608,1,8,0:0:0:0:
256,192,32739,1,4,0:0:0:0:
256,192,32913,1,4,0:0:0:0:
256,192,33087,1,4,0:0:0:0:
256,192,33261,1,12,0:0:0:0:
256,192,33434,1,12,0:0:0:0:
256,192,33608,1,12,0:0:0:0:
256,192,33782,1,4,0:0:0:0:
256,192,34304,1,8,0:0:0:0:
256,192,34434,1,8,0:0:0:0:
256,192,34565,1,8,0:0:0:0:
256,192,34695,1,8,0:0:0:0:
256,192,34826,1,4,0:0:0:0:
224,192,35608,1,0,0:0:0:0:
224,192,35869,1,0,0:0:0:0:
224,192,36391,1,8,0:0:0:0:
224,192,36913,1,4,0:0:0:0:
224,192,37695,1,0,0:0:0:0:
224,192,37956,1,0,0:0:0:0:
224,192,38478,1,8,0:0:0:0:
224,192,39000,1,4,0:0:0:0:
224,192,39782,1,0,0:0:0:0:
224,192,40043,1,0,0:0:0:0:
224,192,40565,1,8,0:0:0:0:
192,192,40826,1,0,0:0:0:0:
224,192,41087,1,4,0:0:0:0:
224,192,41608,1,4,0:0:0:0:
256,192,42130,1,12,0:0:0:0:
256,192,42652,1,8,0:0:0:0:
256,192,42717,1,8,0:0:0:0:
256,192,42782,1,8,0:0:0:0:
256,192,42848,1,8,0:0:0:0:
256,192,42913,1,8,0:0:0:0:
256,192,42978,1,8,0:0:0:0:
256,192,43043,1,0,0:0:0:0:
256,192,43108,1,0,0:0:0:0:
256,192,43174,1,8,0:0:0:0:
256,192,43304,1,0,0:0:0:0:
256,192,43434,1,0,0:0:0:0:
256,192,43565,1,8,0:0:0:0:
256,192,43695,1,0,0:0:0:0:
256,192,43826,1,0,0:0:0:0:
256,192,43956,1,8,0:0:0:0:
256,192,44087,1,0,0:0:0:0:
256,192,44152,1,0,0:0:0:0:
256,192,44217,1,8,0:0:0:0:
256,192,44348,1,0,0:0:0:0:
256,192,44478,1,0,0:0:0:0:
256,192,44608,1,8,0:0:0:0:
256,192,44739,1,0,0:0:0:0:
256,192,44869,1,0,0:0:0:0:
256,192,45000,1,8,0:0:0:0:
256,192,45130,1,0,0:0:0:0:
256,192,45195,1,0,0:0:0:0:
256,192,45261,1,8,0:0:0:0:
256,192,45391,1,0,0:0:0:0:
256,192,45521,1,0,0:0:0:0:
256,192,45652,1,8,0:0:0:0:
256,192,45782,1,0,0:0:0:0:
256,192,45913,1,0,0:0:0:0:
256,192,46043,1,8,0:0:0:0:
256,192,46174,1,0,0:0:0:0:
256,192,46239,1,0,0:0:0:0:
256,192,46304,1,0,0:0:0:0:
256,192,46434,1,8,0:0:0:0:
256,192,46565,1,0,0:0:0:0:
256,192,46695,1,0,0:0:0:0:
256,192,46826,1,8,0:0:0:0:
256,192,46956,1,0,0:0:0:0:
256,192,47087,1,12,0:0:0:0:
256,192,47348,1,4,0:0:0:0:
256,192,47739,1,12,0:0:0:0:
256,192,47869,1,4,0:0:0:0:
256,192,48261,1,12,0:0:0:0:
256,192,48391,1,4,0:0:0:0:
256,192,48652,1,12,0:0:0:0:
256,192,48913,1,4,0:0:0:0:
256,192,49174,1,4,0:0:0:0:
256,192,49434,1,12,0:0:0:0:
256,192,49826,1,4,0:0:0:0:
256,192,49956,1,12,0:0:0:0:
256,192,50348,1,4,0:0:0:0:
256,192,50478,1,12,0:0:0:0:
256,192,50739,1,12,0:0:0:0:
256,192,51000,1,8,0:0:0:0:
256,192,51065,1,8,0:0:0:0:
256,192,51130,1,8,0:0:0:0:
256,192,51195,1,8,0:0:0:0:
256,192,51261,1,8,0:0:0:0:
256,192,51326,1,8,0:0:0:0:
256,192,51391,1,8,0:0:0:0:
256,192,51456,1,0,0:0:0:0:
256,192,53087,5,0,0:0:0:0:
256,192,53152,1,8,0:0:0:0:
256,192,53217,1,8,0:0:0:0:
256,192,53282,1,0,0:0:0:0:
256,192,53348,1,8,0:0:0:0:
256,192,53413,1,8,0:0:0:0:
256,192,53478,1,0,0:0:0:0:
256,192,53521,1,0,0:0:0:0:
256,192,53565,1,0,0:0:0:0:
256,192,53608,1,12,0:0:0:0:
256,192,53739,1,0,0:0:0:0:
256,192,53804,1,0,0:0:0:0:
256,192,53869,1,8,0:0:0:0:
256,192,54000,1,0,0:0:0:0:
256,192,54130,1,8,0:0:0:0:
256,192,54195,1,0,0:0:0:0:
256,192,54261,1,0,0:0:0:0:
256,192,54326,1,8,0:0:0:0:
256,192,54391,1,0,0:0:0:0:
256,192,54456,1,0,0:0:0:0:
256,192,54521,1,8,0:0:0:0:
256,192,54587,1,8,0:0:0:0:
256,192,54652,1,0,0:0:0:0:
256,192,54782,1,8,0:0:0:0:
256,192,54848,1,8,0:0:0:0:
256,192,54913,1,0,0:0:0:0:
256,192,55043,1,8,0:0:0:0:
256,192,55174,1,0,0:0:0:0:
256,192,55239,1,0,0:0:0:0:
256,192,55304,1,8,0:0:0:0:
256,192,55369,1,8,0:0:0:0:
256,192,55434,1,0,0:0:0:0:
256,192,55565,1,8,0:0:0:0:
256,192,55695,1,0,0:0:0:0:
256,192,55826,1,8,0:0:0:0:
256,192,55891,1,0,0:0:0:0:
256,192,55956,1,0,0:0:0:0:
256,192,56087,1,8,0:0:0:0:
256,192,56152,1,0,0:0:0:0:
256,192,56217,1,8,0:0:0:0:
256,192,56282,1,8,0:0:0:0:
256,192,56348,1,0,0:0:0:0:
256,192,56413,1,0,0:0:0:0:
256,192,56478,1,8,0:0:0:0:
256,192,56608,1,0,0:0:0:0:
256,192,56739,1,12,0:0:0:0:
256,192,57000,1,0,0:0:0:0:
256,192,57130,1,12,0:0:0:0:
256,192,57261,1,4,0:0:0:0:
256,192,57521,1,12,0:0:0:0:
256,192,57782,1,12,0:0:0:0:
256,192,57913,1,0,0:0:0:0:
256,192,57978,1,0,0:0:0:0:
256,192,58043,1,8,0:0:0:0:
256,192,58174,1,0,0:0:0:0:
256,192,58304,1,8,0:0:0:0:
256,192,58369,1,0,0:0:0:0:
256,192,58435,1,0,0:0:0:0:
256,192,58500,1,8,0:0:0:0:
256,192,58565,1,0,0:0:0:0:
256,192,58630,1,0,0:0:0:0:
256,192,58695,1,8,0:0:0:0:
256,192,58761,1,8,0:0:0:0:
256,192,58826,1,0,0:0:0:0:
256,192,58956,1,8,0:0:0:0:
256,192,59022,1,8,0:0:0:0:
256,192,59087,1,0,0:0:0:0:
256,192,59217,1,8,0:0:0:0:
256,192,59348,1,8,0:0:0:0:
256,192,59413,1,0,0:0:0:0:
256,192,59478,1,8,0:0:0:0:
256,192,59543,1,8,0:0:0:0:
256,192,59608,1,0,0:0:0:0:
256,192,59674,1,8,0:0:0:0:
256,192,59739,1,0,0:0:0:0:
256,192,59804,1,0,0:0:0:0:
256,192,59869,1,12,0:0:0:0:
256,192,60000,1,12,0:0:0:0:
256,192,60261,1,4,0:0:0:0:
256,192,60521,1,4,0:0:0:0:
256,192,60782,1,12,0:0:0:0:
256,192,61043,1,12,0:0:0:0:
256,192,61304,1,0,0:0:0:0:
256,192,61434,1,8,0:0:0:0:
256,192,61500,1,8,0:0:0:0:
256,192,61565,1,0,0:0:0:0:
256,192,61695,1,12,0:0:0:0:
256,192,61956,1,12,0:0:0:0:
256,192,62087,1,0,0:0:0:0:
256,192,62152,1,0,0:0:0:0:
256,192,62217,1,8,0:0:0:0:
256,192,62348,1,0,0:0:0:0:
256,192,62478,1,0,0:0:0:0:
256,192,62543,1,8,0:0:0:0:
256,192,62609,1,8,0:0:0:0:
256,192,62674,1,0,0:0:0:0:
256,192,62739,1,0,0:0:0:0:
256,192,62804,1,8,0:0:0:0:
256,192,62869,1,0,0:0:0:0:
256,192,62934,1,0,0:0:0:0:
256,192,63000,1,8,0:0:0:0:
256,192,63130,1,0,0:0:0:0:
256,192,63196,1,0,0:0:0:0:
256,192,63261,1,8,0:0:0:0:
256,192,63391,1,0,0:0:0:0:
256,192,63522,1,8,0:0:0:0:
256,192,63587,1,0,0:0:0:0:
256,192,63652,1,8,0:0:0:0:
256,192,63717,1,8,0:0:0:0:
256,192,63782,1,0,0:0:0:0:
256,192,63913,1,8,0:0:0:0:
256,192,64043,1,0,0:0:0:0:
256,192,64174,1,8,0:0:0:0:
256,192,64239,1,0,0:0:0:0:
256,192,64304,1,8,0:0:0:0:
256,192,64435,1,0,0:0:0:0:
256,192,64500,1,8,0:0:0:0:
256,192,64565,1,8,0:0:0:0:
256,192,64630,1,0,0:0:0:0:
256,192,64696,1,0,0:0:0:0:
256,192,64761,1,0,0:0:0:0:
256,192,64826,1,8,0:0:0:0:
256,192,64956,1,0,0:0:0:0:
256,192,65087,1,12,0:0:0:0:
256,192,65348,1,0,0:0:0:0:
256,192,65608,1,12,0:0:0:0:
256,192,65869,1,0,0:0:0:0:
256,192,66000,1,0,0:0:0:0:
256,192,66130,1,12,0:0:0:0:
256,192,66261,1,0,0:0:0:0:
256,192,66391,1,12,0:0:0:0:
256,192,66521,1,0,0:0:0:0:
256,192,66652,1,12,0:0:0:0:
256,192,66782,1,0,0:0:0:0:
256,192,66913,1,12,0:0:0:0:
256,192,67043,1,0,0:0:0:0:
256,192,67174,1,12,0:0:0:0:
256,192,67239,1,0,0:0:0:0:
256,192,67304,1,0,0:0:0:0:
256,192,67369,1,0,0:0:0:0:
256,192,67434,1,12,0:0:0:0:
256,192,67500,1,0,0:0:0:0:
256,192,67565,1,0,0:0:0:0:
256,192,67630,1,0,0:0:0:0:
256,192,67695,1,12,0:0:0:0:
256,192,67761,1,0,0:0:0:0:
256,192,67826,1,0,0:0:0:0:
256,192,67891,1,0,0:0:0:0:
256,192,67956,1,12,0:0:0:0:
256,192,68021,1,0,0:0:0:0:
256,192,68087,1,0,0:0:0:0:
256,192,68152,1,0,0:0:0:0:
256,192,68217,1,12,0:0:0:0:
256,192,69261,1,12,0:0:0:0:
256,192,69782,1,12,0:0:0:0:
256,192,70304,1,4,0:0:0:0:
256,192,71217,1,0,0:0:0:0:
256,192,71348,1,12,0:0:0:0:
256,192,71478,1,0,0:0:0:0:
256,192,71608,1,0,0:0:0:0:
256,192,71739,1,4,0:0:0:0:
256,192,71869,1,12,0:0:0:0:
256,192,72391,1,12,0:0:0:0:
256,192,72521,1,0,0:0:0:0:
256,192,72652,1,12,0:0:0:0:
256,192,72782,1,0,0:0:0:0:
256,192,72913,1,12,0:0:0:0:
256,192,73043,1,4,0:0:0:0:
256,192,73174,1,0,0:0:0:0:
256,192,73304,1,12,0:0:0:0:
256,192,73434,1,0,0:0:0:0:
256,192,73565,1,12,0:0:0:0:
256,192,73695,1,0,0:0:0:0:
256,192,73826,1,12,0:0:0:0:
256,192,73956,1,4,0:0:0:0:
256,192,74087,1,0,0:0:0:0:
256,192,74217,1,12,0:0:0:0:
256,192,74348,1,0,0:0:0:0:
256,192,74478,1,12,0:0:0:0:
256,192,74608,1,0,0:0:0:0:
256,192,74674,1,0,0:0:0:0:
256,192,74739,1,0,0:0:0:0:
256,192,74869,1,8,0:0:0:0:
256,192,75000,1,0,0:0:0:0:
256,192,75130,1,0,0:0:0:0:
256,192,75195,1,0,0:0:0:0:
256,192,75261,1,8,0:0:0:0:
256,192,75391,1,0,0:0:0:0:
256,192,75456,1,0,0:0:0:0:
256,192,75521,1,0,0:0:0:0:
256,192,75652,1,8,0:0:0:0:
256,192,75782,1,0,0:0:0:0:
256,192,75848,1,0,0:0:0:0:
256,192,75913,1,0,0:0:0:0:
256,192,75978,1,0,0:0:0:0:
256,192,76043,1,8,0:0:0:0:
256,192,76174,1,0,0:0:0:0:
256,192,76239,1,0,0:0:0:0:
256,192,76304,1,8,0:0:0:0:
256,192,76434,1,0,0:0:0:0:
256,192,76565,1,12,0:0:0:0:
256,192,76695,1,0,0:0:0:0:
256,192,76826,1,12,0:0:0:0:
256,192,76956,1,0,0:0:0:0:
256,192,77087,1,12,0:0:0:0:
256,192,77217,1,4,0:0:0:0:
256,192,77348,1,0,0:0:0:0:
256,192,77478,1,12,0:0:0:0:
256,192,77608,1,0,0:0:0:0:
256,192,77739,1,12,0:0:0:0:
256,192,77869,1,0,0:0:0:0:
256,192,78000,1,12,0:0:0:0:
256,192,78130,1,4,0:0:0:0:
256,192,78261,1,0,0:0:0:0:
256,192,78391,1,12,0:0:0:0:
256,192,78521,1,0,0:0:0:0:
256,192,78652,1,12,0:0:0:0:
256,192,78782,1,0,0:0:0:0:
256,192,78848,1,0,0:0:0:0:
256,192,78913,1,0,0:0:0:0:
256,192,79043,1,0,0:0:0:0:
256,192,79174,1,8,0:0:0:0:
256,192,79239,1,8,0:0:0:0:
256,192,79304,1,0,0:0:0:0:
256,192,79369,1,0,0:0:0:0:
256,192,79434,1,8,0:0:0:0:
256,192,79500,1,0,0:0:0:0:
256,192,79565,1,0,0:0:0:0:
256,192,79630,1,0,0:0:0:0:
256,192,79695,1,8,0:0:0:0:
256,192,79826,1,8,0:0:0:0:
256,192,79956,1,8,0:0:0:0:
256,192,80087,1,8,0:0:0:0:
256,192,80217,1,4,0:0:0:0:
256,192,80739,1,4,0:0:0:0:
256,192,81782,1,4,0:0:0:0:
256,192,82826,1,4,0:0:0:0:
256,192,83869,1,4,0:0:0:0:
256,192,84130,1,4,0:0:0:0:
256,192,84391,1,4,0:0:0:0:
256,192,84652,1,12,0:0:0:0:
256,192,84913,1,4,0:0:0:0:
256,192,85304,1,12,0:0:0:0:
256,192,85434,1,4,0:0:0:0:
256,192,85826,1,12,0:0:0:0:
256,192,85956,1,4,0:0:0:0:
256,192,86217,1,12,0:0:0:0:
256,192,86478,1,4,0:0:0:0:
256,192,86739,1,4,0:0:0:0:
256,192,86999,1,12,0:0:0:0:
256,192,87391,1,4,0:0:0:0:
256,192,87521,1,12,0:0:0:0:
256,192,87913,1,4,0:0:0:0:
256,192,88043,1,12,0:0:0:0:
256,192,88304,1,12,0:0:0:0:
256,192,88565,1,8,0:0:0:0:
256,192,88630,1,8,0:0:0:0:
256,192,88695,1,8,0:0:0:0:
256,192,88761,1,8,0:0:0:0:
256,192,88826,1,8,0:0:0:0:
256,192,88891,1,8,0:0:0:0:
256,192,88956,1,8,0:0:0:0:
256,192,89021,1,0,0:0:0:0:
256,192,90652,5,0,0:0:0:0:
256,192,90717,1,0,0:0:0:0:
256,192,90782,1,8,0:0:0:0:
256,192,90848,1,8,0:0:0:0:
256,192,90913,1,8,0:0:0:0:
256,192,90978,1,8,0:0:0:0:
256,192,91043,1,8,0:0:0:0:
256,192,91108,1,8,0:0:0:0:
256,192,91174,1,4,0:0:0:0:
256,192,91434,1,8,0:0:0:0:
256,192,91565,1,8,0:0:0:0:
256,192,91695,1,4,0:0:0:0:
256,192,91956,1,8,0:0:0:0:
256,192,92217,1,4,0:0:0:0:
256,192,92478,1,8,0:0:0:0:
256,192,92739,5,8,0:0:0:0:
256,192,92804,1,0,0:0:0:0:
256,192,92869,1,0,0:0:0:0:
256,192,92934,1,8,0:0:0:0:
256,192,93000,1,0,0:0:0:0:
256,192,93065,1,0,0:0:0:0:
256,192,93130,5,8,0:0:0:0:
256,192,93174,1,8,0:0:0:0:
256,192,93217,1,8,0:0:0:0:
256,192,93261,1,4,0:0:0:0:
256,192,93391,1,8,0:0:0:0:
256,192,93456,1,8,0:0:0:0:
256,192,93521,1,0,0:0:0:0:
256,192,93587,1,0,0:0:0:0:
256,192,93652,1,8,0:0:0:0:
256,192,93782,1,0,0:0:0:0:
256,192,93847,1,8,0:0:0:0:
256,192,93913,1,8,0:0:0:0:
256,192,93978,1,0,0:0:0:0:
256,192,94043,1,8,0:0:0:0:
256,192,94108,1,8,0:0:0:0:
256,192,94173,1,0,0:0:0:0:
256,192,94239,1,0,0:0:0:0:
256,192,94304,1,8,0:0:0:0:
256,192,94434,1,8,0:0:0:0:
256,192,94500,1,8,0:0:0:0:
256,192,94565,1,0,0:0:0:0:
256,192,94630,1,0,0:0:0:0:
256,192,94695,1,8,0:0:0:0:
256,192,94826,1,0,0:0:0:0:
256,192,94891,1,8,0:0:0:0:
256,192,94956,1,8,0:0:0:0:
256,192,95021,1,8,0:0:0:0:
256,192,95086,1,0,0:0:0:0:
256,192,95217,1,8,0:0:0:0:
256,192,95282,1,8,0:0:0:0:
256,192,95347,1,0,0:0:0:0:
256,192,95478,1,8,0:0:0:0:
256,192,95543,1,0,0:0:0:0:
256,192,95608,1,0,0:0:0:0:
256,192,95674,1,8,0:0:0:0:
256,192,95739,1,8,0:0:0:0:
256,192,95804,1,0,0:0:0:0:
256,192,95869,1,8,0:0:0:0:
256,192,95934,1,8,0:0:0:0:
256,192,96000,1,0,0:0:0:0:
256,192,96065,1,0,0:0:0:0:
256,192,96130,1,8,0:0:0:0:
256,192,96260,1,0,0:0:0:0:
256,192,96391,1,12,0:0:0:0:
256,192,96652,1,0,0:0:0:0:
256,192,96782,1,12,0:0:0:0:
256,192,96913,1,4,0:0:0:0:
256,192,97173,1,12,0:0:0:0:
256,192,97434,1,12,0:0:0:0:
256,192,97565,1,0,0:0:0:0:
256,192,97630,1,0,0:0:0:0:
256,192,97695,1,8,0:0:0:0:
256,192,97761,1,8,0:0:0:0:
256,192,97826,1,0,0:0:0:0:
256,192,97956,1,0,0:0:0:0:
256,192,98021,1,8,0:0:0:0:
256,192,98087,1,8,0:0:0:0:
256,192,98152,1,0,0:0:0:0:
256,192,98217,1,8,0:0:0:0:
256,192,98282,1,8,0:0:0:0:
256,192,98348,1,0,0:0:0:0:
256,192,98413,1,0,0:0:0:0:
256,192,98478,1,8,0:0:0:0:
256,192,98608,1,8,0:0:0:0:
256,192,98674,1,8,0:0:0:0:
256,192,98739,1,0,0:0:0:0:
256,192,98804,1,0,0:0:0:0:
256,192,98869,1,8,0:0:0:0:
256,192,99000,1,8,0:0:0:0:
256,192,99065,1,0,0:0:0:0:
256,192,99130,1,8,0:0:0:0:
256,192,99195,1,8,0:0:0:0:
256,192,99260,1,0,0:0:0:0:
256,192,99326,1,8,0:0:0:0:
256,192,99391,1,0,0:0:0:0:
256,192,99456,1,0,0:0:0:0:
256,192,99521,1,12,0:0:0:0:
256,192,99652,1,12,0:0:0:0:
256,192,99913,1,4,0:0:0:0:
256,192,100173,1,4,0:0:0:0:
256,192,100434,1,12,0:0:0:0:
256,192,100695,1,12,0:0:0:0:
256,192,100956,1,0,0:0:0:0:
256,192,101086,1,8,0:0:0:0:
256,192,101152,1,8,0:0:0:0:
256,192,101217,1,0,0:0:0:0:
256,192,101347,1,12,0:0:0:0:
256,192,101608,1,4,0:0:0:0:
256,192,101739,1,8,0:0:0:0:
256,192,101804,1,8,0:0:0:0:
256,192,101869,1,0,0:0:0:0:
256,192,101934,1,0,0:0:0:0:
256,192,102000,1,8,0:0:0:0:
256,192,102130,1,8,0:0:0:0:
256,192,102195,1,0,0:0:0:0:
256,192,102261,1,0,0:0:0:0:
256,192,102326,1,8,0:0:0:0:
256,192,102391,1,8,0:0:0:0:
256,192,102456,1,0,0:0:0:0:
256,192,102521,1,8,0:0:0:0:
256,192,102587,1,8,0:0:0:0:
256,192,102652,1,0,0:0:0:0:
256,192,102782,1,8,0:0:0:0:
256,192,102848,1,8,0:0:0:0:
256,192,102913,1,0,0:0:0:0:
256,192,102978,1,0,0:0:0:0:
256,192,103043,1,8,0:0:0:0:
256,192,103174,1,0,0:0:0:0:
256,192,103239,1,8,0:0:0:0:
256,192,103304,1,0,0:0:0:0:
256,192,103369,1,0,0:0:0:0:
256,192,103434,1,8,0:0:0:0:
256,192,103565,1,8,0:0:0:0:
256,192,103630,1,8,0:0:0:0:
256,192,103695,1,0,0:0:0:0:
256,192,103826,1,8,0:0:0:0:
256,192,103891,1,0,0:0:0:0:
256,192,103956,1,8,0:0:0:0:
256,192,104021,1,8,0:0:0:0:
256,192,104087,1,0,0:0:0:0:
256,192,104152,1,8,0:0:0:0:
256,192,104217,1,8,0:0:0:0:
256,192,104282,1,0,0:0:0:0:
256,192,104348,1,0,0:0:0:0:
256,192,104413,1,0,0:0:0:0:
256,192,104478,1,8,0:0:0:0:
256,192,104608,1,0,0:0:0:0:
256,192,104739,1,12,0:0:0:0:
256,192,105000,1,0,0:0:0:0:
256,192,105260,1,12,0:0:0:0:
256,192,105521,1,8,0:0:0:0:
256,192,105652,1,8,0:0:0:0:
256,192,105782,5,4,0:0:0:0:
256,192,105913,1,8,0:0:0:0:
256,192,106043,1,4,0:0:0:0:
256,192,106174,1,8,0:0:0:0:
256,192,106304,1,4,0:0:0:0:
256,192,106434,1,8,0:0:0:0:
256,192,106565,1,4,0:0:0:0:
256,192,106695,1,8,0:0:0:0:
256,192,106826,1,4,0:0:0:0:
256,192,106891,1,8,0:0:0:0:
256,192,106956,1,8,0:0:0:0:
256,192,107021,1,8,0:0:0:0:
256,192,107087,1,4,0:0:0:0:
256,192,107152,1,8,0:0:0:0:
256,192,107217,1,8,0:0:0:0:
256,192,107282,1,8,0:0:0:0:
256,192,107348,1,4,0:0:0:0:
256,192,107413,1,8,0:0:0:0:
256,192,107478,1,8,0:0:0:0:
256,192,107543,1,8,0:0:0:0:
256,192,107608,1,4,0:0:0:0:
256,192,107674,1,8,0:0:0:0:
256,192,107739,1,8,0:0:0:0:
256,192,107804,1,8,0:0:0:0:
256,192,107869,1,4,0:0:0:0:
256,192,108913,1,12,0:0:0:0:
256,192,109434,1,12,0:0:0:0:
256,192,109956,1,4,0:0:0:0:
256,192,110869,1,0,0:0:0:0:
256,192,111000,1,12,0:0:0:0:
256,192,111130,1,0,0:0:0:0:
256,192,111261,1,0,0:0:0:0:
256,192,111391,1,8,0:0:0:0:
256,192,111521,1,4,0:0:0:0:
256,192,111782,1,12,0:0:0:0:
256,192,112043,1,8,0:0:0:0:
256,192,112108,1,0,0:0:0:0:
256,192,112174,1,8,0:0:0:0:
256,192,112239,1,0,0:0:0:0:
256,192,112304,1,8,0:0:0:0:
256,192,112434,1,8,0:0:0:0:
256,192,112500,1,8,0:0:0:0:
256,192,112564,1,0,0:0:0:0:
256,192,112629,1,8,0:0:0:0:
256,192,112694,1,8,0:0:0:0:
256,192,112760,1,0,0:0:0:0:
256,192,112825,1,0,0:0:0:0:
256,192,112955,1,0,0:0:0:0:
256,192,113021,1,8,0:0:0:0:
256,192,113086,1,8,0:0:0:0:
256,192,113151,1,0,0:0:0:0:
256,192,113216,1,8,0:0:0:0:
256,192,113281,1,0,0:0:0:0:
256,192,113347,1,8,0:0:0:0:
256,192,113477,1,8,0:0:0:0:
256,192,113543,1,8,0:0:0:0:
256,192,113608,1,0,0:0:0:0:
256,192,113738,1,0,0:0:0:0:
256,192,113803,1,0,0:0:0:0:
256,192,113868,1,8,0:0:0:0:
256,192,113934,1,0,0:0:0:0:
256,192,113999,1,8,0:0:0:0:
256,192,114064,1,8,0:0:0:0:
256,192,114129,1,0,0:0:0:0:
256,192,114260,1,8,0:0:0:0:
256,192,114326,1,8,0:0:0:0:
256,192,114390,1,0,0:0:0:0:
256,192,114456,1,0,0:0:0:0:
256,192,114521,1,8,0:0:0:0:
256,192,114651,1,0,0:0:0:0:
256,192,114716,1,0,0:0:0:0:
256,192,114781,1,8,0:0:0:0:
256,192,114847,1,8,0:0:0:0:
256,192,114912,1,0,0:0:0:0:
256,192,114978,1,8,0:0:0:0:
256,192,115042,1,0,0:0:0:0:
256,192,115173,1,12,0:0:0:0:
256,192,115304,1,0,0:0:0:0:
256,192,115434,1,12,0:0:0:0:
256,192,115565,1,0,0:0:0:0:
256,192,115694,1,12,0:0:0:0:
256,192,115826,1,8,0:0:0:0:
256,192,115955,1,0,0:0:0:0:
256,192,116216,1,8,0:0:0:0:
256,192,116281,1,0,0:0:0:0:
256,192,116347,1,8,0:0:0:0:
256,192,116412,1,0,0:0:0:0:
256,192,116477,1,8,0:0:0:0:
256,192,116608,1,8,0:0:0:0:
256,192,116674,1,8,0:0:0:0:
256,192,116738,1,0,0:0:0:0:
256,192,116803,1,8,0:0:0:0:
256,192,116868,1,8,0:0:0:0:
256,192,116934,1,0,0:0:0:0:
256,192,116999,1,0,0:0:0:0:
256,192,117129,1,0,0:0:0:0:
256,192,117195,1,8,0:0:0:0:
256,192,117260,1,8,0:0:0:0:
256,192,117325,1,0,0:0:0:0:
256,192,117390,1,8,0:0:0:0:
256,192,117455,1,0,0:0:0:0:
256,192,117521,1,8,0:0:0:0:
256,192,117651,1,0,0:0:0:0:
256,192,117717,1,0,0:0:0:0:
256,192,117781,1,8,0:0:0:0:
256,192,117847,1,0,0:0:0:0:
256,192,117912,1,0,0:0:0:0:
256,192,117977,1,8,0:0:0:0:
256,192,118042,1,0,0:0:0:0:
256,192,118108,1,0,0:0:0:0:
256,192,118173,1,8,0:0:0:0:
256,192,118238,1,8,0:0:0:0:
256,192,118303,1,4,0:0:0:0:
256,192,118434,1,4,0:0:0:0:
256,192,118694,1,12,0:0:0:0:
256,192,118955,1,12,0:0:0:0:
256,192,119216,1,4,0:0:0:0:
256,192,119348,1,8,0:0:0:0:
256,192,119413,1,8,0:0:0:0:
256,192,119478,1,8,0:0:0:0:
256,192,119543,1,8,0:0:0:0:
256,192,119608,1,0,0:0:0:0:
256,192,119674,1,8,0:0:0:0:
256,192,119739,1,0,0:0:0:0:
256,192,119804,1,0,0:0:0:0:
256,192,119869,1,8,0:0:0:0:
256,192,119934,1,0,0:0:0:0:
256,192,120000,1,0,0:0:0:0:
256,192,120065,1,8,0:0:0:0:
256,192,120130,1,0,0:0:0:0:
256,192,120195,1,8,0:0:0:0:
256,192,120261,1,8,0:0:0:0:
256,192,120326,1,8,0:0:0:0:
256,192,120391,1,4,0:0:0:0:
256,192,120456,12,0,122869,0:0:0:0:
256,192,123000,5,8,0:0:0:0:
256,192,123065,1,8,0:0:0:0:
256,192,123130,1,0,0:0:0:0:
