osu file format v14

[General]
AudioFilename: audio.mp3
AudioLeadIn: 0
PreviewTime: -1
Countdown: 1
SampleSet: Normal
StackLeniency: 0.2
Mode: 0
LetterboxInBreaks: 0
WidescreenStoryboard: 0

[Editor]
Bookmarks: 41950,42280,76071,84560,116455,175796,183873,190302
DistanceSpacing: 0.5
BeatDivisor: 4
GridSize: 4
TimelineZoom: 2.7

[Metadata]
Title:Degeneration
TitleUnicode:Degeneration
Artist:Yuyoyuppe
ArtistUnicode:Yuyoyuppe
Creator:PsiOniC
Version:Challenge
Source:
Tags:
BeatmapID:1208464
BeatmapSetID:570113

[Difficulty]
HPDrainRate:5.5
CircleSize:4.2
OverallDifficulty:8
ApproachRate:9.7
SliderMultiplier:1.6
SliderTickRate:2

[Events]
//Background and Video events
0,0,"thumb-1920-713297.png",0,0
//Break Periods
//Storyboard Layer 0 (Background)
//Storyboard Layer 1 (Fail)
//Storyboard Layer 2 (Pass)
//Storyboard Layer 3 (Foreground)
//Storyboard Sound Samples

[TimingPoints]
412,329.67032967033,4,1,0,100,1,0
412,-83.3333333333333,4,1,0,100,0,0
4368,-66.6666666666667,4,1,0,100,0,0
5686,-83.3333333333333,4,1,0,100,0,0
8324,-66.6666666666667,4,1,0,100,0,0
8818,-66.6666666666667,4,1,0,100,0,0
8983,-66.6666666666667,4,1,0,5,0,0
9148,-66.6666666666667,4,1,0,100,0,0
10631,-50,4,1,0,100,0,0
10961,-76.9230769230769,4,1,0,100,0,0
15082,-50,4,1,0,100,0,0
16236,-76.9230769230769,4,1,0,100,0,0
16483,-76.9230769230769,4,1,0,5,0,0
16565,-76.9230769230769,4,1,0,100,0,0
17884,-83.3333333333333,4,1,0,100,0,0
18131,-83.3333333333333,4,1,0,5,0,0
18214,-83.3333333333333,4,1,0,100,0,0
20192,-66.6666666666667,4,1,0,100,0,0
21510,-76.9230769230769,4,1,0,100,0,0
25714,-76.9230769230769,4,1,0,5,0,0
25796,-76.9230769230769,4,1,0,100,0,0
30741,-66.6666666666667,4,1,0,100,0,0
32060,-100,4,1,0,100,0,0
32307,-100,4,1,0,5,0,0
32390,-100,4,1,0,100,0,0
33296,-100,4,1,0,5,0,0
33379,-100,4,1,0,100,0,0
35933,-100,4,1,0,5,0,0
36016,-62.5,4,1,0,100,0,0
37335,-76.9230769230769,4,1,0,100,0,0
37582,-76.9230769230769,4,1,0,5,0,0
37664,-76.9230769230769,4,1,0,100,0,0
39890,-76.9230769230769,4,1,0,5,0,0
39972,-76.9230769230769,4,1,0,100,0,0
41950,-66.6666666666667,4,1,0,100,0,0
42197,-66.6666666666667,4,1,0,5,0,0
42527,-66.6666666666667,4,1,0,5,0,0
42609,-58.8235294117647,4,1,0,100,0,1
51840,-66.6666666666667,4,1,0,100,0,1
53159,-58.8235294117647,4,1,0,100,0,1
58433,-76.9230769230769,4,1,0,100,0,1
61071,-66.6666666666667,4,1,0,100,0,1
63708,-76.9230769230769,4,1,0,100,0,0
71868,-76.9230769230769,4,1,0,5,0,0
71950,-76.9230769230769,4,1,0,100,0,0
89093,-58.8235294117647,4,1,0,100,0,0
94038,-58.8235294117647,4,1,0,100,0,1
111181,-76.9230769230769,4,1,0,100,0,0
113818,-55.5555555555556,4,1,0,100,0,0
116455,-66.6666666666667,4,1,0,100,0,0
127005,-62.5,4,1,0,100,0,0
137554,-125,4,1,0,100,0,0
158653,-66.6666666666667,4,1,0,100,0,0
168873,-50,4,1,0,100,0,1
175796,-76.9230769230769,4,1,0,100,0,1
177115,-62.5,4,1,0,100,0,1
179752,-83.3333333333333,4,1,0,100,0,0
190302,-58.8235294117647,4,1,0,100,0,1
195082,-76.9230769230769,4,1,0,100,0,1
195412,-58.8235294117647,4,1,0,100,0,1
198873,-83.3333333333333,4,1,0,100,0,1
199532,-76.9230769230769,4,1,0,100,0,1
199780,-52.6315789473684,4,1,0,100,0,1
200604,-76.9230769230769,4,1,0,100,0,1
200851,-50,4,1,0,100,0,0

[HitObjects]
224,128,412,5,0,2:2:0:0:
208,260,576,1,0,2:2:0:0:
128,96,741,2,0,P|184:40|236:40,1,95.9999970703126,0|0,2:2|2:2,2:2:0:0:
324,64,1071,1,0,2:2:0:0:
332,204,1236,1,0,2:2:0:0:
266,329,1401,2,0,P|210:273|210:221,1,95.9999970703126,0|0,2:2|2:2,2:2:0:0:
192,132,1730,5,0,2:2:0:0:
208,272,1895,1,0,2:2:0:0:
192,132,2060,2,0,P|271:132|307:168,1,95.9999970703126,0|0,2:2|2:2,2:2:0:0:
388,216,2390,1,0,2:2:0:0:
282,139,2554,1,0,2:2:0:0:
416,216,2719,2,0,P|416:295|380:331,1,95.9999970703126,0|0,2:2|2:2,2:2:0:0:
480,216,3049,5,0,2:2:0:0:
296,176,3214,1,0,2:2:0:0:
236,288,3379,2,0,L|286:197,1,95.9999970703126,0|0,2:2|2:2,2:2:0:0:
356,100,3708,1,0,2:2:0:0:
480,168,3873,1,0,2:2:0:0:
356,288,4038,2,0,L|308:204,1,95.9999970703126,0|0,2:2|2:2,2:2:0:0:
480,104,4368,6,0,L|480:228,1,120.000004577637,0|0,2:2|2:2,2:2:0:0:
256,364,4862,1,0,2:2:0:0:
24,192,5192,1,0,2:2:0:0:
256,88,5521,2,0,L|256:161,1,60.0000022888184,0|0,2:2|2:2,2:2:0:0:
256,192,5686,12,0,8241,2:2:0:0:
224,356,8324,5,0,2:2:0:0:
224,328,8406,1,0,2:2:0:0:
224,300,8488,1,0,2:2:0:0:
256,100,8653,5,0,2:2:0:0:
224,268,8818,2,0,L|224:136,1,120.000004577637,0|0,2:2|2:2,2:2:0:0:
148,268,9148,5,0,2:2:0:0:
256,88,9313,1,0,2:2:0:0:
368,244,9477,1,0,2:2:0:0:
368,276,9560,1,0,2:2:0:0:
368,304,9642,5,0,2:2:0:0:
368,144,9807,1,0,2:2:0:0:
224,268,9972,1,0,2:2:0:0:
348,168,10137,1,0,2:2:0:0:
204,292,10302,1,0,2:2:0:0:
388,120,10466,1,0,2:2:0:0:
376,316,10631,2,0,P|324:360|244:300,1,160,0|0,2:2|2:2,2:2:0:0:
388,120,10961,6,0,P|388:199|351:235,1,95.9999970703126,0|0,2:2|2:2,2:2:0:0:
312,288,11291,2,0,L|312:184,1,103.999995239258,0|0,2:2|2:2,2:2:0:0:
320,48,11620,1,0,2:2:0:0:
220,164,11785,1,0,2:2:0:0:
388,164,11950,1,0,2:2:0:0:
220,184,12115,1,0,2:2:0:0:
320,28,12280,5,0,2:2:0:0:
388,184,12444,1,0,2:2:0:0:
399,51,12609,2,0,P|343:107|291:107,1,95.9999970703126,0|0,2:2|2:2,2:2:0:0:
239,143,12939,2,0,P|195:162|169:202,1,95.9999970703126,0|0,2:2|2:2,2:2:0:0:
120,292,13269,1,0,2:2:0:0:
260,240,13433,1,0,2:2:0:0:
247,53,13598,6,0,P|230:97|239:143,1,95.9999970703126,0|0,2:2|2:2,2:2:0:0:
260,240,13928,2,0,P|269:286|252:330,1,95.9999970703126,0|0,2:2|2:2,2:2:0:0:
188,204,14258,1,0,2:2:0:0:
320,144,14422,1,0,2:2:0:0:
195,113,14587,2,0,P|178:157|187:203,1,95.9999970703126,0|0,2:2|2:2,2:2:0:0:
252,330,14917,1,0,2:2:0:0:
376,224,15082,5,0,2:2:0:0:
380,184,15165,1,0,2:2:0:0:
384,144,15247,1,0,2:2:0:0:
348,24,15412,5,0,2:2:0:0:
330,43,15494,1,0,2:2:0:0:
314,65,15576,1,0,2:2:0:0:
301,88,15659,1,0,2:2:0:0:
290,113,15741,1,0,2:2:0:0:
282,138,15824,5,0,2:2:0:0:
276,164,15906,1,0,2:2:0:0:
273,190,15988,1,0,2:2:0:0:
272,217,16071,1,0,2:2:0:0:
274,243,16153,1,0,2:2:0:0:
280,268,16236,6,0,P|344:306|405:261,1,160,0|0,2:2|2:2,2:2:0:0:
440,140,16565,1,0,2:2:0:0:
488,24,16730,1,0,2:2:0:0:
440,140,16895,2,0,P|360:140|324:103,1,95.9999970703126,0|0,2:2|2:2,2:2:0:0:
261,91,17225,2,0,P|216:74|170:83,1,95.9999970703126,0|0,2:2|2:2,2:2:0:0:
32,192,17554,5,0,2:2:0:0:
168,104,17719,1,0,2:2:0:0:
32,216,17884,2,0,B|80:264|144:200|180:236,1,143.999995605469,0|0,2:2|2:2,2:2:0:0:
256,344,18214,2,0,P|280:296|244:224,1,95.9999970703126,0|0,2:2|2:2,2:2:0:0:
256,156,18543,1,0,2:2:0:0:
144,252,18708,1,0,2:2:0:0:
120,88,18873,6,0,L|120:160,2,47.9999985351563,0|0|0,2:2|2:2|2:2,2:2:0:0:
144,272,19203,1,0,2:2:0:0:
232,136,19368,1,0,2:2:0:0:
316,352,19532,1,0,2:2:0:0:
316,328,19615,1,0,2:2:0:0:
316,304,19697,1,0,2:2:0:0:
288,136,19862,1,0,2:2:0:0:
256,348,20027,1,0,2:2:0:0:
164,208,20192,5,0,2:2:0:0:
180,168,20275,1,0,2:2:0:0:
208,136,20357,1,0,2:2:0:0:
248,128,20440,1,0,2:2:0:0:
288,136,20522,1,0,2:2:0:0:
324,160,20604,1,0,2:2:0:0:
352,192,20687,1,0,2:2:0:0:
368,232,20769,1,0,2:2:0:0:
340,240,20851,5,0,2:2:0:0:
304,224,20933,1,0,2:2:0:0:
267,204,21016,1,0,2:2:0:0:
248,168,21098,1,0,2:2:0:0:
248,128,21181,1,0,2:2:0:0:
260,88,21263,1,0,2:2:0:0:
288,56,21346,1,0,2:2:0:0:
327,40,21428,1,0,2:2:0:0:
364,36,21510,5,0,2:2:0:0:
120,32,21840,1,0,2:2:0:0:
416,120,22170,1,0,2:2:0:0:
108,148,22499,1,0,2:2:0:0:
388,220,22829,1,0,2:2:0:0:
76,256,23159,1,0,2:2:0:0:
384,316,23488,1,0,2:2:0:0:
136,336,23818,1,0,2:2:0:0:
172,248,23983,2,0,P|174:222|166:198,1,51.999997619629,0|0,2:2|2:2,2:2:0:0:
148,164,24148,5,0,2:2:0:0:
256,336,24477,1,0,2:2:0:0:
244,100,24807,1,0,2:2:0:0:
160,348,25137,1,0,2:2:0:0:
146,200,25466,2,0,B|110:268|188:252|154:364,1,155.999992858887,0|0,2:2|2:2,2:2:0:0:
48,316,25796,1,0,2:2:0:0:
392,228,26126,1,0,2:2:0:0:
360,320,26455,1,0,2:2:0:0:
412,132,26620,1,0,2:2:0:0:
483,196,26785,6,0,P|442:227|391:227,1,103.999995239258,0|0,2:2|2:2,2:2:0:0:
292,212,27115,2,0,P|241:218|205:254,1,103.999995239258,0|0,2:2|2:2,2:2:0:0:
211,355,27444,2,0,P|219:306|199:243,1,103.999995239258,0|0,2:2|2:2,2:2:0:0:
184,160,27774,2,0,P|170:110|178:59,1,103.999995239258,0|0,2:2|2:2,2:2:0:0:
268,104,28104,6,0,P|281:153|273:204,1,103.999995239258,0|0,2:2|2:2,2:2:0:0:
189,260,28433,2,0,P|175:210|183:159,1,103.999995239258,0|0,2:2|2:2,2:2:0:0:
352,40,28763,2,0,P|368:99|358:161,1,103.999995239258,0|0,2:2|2:2,2:2:0:0:
116,320,29092,2,0,P|99:260|109:198,1,103.999995239258,0|0,2:2|2:2,2:2:0:0:
20,56,29422,6,0,L|132:132,1,103.999995239258,0|0,2:2|2:2,2:2:0:0:
184,172,29752,2,0,B|348:296|288:340|256:340|256:340|224:340|160:296|260:236|340:143|340:80,1,519.99997619629,0|0,2:2|2:2,2:2:0:0:
408,244,30741,5,0,2:2:0:0:
384,224,30823,1,0,2:2:0:0:
362,204,30905,1,0,2:2:0:0:
341,183,30988,1,0,2:2:0:0:
322,160,31070,1,0,2:2:0:0:
308,133,31153,1,0,2:2:0:0:
303,104,31235,1,0,2:2:0:0:
320,82,31317,1,0,2:2:0:0:
349,82,31400,5,0,2:2:0:0:
365,107,31482,1,0,2:2:0:0:
359,136,31565,1,0,2:2:0:0:
344,162,31647,1,0,2:2:0:0:
327,186,31730,1,0,2:2:0:0:
309,211,31812,1,0,2:2:0:0:
292,235,31894,1,0,2:2:0:0:
276,261,31977,1,0,2:2:0:0:
260,284,32060,6,0,P|180:292|160:232,1,120,0|0,2:2|2:2,2:2:0:0:
144,144,32390,1,0,2:2:0:0:
327,186,32554,1,0,2:2:0:0:
216,304,32719,1,0,2:2:0:0:
104,144,32884,1,0,2:2:0:0:
406,168,33049,2,0,P|397:226|352:264,1,120,0|0,2:2|2:2,2:2:0:0:
216,304,33379,5,0,2:2:0:0:
258,121,33543,1,0,2:2:0:0:
376,232,33708,1,0,2:2:0:0:
216,344,33873,1,0,2:2:0:0:
241,41,34038,2,0,P|298:50|332:84,1,80,0|0,2:2|2:2,2:2:0:0:
432,176,34368,2,0,P|451:210|453:250,1,80,0|0,2:2|2:2,2:2:0:0:
355,267,34697,6,0,P|435:275|455:215,1,120,0|0,2:2|2:2,2:2:0:0:
471,127,35027,1,0,2:2:0:0:
288,169,35191,1,0,2:2:0:0:
399,287,35356,1,0,2:2:0:0:
511,127,35521,1,0,2:2:0:0:
208,151,35686,2,0,P|217:208|262:246,1,120,0|0,2:2|2:2,2:2:0:0:
400,244,36016,5,0,2:2:0:0:
288,169,36181,1,0,2:2:0:0:
264,304,36346,1,0,2:2:0:0:
320,244,36510,1,0,2:2:0:0:
293,111,36675,1,0,2:2:0:0:
181,190,36840,5,0,2:2:0:0:
176,220,36922,1,0,2:2:0:0:
172,252,37005,1,0,2:2:0:0:
256,352,37170,1,0,2:2:0:0:
261,322,37252,1,0,2:2:0:0:
264,288,37335,6,0,P|268:200|260:128,1,155.999992858887,0|0,2:2|2:2,2:2:0:0:
244,36,37664,1,0,2:2:0:0:
96,112,37829,1,0,2:2:0:0:
44,44,37994,2,0,P|16:92|36:180,2,103.999995239258,0|0|0,2:2|2:2|2:2,2:2:0:0:
152,24,38488,1,0,2:2:0:0:
260,132,38653,5,0,2:2:0:0:
96,140,38818,1,0,2:2:0:0:
236,48,38983,1,0,2:2:0:0:
368,132,39148,1,0,2:2:0:0:
208,168,39313,1,0,2:2:0:0:
15,139,39477,1,0,2:2:0:0:
204,12,39642,2,0,P|211:89|207:167,1,155.999992858887,0|0,2:2|2:2,2:2:0:0:
176,344,39972,6,0,L|198:219,1,103.999995239258,0|0,2:2|2:2,2:2:0:0:
150,327,40302,2,0,L|194:208,1,103.999995239258,0|0,2:2|2:2,2:2:0:0:
128,307,40631,2,0,L|192:197,1,103.999995239258,0|0,2:2|2:2,2:2:0:0:
110,283,40961,2,0,L|192:186,1,103.999995239258,0|0,2:2|2:2,2:2:0:0:
264,104,41291,1,0,2:2:0:0:
332,212,41455,2,0,L|361:254,2,51.999997619629,0|0|0,2:2|2:2|2:2,2:2:0:0:
264,68,41785,1,0,2:2:0:0:
332,212,41950,6,0,P|336:124|316:32,1,180.000006866455,0|0,2:2|2:2,2:2:0:0:
211,34,42280,6,0,P|192:122|196:212,1,180.000006866455,0|0,2:2|2:2,2:2:0:0:
200,244,42609,5,0,2:2:0:0:
316,34,42774,1,0,2:2:0:0:
96,64,42939,2,0,P|72:136|72:200,1,136.000002593994,0|0,2:2|2:2,2:2:0:0:
96,344,43269,1,0,2:2:0:0:
176,196,43433,1,0,2:2:0:0:
56,108,43598,1,0,2:2:0:0:
60,120,43681,1,0,2:2:0:0:
64,132,43763,1,0,2:2:0:0:
151,327,43928,6,0,P|175:255|175:191,1,136.000002593994,0|0,2:2|2:2,2:2:0:0:
80,236,44258,2,0,P|151:259|215:259,1,136.000002593994,0|0,2:2|2:2,2:2:0:0:
316,248,44587,2,0,L|383:242,2,68.0000012969971,0|0|0,2:2|2:2|2:2,2:2:0:0:
356,344,44917,2,0,P|288:342|224:319,1,136.000002593994,0|0,2:2|2:2,2:2:0:0:
196,304,45164,1,0,2:2:0:0:
168,284,45247,6,0,P|121:234|92:173,1,136.000002593994,0|0,2:2|2:2,2:2:0:0:
108,316,45906,2,0,P|204:356|252:320,1,136.000002593994,0|0,2:2|2:2,2:2:0:0:
392,228,46236,1,0,2:2:0:0:
424,28,46401,1,0,2:2:0:0:
312,196,46565,5,0,2:2:0:0:
484,84,46730,1,0,2:2:0:0:
284,116,46895,1,0,2:2:0:0:
484,164,47060,1,0,2:2:0:0:
320,40,47225,1,0,2:2:0:0:
420,216,47390,1,0,2:2:0:0:
148,116,47554,5,0,2:2:0:0:
288,328,47719,1,0,2:2:0:0:
112,224,47884,6,0,B|140:196|200:196|200:196|260:256|260:256|336:180|364:208|364:208,1,272.000005187988,0|0,2:2|2:2,2:2:0:0:
156,304,48379,1,0,2:2:0:0:
352,360,48543,2,0,P|448:288|440:224,1,136.000002593994,0|0,2:2|2:2,2:2:0:0:
420,72,48873,1,0,2:2:0:0:
352,264,49038,1,0,2:2:0:0:
288,68,49203,6,0,P|220:140|220:212,1,136.000002593994,0|0,2:2|2:2,2:2:0:0:
284,364,49532,1,0,2:2:0:0:
256,160,49697,1,0,2:2:0:0:
100,28,49862,2,0,P|96:132|144:188,1,136.000002593994,0|0,2:2|2:2,2:2:0:0:
256,300,50192,1,0,2:2:0:0:
444,220,50357,1,0,2:2:0:0:
256,300,50521,6,0,P|164:232|192:172,1,136.000002593994,0|0,2:2|2:2,2:2:0:0:
256,44,50851,1,0,2:2:0:0:
440,136,51016,1,0,2:2:0:0:
344,316,51181,1,0,2:2:0:0:
180,192,51346,1,0,2:2:0:0:
376,136,51510,1,0,2:2:0:0:
280,316,51675,1,0,2:2:0:0:
104,352,51840,5,0,2:2:0:0:
76,340,51922,1,0,2:2:0:0:
56,320,52005,1,0,2:2:0:0:
40,296,52087,1,0,2:2:0:0:
32,268,52170,1,0,2:2:0:0:
28,240,52252,1,0,2:2:0:0:
28,208,52335,1,0,2:2:0:0:
36,180,52417,1,0,2:2:0:0:
100,116,52499,5,0,2:2:0:0:
268,48,52664,1,0,2:2:0:0:
376,192,52829,2,0,P|328:240|256:240,1,120.000004577637,0|0,2:2|2:2,2:2:0:0:
88,192,53159,5,0,2:2:0:0:
256,76,53324,1,0,2:2:0:0:
400,220,53488,2,0,B|352:268|352:268|316:232|252:296|144:296,1,272.000005187988,0|0,2:2|2:2,2:2:0:0:
36,132,53983,1,0,2:2:0:0:
232,76,54148,1,0,2:2:0:0:
256,100,54230,1,0,2:2:0:0:
280,120,54313,1,0,2:2:0:0:
392,288,54477,6,0,B|440:240|440:240|404:204|468:140|468:43,1,272.000005187988,0|0,2:2|2:2,2:2:0:0:
328,192,54972,1,0,2:2:0:0:
207,80,55137,2,0,L|256:32,2,68.0000012969971,0|0|0,2:2|2:2|2:2,2:2:0:0:
124,192,55466,2,0,P|124:264|168:308,1,136.000002593994,0|0,2:2|2:2,2:2:0:0:
388,191,55796,6,0,P|390:125|345:76,1,136.000002593994,0|0,2:2|2:2,2:2:0:0:
175,192,56126,2,0,P|173:258|218:307,1,136.000002593994,0|0,2:2|2:2,2:2:0:0:
388,192,56455,1,0,2:2:0:0:
256,36,56620,1,0,2:2:0:0:
148,160,56785,2,0,B|148:227|148:227|131:244|148:261|148:261|148:300|164:316,1,136.000002593994,0|0,2:2|2:2,2:2:0:0:
148,128,57115,5,0,2:2:0:0:
256,252,57280,1,0,2:2:0:0:
308,100,57444,1,0,2:2:0:0:
93,95,57609,5,0,2:2:0:0:
256,282,57774,1,0,2:2:0:0:
334,53,57939,1,0,2:2:0:0:
40,64,58104,5,0,2:2:0:0:
256,312,58269,1,0,2:2:0:0:
328,208,58433,6,0,P|330:141|285:92,1,103.999995239258,0|0,2:2|2:2,2:2:0:0:
115,208,58763,2,0,P|112:274|156:320,1,103.999995239258,0|0,2:2|2:2,2:2:0:0:
256,332,59093,1,0,2:2:0:0:
292,312,59175,1,0,2:2:0:0:
320,280,59258,1,0,2:2:0:0:
336,244,59340,1,0,2:2:0:0:
340,204,59422,1,0,2:2:0:0:
256,96,59587,1,0,2:2:0:0:
160,192,59752,6,0,P|153:242|176:288,1,103.999995239258,0|0,2:2|2:2,2:2:0:0:
373,191,60082,2,0,P|379:140|355:95,1,103.999995239258,0|0,2:2|2:2,2:2:0:0:
228,44,60412,1,0,2:2:0:0:
120,124,60576,1,0,2:2:0:0:
84,256,60741,2,0,B|127:299|127:299|128:327|159:327|159:327|177:345,1,103.999995239258,0|0,2:2|2:2,2:2:0:0:
312,324,61071,6,0,B|312:261|312:261|340:232|313:209|313:209,1,120.000004577637,0|0,2:2|2:2,2:2:0:0:
72,88,61401,1,0,2:2:0:0:
280,140,61565,2,0,P|320:180|280:220,1,120.000004577637,0|0,2:2|2:2,2:2:0:0:
100,332,61895,1,0,2:2:0:0:
256,184,62060,1,0,2:2:0:0:
52,116,62225,1,0,2:2:0:0:
152,236,62390,5,0,2:2:0:0:
188,268,62472,1,0,2:2:0:0:
232,288,62554,1,0,2:2:0:0:
280,296,62637,1,0,2:2:0:0:
328,296,62719,1,0,2:2:0:0:
376,284,62802,1,0,2:2:0:0:
420,264,62884,1,0,2:2:0:0:
448,228,62966,1,0,2:2:0:0:
404,160,63049,6,0,B|352:159|320:191|320:191|256:127|256:127|180:203|84:107|100:121,1,360.000013732911,0|0,2:2|2:2,2:2:0:0:
188,224,63708,6,0,P|188:288|176:244,1,207.999990478516,0|0,2:2|2:2,2:2:0:0:
88,192,64203,1,0,2:2:0:0:
180,96,64368,2,0,P|248:164|248:200,1,103.999995239258,0|0,2:2|2:2,2:2:0:0:
172,280,64697,1,0,2:2:0:0:
248,166,64862,1,0,2:2:0:0:
348,256,65027,6,0,P|290:317|374:324,1,207.999990478516,0|0,2:2|2:2,2:2:0:0:
432,192,65521,1,0,2:2:0:0:
320,88,65686,1,0,2:2:0:0:
256,232,65851,1,0,2:2:0:0:
396,160,66016,1,0,2:2:0:0:
240,160,66181,1,0,2:2:0:0:
348,272,66346,5,0,2:2:0:0:
256,368,66510,1,0,2:2:0:0:
144,292,66675,2,0,P|122:245|130:194,1,103.999995239258,0|0,2:2|2:2,2:2:0:0:
256,288,67005,1,0,2:2:0:0:
364,204,67170,2,0,P|385:157|377:106,1,103.999995239258,0|0,2:2|2:2,2:2:0:0:
256,52,67499,1,0,2:2:0:0:
256,188,67664,6,0,L|204:136,2,51.999997619629,0|0|0,2:2|2:2|2:2,2:2:0:0:
284,220,67912,5,0,2:2:0:0:
300,256,67994,1,0,2:2:0:0:
300,296,68076,1,0,2:2:0:0:
284,336,68159,1,0,2:2:0:0:
256,364,68241,1,0,2:2:0:0:
220,376,68324,6,0,L|168:324,1,51.999997619629,0|0,2:2|2:2,2:2:0:0:
156,364,68488,2,0,L|156:304,1,51.999997619629,0|0,2:2|2:2,2:2:0:0:
120,316,68653,2,0,L|172:264,1,51.999997619629,0|0,2:2|2:2,2:2:0:0:
128,256,68818,2,0,L|192:256,1,51.999997619629,0|0,2:2|2:2,2:2:0:0:
168,92,68983,5,0,2:2:0:0:
164,132,69065,1,0,2:2:0:0:
188,168,69148,1,0,2:2:0:0:
204,208,69230,1,0,2:2:0:0:
204,248,69312,1,0,2:2:0:0:
188,288,69395,1,0,2:2:0:0:
160,320,69477,1,0,2:2:0:0:
120,332,69560,1,0,2:2:0:0:
80,324,69642,5,0,2:2:0:0:
52,292,69725,1,0,2:2:0:0:
32,256,69807,1,0,2:2:0:0:
24,216,69889,1,0,2:2:0:0:
28,176,69972,1,0,2:2:0:0:
44,136,70054,1,0,2:2:0:0:
68,100,70137,1,0,2:2:0:0:
96,72,70219,1,0,2:2:0:0:
128,52,70302,5,0,2:2:0:0:
164,32,70384,1,0,2:2:0:0:
204,24,70466,1,0,2:2:0:0:
244,24,70549,1,0,2:2:0:0:
280,44,70631,1,0,2:2:0:0:
304,76,70714,1,0,2:2:0:0:
320,116,70796,1,0,2:2:0:0:
324,156,70879,1,0,2:2:0:0:
316,192,70961,6,0,L|308:268,2,51.999997619629,0|0|0,2:2|2:2|2:2,2:2:0:0:
256,336,71291,1,0,2:2:0:0:
148,224,71455,1,0,2:2:0:0:
288,245,71620,2,0,P|351:244|315:191,1,155.999992858887,0|0,2:2|2:2,2:2:0:0:
400,192,71950,5,0,2:2:0:0:
256,252,72115,1,0,2:2:0:0:
256,96,72280,1,0,2:2:0:0:
172,228,72444,1,0,2:2:0:0:
308,152,72609,1,0,2:2:0:0:
152,152,72774,1,0,2:2:0:0:
160,308,72939,6,0,L|204:264,1,51.999997619629,0|0,2:2|2:2,2:2:0:0:
300,272,73104,2,0,L|348:224,1,51.999997619629,0|0,2:2|2:2,2:2:0:0:
256,168,73269,6,0,L|322:102,1,51.999997619629,0|0,2:2|2:2,2:2:0:0:
396,132,73433,2,0,L|462:198,1,51.999997619629,0|0,2:2|2:2,2:2:0:0:
356,240,73598,2,0,L|300:184,3,51.999997619629,0|0|0|0,2:2|2:2|2:2|2:2,2:2:0:0:
244,132,73928,5,0,2:2:0:0:
216,164,74010,1,0,2:2:0:0:
192,196,74093,1,0,2:2:0:0:
172,232,74175,1,0,2:2:0:0:
164,272,74258,6,0,L|164:344,2,51.999997619629,0|0|0,2:2|2:2|2:2,2:2:0:0:
164,168,74587,2,0,P|208:141|259:133,1,103.999995239258,0|0,2:2|2:2,2:2:0:0:
348,192,74917,1,0,2:2:0:0:
424,264,75082,6,0,L|424:336,2,51.999997619629,0|0|0,2:2|2:2|2:2,2:2:0:0:
344,332,75412,6,0,P|317:287|309:236,1,103.999995239258,0|0,2:2|2:2,2:2:0:0:
256,148,75741,1,0,2:2:0:0:
252,152,75824,1,0,2:2:0:0:
248,156,75906,1,0,2:2:0:0:
172,228,76071,6,0,L|172:300,2,51.999997619629,0|0|0,2:2|2:2|2:2,2:2:0:0:
172,124,76401,5,0,2:2:0:0:
256,64,76565,1,0,2:2:0:0:
360,80,76730,1,0,2:2:0:0:
432,156,76895,2,0,P|423:207|397:251,1,103.999995239258,0|0,2:2|2:2,2:2:0:0:
312,192,77225,1,0,2:2:0:0:
256,104,77390,2,0,P|211:77|160:69,1,103.999995239258,0|0,2:2|2:2,2:2:0:0:
72,124,77719,6,0,L|120:172,2,51.999997619629,0|0|0,2:2|2:2|2:2,2:2:0:0:
28,220,78049,2,0,P|72:246|123:254,1,103.999995239258,0|0,2:2|2:2,2:2:0:0:
208,192,78379,6,0,L|164:236,2,51.999997619629,0|0|0,2:2|2:2|2:2,2:2:0:0:
292,252,78708,5,0,2:2:0:0:
275,150,78873,1,0,2:2:0:0:
184,96,79038,2,0,P|157:140|149:191,1,103.999995239258,0|0,2:2|2:2,2:2:0:0:
228,264,79368,1,0,2:2:0:0:
149,191,79532,6,0,L|197:239,2,51.999997619629,0|0|0,2:2|2:2|2:2,2:2:0:0:
148,88,79862,2,0,P|199:96|243:122,1,103.999995239258,0|0,2:2|2:2,2:2:0:0:
320,192,80192,1,0,2:2:0:0:
388,112,80357,6,0,L|388:184,2,51.999997619629,0|0|0,2:2|2:2|2:2,2:2:0:0:
456,192,80686,6,0,P|447:243|421:287,1,103.999995239258,0|0,2:2|2:2,2:2:0:0:
344,360,81016,1,0,2:2:0:0:
348,364,81098,1,0,2:2:0:0:
352,368,81181,1,0,2:2:0:0:
276,296,81346,6,0,L|328:348,2,51.999997619629,0|0|0,2:2|2:2|2:2,2:2:0:0:
348,220,81675,5,0,2:2:0:0:
331,118,81840,1,0,2:2:0:0:
246,55,82005,1,0,2:2:0:0:
180,136,82170,6,0,L|180:208,2,51.999997619629,0|0|0,2:2|2:2|2:2,2:2:0:0:
256,208,82499,2,0,P|297:238|347:251,1,103.999995239258,0|0,2:2|2:2,2:2:0:0:
348,148,82829,1,0,2:2:0:0:
444,192,82994,6,0,L|500:248,2,51.999997619629,0|0|0,2:2|2:2|2:2,2:2:0:0:
448,88,83324,2,0,P|406:57|356:44,1,103.999995239258,0|0,2:2|2:2,2:2:0:0:
356,148,83653,1,0,2:2:0:0:
96,76,83818,2,0,L|96:136,1,51.999997619629,0|0,2:2|2:2,2:2:0:0:
136,116,83983,2,0,L|128:184,1,51.999997619629,0|0,2:2|2:2,2:2:0:0:
292,164,84148,1,0,2:2:0:0:
272,128,84230,1,0,2:2:0:0:
240,100,84313,1,0,2:2:0:0:
200,84,84395,1,0,2:2:0:0:
160,88,84477,1,0,2:2:0:0:
124,112,84560,1,0,2:2:0:0:
100,148,84642,1,0,2:2:0:0:
84,188,84725,1,0,2:2:0:0:
148,172,84807,6,0,B|217:254|260:217|260:217|255:276|314:282,1,207.999990478516,0|0,2:2|2:2,2:2:0:0:
156,276,85302,1,0,2:2:0:0:
248,180,85466,2,0,P|304:123|344:123,1,103.999995239258,0|0,2:2|2:2,2:2:0:0:
440,192,85796,1,0,2:2:0:0:
356,88,85961,1,0,2:2:0:0:
228,40,86126,6,0,P|177:29|132:52,1,103.999995239258,0|0,2:2|2:2,2:2:0:0:
48,156,86455,1,0,2:2:0:0:
116,272,86620,2,0,P|144:314|192:331,1,103.999995239258,0|0,2:2|2:2,2:2:0:0:
256,160,86950,1,0,2:2:0:0:
336,268,87115,2,0,P|378:239|395:191,1,103.999995239258,0|0,2:2|2:2,2:2:0:0:
500,192,87444,6,0,P|500:276|464:312,1,103.999995239258,0|0,2:2|2:2,2:2:0:0:
412,360,87774,1,0,2:2:0:0:
344,280,87939,2,0,P|344:192|304:152,1,103.999995239258,0|0,2:2|2:2,2:2:0:0:
256,116,88269,1,0,2:2:0:0:
180,188,88433,2,0,P|117:250|117:306,1,103.999995239258,0|0,2:2|2:2,2:2:0:0:
180,188,88763,6,0,P|162:139|216:104,1,103.999995239258,0|0,2:2|2:2,2:2:0:0:
332,104,89093,2,0,B|204:192|360:248|204:360,1,272.000005187988,0|0,2:2|2:2,2:2:0:0:
120,260,89587,5,0,2:2:0:0:
120,252,89670,1,0,2:2:0:0:
120,244,89752,1,0,2:2:0:0:
316,192,89917,1,0,2:2:0:0:
316,184,89999,1,0,2:2:0:0:
316,176,90082,2,0,P|316:96|256:156,1,204.000003890991,0|0,2:2|2:2,2:2:0:0:
256,260,90412,5,0,2:2:0:0:
180,148,90576,1,0,2:2:0:0:
256,294,90741,5,0,2:2:0:0:
141,125,90906,1,0,2:2:0:0:
256,328,91071,5,0,2:2:0:0:
104,104,91236,1,0,2:2:0:0:
104,240,91401,2,0,P|104:320|164:260,1,204.000003890991,0|0,2:2|2:2,2:2:0:0:
164,200,91730,6,0,B|255:329|311:173|399:301,1,272.000005187988,0|0,2:2|2:2,2:2:0:0:
260,300,92225,2,0,P|260:224|304:180,1,136.000002593994,0|0,2:2|2:2,2:2:0:0:
396,88,92554,1,0,2:2:0:0:
264,128,92719,6,0,L|343:238,1,136.000002593994,0|0,2:2|2:2,2:2:0:0:
302,197,93049,2,0,L|279:331,1,136.000002593994,0|0,2:2|2:2,2:2:0:0:
299,268,93379,2,0,L|188:347,1,136.000002593994,0|0,2:2|2:2,2:2:0:0:
227,292,93708,2,0,L|67:266,1,136.000002593994,0|0,2:2|2:2,2:2:0:0:
93,113,94038,6,0,L|227:91,1,136.000002593994,0|0,2:2|2:2,2:2:0:0:
256,224,94368,1,0,2:2:0:0:
260,228,94450,1,0,2:2:0:0:
264,232,94532,1,0,2:2:0:0:
268,236,94615,1,0,2:2:0:0:
272,240,94697,1,0,2:2:0:0:
376,152,94862,6,0,L|324:100,2,68.0000012969971,0|0|0,2:2|2:2|2:2,2:2:0:0:
132,28,95357,6,0,B|132:172|80:224|80:224|128:272|128:340,1,272.000005187988,0|0,2:2|2:2,2:2:0:0:
173,153,95851,1,0,2:2:0:0:
325,37,96016,1,0,2:2:0:0:
327,69,96098,1,0,2:2:0:0:
327,103,96181,1,0,2:2:0:0:
448,36,96346,2,0,B|448:96|480:128|480:128|448:160|448:208,1,136.000002593994,0|0,2:2|2:2,2:2:0:0:
364,256,96675,5,0,2:2:0:0:
361,113,96840,1,0,2:2:0:0:
193,205,97005,2,0,L|145:253,2,68.0000012969971,0|0|0,2:2|2:2|2:2,2:2:0:0:
329,325,97335,6,0,B|332:278|280:226|280:226|316:190|316:68,1,272.000005187988,0|0,2:2|2:2,2:2:0:0:
428,196,97829,1,0,2:2:0:0:
430,228,97912,1,0,2:2:0:0:
430,262,97994,5,0,2:2:0:0:
308,324,98159,2,0,B|209:324|173:360|173:360|119:308|36:308,1,272.000005187988,0|0,2:2|2:2,2:2:0:0:
172,192,98653,2,0,L|124:240,2,68.0000012969971,0|0|0,2:2|2:2|2:2,2:2:0:0:
256,84,98983,5,0,2:2:0:0:
239,219,99148,1,0,2:2:0:0:
145,318,99313,1,0,2:2:0:0:
304,60,99477,5,0,2:2:0:0:
223,217,99642,1,0,2:2:0:0:
64,296,99807,1,0,2:2:0:0:
355,73,99972,5,0,2:2:0:0:
212,205,100137,1,0,2:2:0:0:
18,227,100302,1,0,2:2:0:0:
92,68,100631,6,0,B|236:68|288:16|288:16|336:64|404:64,1,272.000005187988,0|0,2:2|2:2,2:2:0:0:
217,109,101126,1,0,2:2:0:0:
101,261,101291,1,0,2:2:0:0:
133,263,101373,1,0,2:2:0:0:
167,263,101455,1,0,2:2:0:0:
284,336,101620,2,0,B|344:336|376:368|376:368|408:336|456:336,1,136.000002593994,0|0,2:2|2:2,2:2:0:0:
364,216,101950,5,0,2:2:0:0:
256,132,102115,1,0,2:2:0:0:
208,260,102280,2,0,L|256:212,2,68.0000012969971,0|0|0,2:2|2:2|2:2,2:2:0:0:
344,268,102609,6,0,B|308:236|308:163|308:163|257:163|171:77,1,272.000005187988,0|0,2:2|2:2,2:2:0:0:
96,192,103104,1,0,2:2:0:0:
94,224,103186,1,0,2:2:0:0:
94,258,103269,5,0,2:2:0:0:
200,344,103433,2,0,B|270:273|320:273|320:273|321:199|381:140,1,272.000005187988,0|0,2:2|2:2,2:2:0:0:
256,76,103928,2,0,L|304:28,2,68.0000012969971,0|0|0,2:2|2:2|2:2,2:2:0:0:
352,176,104258,1,0,2:2:0:0:
256,308,104422,1,0,2:2:0:0:
384,352,104587,5,0,2:2:0:0:
412,340,104670,1,0,2:2:0:0:
432,320,104752,1,0,2:2:0:0:
448,296,104835,1,0,2:2:0:0:
456,268,104917,1,0,2:2:0:0:
460,240,104999,1,0,2:2:0:0:
460,208,105082,1,0,2:2:0:0:
452,180,105164,1,0,2:2:0:0:
412,120,105247,5,0,2:2:0:0:
284,56,105412,1,0,2:2:0:0:
196,172,105576,2,0,P|244:220|316:220,1,120.000004577637,0|0,2:2|2:2,2:2:0:0:
459,220,105906,6,0,B|357:118|357:44|357:44|289:44|241:-3,1,272.000005187988,0|0,2:2|2:2,2:2:0:0:
342,160,106401,1,0,2:2:0:0:
316,350,106565,1,0,2:2:0:0:
292,329,106648,1,0,2:2:0:0:
268,305,106730,1,0,2:2:0:0:
134,274,106895,2,0,B|91:231|46:231|46:231|46:186|12:152,1,136.000002593994,0|0,2:2|2:2,2:2:0:0:
162,132,107225,5,0,2:2:0:0:
298,149,107390,1,0,2:2:0:0:
236,220,107554,2,0,L|236:288,2,68.0000012969971,0|0|0,2:2|2:2|2:2,2:2:0:0:
140,183,107884,6,0,B|187:186|239:134|239:134|275:170|397:170,1,272.000005187988,0|0,2:2|2:2,2:2:0:0:
288,264,108379,1,0,2:2:0:0:
284,268,108461,1,0,2:2:0:0:
280,272,108543,5,0,2:2:0:0:
168,192,108708,2,0,P|168:96|200:64,1,136.000002593994,0|0,2:2|2:2,2:2:0:0:
324,32,109038,1,0,2:2:0:0:
428,120,109203,2,0,P|462:176|451:242,1,136.000002593994,0|0,2:2|2:2,2:2:0:0:
372,352,109532,2,0,P|337:295|348:229,1,136.000002593994,0|0,2:2|2:2,2:2:0:0:
428,120,109862,5,0,2:2:0:0:
236,192,110027,1,0,2:2:0:0:
428,256,110192,1,0,2:2:0:0:
236,320,110357,1,0,2:2:0:0:
428,256,110521,5,0,2:2:0:0:
334,6,110686,1,0,2:2:0:0:
251,256,110851,1,0,2:2:0:0:
168,6,111016,1,0,2:2:0:0:
256,72,111181,5,0,2:2:0:0:
332,144,111346,1,0,2:2:0:0:
332,248,111510,1,0,2:2:0:0:
256,320,111675,1,0,2:2:0:0:
224,220,111840,2,0,P|224:160|124:204,1,207.999990478516,0|0,2:2|2:2,2:2:0:0:
184,276,112335,5,0,2:2:0:0:
256,348,112499,1,0,2:2:0:0:
360,348,112664,1,0,2:2:0:0:
440,280,112829,1,0,2:2:0:0:
492,192,112994,1,0,2:2:0:0:
388,192,113159,2,0,B|364:227|268:131|268:131|220:227|96:188,1,311.999985717774,0|0,2:2|2:2,2:2:0:0:
132,52,113818,6,0,B|172:92|172:120|172:120|196:120|232:156,1,143.999995605469,0|0,2:2|2:2,2:2:0:0:
228,4,114148,1,0,2:2:0:0:
132,112,114313,6,0,B|172:152|172:180|172:180|196:180|232:216,1,143.999995605469,0|0,2:2|2:2,2:2:0:0:
228,68,114642,1,0,2:2:0:0:
132,176,114807,2,0,B|172:216|172:244|172:244|196:244|232:280,1,143.999995605469,0|0,2:2|2:2,2:2:0:0:
228,128,115137,5,0,2:2:0:0:
232,132,115219,1,0,2:2:0:0:
236,136,115302,1,0,2:2:0:0:
240,140,115384,1,0,2:2:0:0:
244,144,115466,1,0,2:2:0:0:
248,148,115549,1,0,2:2:0:0:
252,152,115631,1,0,2:2:0:0:
256,156,115714,1,0,2:2:0:0:
296,208,115796,6,0,P|369:208|236:75,1,431.999986816407,0|0,2:2|2:2,2:2:0:0:
172,124,116455,6,0,P|172:188|228:244,1,120.000004577637,0|0,2:2|2:2,2:2:0:0:
272,308,116785,1,0,2:2:0:0:
368,236,116950,2,0,P|368:176|328:136,1,120.000004577637,0|0,2:2|2:2,2:2:0:0:
208,108,117280,2,0,P|152:164|204:216,1,120.000004577637,0|0,2:2|2:2,2:2:0:0:
272,240,117609,1,0,2:2:0:0:
424,258,117774,6,0,P|424:168|320:64,1,240.000009155274,0|0,2:2|2:2,2:2:0:0:
220,124,118269,1,0,2:2:0:0:
156,224,118433,1,0,2:2:0:0:
256,288,118598,2,0,P|312:291|341:241,1,120.000004577637,0|0,2:2|2:2,2:2:0:0:
288,132,118928,1,0,2:2:0:0:
208,224,119093,6,0,P|208:297|287:297,1,120.000004577637,0|0,2:2|2:2,2:2:0:0:
363,311,119422,1,0,2:2:0:0:
380,192,119587,2,0,P|337:149|281:149,1,120.000004577637,0|0,2:2|2:2,2:2:0:0:
176,215,119917,2,0,P|176:294|249:294,1,120.000004577637,0|0,2:2|2:2,2:2:0:0:
315,263,120247,1,0,2:2:0:0:
435,168,120412,6,0,P|371:104|224:104,1,240.000009155274,0|0,2:2|2:2,2:2:0:0:
196,218,120906,1,0,2:2:0:0:
222,335,121071,1,0,2:2:0:0:
338,308,121236,2,0,P|380:270|365:215,1,120.000004577637,0|0,2:2|2:2,2:2:0:0:
250,175,121565,1,0,2:2:0:0:
188,72,121730,5,0,2:2:0:0:
300,32,121895,2,0,L|400:132,1,120.000004577637,0|0,2:2|2:2,2:2:0:0:
300,32,122225,1,0,2:2:0:0:
300,152,122390,2,0,L|215:236,1,120.000004577637,0|0,2:2|2:2,2:2:0:0:
296,328,122719,2,0,L|380:243,1,120.000004577637,0|0,2:2|2:2,2:2:0:0:
296,328,123049,5,0,2:2:0:0:
388,252,123214,2,0,L|288:152,1,120.000004577637,0|0,2:2|2:2,2:2:0:0:
388,252,123543,1,0,2:2:0:0:
268,252,123708,2,0,L|183:336,1,120.000004577637,0|0,2:2|2:2,2:2:0:0:
92,256,124038,2,0,L|176:171,1,120.000004577637,0|0,2:2|2:2,2:2:0:0:
288,120,124368,6,0,P|335:151|327:208,1,120.000004577637,0|0,2:2|2:2,2:2:0:0:
239,291,124697,1,0,2:2:0:0:
143,219,124862,2,0,P|142:160|183:118,1,120.000004577637,0|0,2:2|2:2,2:2:0:0:
296,160,125192,1,0,2:2:0:0:
92,312,125357,6,0,B|32:252|32:168,1,120.000004577637,0|0,2:2|2:2,2:2:0:0:
92,100,125686,5,0,2:2:0:0:
96,96,125769,1,0,2:2:0:0:
100,92,125851,2,0,P|140:52|208:52,1,120.000004577637,0|0,2:2|2:2,2:2:0:0:
256,156,126181,5,0,2:2:0:0:
252,160,126263,1,0,2:2:0:0:
248,164,126346,1,0,2:2:0:0:
244,168,126428,1,0,2:2:0:0:
240,172,126510,1,0,2:2:0:0:
236,176,126593,1,0,2:2:0:0:
232,180,126675,1,0,2:2:0:0:
228,184,126758,2,0,L|176:236,2,60.0000022888184,0|0|0,2:2|2:2|2:2,2:2:0:0:
256,322,127005,6,0,P|329:322|329:242,1,128,0|0,2:2|2:2,2:2:0:0:
343,166,127335,1,0,2:2:0:0:
224,149,127499,2,0,P|181:191|180:260,1,128,0|0,2:2|2:2,2:2:0:0:
247,353,127829,2,0,P|326:353|328:272,1,128,0|0,2:2|2:2,2:2:0:0:
295,214,128159,1,0,2:2:0:0:
200,94,128324,6,0,P|136:157|136:324,1,256,0|0,2:2|2:2,2:2:0:0:
250,333,128818,1,0,2:2:0:0:
366,307,128983,1,0,2:2:0:0:
340,191,129148,2,0,P|302:148|240:168,1,128,0|0,2:2|2:2,2:2:0:0:
207,279,129477,1,0,2:2:0:0:
329,271,129642,6,0,P|381:219|324:160,1,128,0|0,2:2|2:2,2:2:0:0:
281,99,129972,1,0,2:2:0:0:
185,172,130137,2,0,P|184:232|232:280,1,128,0|0,2:2|2:2,2:2:0:0:
345,300,130466,2,0,P|401:244|344:188,1,128,0|0,2:2|2:2,2:2:0:0:
281,167,130796,1,0,2:2:0:0:
129,150,130961,6,0,P|128:240|244:352,1,256,0|0,2:2|2:2,2:2:0:0:
333,283,131455,1,0,2:2:0:0:
398,182,131620,1,0,2:2:0:0:
297,119,131785,2,0,P|240:115|208:172,1,128,0|0,2:2|2:2,2:2:0:0:
265,276,132115,1,0,2:2:0:0:
256,148,132280,5,0,2:2:0:0:
360,224,132444,1,0,2:2:0:0:
332,100,132609,1,0,2:2:0:0:
256,204,132774,5,0,2:2:0:0:
281,369,132939,1,0,2:2:0:0:
369,229,133104,1,0,2:2:0:0:
256,164,133269,5,0,2:2:0:0:
53,195,133433,1,0,2:2:0:0:
225,304,133598,1,0,2:2:0:0:
288,192,133763,5,0,2:2:0:0:
50,244,133928,1,0,2:2:0:0:
195,45,134093,1,0,2:2:0:0:
104,136,134258,1,0,2:2:0:0:
342,84,134422,1,0,2:2:0:0:
200,288,134587,6,0,P|244:332|244:296,1,128,0|0,2:2|2:2,2:2:0:0:
256,192,134917,5,0,2:2:0:0:
416,64,135082,1,0,2:2:0:0:
304,236,135247,1,0,2:2:0:0:
464,108,135412,1,0,2:2:0:0:
256,108,135576,5,0,2:2:0:0:
96,235,135741,1,0,2:2:0:0:
208,64,135906,1,0,2:2:0:0:
48,191,136071,1,0,2:2:0:0:
256,192,136236,6,0,P|193:192|219:217,1,128,0|0,2:2|2:2,2:2:0:0:
256,324,136565,1,0,2:2:0:0:
364,252,136730,1,0,2:2:0:0:
368,248,136813,1,0,2:2:0:0:
372,244,136895,1,0,2:2:0:0:
256,296,137060,5,0,2:2:0:0:
120,224,137225,5,0,2:2:0:0:
124,32,137390,5,0,2:2:0:0:
260,152,137554,6,0,B|260:155|260:47|248:79|248:99|304:127|388:179|460:179|504:139|504:139|452:187|436:231|432:251|432:251|424:279|428:323|476:331|516:319|528:275|512:235|480:223|456:235|432:251|432:251|412:267|368:259|368:259|372:299|356:343|300:363|240:351|220:311|228:267|256:235|280:235|304:271|304:272,1,1024,6|0,2:2|2:2,2:2:0:0:
172,188,140521,6,0,L|58:129,2,128,0|0|0,2:2|2:2|2:2,2:2:0:0:
256,92,141510,1,0,2:2:0:0:
364,160,141840,6,0,L|485:120,2,128,0|0|0,2:2|2:2|2:2,2:2:0:0:
236,176,142829,6,0,B|225:189|177:237|229:265|257:301|229:365|177:369|129:365|121:313|121:313|117:269|153:237|205:253|205:253|225:273|225:273|273:289|293:259,2,512,6|0|0,2:2|2:2|2:2,2:2:0:0:
356,224,145796,6,0,L|469:281,2,128,0|0|0,2:2|2:2|2:2,2:2:0:0:
256,304,146785,1,0,2:2:0:0:
156,224,147115,6,0,L|181:348,2,128,0|0|0,2:2|2:2|2:2,2:2:0:0:
224,116,148104,6,0,B|312:116|357:133|357:133|406:154|469:137|477:62|427:12|365:21|332:46|344:100|357:133|357:133|376:164|384:203|384:203|376:244|357:274|357:274|344:307|332:361|365:386|427:395|477:345|469:270|406:253|357:274|357:274|312:292|220:292,1,1024,0|0,2:2|2:2,2:2:0:0:
120,216,151071,6,0,L|112:88,2,128,0|0|0,2:2|2:2|2:2,2:2:0:0:
120,216,152060,1,0,2:2:0:0:
244,188,152390,6,0,L|236:315,2,128,0|0|0,2:2|2:2|2:2,2:2:0:0:
120,164,153379,6,0,B|122:161|45:238|59:207|74:192|133:212|229:235|280:286|283:345|283:345|280:275|300:232|311:215|311:215|325:190|359:161|399:190|419:226|396:266|356:283|325:269|317:243|311:215|311:215|308:190|272:164|272:164|303:139|322:96|297:43|246:9|204:23|178:60|175:102|192:119|232:108,1,1024,6|0,2:2|2:2,2:2:0:0:
256,192,156098,12,0,157664,2:2:0:0:
436,224,158653,6,0,B|364:296|364:296|292:224|244:272,1,240.000009155274,0|0,2:2|2:2,2:2:0:0:
156,352,159148,1,0,2:2:0:0:
92,252,159313,2,0,P|140:204|168:232,1,120.000004577637,0|0,2:2|2:2,2:2:0:0:
256,308,159642,2,0,L|256:176,1,120.000004577637,0|0,2:2|2:2,2:2:0:0:
328,92,159972,6,0,B|328:168|368:208|368:208|368:328,1,240.000009155274,0|0,2:2|2:2,2:2:0:0:
256,280,160466,1,0,2:2:0:0:
176,192,160631,1,0,2:2:0:0:
292,156,160796,2,0,L|336:112,2,60.0000022888184,0|0|0,2:2|2:2|2:2,2:2:0:0:
376,68,161126,1,0,2:2:0:0:
328,216,161291,6,0,P|476:200|340:288,1,420.000016021729,0|0,2:2|2:2,2:2:0:0:
404,240,161950,5,0,2:2:0:0:
200,116,162280,2,0,B|172:144|216:188|216:208|176:248,1,120.000004577637,0|0,2:2|2:2,2:2:0:0:
96,160,162609,2,0,B|242:205|290:109|290:109|386:205|440:152,1,360.000013732911,0|0,2:2|2:2,2:2:0:0:
300,220,163269,1,0,2:2:0:0:
208,296,163433,2,0,B|261:349|261:349|335:349,1,120.000004577637,0|0,2:2|2:2,2:2:0:0:
416,304,163763,1,0,2:2:0:0:
464,192,163928,2,0,B|410:138|410:138|336:138,1,120.000004577637,0|0,2:2|2:2,2:2:0:0:
260,192,164258,6,0,L|168:284,1,120.000004577637,0|0,2:2|2:2,2:2:0:0:
256,96,164587,2,0,L|340:180,1,120.000004577637,0|0,2:2|2:2,2:2:0:0:
212,48,164917,6,0,L|124:136,1,120.000004577637,0|0,2:2|2:2,2:2:0:0:
212,140,165247,2,0,L|296:224,1,120.000004577637,0|0,2:2|2:2,2:2:0:0:
388,56,165576,2,0,L|296:148,1,120.000004577637,0|0,2:2|2:2,2:2:0:0:
384,148,165906,6,0,L|468:232,1,120.000004577637,0|0,2:2|2:2,2:2:0:0:
388,324,166236,2,0,B|344:325|344:325|290:271,1,120.000004577637,0|0,2:2|2:2,2:2:0:0:
344,164,166565,6,0,B|374:133|374:133|374:57,1,120.000004577637,0|0,2:2|2:2,2:2:0:0:
256,16,166895,1,0,2:2:0:0:
144,156,167060,1,0,2:2:0:0:
320,112,167225,1,0,2:2:0:0:
88,48,167390,1,0,2:2:0:0:
256,112,167554,2,0,L|320:176,2,60.0000022888184,0|0|0,2:2|2:2|2:2,2:2:0:0:
432,276,167884,1,0,2:2:0:0:
232,144,168873,6,0,B|232:312,1,160,0|0,2:2|2:2,2:2:0:0:
368,112,169203,2,0,B|268:112|232:148|232:148|180:96|100:96,1,256,0|0,2:2|2:2,2:2:0:0:
288,208,169697,1,0,2:2:0:0:
432,96,169862,2,0,B|404:124|404:184|404:184|464:244|464:244|388:320,1,256,0|0,2:2|2:2,2:2:0:0:
256,192,170357,1,0,2:2:0:0:
444,168,170521,5,0,2:2:0:0:
292,52,170686,1,0,2:2:0:0:
290,84,170769,1,0,2:2:0:0:
290,118,170851,1,0,2:2:0:0:
116,36,171016,2,0,B|116:135|80:171|80:171|132:224|132:304,1,256,0|0,2:2|2:2,2:2:0:0:
256,128,171510,1,0,2:2:0:0:
424,220,171675,2,0,L|472:268,2,68.0000012969971,0|0|0,2:2|2:2|2:2,2:2:0:0:
288,340,172005,6,0,B|285:293|337:241|337:241|301:205|301:105,1,256,0|0,2:2|2:2,2:2:0:0:
396,240,172499,1,0,2:2:0:0:
204,240,172664,1,0,2:2:0:0:
256,56,172829,2,0,P|316:116|328:156,1,128,0|0,2:2|2:2,2:2:0:0:
148,228,173159,5,0,2:2:0:0:
256,72,173324,1,0,2:2:0:0:
256,264,173488,1,0,2:2:0:0:
120,128,173653,5,0,2:2:0:0:
400,77,173818,1,0,2:2:0:0:
196,280,173983,1,0,2:2:0:0:
202,29,174148,5,0,2:2:0:0:
256,212,174313,1,0,2:2:0:0:
148,192,174477,5,0,2:2:0:0:
176,228,174560,1,0,2:2:0:0:
208,260,174642,1,0,2:2:0:0:
244,284,174725,1,0,2:2:0:0:
288,296,174807,1,0,2:2:0:0:
332,296,174890,1,0,2:2:0:0:
376,288,174972,1,0,2:2:0:0:
416,268,175054,1,0,2:2:0:0:
444,232,175137,5,0,2:2:0:0:
452,188,175219,1,0,2:2:0:0:
452,144,175302,1,0,2:2:0:0:
428,108,175384,1,0,2:2:0:0:
396,80,175466,1,0,2:2:0:0:
352,64,175549,1,0,2:2:0:0:
308,60,175631,1,0,2:2:0:0:
264,72,175714,1,0,2:2:0:0:
232,104,175796,6,0,L|192:144,3,51.999997619629,0|0|0|0,2:2|2:2|2:2|2:2,2:2:0:0:
248,172,176126,6,0,L|288:212,3,51.999997619629,0|0|0|0,2:2|2:2|2:2|2:2,2:2:0:0:
232,240,176455,6,0,L|188:284,3,51.999997619629,0|0|0|0,2:2|2:2|2:2|2:2,2:2:0:0:
96,244,176785,6,0,L|96:332,3,51.999997619629,0|0|0|0,2:2|2:2|2:2|2:2,2:2:0:0:
128,340,177115,5,0,2:2:0:0:
172,356,177197,1,0,2:2:0:0:
216,356,177280,1,0,2:2:0:0:
260,348,177362,1,0,2:2:0:0:
300,328,177444,1,0,2:2:0:0:
328,292,177527,1,0,2:2:0:0:
340,248,177609,1,0,2:2:0:0:
332,204,177692,1,0,2:2:0:0:
300,172,177774,5,0,2:2:0:0:
260,152,177857,1,0,2:2:0:0:
216,144,177939,1,0,2:2:0:0:
180,120,178021,1,0,2:2:0:0:
168,76,178104,1,0,2:2:0:0:
184,36,178186,1,0,2:2:0:0:
224,12,178269,1,0,2:2:0:0:
268,8,178351,1,0,2:2:0:0:
312,20,178433,5,0,2:2:0:0:
352,44,178516,1,0,2:2:0:0:
376,80,178598,1,0,2:2:0:0:
384,124,178681,1,0,2:2:0:0:
364,164,178763,1,0,2:2:0:0:
332,196,178846,1,0,2:2:0:0:
292,220,178928,1,0,2:2:0:0:
248,232,179010,1,0,2:2:0:0:
204,212,179093,2,0,P|140:148|200:256,1,448,0|0,2:2|2:2,2:2:0:0:
124,228,179752,5,0,2:2:0:0:
196,136,179917,2,0,B|196:192|229:226|208:248,1,95.9999970703126,0|0,2:2|2:2,2:2:0:0:
256,116,180247,1,0,2:2:0:0:
328,220,180412,2,0,P|360:280|364:244,1,191.999994140625,0|0,2:2|2:2,2:2:0:0:
256,184,180906,1,0,2:2:0:0:
152,116,181071,5,0,2:2:0:0:
52,192,181236,2,0,B|74:214|97:259|97:259|119:259|220:336,1,191.999994140625,0|0,2:2|2:2,2:2:0:0:
308,276,181730,1,0,2:2:0:0:
188,316,181895,1,0,2:2:0:0:
256,188,182060,2,0,P|220:152|220:192,1,95.9999970703126,0|0,2:2|2:2,2:2:0:0:
256,32,182390,5,0,2:2:0:0:
344,120,182554,2,0,B|344:176|310:210|332:232,1,95.9999970703126,0|0,2:2|2:2,2:2:0:0:
344,88,182884,1,0,2:2:0:0:
416,192,183049,2,0,P|384:252|380:216,1,191.999994140625,0|0,2:2|2:2,2:2:0:0:
256,196,183543,1,0,2:2:0:0:
224,56,183708,5,0,2:2:0:0:
256,196,183873,5,0,2:2:0:0:
230,227,183955,1,0,2:2:0:0:
205,258,184038,1,0,2:2:0:0:
76,320,184203,5,0,2:2:0:0:
65,281,184285,1,0,2:2:0:0:
54,242,184368,1,0,2:2:0:0:
44,207,184450,1,0,2:2:0:0:
33,169,184532,1,0,2:2:0:0:
22,130,184615,1,0,2:2:0:0:
108,36,184697,2,0,P|148:76|148:148,1,95.9999970703126,0|0,2:2|2:2,2:2:0:0:
224,228,185027,5,0,2:2:0:0:
296,320,185192,2,0,B|296:263|329:229|308:207,1,95.9999970703126,0|0,2:2|2:2,2:2:0:0:
356,340,185521,1,0,2:2:0:0:
428,236,185686,2,0,P|460:176|464:212,1,191.999994140625,0|0,2:2|2:2,2:2:0:0:
356,272,186181,1,0,2:2:0:0:
288,144,186346,5,0,2:2:0:0:
380,176,186510,2,0,B|357:198|334:243|334:243|312:243|212:320,1,191.999994140625,0|0,2:2|2:2,2:2:0:0:
124,260,187005,1,0,2:2:0:0:
244,300,187170,1,0,2:2:0:0:
100,324,187335,2,0,P|110:363|145:341,1,95.9999970703126,0|0,2:2|2:2,2:2:0:0:
184,200,187664,5,0,2:2:0:0:
308,200,187829,2,0,B|347:160|348:112|378:112,1,95.9999970703126,0|0,2:2|2:2,2:2:0:0:
224,168,188159,1,0,2:2:0:0:
340,252,188324,2,0,P|359:186|331:209,1,191.999994140625,0|0,2:2|2:2,2:2:0:0:
256,328,188818,1,0,2:2:0:0:
156,224,188983,5,0,2:2:0:0:
148,188,189065,1,0,2:2:0:0:
156,148,189148,1,0,2:2:0:0:
188,124,189230,1,0,2:2:0:0:
228,120,189313,1,0,2:2:0:0:
260,136,189395,1,0,2:2:0:0:
280,168,189477,1,0,2:2:0:0:
308,196,189560,1,0,2:2:0:0:
344,204,189642,5,0,2:2:0:0:
380,196,189725,1,0,2:2:0:0:
412,176,189807,1,0,2:2:0:0:
428,140,189890,1,0,2:2:0:0:
436,104,189972,1,0,2:2:0:0:
424,68,190054,1,0,2:2:0:0:
400,40,190137,1,0,2:2:0:0:
364,24,190219,1,0,2:2:0:0:
280,84,190302,6,0,L|280:160,2,68.0000012969971,0|0|0,2:2|2:2|2:2,2:2:0:0:
112,260,190631,1,0,2:2:0:0:
356,228,190796,1,0,2:2:0:0:
112,192,190961,1,0,2:2:0:0:
300,36,191126,1,0,2:2:0:0:
256,276,191291,1,0,2:2:0:0:
468,160,191455,1,0,2:2:0:0:
228,100,191620,5,0,2:2:0:0:
440,224,191785,1,0,2:2:0:0:
188,192,191950,1,0,2:2:0:0:
148,156,192032,1,0,2:2:0:0:
112,116,192115,1,0,2:2:0:0:
284,292,192280,1,0,2:2:0:0:
492,168,192444,1,0,2:2:0:0:
284,40,192609,1,0,2:2:0:0:
256,284,192774,1,0,2:2:0:0:
44,160,192939,5,0,2:2:0:0:
256,284,193104,1,0,2:2:0:0:
256,40,193269,1,0,2:2:0:0:
84,212,193433,1,0,2:2:0:0:
296,336,193598,1,0,2:2:0:0:
304,92,193763,1,0,2:2:0:0:
64,44,193928,1,0,2:2:0:0:
256,192,194093,1,0,2:2:0:0:
416,144,194258,5,0,2:2:0:0:
438,121,194340,1,0,2:2:0:0:
461,98,194422,1,0,2:2:0:0:
284,112,194587,5,0,2:2:0:0:
292,142,194670,1,0,2:2:0:0:
300,173,194752,1,0,2:2:0:0:
309,208,194835,1,0,2:2:0:0:
318,239,194917,1,0,2:2:0:0:
327,274,194999,1,0,2:2:0:0:
336,309,195082,2,0,L|408:352,2,51.999997619629,0|0|0,2:2|2:2|2:2,2:2:0:0:
128,192,195412,1,0,2:2:0:0:
400,192,195576,5,0,2:2:0:0:
164,56,195741,1,0,2:2:0:0:
436,56,195906,1,0,2:2:0:0:
252,256,196071,1,0,2:2:0:0:
68,56,196236,1,0,2:2:0:0:
72,328,196401,1,0,2:2:0:0:
256,128,196565,1,0,2:2:0:0:
452,320,196730,1,0,2:2:0:0:
448,48,196895,5,0,2:2:0:0:
256,244,197060,1,0,2:2:0:0:
448,52,197225,1,0,2:2:0:0:
452,320,197390,1,0,2:2:0:0:
180,324,197554,1,0,2:2:0:0:
420,192,197719,1,0,2:2:0:0:
180,324,197884,1,0,2:2:0:0:
256,64,198049,1,0,2:2:0:0:
168,192,198214,5,0,2:2:0:0:
148,244,198296,1,0,2:2:0:0:
152,300,198379,1,0,2:2:0:0:
188,340,198461,1,0,2:2:0:0:
240,352,198543,1,0,2:2:0:0:
296,348,198626,1,0,2:2:0:0:
344,324,198708,1,0,2:2:0:0:
380,284,198791,1,0,2:2:0:0:
392,232,198873,6,0,L|348:188,2,47.9999985351563,0|0|0,2:2|2:2|2:2,2:2:0:0:
444,212,199120,5,0,2:2:0:0:
484,248,199203,1,0,2:2:0:0:
496,300,199285,1,0,2:2:0:0:
472,348,199368,1,0,2:2:0:0:
424,372,199450,1,0,2:2:0:0:
372,352,199532,6,0,L|320:300,2,51.999997619629,0|0|0,2:2|2:2|2:2,2:2:0:0:
216,256,199780,6,0,L|160:200,1,75.9999979705811,0|0,2:2|2:2,2:2:0:0:
220,136,199944,6,0,L|273:82,1,75.9999979705811,0|0,2:2|2:2,2:2:0:0:
332,168,200109,6,0,L|388:224,1,75.9999979705811,0|0,2:2|2:2,2:2:0:0:
328,288,200274,6,0,L|274:341,1,75.9999979705811,0|0,2:2|2:2,2:2:0:0:
195,271,200439,6,0,L|116:193,1,75.9999979705811,0|0,2:2|2:2,2:2:0:0:
200,104,200604,6,0,L|252:52,2,51.999997619629,0|0|0,2:2|2:2|2:2,2:2:0:0:
340,240,200851,6,0,P|488:224|352:312,1,400,0|0,2:2|2:2,2:2:0:0:
416,264,201346,5,0,2:2:0:0:
416,264,201428,1,0,2:2:0:0:
416,264,201510,1,0,2:2:0:0:
