osu file format v14

[General]
AudioFilename: audio.mp3
AudioLeadIn: 2000
PreviewTime: 43674
Countdown: 0
SampleSet: None
StackLeniency: 0.6
Mode: 2
LetterboxInBreaks: 0
WidescreenStoryboard: 1

[Editor]
DistanceSpacing: 1.2
BeatDivisor: 16
GridSize: 16
TimelineZoom: 4.400003

[Metadata]
Title:AiAe
TitleUnicode:AiAe
Artist:Yuyoyuppe
ArtistUnicode:ゆよゆっぺ
Creator:Pltilt
Version:COMBOISEZ
Source:
Tags:YUYOYU EP DJ'TEKINA//SOMETHING Vocaloid Hardcore Dubstep Drumstep
BeatmapID:1737110
BeatmapSetID:829124

[Difficulty]
HPDrainRate:0
CircleSize:4
OverallDifficulty:3
ApproachRate:9.7
SliderMultiplier:1.8
SliderTickRate:1

[Events]
//Background and Video events
0,0,"bg.png",0,0
//Break Periods
//Storyboard Layer 0 (Background)
//Storyboard Layer 1 (Fail)
//Storyboard Layer 2 (Pass)
//Storyboard Layer 3 (Foreground)
//Storyboard Sound Samples

[TimingPoints]
674,333.333333333333,4,1,1,8,1,0
1008,333.333333333333,4,1,1,80,1,0
22007,166.666666666667,4,1,1,80,1,0
22341,333.333333333333,4,2,0,60,1,0
22341,-100,4,2,0,60,0,0
22674,-133.333333333333,4,2,0,60,0,0
27341,-100,4,1,1,100,0,0
27674,-133.333333333333,4,2,0,60,0,0
30007,-100,4,1,1,100,0,0
30341,-133.333333333333,4,2,0,60,0,0
31674,-133.333333333333,4,2,0,80,0,0
32507,-133.333333333333,4,1,1,80,0,0
32591,-133.333333333333,4,1,1,85,0,0
32674,-133.333333333333,4,1,1,90,0,0
33007,-133.333333333333,4,1,1,70,0,0
38341,-100,4,1,1,85,0,0
41674,-100,4,1,1,90,0,0
42007,-100,4,1,1,100,0,0
42341,-100,4,1,1,5,0,0
43341,-100,4,1,1,100,0,0
43674,-100,4,1,1,100,0,0
65007,-100,4,1,1,100,0,0
86341,-100,4,1,1,90,0,0
106007,-50,4,1,1,100,0,0
106341,-100,4,1,1,60,0,0
107674,-100,4,1,1,100,0,1
108007,-71.4285714285714,4,1,1,100,0,1
108341,-100,4,1,1,100,0,1
109341,-71.4285714285714,4,1,1,100,0,1
109674,-100,4,1,1,100,0,1
110007,-71.4285714285714,4,1,1,100,0,1
110341,-100,4,1,1,100,0,1
112674,-71.4285714285714,4,1,1,100,0,1
113007,-100,4,1,1,100,0,1
113341,-71.4285714285714,4,1,1,100,0,1
113674,-100,4,1,1,100,0,1
114674,-71.4285714285714,4,1,1,100,0,1
115007,-100,4,1,1,100,0,1
115341,-71.4285714285714,4,1,1,100,0,1
115674,-100,4,1,1,100,0,1
118674,-71.4285714285714,4,1,1,100,0,1
119007,-100,4,1,1,100,0,1
120007,-71.4285714285714,4,1,1,100,0,1
120341,-100,4,1,1,100,0,1
120674,-71.4285714285714,4,1,1,100,0,1
121007,-100,4,1,1,100,0,1
122674,-71.4285714285714,4,1,1,100,0,1
123007,-100,4,1,1,100,0,1
124007,-71.4285714285714,4,1,1,100,0,1
124341,-100,4,1,1,100,0,1
125341,-71.4285714285714,4,1,1,100,0,1
125674,-100,4,1,1,100,0,1
129007,-100,4,1,1,90,0,0
149841,-50,4,1,1,100,0,0
150007,-100,4,1,1,90,0,0
150174,-50,4,1,1,100,0,0
150341,-133.333333333333,4,2,0,60,0,0
155216,-133.333333333333,4,2,0,5,0,0
155341,-100,4,1,1,80,0,0
155674,-100,4,1,1,60,0,0
171674,-100,4,1,1,100,0,1
193007,-100,4,1,1,80,0,0
214341,-100,4,1,1,60,0,0

[Colours]
Combo1 : 255,0,128
Combo2 : 0,128,192
Combo3 : 0,128,255
Combo4 : 0,64,128
Combo5 : 0,255,255
Combo6 : 254,197,197
Combo7 : 255,170,213
Combo8 : 250,20,44

[HitObjects]
256,192,674,6,0,L|256:176,1,11.25
256,192,674,6,0,L|272:192,1,11.25
256,192,674,6,0,L|240:192,1,11.25
256,192,674,6,0,L|256:208,1,11.25
256,192,674,6,0,L|272:184,1,11.25
256,192,674,6,0,L|272:200,1,11.25
256,192,674,6,0,L|240:200,1,11.25
256,192,674,6,0,L|248:184,1,11.25
256,192,715,6,0,L|272:200,1,11.25
256,192,715,6,0,L|272:184,1,11.25
256,192,715,6,0,L|248:184,1,11.25
256,192,715,6,0,L|240:200,1,11.25
256,192,715,6,0,L|272:192,1,11.25
256,192,715,6,0,L|256:176,1,11.25
256,192,715,6,0,L|256:208,1,11.25
256,192,715,6,0,L|240:192,1,11.25
256,192,757,6,0,L|256:176,1,11.25
256,192,757,6,0,L|272:192,1,11.25
256,192,757,6,0,L|240:192,1,11.25
256,192,757,6,0,L|256:208,1,11.25
256,192,757,6,0,L|272:184,1,11.25
256,192,757,6,0,L|272:200,1,11.25
256,192,757,6,0,L|240:200,1,11.25
256,192,757,6,0,L|248:184,1,11.25
256,192,799,6,0,L|272:200,1,11.25
256,192,799,6,0,L|272:184,1,11.25
256,192,799,6,0,L|248:184,1,11.25
256,192,799,6,0,L|240:200,1,11.25
256,192,799,6,0,L|272:192,1,11.25
256,192,799,6,0,L|256:176,1,11.25
256,192,799,6,0,L|256:208,1,11.25
256,192,799,6,0,L|240:192,1,11.25
256,192,840,6,0,L|256:176,1,11.25
256,192,840,6,0,L|272:192,1,11.25
256,192,840,6,0,L|240:192,1,11.25
256,192,840,6,0,L|256:208,1,11.25
256,192,840,6,0,L|272:184,1,11.25
256,192,840,6,0,L|272:200,1,11.25
256,192,840,6,0,L|240:200,1,11.25
256,192,840,6,0,L|248:184,1,11.25
256,192,882,6,0,L|272:200,1,11.25
256,192,882,6,0,L|272:184,1,11.25
256,192,882,6,0,L|248:184,1,11.25
256,192,882,6,0,L|240:200,1,11.25
256,192,882,6,0,L|272:192,1,11.25
256,192,882,6,0,L|256:176,1,11.25
256,192,882,6,0,L|256:208,1,11.25
256,192,882,6,0,L|240:192,1,11.25
256,192,924,6,0,L|256:176,1,11.25
256,192,924,6,0,L|272:192,1,11.25
256,192,924,6,0,L|240:192,1,11.25
256,192,924,6,0,L|256:208,1,11.25
256,192,924,6,0,L|272:184,1,11.25
256,192,924,6,0,L|272:200,1,11.25
256,192,924,6,0,L|240:200,1,11.25
256,192,924,6,0,L|248:184,1,11.25
256,192,965,6,0,L|272:200,1,11.25
256,192,965,6,0,L|272:184,1,11.25
256,192,965,6,0,L|248:184,1,11.25
256,192,965,6,0,L|240:200,1,11.25
256,192,965,6,0,L|272:192,1,11.25
256,192,965,6,0,L|256:176,1,11.25
256,192,965,6,0,L|256:208,1,11.25
256,192,965,6,0,L|240:192,1,11.25
256,136,1008,6,0,L|176:144,1,45,4|0,0:0|0:0,0:0:0:0:
384,96,1174,2,0,L|432:48,1,45
224,80,1341,2,0,L|144:80,1,45,8|0,0:0|0:0,0:0:0:0:
384,96,1507,2,0,L|432:64,1,45
208,112,1674,2,0,L|144:112,1,45
400,112,1841,2,0,L|448:64,1,45,2|0,0:0|0:0,0:0:0:0:
192,160,2007,2,0,L|112:160,1,45,8|0,0:0|0:0,0:0:0:0:
416,144,2174,2,0,L|464:96,1,45
176,224,2341,6,0,L|128:224,1,45,2|0,0:0|0:0,0:0:0:0:
432,224,2507,2,0,L|464:192,1,45
192,272,2674,2,0,L|128:288,1,45,8|0,0:0|0:0,0:0:0:0:
432,272,2841,2,0,L|448:192,1,45
224,320,3007,2,0,L|176:320,1,45
400,224,3174,2,0,L|416:160,1,45,2|0,0:0|0:0,0:0:0:0:
224,208,3341,2,0,L|176:208,1,45,8|0,0:0|0:0,0:0:0:0:
400,144,3507,2,0,L|400:80,1,45,0|8,0:0|0:0,0:0:0:0:
112,96,3674,5,2,0:0:0:0:
176,96,3757,5,0,0:0:0:0:
116,104,3841,5,0,0:0:0:0:
180,104,3924,5,0,0:0:0:0:
120,112,4007,5,8,0:0:0:0:
184,112,4090,5,0,0:0:0:0:
124,120,4174,5,0,0:0:0:0:
188,120,4257,5,0,0:0:0:0:
408,208,4341,5,0,0:0:0:0:
344,208,4424,5,0,0:0:0:0:
404,216,4508,5,2,0:0:0:0:
340,216,4591,5,0,0:0:0:0:
400,224,4674,5,8,0:0:0:0:
336,224,4757,5,0,0:0:0:0:
396,232,4841,5,0,0:0:0:0:
332,232,4924,5,0,0:0:0:0:
112,192,5007,6,0,L|112:112,1,45,2|0,0:0|0:0,0:0:0:0:
368,224,5174,2,0,L|416:192,1,45,0|2,0:0|0:0,0:0:0:0:
144,128,5341,2,0,L|128:112,7,22.5,8|0|0|0|2|0|0|0,0:0|0:0|0:0|0:0|0:0|0:0|0:0|0:0,0:0:0:0:
384,144,5674,6,0,L|384:128,14,11.25,0|0|0|0|0|0|0|0|2|0|0|0|0|0|0,0:0|0:0|0:0|0:0|0:0|0:0|0:0|0:0|0:0|0:0|0:0|0:0|0:0|0:0|0:0,0:0:0:0:
368,128,5987,1,0,0:0:0:0:
112,224,6007,6,0,L|96:224,2,11.25,8|0|0,0:0|0:0|0:0,0:0:0:0:
320,176,6091,6,0,L|336:176,2,11.25,8|0|0,0:0|0:0|0:0,0:0:0:0:
144,176,6174,6,0,L|128:176,2,11.25,8|0|0,0:0|0:0|0:0,0:0:0:0:
352,176,6258,6,0,L|368:176,2,11.25,8|0|0,0:0|0:0|0:0,0:0:0:0:
176,256,6341,6,0,L|128:192,1,45,6|0,0:0|0:0,0:0:0:0:
400,144,6507,2,0,L|400:80,1,45
160,144,6674,2,0,L|128:96,1,45,8|0,0:0|0:0,0:0:0:0:
432,80,6841,2,0,L|432:32,1,45
112,160,7007,2,0,L|32:160,1,45
400,176,7174,2,0,L|400:112,1,45,2|0,0:0|0:0,0:0:0:0:
80,240,7341,2,0,L|16:240,1,45,8|0,0:0|0:0,0:0:0:0:
352,240,7507,2,0,L|352:160,1,45
144,304,7674,6,0,L|80:304,1,45,2|0,0:0|0:0,0:0:0:0:
384,288,7841,2,0,L|384:240,1,45
160,224,8007,2,0,L|112:208,1,45,8|0,0:0|0:0,0:0:0:0:
384,192,8174,2,0,L|400:144,1,45
176,128,8341,2,0,L|112:128,1,45
416,96,8507,2,0,L|448:64,1,45,2|0,0:0|0:0,0:0:0:0:
128,80,8674,2,0,L|64:80,1,45,8|0,0:0|0:0,0:0:0:0:
432,112,8841,2,0,L|480:80,1,45
160,176,9007,6,0,L|80:176,1,45,2|0,0:0|0:0,0:0:0:0:
320,176,9174,2,0,L|368:176,1,45
192,240,9341,2,0,L|144:240,1,45,8|0,0:0|0:0,0:0:0:0:
336,240,9507,2,0,L|384:240,1,45
96,192,9674,6,0,L|96:144,1,45
304,192,9841,2,0,L|304:144,1,45,2|0,0:0|0:0,0:0:0:0:
192,96,10007,2,0,L|192:32,1,45,8|0,0:0|0:0,0:0:0:0:
448,128,10174,2,0,L|448:80,1,45
48,208,10341,6,0,L|48:160,1,45,2|0,0:0|0:0,0:0:0:0:
0,208,10507,6,0,L|32:208,1,22.5
160,192,10591,2,0,L|192:192,1,22.5,2|0,0:0|0:0,0:0:0:0:
336,192,10674,2,0,L|368:192,1,22.5,8|0,0:0|0:0,0:0:0:0:
512,128,10757,6,0,L|480:128,1,22.5
352,112,10841,2,0,L|320:112,1,22.5
192,192,10924,2,0,L|160:192,1,22.5
0,256,11007,6,0,L|16:256,1,11.25,2|0,0:0|0:0,0:0:0:0:
160,256,11049,2,0,L|176:256,1,11.25
336,192,11091,2,0,L|352:192,1,11.25,2|0,0:0|0:0,0:0:0:0:
496,192,11132,2,0,L|512:192,1,11.25
128,144,11174,6,0,L|112:144,2,11.25,10|0|0,0:0|0:0|0:0,0:0:0:0:
320,144,11257,6,0,L|336:144,2,11.25,10|0|0,0:0|0:0|0:0,0:0:0:0:
144,96,11341,6,0,L|128:96,2,11.25,8|0|0,0:0|0:0|0:0,0:0:0:0:
336,96,11424,6,0,L|352:96,2,11.25,8|0|0,0:0|0:0|0:0,0:0:0:0:
160,48,11507,6,0,L|144:48,2,11.25,8|0|0,0:0|0:0|0:0,0:0:0:0:
352,48,11590,6,0,L|368:48,2,11.25,8|0|0,0:0|0:0|0:0,0:0:0:0:
32,32,11674,5,6,0:0:0:0:
0,64,11716,1,0,0:0:0:0:
32,96,11757,1,0,0:0:0:0:
176,96,11799,1,0,0:0:0:0:
336,96,11841,1,0,0:0:0:0:
480,96,11882,1,0,0:0:0:0:
512,64,11924,1,0,0:0:0:0:
480,32,11965,1,0,0:0:0:0:
480,96,12007,5,8,0:0:0:0:
512,64,12049,1,0,0:0:0:0:
480,32,12090,1,0,0:0:0:0:
336,32,12132,1,0,0:0:0:0:
176,32,12174,1,0,0:0:0:0:
32,32,12215,1,0,0:0:0:0:
0,64,12257,1,0,0:0:0:0:
32,96,12298,1,0,0:0:0:0:
480,96,12341,5,0,0:0:0:0:
512,64,12383,1,0,0:0:0:0:
480,32,12424,1,0,0:0:0:0:
336,32,12466,1,0,0:0:0:0:
176,32,12508,1,2,0:0:0:0:
32,32,12549,1,0,0:0:0:0:
0,64,12591,1,0,0:0:0:0:
32,96,12632,1,0,0:0:0:0:
480,288,12674,5,8,0:0:0:0:
512,320,12716,1,0,0:0:0:0:
480,352,12757,1,0,0:0:0:0:
336,352,12799,1,0,0:0:0:0:
176,352,12841,1,0,0:0:0:0:
32,352,12882,1,0,0:0:0:0:
0,320,12924,1,0,0:0:0:0:
32,288,12965,1,0,0:0:0:0:
32,352,13007,5,2,0:0:0:0:
0,320,13049,1,0,0:0:0:0:
32,288,13090,1,0,0:0:0:0:
176,288,13132,1,0,0:0:0:0:
336,288,13174,1,0,0:0:0:0:
480,288,13215,1,0,0:0:0:0:
512,320,13257,1,0,0:0:0:0:
480,352,13298,1,0,0:0:0:0:
480,288,13340,5,8,0:0:0:0:
512,320,13382,1,0,0:0:0:0:
480,352,13423,1,0,0:0:0:0:
336,352,13465,1,0,0:0:0:0:
176,352,13507,1,0,0:0:0:0:
32,352,13548,1,0,0:0:0:0:
0,320,13590,1,0,0:0:0:0:
32,288,13631,1,0,0:0:0:0:
480,288,13674,5,0,0:0:0:0:
512,320,13716,1,0,0:0:0:0:
480,352,13757,1,0,0:0:0:0:
336,352,13799,1,0,0:0:0:0:
176,352,13841,1,2,0:0:0:0:
32,352,13882,1,0,0:0:0:0:
0,320,13924,1,0,0:0:0:0:
32,288,13965,1,0,0:0:0:0:
480,96,14007,5,8,0:0:0:0:
512,64,14049,1,0,0:0:0:0:
480,32,14090,1,0,0:0:0:0:
336,32,14132,1,0,0:0:0:0:
176,32,14174,1,0,0:0:0:0:
32,32,14215,1,0,0:0:0:0:
0,64,14257,1,0,0:0:0:0:
32,96,14298,1,0,0:0:0:0:
32,32,14341,5,2,0:0:0:0:
0,64,14383,1,0,0:0:0:0:
32,96,14424,1,0,0:0:0:0:
176,96,14466,1,0,0:0:0:0:
336,96,14508,1,0,0:0:0:0:
480,96,14549,1,0,0:0:0:0:
512,64,14591,1,0,0:0:0:0:
480,32,14632,1,0,0:0:0:0:
480,96,14674,5,8,0:0:0:0:
512,64,14716,1,0,0:0:0:0:
480,32,14757,1,0,0:0:0:0:
336,32,14799,1,0,0:0:0:0:
176,32,14841,1,0,0:0:0:0:
32,32,14882,1,0,0:0:0:0:
0,64,14924,1,0,0:0:0:0:
32,96,14965,1,0,0:0:0:0:
480,96,15008,5,0,0:0:0:0:
512,64,15050,1,0,0:0:0:0:
480,32,15091,1,0,0:0:0:0:
336,32,15133,1,0,0:0:0:0:
176,32,15175,1,2,0:0:0:0:
32,32,15216,1,0,0:0:0:0:
0,64,15258,1,0,0:0:0:0:
32,96,15299,1,0,0:0:0:0:
480,288,15341,5,8,0:0:0:0:
512,320,15383,1,0,0:0:0:0:
480,352,15424,1,0,0:0:0:0:
336,352,15466,1,0,0:0:0:0:
176,352,15508,1,0,0:0:0:0:
32,352,15549,1,0,0:0:0:0:
0,320,15591,1,0,0:0:0:0:
32,288,15632,1,0,0:0:0:0:
32,352,15674,5,2,0:0:0:0:
0,320,15716,1,0,0:0:0:0:
32,288,15757,1,0,0:0:0:0:
176,288,15799,1,0,0:0:0:0:
336,288,15841,1,0,0:0:0:0:
480,288,15882,1,0,0:0:0:0:
512,320,15924,1,2,0:0:0:0:
480,352,15965,1,0,0:0:0:0:
480,288,16007,5,8,0:0:0:0:
512,320,16049,1,0,0:0:0:0:
480,352,16090,1,0,0:0:0:0:
336,352,16132,1,0,0:0:0:0:
176,352,16174,1,2,0:0:0:0:
32,352,16215,1,0,0:0:0:0:
0,320,16257,1,0,0:0:0:0:
32,288,16298,1,0,0:0:0:0:
480,288,16341,5,0,0:0:0:0:
512,320,16383,1,0,0:0:0:0:
480,352,16424,1,8,0:0:0:0:
336,352,16466,1,0,0:0:0:0:
176,352,16508,1,2,0:0:0:0:
32,352,16549,1,0,0:0:0:0:
0,320,16591,1,0,0:0:0:0:
32,288,16632,1,0,0:0:0:0:
480,96,16674,5,8,0:0:0:0:
512,64,16716,1,0,0:0:0:0:
480,32,16757,1,8,0:0:0:0:
336,32,16799,1,0,0:0:0:0:
176,32,16841,1,8,0:0:0:0:
32,32,16882,1,0,0:0:0:0:
0,64,16924,1,8,0:0:0:0:
32,96,16965,1,0,0:0:0:0:
32,352,17007,5,2,0:0:0:0:
0,320,17049,1,0,0:0:0:0:
32,288,17090,1,0,0:0:0:0:
176,288,17132,1,0,0:0:0:0:
336,288,17174,1,0,0:0:0:0:
480,288,17215,1,0,0:0:0:0:
512,320,17257,1,0,0:0:0:0:
480,352,17298,1,0,0:0:0:0:
480,288,17340,5,8,0:0:0:0:
512,320,17382,1,0,0:0:0:0:
480,352,17423,1,0,0:0:0:0:
336,352,17465,1,0,0:0:0:0:
176,352,17507,1,0,0:0:0:0:
32,352,17548,1,0,0:0:0:0:
0,320,17590,1,0,0:0:0:0:
32,288,17631,1,0,0:0:0:0:
480,288,17674,5,0,0:0:0:0:
512,320,17716,1,0,0:0:0:0:
480,352,17757,1,0,0:0:0:0:
336,352,17799,1,0,0:0:0:0:
176,352,17841,1,2,0:0:0:0:
32,352,17882,1,0,0:0:0:0:
0,320,17924,1,0,0:0:0:0:
32,288,17965,1,0,0:0:0:0:
480,96,18007,5,8,0:0:0:0:
512,64,18049,1,0,0:0:0:0:
480,32,18090,1,0,0:0:0:0:
336,32,18132,1,0,0:0:0:0:
176,32,18174,1,0,0:0:0:0:
32,32,18215,1,0,0:0:0:0:
0,64,18257,1,0,0:0:0:0:
32,96,18298,1,0,0:0:0:0:
32,352,18341,5,2,0:0:0:0:
0,320,18383,1,0,0:0:0:0:
32,288,18424,1,0,0:0:0:0:
176,288,18466,1,0,0:0:0:0:
336,288,18508,1,0,0:0:0:0:
480,288,18549,1,0,0:0:0:0:
512,320,18591,1,0,0:0:0:0:
480,352,18632,1,0,0:0:0:0:
480,288,18674,5,8,0:0:0:0:
512,320,18716,1,0,0:0:0:0:
480,352,18757,1,0,0:0:0:0:
336,352,18799,1,0,0:0:0:0:
176,352,18841,1,0,0:0:0:0:
32,352,18882,1,0,0:0:0:0:
0,320,18924,1,0,0:0:0:0:
32,288,18965,1,0,0:0:0:0:
480,288,19008,5,0,0:0:0:0:
512,320,19050,1,0,0:0:0:0:
480,352,19091,1,0,0:0:0:0:
336,352,19133,1,0,0:0:0:0:
176,352,19175,1,2,0:0:0:0:
32,352,19216,1,0,0:0:0:0:
0,320,19258,1,0,0:0:0:0:
32,288,19299,1,0,0:0:0:0:
480,96,19341,5,8,0:0:0:0:
512,64,19383,1,0,0:0:0:0:
480,32,19424,1,0,0:0:0:0:
336,32,19466,1,0,0:0:0:0:
176,32,19508,1,0,0:0:0:0:
32,32,19549,1,0,0:0:0:0:
0,64,19591,1,0,0:0:0:0:
32,96,19632,1,8,0:0:0:0:
32,352,19674,5,2,0:0:0:0:
0,320,19716,1,0,0:0:0:0:
32,288,19757,1,0,0:0:0:0:
176,288,19799,1,0,0:0:0:0:
336,288,19841,1,0,0:0:0:0:
480,288,19882,1,0,0:0:0:0:
512,320,19924,1,0,0:0:0:0:
480,352,19965,1,0,0:0:0:0:
480,288,20007,5,8,0:0:0:0:
512,320,20049,1,0,0:0:0:0:
480,352,20090,1,0,0:0:0:0:
336,352,20132,1,0,0:0:0:0:
176,352,20174,1,0,0:0:0:0:
32,352,20215,1,0,0:0:0:0:
0,320,20257,1,8,0:0:0:0:
32,288,20298,1,0,0:0:0:0:
480,288,20341,5,2,0:0:0:0:
512,320,20383,1,0,0:0:0:0:
480,352,20424,1,0,0:0:0:0:
336,352,20466,1,0,0:0:0:0:
176,352,20508,1,0,0:0:0:0:
32,352,20549,1,0,0:0:0:0:
0,320,20591,1,8,0:0:0:0:
32,288,20632,1,0,0:0:0:0:
480,96,20674,5,8,0:0:0:0:
512,64,20716,1,0,0:0:0:0:
480,32,20757,1,0,0:0:0:0:
336,32,20799,1,0,0:0:0:0:
176,32,20841,1,2,0:0:0:0:
32,32,20882,1,0,0:0:0:0:
0,64,20924,1,0,0:0:0:0:
32,96,20965,1,8,0:0:0:0:
32,352,21007,5,2,0:0:0:0:
0,320,21049,1,0,0:0:0:0:
32,288,21090,1,0,0:0:0:0:
176,288,21132,1,0,0:0:0:0:
336,288,21174,1,0,0:0:0:0:
480,288,21215,1,0,0:0:0:0:
512,320,21257,1,0,0:0:0:0:
480,352,21298,1,0,0:0:0:0:
480,288,21340,5,8,0:0:0:0:
512,320,21382,1,0,0:0:0:0:
480,352,21423,1,0,0:0:0:0:
336,352,21465,1,0,0:0:0:0:
176,352,21507,1,0,0:0:0:0:
32,352,21548,1,0,0:0:0:0:
0,320,21590,1,8,0:0:0:0:
32,288,21631,1,0,0:0:0:0:
480,288,21674,5,2,0:0:0:0:
480,288,21695,5,2,0:0:0:0:
512,320,21716,5,0,0:0:0:0:
512,320,21737,5,0,0:0:0:0:
480,352,21757,5,0,0:0:0:0:
480,352,21778,5,0,0:0:0:0:
336,352,21799,5,0,0:0:0:0:
336,352,21820,5,0,0:0:0:0:
176,352,21841,5,0,0:0:0:0:
176,352,21862,5,0,0:0:0:0:
32,352,21882,5,0,0:0:0:0:
32,352,21903,5,0,0:0:0:0:
0,320,21924,5,8,0:0:0:0:
0,320,21945,5,8,0:0:0:0:
32,288,21965,5,0,0:0:0:0:
32,288,21986,5,0,0:0:0:0:
480,96,22007,5,8,0:0:0:0:
480,96,22017,5,8,0:0:0:0:
480,96,22028,5,8,0:0:0:0:
480,96,22038,5,8,0:0:0:0:
512,64,22049,5,0,0:0:0:0:
512,64,22059,5,0,0:0:0:0:
512,64,22070,5,0,0:0:0:0:
512,64,22080,5,0,0:0:0:0:
480,32,22090,5,0,0:0:0:0:
480,32,22100,5,0,0:0:0:0:
480,32,22111,5,0,0:0:0:0:
480,32,22121,5,0,0:0:0:0:
336,32,22132,5,0,0:0:0:0:
336,32,22142,5,0,0:0:0:0:
336,32,22153,5,0,0:0:0:0:
336,32,22163,5,0,0:0:0:0:
176,32,22174,5,2,0:0:0:0:
176,32,22184,5,2,0:0:0:0:
176,32,22195,5,2,0:0:0:0:
176,32,22205,5,2,0:0:0:0:
32,32,22215,5,0,0:0:0:0:
32,32,22225,5,0,0:0:0:0:
32,32,22236,5,0,0:0:0:0:
32,32,22246,5,0,0:0:0:0:
0,64,22257,5,0,0:0:0:0:
0,64,22267,5,0,0:0:0:0:
0,64,22278,5,0,0:0:0:0:
0,64,22288,5,0,0:0:0:0:
32,96,22298,5,8,0:0:0:0:
32,96,22308,5,8,0:0:0:0:
32,96,22319,5,8,0:0:0:0:
32,96,22329,5,8,0:0:0:0:
0,208,22341,5,4,0:0:0:0:
16,192,22361,6,0,L|16:176,13,11.25
32,176,22653,5,0,0:0:0:0:
240,208,22674,5,0,0:0:0:0:
256,192,22695,6,0,L|256:184,13,8.43750032186509
272,168,22986,5,0,0:0:0:0:
512,208,23007,5,8,0:0:0:0:
496,192,23028,6,0,L|496:184,13,8.43750032186509
480,168,23319,5,0,0:0:0:0:
272,208,23341,5,0,0:0:0:0:
256,192,23362,6,0,L|256:184,13,8.43750032186509
240,168,23653,5,0,0:0:0:0:
0,208,23674,5,8,0:0:0:0:
16,192,23695,6,0,L|16:184,13,8.43750032186509
32,168,23986,5,0,0:0:0:0:
240,208,24008,5,0,0:0:0:0:
256,192,24029,6,0,L|256:184,13,8.43750032186509
272,168,24320,5,0,0:0:0:0:
512,208,24340,5,8,0:0:0:0:
496,192,24361,6,0,L|496:184,13,8.43750032186509
480,168,24652,5,0,0:0:0:0:
272,208,24674,5,0,0:0:0:0:
256,192,24695,6,0,L|256:184,13,8.43750032186509
240,168,24986,5,0,0:0:0:0:
0,208,25007,5,8,0:0:0:0:
16,192,25028,6,0,L|16:184,13,8.43750032186509
32,168,25319,5,0,0:0:0:0:
240,208,25341,5,0,0:0:0:0:
256,192,25362,6,0,L|256:184,13,8.43750032186509
272,168,25653,5,0,0:0:0:0:
512,208,25673,5,8,0:0:0:0:
496,192,25694,6,0,L|496:184,13,8.43750032186509
480,168,25985,5,0,0:0:0:0:
272,208,26007,5,0,0:0:0:0:
256,192,26028,6,0,L|256:184,13,8.43750032186509
240,168,26319,5,0,0:0:0:0:
0,208,26340,5,8,0:0:0:0:
16,192,26361,6,0,L|16:184,13,8.43750032186509
32,168,26652,5,0,0:0:0:0:
240,208,26674,5,0,0:0:0:0:
256,192,26695,6,0,L|256:184,13,8.43750032186509
272,168,26986,5,0,0:0:0:0:
512,208,27006,5,8,0:0:0:0:
496,192,27027,6,0,L|496:184,13,8.43750032186509
480,168,27318,5,0,0:0:0:0:
352,168,27340,6,0,L|224:168,1,126.562504827976
0,208,27674,5,8,0:0:0:0:
16,192,27695,6,0,L|16:184,13,8.43750032186509
32,168,27986,5,0,0:0:0:0:
240,208,28008,5,0,0:0:0:0:
256,192,28029,6,0,L|256:184,13,8.43750032186509
272,168,28320,5,0,0:0:0:0:
512,208,28340,5,8,0:0:0:0:
496,192,28361,6,0,L|496:184,13,8.43750032186509
480,168,28652,5,0,0:0:0:0:
272,208,28674,5,0,0:0:0:0:
256,192,28695,6,0,L|256:184,13,8.43750032186509
240,168,28986,5,0,0:0:0:0:
0,152,29007,5,8,0:0:0:0:
16,136,29028,6,0,L|16:128,13,8.43750032186509
32,112,29319,5,0,0:0:0:0:
240,152,29341,5,0,0:0:0:0:
256,136,29362,6,0,L|256:128,13,8.43750032186509
272,112,29653,5,0,0:0:0:0:
512,152,29673,5,8,0:0:0:0:
496,136,29694,6,0,L|496:128,13,8.43750032186509
480,112,29985,5,0,0:0:0:0:
336,104,30007,6,0,L|168:104,1,168.75
0,272,30340,5,8,0:0:0:0:
16,256,30361,6,0,L|16:248,13,8.43750032186509
32,232,30652,5,0,0:0:0:0:
240,272,30674,5,0,0:0:0:0:
256,256,30695,6,0,L|256:248,13,8.43750032186509
272,232,30986,5,0,0:0:0:0:
512,272,31006,5,8,0:0:0:0:
496,256,31027,6,0,L|496:248,13,8.43750032186509
480,232,31318,5,0,0:0:0:0:
272,272,31340,5,0,0:0:0:0:
256,256,31361,6,0,L|256:248,13,8.43750032186509
240,232,31652,5,0,0:0:0:0:
16,48,31674,5,4,0:0:0:0:
0,32,31695,1,0,0:0:0:0:
16,16,31715,1,0,0:0:0:0:
176,16,31736,1,0,0:0:0:0:
336,16,31757,1,0,0:0:0:0:
496,16,31778,1,0,0:0:0:0:
512,32,31799,1,0,0:0:0:0:
496,48,31820,1,0,0:0:0:0:
496,48,31840,5,0,0:0:0:0:
512,64,31861,1,0,0:0:0:0:
496,80,31881,1,0,0:0:0:0:
336,80,31902,1,0,0:0:0:0:
176,80,31923,1,0,0:0:0:0:
16,80,31944,1,0,0:0:0:0:
0,64,31965,1,0,0:0:0:0:
16,48,31986,1,0,0:0:0:0:
16,352,32007,5,8,0:0:0:0:
0,368,32028,1,0,0:0:0:0:
16,384,32049,1,0,0:0:0:0:
176,384,32070,1,0,0:0:0:0:
336,384,32091,1,0,0:0:0:0:
496,384,32112,1,0,0:0:0:0:
512,368,32132,1,0,0:0:0:0:
496,352,32153,1,0,0:0:0:0:
496,352,32173,5,0,0:0:0:0:
512,336,32194,1,0,0:0:0:0:
496,320,32215,1,0,0:0:0:0:
336,320,32236,1,0,0:0:0:0:
176,320,32257,1,0,0:0:0:0:
16,320,32278,1,0,0:0:0:0:
0,336,32298,1,0,0:0:0:0:
16,352,32319,1,0,0:0:0:0:
16,192,32340,6,0,L|19:183,15,8.43750032186509
256,192,32674,6,0,L|256:176,1,16.8750006437302
256,176,32695,2,0,L|272:160,1,16.8750006437302
256,192,32757,6,0,L|256:176,1,16.8750006437302
256,176,32778,2,0,L|272:160,1,16.8750006437302
256,192,32840,6,0,L|256:176,1,16.8750006437302
256,176,32861,2,0,L|272:160,1,16.8750006437302
256,192,32924,6,0,L|256:176,1,16.8750006437302
256,176,32945,2,0,L|272:160,1,16.8750006437302
8,64,33007,6,0,L|0:64,2,8.43750032186509,2|0|0,0:0|0:0|0:0,0:0:0:0:
160,64,33090,1,0,0:0:0:0:
224,64,33132,1,0,0:0:0:0:
288,64,33174,1,0,0:0:0:0:
352,64,33215,1,0,0:0:0:0:
416,64,33257,1,0,0:0:0:0:
480,64,33299,1,0,0:0:0:0:
496,144,33340,6,0,L|504:144,2,8.43750032186509,2|0|0,0:0|0:0|0:0,0:0:0:0:
344,144,33423,1,0,0:0:0:0:
280,144,33465,1,0,0:0:0:0:
216,144,33507,1,0,0:0:0:0:
152,144,33548,1,0,0:0:0:0:
88,144,33590,1,0,0:0:0:0:
24,144,33632,1,0,0:0:0:0:
16,240,33674,6,0,L|8:240,2,8.43750032186509,2|0|0,0:0|0:0|0:0,0:0:0:0:
168,240,33757,1,0,0:0:0:0:
232,240,33799,1,0,0:0:0:0:
296,240,33841,1,0,0:0:0:0:
360,240,33882,1,0,0:0:0:0:
424,240,33924,1,0,0:0:0:0:
488,240,33966,1,0,0:0:0:0:
504,320,34007,6,0,L|512:320,2,8.43750032186509,2|0|0,0:0|0:0|0:0,0:0:0:0:
352,320,34090,1,0,0:0:0:0:
288,320,34132,1,0,0:0:0:0:
224,320,34174,1,0,0:0:0:0:
160,320,34215,1,0,0:0:0:0:
96,320,34257,1,0,0:0:0:0:
32,320,34299,1,0,0:0:0:0:
8,64,34340,6,0,L|0:64,2,8.43750032186509,2|0|0,0:0|0:0|0:0,0:0:0:0:
160,64,34423,1,0,0:0:0:0:
224,64,34465,1,0,0:0:0:0:
288,64,34507,1,0,0:0:0:0:
352,64,34548,1,0,0:0:0:0:
416,64,34590,1,0,0:0:0:0:
480,64,34632,1,0,0:0:0:0:
496,144,34673,6,0,L|504:144,2,8.43750032186509,2|0|0,0:0|0:0|0:0,0:0:0:0:
344,144,34756,1,0,0:0:0:0:
280,144,34798,1,0,0:0:0:0:
216,144,34840,1,0,0:0:0:0:
152,144,34881,1,0,0:0:0:0:
88,144,34923,1,0,0:0:0:0:
24,144,34965,1,0,0:0:0:0:
16,224,35007,6,0,L|8:224,2,8.43750032186509,2|0|0,0:0|0:0|0:0,0:0:0:0:
168,224,35090,1,0,0:0:0:0:
232,224,35132,1,0,0:0:0:0:
296,224,35174,1,0,0:0:0:0:
360,224,35215,1,0,0:0:0:0:
424,224,35257,1,0,0:0:0:0:
488,224,35299,1,0,0:0:0:0:
504,304,35340,6,0,L|512:304,2,8.43750032186509,2|0|0,0:0|0:0|0:0,0:0:0:0:
352,304,35423,1,0,0:0:0:0:
288,304,35465,1,0,0:0:0:0:
224,304,35507,1,0,0:0:0:0:
160,304,35548,1,0,0:0:0:0:
96,304,35590,1,0,0:0:0:0:
32,304,35632,1,0,0:0:0:0:
8,64,35674,6,0,L|0:64,2,8.43750032186509,2|0|0,0:0|0:0|0:0,0:0:0:0:
160,64,35757,1,0,0:0:0:0:
224,64,35799,1,0,0:0:0:0:
288,64,35841,1,0,0:0:0:0:
352,64,35882,1,0,0:0:0:0:
416,64,35924,1,0,0:0:0:0:
480,64,35966,1,0,0:0:0:0:
496,144,36007,6,0,L|504:144,2,8.43750032186509,2|0|0,0:0|0:0|0:0,0:0:0:0:
344,144,36090,1,0,0:0:0:0:
280,144,36132,1,0,0:0:0:0:
216,144,36174,1,0,0:0:0:0:
152,144,36215,1,0,0:0:0:0:
88,144,36257,1,0,0:0:0:0:
24,144,36299,1,0,0:0:0:0:
16,240,36341,6,0,L|8:240,2,8.43750032186509,2|0|0,0:0|0:0|0:0,0:0:0:0:
168,240,36424,1,0,0:0:0:0:
232,240,36466,1,0,0:0:0:0:
296,240,36508,1,0,0:0:0:0:
360,240,36549,1,0,0:0:0:0:
424,240,36591,1,0,0:0:0:0:
488,240,36633,1,0,0:0:0:0:
504,320,36674,6,0,L|512:320,2,8.43750032186509,2|0|0,0:0|0:0|0:0,0:0:0:0:
352,320,36757,1,0,0:0:0:0:
288,320,36799,1,0,0:0:0:0:
224,320,36841,1,0,0:0:0:0:
160,320,36882,1,0,0:0:0:0:
96,320,36924,1,0,0:0:0:0:
32,320,36966,1,0,0:0:0:0:
8,64,37007,6,0,L|0:64,2,8.43750032186509,2|0|0,0:0|0:0|0:0,0:0:0:0:
160,64,37090,1,0,0:0:0:0:
224,64,37132,1,0,0:0:0:0:
288,64,37174,1,0,0:0:0:0:
352,64,37215,1,0,0:0:0:0:
416,64,37257,1,0,0:0:0:0:
480,64,37299,1,0,0:0:0:0:
496,144,37340,6,0,L|504:144,2,8.43750032186509,2|0|0,0:0|0:0|0:0,0:0:0:0:
344,144,37423,1,0,0:0:0:0:
280,144,37465,1,0,0:0:0:0:
216,144,37507,1,0,0:0:0:0:
152,144,37548,1,0,0:0:0:0:
88,144,37590,1,0,0:0:0:0:
24,144,37632,1,0,0:0:0:0:
16,224,37674,6,0,L|8:224,2,8.43750032186509,2|0|0,0:0|0:0|0:0,0:0:0:0:
168,224,37757,1,0,0:0:0:0:
232,224,37799,1,0,0:0:0:0:
296,224,37841,1,0,0:0:0:0:
360,224,37882,1,0,0:0:0:0:
424,224,37924,1,0,0:0:0:0:
488,224,37966,1,0,0:0:0:0:
504,304,38007,6,0,L|512:304,2,8.43750032186509,2|0|0,0:0|0:0|0:0,0:0:0:0:
352,304,38090,1,0,0:0:0:0:
288,304,38132,1,0,0:0:0:0:
224,304,38174,1,0,0:0:0:0:
160,304,38215,1,0,0:0:0:0:
96,304,38257,1,0,0:0:0:0:
32,304,38299,1,0,0:0:0:0:
152,120,38340,6,0,L|144:120,2,8.43750032186509,8|0|0,0:0|0:0|0:0,0:0:0:0:
360,120,38424,6,0,L|368:120,2,8.43750032186509
136,80,38507,6,0,L|128:80,2,8.43750032186509,2|0|0,0:0|0:0|0:0,0:0:0:0:
368,80,38590,6,0,L|376:80,2,8.43750032186509
160,216,38674,6,0,L|152:216,2,8.43750032186509,8|0|0,0:0|0:0|0:0,0:0:0:0:
368,216,38758,6,0,L|376:216,2,8.43750032186509
144,176,38841,6,0,L|136:176,2,8.43750032186509,2|0|0,0:0|0:0|0:0,0:0:0:0:
376,176,38924,6,0,L|384:176,2,8.43750032186509
152,168,39007,6,0,L|144:168,2,8.43750032186509,8|0|0,0:0|0:0|0:0,0:0:0:0:
360,168,39091,6,0,L|368:168,2,8.43750032186509
136,128,39174,6,0,L|128:128,2,8.43750032186509,2|0|0,0:0|0:0|0:0,0:0:0:0:
368,128,39257,6,0,L|376:128,2,8.43750032186509
160,264,39341,6,0,L|152:264,2,8.43750032186509,8|0|0,0:0|0:0|0:0,0:0:0:0:
368,264,39425,6,0,L|376:264,2,8.43750032186509
144,224,39508,6,0,L|136:224,2,8.43750032186509,2|0|0,0:0|0:0|0:0,0:0:0:0:
376,224,39591,6,0,L|384:224,2,8.43750032186509
152,120,39674,6,0,L|144:120,2,8.43750032186509,8|0|0,0:0|0:0|0:0,0:0:0:0:
360,120,39758,6,0,L|368:120,2,8.43750032186509
136,80,39841,6,0,L|128:80,2,8.43750032186509,2|0|0,0:0|0:0|0:0,0:0:0:0:
368,80,39924,6,0,L|376:80,2,8.43750032186509
160,216,40008,6,0,L|152:216,2,8.43750032186509,8|0|0,0:0|0:0|0:0,0:0:0:0:
368,216,40092,6,0,L|376:216,2,8.43750032186509
144,176,40175,6,0,L|136:176,2,8.43750032186509,2|0|0,0:0|0:0|0:0,0:0:0:0:
376,176,40258,6,0,L|384:176,2,8.43750032186509
152,168,40341,6,0,L|144:168,2,8.43750032186509,8|0|0,0:0|0:0|0:0,0:0:0:0:
360,168,40425,6,0,L|368:168,2,8.43750032186509
136,128,40508,6,0,L|128:128,2,8.43750032186509,2|0|0,0:0|0:0|0:0,0:0:0:0:
368,128,40591,6,0,L|376:128,2,8.43750032186509
160,264,40675,6,0,L|152:264,2,8.43750032186509,8|0|0,0:0|0:0|0:0,0:0:0:0:
368,264,40759,6,0,L|376:264,2,8.43750032186509
144,224,40842,6,0,L|136:224,2,8.43750032186509,2|0|0,0:0|0:0|0:0,0:0:0:0:
376,224,40925,6,0,L|384:224,2,8.43750032186509
152,64,41007,6,0,L|144:56,1,11.25,8|0,0:0|0:0,0:0:0:0:
360,64,41049,6,0,L|368:56,1,11.25
152,64,41090,6,0,L|144:56,1,11.25,2|0,0:0|0:0,0:0:0:0:
360,64,41132,6,0,L|368:56,1,11.25
152,120,41174,6,0,L|144:112,1,11.25,8|0,0:0|0:0,0:0:0:0:
360,120,41216,6,0,L|368:112,1,11.25
152,120,41257,6,0,L|144:112,1,11.25,2|0,0:0|0:0,0:0:0:0:
360,120,41299,6,0,L|368:112,1,11.25
160,175,41340,6,0,L|152:167,1,11.25,8|0,0:0|0:0,0:0:0:0:
368,175,41382,6,0,L|376:167,1,11.25
160,175,41423,6,0,L|152:167,1,11.25,2|0,0:0|0:0,0:0:0:0:
368,175,41465,6,0,L|376:167,1,11.25
160,231,41507,6,0,L|152:223,1,11.25,8|0,0:0|0:0,0:0:0:0:
368,231,41549,6,0,L|376:223,1,11.25
160,231,41590,6,0,L|152:223,1,11.25,2|0,0:0|0:0,0:0:0:0:
368,231,41632,6,0,L|376:223,1,11.25
160,48,41674,5,2,0:0:0:0:
152,40,41695,1,2,0:0:0:0:
160,40,41715,1,2,0:0:0:0:
256,40,41736,1,2,0:0:0:0:
352,48,41757,1,2,0:0:0:0:
360,40,41778,1,2,0:0:0:0:
352,40,41798,1,2,0:0:0:0:
256,40,41820,1,2,0:0:0:0:
128,104,41840,5,2,0:0:0:0:
120,96,41861,1,2,0:0:0:0:
128,96,41882,1,2,0:0:0:0:
256,96,41903,1,2,0:0:0:0:
384,104,41924,1,2,0:0:0:0:
392,96,41945,1,2,0:0:0:0:
384,96,41966,1,2,0:0:0:0:
256,96,41986,1,2,0:0:0:0:
160,175,42007,5,2,0:0:0:0:
152,167,42028,1,2,0:0:0:0:
160,167,42048,1,2,0:0:0:0:
256,167,42069,1,2,0:0:0:0:
352,175,42090,1,2,0:0:0:0:
360,167,42111,1,2,0:0:0:0:
352,167,42131,1,2,0:0:0:0:
256,167,42153,1,2,0:0:0:0:
128,231,42173,5,2,0:0:0:0:
120,223,42194,1,2,0:0:0:0:
128,223,42215,1,2,0:0:0:0:
256,223,42236,1,2,0:0:0:0:
384,231,42257,1,2,0:0:0:0:
392,223,42278,1,2,0:0:0:0:
384,223,42299,1,2,0:0:0:0:
256,223,42319,1,2,0:0:0:0:
256,192,42340,12,0,42674,0:0:0:0:
256,192,42340,12,0,42361,0:0:0:0:
256,192,42340,12,0,42361,0:0:0:0:
256,192,42340,12,0,42361,0:0:0:0:
256,192,42340,12,0,42361,0:0:0:0:
256,192,42340,12,0,42361,0:0:0:0:
256,192,42340,12,0,42361,0:0:0:0:
256,192,42340,12,0,42361,0:0:0:0:
256,192,42340,12,0,42361,0:0:0:0:
256,192,42340,12,0,42361,0:0:0:0:
256,192,42340,12,0,42361,0:0:0:0:
256,192,42340,12,0,42361,0:0:0:0:
256,192,42340,12,0,42361,0:0:0:0:
256,192,42340,12,0,42361,0:0:0:0:
256,192,42340,12,0,42361,0:0:0:0:
256,192,42340,12,0,42361,0:0:0:0:
256,192,42340,12,0,42361,0:0:0:0:
256,192,42340,12,0,42361,0:0:0:0:
256,192,42340,12,0,42361,0:0:0:0:
256,192,42340,12,0,42361,0:0:0:0:
256,192,42340,12,0,42361,0:0:0:0:
256,192,42674,12,0,42695,0:0:0:0:
256,192,42674,12,0,42695,0:0:0:0:
256,192,42674,12,0,42695,0:0:0:0:
256,192,42674,12,0,42695,0:0:0:0:
256,192,42674,12,0,42695,0:0:0:0:
256,192,42674,12,0,42695,0:0:0:0:
256,192,42674,12,0,42695,0:0:0:0:
256,192,42674,12,0,42695,0:0:0:0:
256,192,42674,12,0,42695,0:0:0:0:
256,192,42674,12,0,42695,0:0:0:0:
256,192,42674,12,0,42695,0:0:0:0:
256,192,42674,12,0,42695,0:0:0:0:
256,192,42674,12,0,42695,0:0:0:0:
256,192,42674,12,0,42695,0:0:0:0:
256,192,42674,12,0,43008,0:0:0:0:
256,192,42674,12,0,42695,0:0:0:0:
256,192,42674,12,0,42695,0:0:0:0:
256,192,42674,12,0,42695,0:0:0:0:
256,192,42674,12,0,42695,0:0:0:0:
256,192,42674,12,0,42695,0:0:0:0:
256,192,42674,12,0,42695,0:0:0:0:
256,192,43007,12,0,43341,0:0:0:0:
256,192,43007,12,0,43028,0:0:0:0:
256,192,43007,12,0,43028,0:0:0:0:
256,192,43007,12,0,43028,0:0:0:0:
256,192,43007,12,0,43028,0:0:0:0:
256,192,43007,12,0,43028,0:0:0:0:
256,192,43007,12,0,43028,0:0:0:0:
256,192,43007,12,0,43028,0:0:0:0:
256,192,43007,12,0,43028,0:0:0:0:
256,192,43007,12,0,43028,0:0:0:0:
256,192,43007,12,0,43028,0:0:0:0:
256,192,43007,12,0,43028,0:0:0:0:
256,192,43007,12,0,43028,0:0:0:0:
256,192,43007,12,0,43028,0:0:0:0:
256,192,43007,12,0,43028,0:0:0:0:
256,192,43007,12,0,43028,0:0:0:0:
256,192,43007,12,0,43028,0:0:0:0:
256,192,43007,12,0,43028,0:0:0:0:
256,192,43007,12,0,43028,0:0:0:0:
256,192,43007,12,0,43028,0:0:0:0:
256,192,43007,12,0,43028,0:0:0:0:
512,192,43340,6,2,L|504:184,15,11.25
24,224,43674,5,2,0:0:0:0:
29,202,43715,1,0,0:0:0:0:
34,180,43757,1,0,0:0:0:0:
136,176,43799,1,0,0:0:0:0:
256,224,43840,5,0,0:0:0:0:
250,202,43881,1,0,0:0:0:0:
245,180,43923,1,0,0:0:0:0:
136,176,43965,1,0,0:0:0:0:
56,224,44007,5,2,0:0:0:0:
61,202,44048,1,0,0:0:0:0:
66,180,44090,1,0,0:0:0:0:
168,176,44132,1,0,0:0:0:0:
288,224,44173,5,0,0:0:0:0:
282,202,44214,1,0,0:0:0:0:
277,180,44256,1,0,0:0:0:0:
168,176,44298,1,0,0:0:0:0:
88,224,44340,5,2,0:0:0:0:
93,202,44381,1,0,0:0:0:0:
98,180,44423,1,0,0:0:0:0:
200,176,44465,1,0,0:0:0:0:
320,224,44506,5,0,0:0:0:0:
314,202,44547,1,0,0:0:0:0:
309,180,44589,1,0,0:0:0:0:
200,176,44631,1,0,0:0:0:0:
120,224,44673,5,2,0:0:0:0:
125,202,44714,1,0,0:0:0:0:
130,180,44756,1,0,0:0:0:0:
232,176,44798,1,0,0:0:0:0:
352,224,44839,5,0,0:0:0:0:
346,202,44880,1,0,0:0:0:0:
341,180,44922,1,0,0:0:0:0:
232,176,44964,1,0,0:0:0:0:
80,120,45007,5,2,0:0:0:0:
99,108,45048,1,0,0:0:0:0:
119,97,45090,1,0,0:0:0:0:
256,88,45132,1,0,0:0:0:0:
432,120,45174,5,0,0:0:0:0:
413,108,45215,1,0,0:0:0:0:
393,97,45257,1,0,0:0:0:0:
256,88,45299,1,0,0:0:0:0:
24,120,45340,5,2,0:0:0:0:
43,108,45381,1,0,0:0:0:0:
63,97,45423,1,0,0:0:0:0:
256,88,45465,1,0,0:0:0:0:
408,120,45507,5,0,0:0:0:0:
389,108,45548,1,0,0:0:0:0:
369,97,45590,1,0,0:0:0:0:
256,88,45632,1,0,0:0:0:0:
120,120,45674,5,2,0:0:0:0:
139,108,45715,1,0,0:0:0:0:
159,97,45757,1,0,0:0:0:0:
296,88,45799,1,0,0:0:0:0:
472,120,45841,5,0,0:0:0:0:
453,108,45882,1,0,0:0:0:0:
433,97,45924,1,0,0:0:0:0:
296,88,45966,1,0,0:0:0:0:
64,120,46007,5,2,0:0:0:0:
83,108,46048,1,0,0:0:0:0:
103,97,46090,1,0,0:0:0:0:
296,88,46132,1,0,0:0:0:0:
448,120,46174,5,0,0:0:0:0:
429,108,46215,1,0,0:0:0:0:
409,97,46257,1,0,0:0:0:0:
296,88,46299,1,0,0:0:0:0:
64,168,46340,5,2,0:0:0:0:
83,156,46381,1,0,0:0:0:0:
103,145,46423,1,0,0:0:0:0:
240,136,46465,1,0,0:0:0:0:
416,168,46507,5,0,0:0:0:0:
397,156,46548,1,0,0:0:0:0:
377,145,46590,1,0,0:0:0:0:
240,136,46632,1,0,0:0:0:0:
8,168,46673,5,2,0:0:0:0:
27,156,46714,1,0,0:0:0:0:
47,145,46756,1,0,0:0:0:0:
240,136,46798,1,0,0:0:0:0:
392,168,46840,5,0,0:0:0:0:
373,156,46881,1,0,0:0:0:0:
353,145,46923,1,0,0:0:0:0:
240,136,46965,1,0,0:0:0:0:
104,208,47007,5,2,0:0:0:0:
123,196,47048,1,0,0:0:0:0:
143,185,47090,1,0,0:0:0:0:
280,176,47132,1,0,0:0:0:0:
456,208,47174,5,0,0:0:0:0:
437,196,47215,1,0,0:0:0:0:
417,185,47257,1,0,0:0:0:0:
280,176,47299,1,0,0:0:0:0:
48,208,47340,5,2,0:0:0:0:
67,196,47381,1,0,0:0:0:0:
87,185,47423,1,0,0:0:0:0:
280,176,47465,1,0,0:0:0:0:
432,208,47507,5,0,0:0:0:0:
413,196,47548,1,0,0:0:0:0:
393,185,47590,1,0,0:0:0:0:
280,176,47632,1,0,0:0:0:0:
64,256,47674,5,2,0:0:0:0:
83,244,47715,1,0,0:0:0:0:
103,233,47757,1,0,0:0:0:0:
240,224,47799,1,0,0:0:0:0:
416,256,47841,5,0,0:0:0:0:
397,244,47882,1,0,0:0:0:0:
377,233,47924,1,0,0:0:0:0:
240,224,47966,1,0,0:0:0:0:
8,256,48007,5,2,0:0:0:0:
27,244,48048,1,0,0:0:0:0:
47,233,48090,1,0,0:0:0:0:
240,224,48132,1,0,0:0:0:0:
392,256,48174,5,0,0:0:0:0:
373,244,48215,1,0,0:0:0:0:
353,233,48257,1,0,0:0:0:0:
240,224,48299,1,0,0:0:0:0:
96,288,48340,5,2,0:0:0:0:
115,276,48381,1,0,0:0:0:0:
135,265,48423,1,0,0:0:0:0:
272,256,48465,1,0,0:0:0:0:
448,288,48507,5,0,0:0:0:0:
429,276,48548,1,0,0:0:0:0:
409,265,48590,1,0,0:0:0:0:
272,256,48632,1,0,0:0:0:0:
40,288,48673,5,2,0:0:0:0:
59,276,48714,1,0,0:0:0:0:
79,265,48756,1,2,0:0:0:0:
272,256,48798,1,0,0:0:0:0:
424,288,48840,5,2,0:0:0:0:
405,276,48881,1,0,0:0:0:0:
385,265,48923,1,2,0:0:0:0:
272,256,48965,1,0,0:0:0:0:
24,224,49007,5,6,0:0:0:0:
29,202,49048,1,0,0:0:0:0:
34,180,49090,1,0,0:0:0:0:
136,176,49132,1,0,0:0:0:0:
256,224,49173,5,0,0:0:0:0:
250,202,49214,1,0,0:0:0:0:
245,180,49256,1,0,0:0:0:0:
136,176,49298,1,0,0:0:0:0:
56,224,49340,5,2,0:0:0:0:
61,202,49381,1,0,0:0:0:0:
66,180,49423,1,0,0:0:0:0:
168,176,49465,1,0,0:0:0:0:
288,224,49506,5,0,0:0:0:0:
282,202,49547,1,0,0:0:0:0:
277,180,49589,1,0,0:0:0:0:
168,176,49631,1,0,0:0:0:0:
88,224,49673,5,2,0:0:0:0:
93,202,49714,1,0,0:0:0:0:
98,180,49756,1,0,0:0:0:0:
200,176,49798,1,0,0:0:0:0:
320,224,49839,5,0,0:0:0:0:
314,202,49880,1,0,0:0:0:0:
309,180,49922,1,0,0:0:0:0:
200,176,49964,1,0,0:0:0:0:
120,224,50006,5,2,0:0:0:0:
125,202,50047,1,0,0:0:0:0:
130,180,50089,1,0,0:0:0:0:
232,176,50131,1,0,0:0:0:0:
352,224,50172,5,0,0:0:0:0:
346,202,50213,1,0,0:0:0:0:
341,180,50255,1,0,0:0:0:0:
232,176,50297,1,0,0:0:0:0:
80,120,50340,5,2,0:0:0:0:
99,108,50381,1,0,0:0:0:0:
119,97,50423,1,0,0:0:0:0:
256,88,50465,1,0,0:0:0:0:
432,120,50507,5,0,0:0:0:0:
413,108,50548,1,0,0:0:0:0:
393,97,50590,1,0,0:0:0:0:
256,88,50632,1,0,0:0:0:0:
24,120,50673,5,2,0:0:0:0:
43,108,50714,1,0,0:0:0:0:
63,97,50756,1,0,0:0:0:0:
256,88,50798,1,0,0:0:0:0:
408,120,50840,5,0,0:0:0:0:
389,108,50881,1,0,0:0:0:0:
369,97,50923,1,0,0:0:0:0:
256,88,50965,1,0,0:0:0:0:
120,120,51007,5,2,0:0:0:0:
139,108,51048,1,0,0:0:0:0:
159,97,51090,1,0,0:0:0:0:
296,88,51132,1,0,0:0:0:0:
472,120,51174,5,0,0:0:0:0:
453,108,51215,1,0,0:0:0:0:
433,97,51257,1,0,0:0:0:0:
296,88,51299,1,0,0:0:0:0:
64,120,51340,5,2,0:0:0:0:
83,108,51381,1,0,0:0:0:0:
103,97,51423,1,0,0:0:0:0:
296,88,51465,1,0,0:0:0:0:
448,120,51507,5,0,0:0:0:0:
429,108,51548,1,0,0:0:0:0:
409,97,51590,1,0,0:0:0:0:
296,88,51632,1,0,0:0:0:0:
64,168,51673,5,2,0:0:0:0:
83,156,51714,1,0,0:0:0:0:
103,145,51756,1,0,0:0:0:0:
240,136,51798,1,0,0:0:0:0:
416,168,51840,5,0,0:0:0:0:
397,156,51881,1,0,0:0:0:0:
377,145,51923,1,0,0:0:0:0:
240,136,51965,1,0,0:0:0:0:
8,168,52006,5,2,0:0:0:0:
27,156,52047,1,0,0:0:0:0:
47,145,52089,1,0,0:0:0:0:
240,136,52131,1,0,0:0:0:0:
392,168,52173,5,0,0:0:0:0:
373,156,52214,1,0,0:0:0:0:
353,145,52256,1,0,0:0:0:0:
240,136,52298,1,0,0:0:0:0:
104,208,52340,5,2,0:0:0:0:
123,196,52381,1,0,0:0:0:0:
143,185,52423,1,0,0:0:0:0:
280,176,52465,1,0,0:0:0:0:
456,208,52507,5,0,0:0:0:0:
437,196,52548,1,0,0:0:0:0:
417,185,52590,1,0,0:0:0:0:
280,176,52632,1,0,0:0:0:0:
48,208,52673,5,2,0:0:0:0:
67,196,52714,1,0,0:0:0:0:
87,185,52756,1,0,0:0:0:0:
280,176,52798,1,0,0:0:0:0:
432,208,52840,5,0,0:0:0:0:
413,196,52881,1,0,0:0:0:0:
393,185,52923,1,0,0:0:0:0:
280,176,52965,1,0,0:0:0:0:
64,256,53007,5,2,0:0:0:0:
83,244,53048,1,0,0:0:0:0:
103,233,53090,1,0,0:0:0:0:
240,224,53132,1,0,0:0:0:0:
416,256,53174,5,0,0:0:0:0:
397,244,53215,1,0,0:0:0:0:
377,233,53257,1,0,0:0:0:0:
240,224,53299,1,0,0:0:0:0:
8,256,53340,5,2,0:0:0:0:
27,244,53381,1,0,0:0:0:0:
47,233,53423,1,0,0:0:0:0:
240,224,53465,1,0,0:0:0:0:
392,256,53507,5,0,0:0:0:0:
373,244,53548,1,0,0:0:0:0:
353,233,53590,1,0,0:0:0:0:
240,224,53632,1,0,0:0:0:0:
96,288,53673,5,2,0:0:0:0:
115,276,53714,1,0,0:0:0:0:
135,265,53756,1,0,0:0:0:0:
272,256,53798,1,0,0:0:0:0:
448,288,53840,5,0,0:0:0:0:
429,276,53881,1,0,0:0:0:0:
409,265,53923,1,0,0:0:0:0:
272,256,53965,1,0,0:0:0:0:
40,288,54006,5,2,0:0:0:0:
59,276,54047,1,0,0:0:0:0:
79,265,54089,1,2,0:0:0:0:
272,256,54131,1,0,0:0:0:0:
424,288,54173,5,2,0:0:0:0:
405,276,54214,1,0,0:0:0:0:
385,265,54256,1,2,0:0:0:0:
272,256,54298,1,0,0:0:0:0:
24,224,54340,5,6,0:0:0:0:
29,202,54381,1,0,0:0:0:0:
34,180,54423,1,0,0:0:0:0:
136,176,54465,1,0,0:0:0:0:
256,224,54506,5,0,0:0:0:0:
250,202,54547,1,0,0:0:0:0:
245,180,54589,1,0,0:0:0:0:
136,176,54631,1,0,0:0:0:0:
56,224,54673,5,2,0:0:0:0:
61,202,54714,1,0,0:0:0:0:
66,180,54756,1,0,0:0:0:0:
168,176,54798,1,0,0:0:0:0:
288,224,54839,5,0,0:0:0:0:
282,202,54880,1,0,0:0:0:0:
277,180,54922,1,0,0:0:0:0:
168,176,54964,1,0,0:0:0:0:
88,224,55006,5,2,0:0:0:0:
93,202,55047,1,0,0:0:0:0:
98,180,55089,1,0,0:0:0:0:
200,176,55131,1,0,0:0:0:0:
320,224,55172,5,0,0:0:0:0:
314,202,55213,1,0,0:0:0:0:
309,180,55255,1,0,0:0:0:0:
200,176,55297,1,0,0:0:0:0:
120,224,55339,5,2,0:0:0:0:
125,202,55380,1,0,0:0:0:0:
130,180,55422,1,0,0:0:0:0:
232,176,55464,1,0,0:0:0:0:
352,224,55505,5,0,0:0:0:0:
346,202,55546,1,0,0:0:0:0:
341,180,55588,1,0,0:0:0:0:
232,176,55630,1,0,0:0:0:0:
80,120,55673,5,2,0:0:0:0:
99,108,55714,1,0,0:0:0:0:
119,97,55756,1,0,0:0:0:0:
256,88,55798,1,0,0:0:0:0:
432,120,55840,5,0,0:0:0:0:
413,108,55881,1,0,0:0:0:0:
393,97,55923,1,0,0:0:0:0:
256,88,55965,1,0,0:0:0:0:
24,120,56006,5,2,0:0:0:0:
43,108,56047,1,0,0:0:0:0:
63,97,56089,1,0,0:0:0:0:
256,88,56131,1,0,0:0:0:0:
408,120,56173,5,0,0:0:0:0:
389,108,56214,1,0,0:0:0:0:
369,97,56256,1,0,0:0:0:0:
256,88,56298,1,0,0:0:0:0:
120,120,56340,5,2,0:0:0:0:
139,108,56381,1,0,0:0:0:0:
159,97,56423,1,0,0:0:0:0:
296,88,56465,1,0,0:0:0:0:
472,120,56507,5,0,0:0:0:0:
453,108,56548,1,0,0:0:0:0:
433,97,56590,1,0,0:0:0:0:
296,88,56632,1,0,0:0:0:0:
64,120,56673,5,2,0:0:0:0:
83,108,56714,1,0,0:0:0:0:
103,97,56756,1,0,0:0:0:0:
296,88,56798,1,0,0:0:0:0:
448,120,56840,5,0,0:0:0:0:
429,108,56881,1,0,0:0:0:0:
409,97,56923,1,0,0:0:0:0:
296,88,56965,1,0,0:0:0:0:
64,168,57006,5,2,0:0:0:0:
83,156,57047,1,0,0:0:0:0:
103,145,57089,1,0,0:0:0:0:
240,136,57131,1,0,0:0:0:0:
416,168,57173,5,0,0:0:0:0:
397,156,57214,1,0,0:0:0:0:
377,145,57256,1,0,0:0:0:0:
240,136,57298,1,0,0:0:0:0:
8,168,57339,5,2,0:0:0:0:
27,156,57380,1,0,0:0:0:0:
47,145,57422,1,0,0:0:0:0:
240,136,57464,1,0,0:0:0:0:
392,168,57506,5,0,0:0:0:0:
373,156,57547,1,0,0:0:0:0:
353,145,57589,1,0,0:0:0:0:
240,136,57631,1,0,0:0:0:0:
104,208,57673,5,2,0:0:0:0:
123,196,57714,1,0,0:0:0:0:
143,185,57756,1,0,0:0:0:0:
280,176,57798,1,0,0:0:0:0:
456,208,57840,5,0,0:0:0:0:
437,196,57881,1,0,0:0:0:0:
417,185,57923,1,0,0:0:0:0:
280,176,57965,1,0,0:0:0:0:
48,208,58006,5,2,0:0:0:0:
67,196,58047,1,0,0:0:0:0:
87,185,58089,1,0,0:0:0:0:
280,176,58131,1,0,0:0:0:0:
432,208,58173,5,0,0:0:0:0:
413,196,58214,1,0,0:0:0:0:
393,185,58256,1,0,0:0:0:0:
280,176,58298,1,0,0:0:0:0:
64,256,58340,5,2,0:0:0:0:
83,244,58381,1,0,0:0:0:0:
103,233,58423,1,0,0:0:0:0:
240,224,58465,1,0,0:0:0:0:
416,256,58507,5,0,0:0:0:0:
397,244,58548,1,0,0:0:0:0:
377,233,58590,1,0,0:0:0:0:
240,224,58632,1,0,0:0:0:0:
8,256,58673,5,2,0:0:0:0:
27,244,58714,1,0,0:0:0:0:
47,233,58756,1,0,0:0:0:0:
240,224,58798,1,0,0:0:0:0:
392,256,58840,5,0,0:0:0:0:
373,244,58881,1,0,0:0:0:0:
353,233,58923,1,0,0:0:0:0:
240,224,58965,1,0,0:0:0:0:
96,288,59006,5,2,0:0:0:0:
115,276,59047,1,0,0:0:0:0:
135,265,59089,1,0,0:0:0:0:
272,256,59131,1,0,0:0:0:0:
448,288,59173,5,0,0:0:0:0:
429,276,59214,1,0,0:0:0:0:
409,265,59256,1,0,0:0:0:0:
272,256,59298,1,0,0:0:0:0:
40,288,59339,5,2,0:0:0:0:
59,276,59380,1,0,0:0:0:0:
79,265,59422,1,2,0:0:0:0:
272,256,59464,1,0,0:0:0:0:
424,288,59506,5,2,0:0:0:0:
405,276,59547,1,0,0:0:0:0:
385,265,59589,1,2,0:0:0:0:
272,256,59631,1,0,0:0:0:0:
24,224,59674,5,6,0:0:0:0:
29,202,59715,1,0,0:0:0:0:
34,180,59757,1,0,0:0:0:0:
136,176,59799,1,0,0:0:0:0:
256,224,59840,5,0,0:0:0:0:
250,202,59881,1,0,0:0:0:0:
245,180,59923,1,0,0:0:0:0:
136,176,59965,1,0,0:0:0:0:
56,224,60007,5,2,0:0:0:0:
61,202,60048,1,0,0:0:0:0:
66,180,60090,1,0,0:0:0:0:
168,176,60132,1,0,0:0:0:0:
288,224,60173,5,0,0:0:0:0:
282,202,60214,1,0,0:0:0:0:
277,180,60256,1,0,0:0:0:0:
168,176,60298,1,0,0:0:0:0:
88,224,60340,5,2,0:0:0:0:
93,202,60381,1,0,0:0:0:0:
98,180,60423,1,0,0:0:0:0:
200,176,60465,1,0,0:0:0:0:
320,224,60506,5,0,0:0:0:0:
314,202,60547,1,0,0:0:0:0:
309,180,60589,1,0,0:0:0:0:
200,176,60631,1,0,0:0:0:0:
120,224,60673,5,2,0:0:0:0:
125,202,60714,1,0,0:0:0:0:
130,180,60756,1,0,0:0:0:0:
232,176,60798,1,0,0:0:0:0:
352,224,60839,5,0,0:0:0:0:
346,202,60880,1,0,0:0:0:0:
341,180,60922,1,0,0:0:0:0:
232,176,60964,1,0,0:0:0:0:
80,120,61007,5,6,0:0:0:0:
99,108,61048,1,0,0:0:0:0:
119,97,61090,1,0,0:0:0:0:
256,88,61132,1,0,0:0:0:0:
432,120,61174,5,0,0:0:0:0:
413,108,61215,1,0,0:0:0:0:
393,97,61257,1,0,0:0:0:0:
256,88,61299,1,0,0:0:0:0:
24,120,61340,5,2,0:0:0:0:
43,108,61381,1,0,0:0:0:0:
63,97,61423,1,0,0:0:0:0:
256,88,61465,1,0,0:0:0:0:
408,120,61507,5,0,0:0:0:0:
389,108,61548,1,0,0:0:0:0:
369,97,61590,1,0,0:0:0:0:
256,88,61632,1,0,0:0:0:0:
120,120,61674,5,2,0:0:0:0:
139,108,61715,1,0,0:0:0:0:
159,97,61757,1,0,0:0:0:0:
296,88,61799,1,0,0:0:0:0:
472,120,61841,5,0,0:0:0:0:
453,108,61882,1,0,0:0:0:0:
433,97,61924,1,0,0:0:0:0:
296,88,61966,1,0,0:0:0:0:
64,120,62007,5,2,0:0:0:0:
83,108,62048,1,0,0:0:0:0:
103,97,62090,1,0,0:0:0:0:
296,88,62132,1,0,0:0:0:0:
448,120,62174,5,0,0:0:0:0:
429,108,62215,1,0,0:0:0:0:
409,97,62257,1,0,0:0:0:0:
296,88,62299,1,0,0:0:0:0:
64,168,62340,5,6,0:0:0:0:
83,156,62381,1,0,0:0:0:0:
103,145,62423,1,0,0:0:0:0:
240,136,62465,1,0,0:0:0:0:
416,168,62507,5,0,0:0:0:0:
397,156,62548,1,0,0:0:0:0:
377,145,62590,1,0,0:0:0:0:
240,136,62632,1,0,0:0:0:0:
8,168,62673,5,2,0:0:0:0:
27,156,62714,1,0,0:0:0:0:
47,145,62756,1,0,0:0:0:0:
240,136,62798,1,0,0:0:0:0:
392,168,62840,5,0,0:0:0:0:
373,156,62881,1,0,0:0:0:0:
353,145,62923,1,0,0:0:0:0:
240,136,62965,1,0,0:0:0:0:
104,208,63007,5,6,0:0:0:0:
123,196,63048,1,0,0:0:0:0:
143,185,63090,1,0,0:0:0:0:
280,176,63132,1,0,0:0:0:0:
456,208,63174,5,0,0:0:0:0:
437,196,63215,1,0,0:0:0:0:
417,185,63257,1,0,0:0:0:0:
280,176,63299,1,0,0:0:0:0:
48,208,63340,5,2,0:0:0:0:
67,196,63381,1,0,0:0:0:0:
87,185,63423,1,0,0:0:0:0:
280,176,63465,1,0,0:0:0:0:
432,208,63507,5,0,0:0:0:0:
413,196,63548,1,0,0:0:0:0:
393,185,63590,1,0,0:0:0:0:
280,176,63632,1,0,0:0:0:0:
480,288,63674,5,2,0:0:0:0:
480,288,63695,5,2,0:0:0:0:
512,320,63716,5,0,0:0:0:0:
512,320,63737,5,0,0:0:0:0:
480,352,63757,5,0,0:0:0:0:
480,352,63778,5,0,0:0:0:0:
336,352,63799,5,0,0:0:0:0:
336,352,63820,5,0,0:0:0:0:
176,352,63841,5,0,0:0:0:0:
176,352,63862,5,0,0:0:0:0:
32,352,63882,5,0,0:0:0:0:
32,352,63903,5,0,0:0:0:0:
0,320,63924,5,8,0:0:0:0:
0,320,63945,5,8,0:0:0:0:
32,288,63965,5,0,0:0:0:0:
32,288,63986,5,0,0:0:0:0:
480,96,64007,5,8,0:0:0:0:
480,96,64017,5,8,0:0:0:0:
480,96,64028,5,8,0:0:0:0:
480,96,64038,5,8,0:0:0:0:
512,64,64049,5,0,0:0:0:0:
512,64,64059,5,0,0:0:0:0:
512,64,64070,5,0,0:0:0:0:
512,64,64080,5,0,0:0:0:0:
480,32,64090,5,0,0:0:0:0:
480,32,64100,5,0,0:0:0:0:
480,32,64111,5,0,0:0:0:0:
480,32,64121,5,0,0:0:0:0:
336,32,64132,5,0,0:0:0:0:
336,32,64142,5,0,0:0:0:0:
336,32,64153,5,0,0:0:0:0:
336,32,64163,5,0,0:0:0:0:
176,32,64174,5,2,0:0:0:0:
176,32,64184,5,2,0:0:0:0:
176,32,64195,5,2,0:0:0:0:
176,32,64205,5,2,0:0:0:0:
32,32,64215,5,0,0:0:0:0:
32,32,64225,5,0,0:0:0:0:
32,32,64236,5,0,0:0:0:0:
32,32,64246,5,0,0:0:0:0:
0,64,64257,5,0,0:0:0:0:
0,64,64267,5,0,0:0:0:0:
0,64,64278,5,0,0:0:0:0:
0,64,64288,5,0,0:0:0:0:
32,96,64298,5,8,0:0:0:0:
32,96,64308,5,8,0:0:0:0:
32,96,64319,5,8,0:0:0:0:
32,96,64329,5,8,0:0:0:0:
480,288,64340,5,8,0:0:0:0:
480,288,64350,5,8,0:0:0:0:
480,288,64361,5,8,0:0:0:0:
480,288,64371,5,8,0:0:0:0:
512,320,64382,5,0,0:0:0:0:
512,320,64392,5,0,0:0:0:0:
512,320,64403,5,0,0:0:0:0:
512,320,64413,5,0,0:0:0:0:
480,352,64423,5,0,0:0:0:0:
480,352,64433,5,0,0:0:0:0:
480,352,64444,5,0,0:0:0:0:
480,352,64454,5,0,0:0:0:0:
336,352,64465,5,0,0:0:0:0:
336,352,64475,5,0,0:0:0:0:
336,352,64486,5,0,0:0:0:0:
336,352,64496,5,0,0:0:0:0:
176,352,64507,5,2,0:0:0:0:
176,352,64517,5,2,0:0:0:0:
176,352,64528,5,2,0:0:0:0:
176,352,64538,5,2,0:0:0:0:
32,352,64548,5,0,0:0:0:0:
32,352,64558,5,0,0:0:0:0:
32,352,64569,5,0,0:0:0:0:
32,352,64579,5,0,0:0:0:0:
0,320,64590,5,0,0:0:0:0:
0,320,64600,5,0,0:0:0:0:
0,320,64611,5,0,0:0:0:0:
0,320,64621,5,0,0:0:0:0:
32,288,64631,5,8,0:0:0:0:
32,288,64641,5,8,0:0:0:0:
32,288,64652,5,8,0:0:0:0:
32,288,64662,5,8,0:0:0:0:
480,96,64674,5,8,0:0:0:0:
480,96,64684,5,8,0:0:0:0:
480,96,64695,5,8,0:0:0:0:
480,96,64705,5,8,0:0:0:0:
512,64,64716,5,0,0:0:0:0:
512,64,64726,5,0,0:0:0:0:
512,64,64737,5,0,0:0:0:0:
512,64,64747,5,0,0:0:0:0:
480,32,64757,5,0,0:0:0:0:
480,32,64767,5,0,0:0:0:0:
480,32,64778,5,0,0:0:0:0:
480,32,64788,5,0,0:0:0:0:
336,32,64799,5,0,0:0:0:0:
336,32,64809,5,0,0:0:0:0:
336,32,64820,5,0,0:0:0:0:
336,32,64830,5,0,0:0:0:0:
176,32,64841,5,2,0:0:0:0:
176,32,64851,5,2,0:0:0:0:
176,32,64862,5,2,0:0:0:0:
176,32,64872,5,2,0:0:0:0:
32,32,64882,5,0,0:0:0:0:
32,32,64892,5,0,0:0:0:0:
32,32,64903,5,0,0:0:0:0:
32,32,64913,5,0,0:0:0:0:
0,64,64924,5,0,0:0:0:0:
0,64,64934,5,0,0:0:0:0:
0,64,64945,5,0,0:0:0:0:
0,64,64955,5,0,0:0:0:0:
32,96,64965,5,8,0:0:0:0:
32,96,64975,5,8,0:0:0:0:
32,96,64986,5,8,0:0:0:0:
32,96,64996,5,8,0:0:0:0:
0,192,65007,6,0,L|16:192,3,11.25,2|0|0|0,0:0|0:0|0:0|0:0,0:0:0:0:
8,168,65090,6,0,L|24:168,3,11.25
16,128,65174,6,0,L|32:128,3,11.25
24,104,65257,6,0,L|40:104,3,11.25
48,232,65340,6,0,L|64:232,3,11.25,8|0|0|0,0:0|0:0|0:0|0:0,0:0:0:0:
56,208,65423,6,0,L|72:208,3,11.25
64,168,65507,6,0,L|80:168,3,11.25
72,144,65590,6,0,L|88:144,3,11.25
96,256,65674,6,0,L|112:256,3,11.25
104,232,65757,6,0,L|120:232,3,11.25
112,192,65841,6,0,L|128:192,3,11.25
120,168,65924,6,0,L|136:168,3,11.25
144,296,66007,6,0,L|160:296,3,11.25,8|0|0|0,0:0|0:0|0:0|0:0,0:0:0:0:
152,272,66090,6,0,L|168:272,3,11.25
160,232,66174,6,0,L|176:232,3,11.25
168,208,66257,6,0,L|184:208,3,11.25
192,208,66340,6,0,L|208:208,3,11.25,2|0|0|0,0:0|0:0|0:0|0:0,0:0:0:0:
200,184,66423,6,0,L|216:184,3,11.25
208,144,66507,6,0,L|224:144,3,11.25
216,120,66590,6,0,L|232:120,3,11.25
240,248,66673,6,0,L|256:248,3,11.25,8|0|0|0,0:0|0:0|0:0|0:0,0:0:0:0:
248,224,66756,6,0,L|264:224,3,11.25
256,184,66840,6,0,L|272:184,3,11.25
264,160,66923,6,0,L|280:160,3,11.25
288,272,67007,6,0,L|304:272,3,11.25
296,248,67090,6,0,L|312:248,3,11.25
304,208,67174,6,0,L|320:208,3,11.25
312,184,67257,6,0,L|328:184,3,11.25
336,312,67340,6,0,L|352:312,3,11.25,8|0|0|0,0:0|0:0|0:0|0:0,0:0:0:0:
344,288,67423,6,0,L|360:288,3,11.25
352,248,67507,6,0,L|368:248,3,11.25
360,224,67590,6,0,L|376:224,3,11.25
408,168,67674,6,0,L|392:168,3,11.25,2|0|0|0,0:0|0:0|0:0|0:0,0:0:0:0:
400,144,67757,6,0,L|384:144,3,11.25
392,104,67841,6,0,L|376:104,3,11.25
384,80,67924,6,0,L|368:80,3,11.25
360,208,68007,6,0,L|344:208,3,11.25,8|0|0|0,0:0|0:0|0:0|0:0,0:0:0:0:
352,184,68090,6,0,L|336:184,3,11.25
344,144,68174,6,0,L|328:144,3,11.25
336,120,68257,6,0,L|320:120,3,11.25
312,232,68341,6,0,L|296:232,3,11.25
304,208,68424,6,0,L|288:208,3,11.25
296,168,68508,6,0,L|280:168,3,11.25
288,144,68591,6,0,L|272:144,3,11.25
264,272,68674,6,0,L|248:272,3,11.25,8|0|0|0,0:0|0:0|0:0|0:0,0:0:0:0:
256,248,68757,6,0,L|240:248,3,11.25
248,208,68841,6,0,L|232:208,3,11.25
240,184,68924,6,0,L|224:184,3,11.25
216,184,69007,6,0,L|200:184,3,11.25,2|0|0|0,0:0|0:0|0:0|0:0,0:0:0:0:
208,160,69090,6,0,L|192:160,3,11.25
200,120,69174,6,0,L|184:120,3,11.25
192,96,69257,6,0,L|176:96,3,11.25
168,224,69340,6,0,L|152:224,3,11.25,8|0|0|0,0:0|0:0|0:0|0:0,0:0:0:0:
160,200,69423,6,0,L|144:200,3,11.25
152,160,69507,6,0,L|136:160,3,11.25
144,136,69590,6,0,L|128:136,3,11.25
120,248,69674,6,0,L|104:248,3,11.25
112,224,69757,6,0,L|96:224,3,11.25
104,184,69841,6,0,L|88:184,3,11.25
96,160,69924,6,0,L|80:160,3,11.25
72,288,70007,6,0,L|56:288,3,11.25,8|0|0|0,0:0|0:0|0:0|0:0,0:0:0:0:
64,264,70090,6,0,L|48:264,3,11.25
56,224,70174,6,0,L|40:224,3,11.25
48,200,70257,6,0,L|32:200,3,11.25
8,112,70340,6,0,L|24:112,3,11.25,2|0|0|0,0:0|0:0|0:0|0:0,0:0:0:0:
16,88,70423,6,0,L|32:88,3,11.25
24,48,70507,6,0,L|40:48,3,11.25
32,24,70590,6,0,L|48:24,3,11.25
56,152,70673,6,0,L|72:152,3,11.25,8|0|0|0,0:0|0:0|0:0|0:0,0:0:0:0:
64,128,70756,6,0,L|80:128,3,11.25
72,88,70840,6,0,L|88:88,3,11.25
80,64,70923,6,0,L|96:64,3,11.25
104,176,71007,6,0,L|120:176,3,11.25
112,152,71090,6,0,L|128:152,3,11.25
120,112,71174,6,0,L|136:112,3,11.25
128,88,71257,6,0,L|144:88,3,11.25
152,216,71340,6,0,L|168:216,3,11.25,8|0|0|0,0:0|0:0|0:0|0:0,0:0:0:0:
160,192,71423,6,0,L|176:192,3,11.25
168,152,71507,6,0,L|184:152,3,11.25
176,128,71590,6,0,L|192:128,3,11.25
200,128,71673,6,0,L|216:128,3,11.25,2|0|0|0,0:0|0:0|0:0|0:0,0:0:0:0:
208,104,71756,6,0,L|224:104,3,11.25
216,64,71840,6,0,L|232:64,3,11.25
224,40,71923,6,0,L|240:40,3,11.25
248,168,72006,6,0,L|264:168,3,11.25,8|0|0|0,0:0|0:0|0:0|0:0,0:0:0:0:
256,144,72089,6,0,L|272:144,3,11.25
264,104,72173,6,0,L|280:104,3,11.25
272,80,72256,6,0,L|288:80,3,11.25
296,192,72340,6,0,L|312:192,3,11.25
304,168,72423,6,0,L|320:168,3,11.25
312,128,72507,6,0,L|328:128,3,11.25
320,104,72590,6,0,L|336:104,3,11.25
344,232,72673,6,0,L|360:232,3,11.25,8|0|0|0,0:0|0:0|0:0|0:0,0:0:0:0:
352,208,72756,6,0,L|368:208,3,11.25
360,168,72840,6,0,L|376:168,3,11.25
368,144,72923,6,0,L|384:144,3,11.25
416,88,73007,6,0,L|400:88,3,11.25,2|0|0|0,0:0|0:0|0:0|0:0,0:0:0:0:
408,64,73090,6,0,L|392:64,3,11.25
400,24,73174,6,0,L|384:24,3,11.25
392,0,73257,6,0,L|376:0,3,11.25
368,128,73340,6,0,L|352:128,3,11.25,8|0|0|0,0:0|0:0|0:0|0:0,0:0:0:0:
360,104,73423,6,0,L|344:104,3,11.25
352,64,73507,6,0,L|336:64,3,11.25
344,40,73590,6,0,L|328:40,3,11.25
320,152,73674,6,0,L|304:152,3,11.25
312,128,73757,6,0,L|296:128,3,11.25
304,88,73841,6,0,L|288:88,3,11.25
296,64,73924,6,0,L|280:64,3,11.25
272,192,74007,6,0,L|256:192,3,11.25,8|0|0|0,0:0|0:0|0:0|0:0,0:0:0:0:
264,168,74090,6,0,L|248:168,3,11.25
256,128,74174,6,0,L|240:128,3,11.25
248,104,74257,6,0,L|232:104,3,11.25
224,104,74340,6,0,L|208:104,3,11.25,2|0|0|0,0:0|0:0|0:0|0:0,0:0:0:0:
216,80,74423,6,0,L|200:80,3,11.25
208,40,74507,6,0,L|192:40,3,11.25
200,16,74590,6,0,L|184:16,3,11.25
176,144,74673,6,0,L|160:144,3,11.25,8|0|0|0,0:0|0:0|0:0|0:0,0:0:0:0:
168,120,74756,6,0,L|152:120,3,11.25
160,80,74840,6,0,L|144:80,3,11.25
152,56,74923,6,0,L|136:56,3,11.25
128,168,75007,6,0,L|112:168,3,11.25
120,144,75090,6,0,L|104:144,3,11.25
112,104,75174,6,0,L|96:104,3,11.25
104,80,75257,6,0,L|88:80,3,11.25
80,208,75340,6,0,L|64:208,3,11.25,8|0|0|0,0:0|0:0|0:0|0:0,0:0:0:0:
72,184,75423,6,0,L|56:184,3,11.25
64,144,75507,6,0,L|48:144,3,11.25
56,120,75590,6,0,L|40:120,3,11.25
0,256,75674,6,0,L|16:256,3,11.25,6|0|0|0,0:0|0:0|0:0|0:0,0:0:0:0:
8,232,75757,6,0,L|24:232,3,11.25
16,192,75841,6,0,L|32:192,3,11.25
24,168,75924,6,0,L|40:168,3,11.25
48,296,76007,6,0,L|64:296,3,11.25,8|0|0|0,0:0|0:0|0:0|0:0,0:0:0:0:
56,272,76090,6,0,L|72:272,3,11.25
64,232,76174,6,0,L|80:232,3,11.25
72,208,76257,6,0,L|88:208,3,11.25
96,320,76341,6,0,L|112:320,3,11.25
104,296,76424,6,0,L|120:296,3,11.25
112,256,76508,6,0,L|128:256,3,11.25
120,232,76591,6,0,L|136:232,3,11.25
144,360,76674,6,0,L|160:360,3,11.25,8|0|0|0,0:0|0:0|0:0|0:0,0:0:0:0:
152,336,76757,6,0,L|168:336,3,11.25
160,296,76841,6,0,L|176:296,3,11.25
168,272,76924,6,0,L|184:272,3,11.25
192,272,77007,6,0,L|208:272,3,11.25,2|0|0|0,0:0|0:0|0:0|0:0,0:0:0:0:
200,248,77090,6,0,L|216:248,3,11.25
208,208,77174,6,0,L|224:208,3,11.25
216,184,77257,6,0,L|232:184,3,11.25
240,312,77340,6,0,L|256:312,3,11.25,8|0|0|0,0:0|0:0|0:0|0:0,0:0:0:0:
248,288,77423,6,0,L|264:288,3,11.25
256,248,77507,6,0,L|272:248,3,11.25
264,224,77590,6,0,L|280:224,3,11.25
288,336,77674,6,0,L|304:336,3,11.25
296,312,77757,6,0,L|312:312,3,11.25
304,272,77841,6,0,L|320:272,3,11.25
312,248,77924,6,0,L|328:248,3,11.25
336,376,78007,6,0,L|352:376,3,11.25,8|0|0|0,0:0|0:0|0:0|0:0,0:0:0:0:
344,352,78090,6,0,L|360:352,3,11.25
352,312,78174,6,0,L|368:312,3,11.25
360,288,78257,6,0,L|376:288,3,11.25
408,232,78341,6,0,L|392:232,3,11.25,2|0|0|0,0:0|0:0|0:0|0:0,0:0:0:0:
400,208,78424,6,0,L|384:208,3,11.25
392,168,78508,6,0,L|376:168,3,11.25
384,144,78591,6,0,L|368:144,3,11.25
360,272,78674,6,0,L|344:272,3,11.25,8|0|0|0,0:0|0:0|0:0|0:0,0:0:0:0:
352,248,78757,6,0,L|336:248,3,11.25
344,208,78841,6,0,L|328:208,3,11.25
336,184,78924,6,0,L|320:184,3,11.25
312,296,79008,6,0,L|296:296,3,11.25
304,272,79091,6,0,L|288:272,3,11.25
296,232,79175,6,0,L|280:232,3,11.25
288,208,79258,6,0,L|272:208,3,11.25
264,336,79341,6,0,L|248:336,3,11.25,8|0|0|0,0:0|0:0|0:0|0:0,0:0:0:0:
256,312,79424,6,0,L|240:312,3,11.25
248,272,79508,6,0,L|232:272,3,11.25
240,248,79591,6,0,L|224:248,3,11.25
216,248,79674,6,0,L|200:248,3,11.25,2|0|0|0,0:0|0:0|0:0|0:0,0:0:0:0:
208,224,79757,6,0,L|192:224,3,11.25
200,184,79841,6,0,L|184:184,3,11.25
192,160,79924,6,0,L|176:160,3,11.25
168,288,80007,6,0,L|152:288,3,11.25,8|0|0|0,0:0|0:0|0:0|0:0,0:0:0:0:
160,264,80090,6,0,L|144:264,3,11.25
152,224,80174,6,0,L|136:224,3,11.25
144,200,80257,6,0,L|128:200,3,11.25
120,312,80341,6,0,L|104:312,3,11.25
112,288,80424,6,0,L|96:288,3,11.25
104,248,80508,6,0,L|88:248,3,11.25
96,224,80591,6,0,L|80:224,3,11.25
72,352,80674,6,0,L|56:352,3,11.25,8|0|0|0,0:0|0:0|0:0|0:0,0:0:0:0:
64,328,80757,6,0,L|48:328,3,11.25
56,288,80841,6,0,L|40:288,3,11.25
48,264,80924,6,0,L|32:264,3,11.25
0,192,81007,6,0,L|16:192,3,11.25,6|0|0|0,0:0|0:0|0:0|0:0,0:0:0:0:
8,168,81090,6,0,L|24:168,3,11.25
16,128,81174,6,0,L|32:128,3,11.25
24,104,81257,6,0,L|40:104,3,11.25
48,232,81340,6,0,L|64:232,3,11.25,8|0|0|0,0:0|0:0|0:0|0:0,0:0:0:0:
56,208,81423,6,0,L|72:208,3,11.25
64,168,81507,6,0,L|80:168,3,11.25
72,144,81590,6,0,L|88:144,3,11.25
96,256,81674,6,0,L|112:256,3,11.25
104,232,81757,6,0,L|120:232,3,11.25
112,192,81841,6,0,L|128:192,3,11.25
120,168,81924,6,0,L|136:168,3,11.25
144,296,82007,6,0,L|160:296,3,11.25,8|0|0|0,0:0|0:0|0:0|0:0,0:0:0:0:
152,272,82090,6,0,L|168:272,3,11.25
160,232,82174,6,0,L|176:232,3,11.25
168,208,82257,6,0,L|184:208,3,11.25
192,208,82340,6,0,L|208:208,3,11.25,2|0|0|0,0:0|0:0|0:0|0:0,0:0:0:0:
200,184,82423,6,0,L|216:184,3,11.25
208,144,82507,6,0,L|224:144,3,11.25
216,120,82590,6,0,L|232:120,3,11.25
240,248,82673,6,0,L|256:248,3,11.25,8|0|0|0,0:0|0:0|0:0|0:0,0:0:0:0:
248,224,82756,6,0,L|264:224,3,11.25
256,184,82840,6,0,L|272:184,3,11.25
264,160,82923,6,0,L|280:160,3,11.25
288,272,83007,6,0,L|304:272,3,11.25
296,248,83090,6,0,L|312:248,3,11.25
304,208,83174,6,0,L|320:208,3,11.25
312,184,83257,6,0,L|328:184,3,11.25
336,312,83340,6,0,L|352:312,3,11.25,8|0|0|0,0:0|0:0|0:0|0:0,0:0:0:0:
344,288,83423,6,0,L|360:288,3,11.25
352,248,83507,6,0,L|368:248,3,11.25
360,224,83590,6,0,L|376:224,3,11.25
408,168,83674,6,0,L|392:168,3,11.25,2|0|0|0,0:0|0:0|0:0|0:0,0:0:0:0:
400,144,83757,6,0,L|384:144,3,11.25
392,104,83841,6,0,L|376:104,3,11.25
384,80,83924,6,0,L|368:80,3,11.25
360,208,84007,6,0,L|344:208,3,11.25,8|0|0|0,0:0|0:0|0:0|0:0,0:0:0:0:
352,184,84090,6,0,L|336:184,3,11.25
344,144,84174,6,0,L|328:144,3,11.25
336,120,84257,6,0,L|320:120,3,11.25
312,232,84341,6,0,L|296:232,3,11.25
304,208,84424,6,0,L|288:208,3,11.25
296,168,84508,6,0,L|280:168,3,11.25
288,144,84591,6,0,L|272:144,3,11.25
264,272,84674,6,0,L|248:272,3,11.25,8|0|0|0,0:0|0:0|0:0|0:0,0:0:0:0:
256,248,84757,6,0,L|240:248,3,11.25
248,208,84841,6,0,L|232:208,3,11.25
240,184,84924,6,0,L|224:184,3,11.25
216,184,85007,6,0,L|200:184,3,11.25,2|0|0|0,0:0|0:0|0:0|0:0,0:0:0:0:
208,160,85090,6,0,L|192:160,3,11.25
200,120,85174,6,0,L|184:120,3,11.25
192,96,85257,6,0,L|176:96,3,11.25
168,224,85340,6,0,L|152:224,3,11.25,8|0|0|0,0:0|0:0|0:0|0:0,0:0:0:0:
160,200,85423,6,0,L|144:200,3,11.25
152,160,85507,6,0,L|136:160,3,11.25
144,136,85590,6,0,L|128:136,3,11.25
120,248,85674,6,0,L|104:248,3,11.25
112,224,85757,6,0,L|96:224,3,11.25
104,184,85841,6,0,L|88:184,3,11.25
96,160,85924,6,0,L|80:160,3,11.25
72,288,86007,6,0,L|56:288,3,11.25,8|0|0|0,0:0|0:0|0:0|0:0,0:0:0:0:
64,264,86090,6,0,L|48:264,3,11.25
56,224,86174,6,0,L|40:224,3,11.25
48,200,86257,6,0,L|32:200,3,11.25
8,192,86340,5,2,0:0:0:0:
16,184,86361,6,0,L|16:168,61,11.25,0|0|0|0|0|0|0|0|0|0|0|0|0|0|0|2|0|0|0|0|0|0|0|0|0|0|0|0|0|0|0|2|0|0|0|0|0|0|0|0|0|0|0|0|0|0|0|2|0|0|0|0|0|0|0|0|0|0|0|0|0|0,0:0|0:0|0:0|0:0|0:0|0:0|0:0|0:0|0:0|0:0|0:0|0:0|0:0|0:0|0:0|0:0|0:0|0:0|0:0|0:0|0:0|0:0|0:0|0:0|0:0|0:0|0:0|0:0|0:0|0:0|0:0|0:0|0:0|0:0|0:0|0:0|0:0|0:0|0:0|0:0|0:0|0:0|0:0|0:0|0:0|0:0|0:0|0:0|0:0|0:0|0:0|0:0|0:0|0:0|0:0|0:0|0:0|0:0|0:0|0:0|0:0|0:0,0:0:0:0:
24,160,87653,5,0,0:0:0:0:
240,200,87674,5,2,0:0:0:0:
248,192,87695,6,0,L|248:176,61,11.25,0|0|0|0|0|0|0|0|0|0|0|0|0|0|0|2|0|0|0|0|0|0|0|0|0|0|0|0|0|0|0|2|0|0|0|0|0|0|0|0|0|0|0|0|0|0|0|2|0|0|0|0|0|0|0|0|0|0|0|0|0|0,0:0|0:0|0:0|0:0|0:0|0:0|0:0|0:0|0:0|0:0|0:0|0:0|0:0|0:0|0:0|0:0|0:0|0:0|0:0|0:0|0:0|0:0|0:0|0:0|0:0|0:0|0:0|0:0|0:0|0:0|0:0|0:0|0:0|0:0|0:0|0:0|0:0|0:0|0:0|0:0|0:0|0:0|0:0|0:0|0:0|0:0|0:0|0:0|0:0|0:0|0:0|0:0|0:0|0:0|0:0|0:0|0:0|0:0|0:0|0:0|0:0|0:0,0:0:0:0:
256,168,88987,5,0,0:0:0:0:
504,192,89007,5,2,0:0:0:0:
496,184,89028,6,0,L|496:168,61,11.25,0|0|0|0|0|0|0|0|0|0|0|0|0|0|0|2|0|0|0|0|0|0|0|0|0|0|0|0|0|0|0|2|0|0|0|0|0|0|0|0|0|0|0|0|0|0|0|2|0|0|0|0|0|0|0|0|0|0|0|0|0|0,0:0|0:0|0:0|0:0|0:0|0:0|0:0|0:0|0:0|0:0|0:0|0:0|0:0|0:0|0:0|0:0|0:0|0:0|0:0|0:0|0:0|0:0|0:0|0:0|0:0|0:0|0:0|0:0|0:0|0:0|0:0|0:0|0:0|0:0|0:0|0:0|0:0|0:0|0:0|0:0|0:0|0:0|0:0|0:0|0:0|0:0|0:0|0:0|0:0|0:0|0:0|0:0|0:0|0:0|0:0|0:0|0:0|0:0|0:0|0:0|0:0|0:0,0:0:0:0:
488,160,90320,5,0,0:0:0:0:
272,200,90341,5,2,0:0:0:0:
264,192,90362,6,0,L|264:176,61,11.25,0|0|0|0|0|0|0|0|0|0|0|0|0|0|0|2|0|0|0|0|0|0|0|0|0|0|0|0|0|0|0|2|0|0|0|0|0|0|0|0|0|0|0|0|0|0|0|2|0|0|0|0|0|0|0|2|0|0|0|0|0|0,0:0|0:0|0:0|0:0|0:0|0:0|0:0|0:0|0:0|0:0|0:0|0:0|0:0|0:0|0:0|0:0|0:0|0:0|0:0|0:0|0:0|0:0|0:0|0:0|0:0|0:0|0:0|0:0|0:0|0:0|0:0|0:0|0:0|0:0|0:0|0:0|0:0|0:0|0:0|0:0|0:0|0:0|0:0|0:0|0:0|0:0|0:0|0:0|0:0|0:0|0:0|0:0|0:0|0:0|0:0|0:0|0:0|0:0|0:0|0:0|0:0|0:0,0:0:0:0:
256,168,91654,5,0,0:0:0:0:
8,96,91674,5,2,0:0:0:0:
16,88,91695,6,0,L|16:72,61,11.25,0|0|0|0|0|0|0|0|0|0|0|0|0|0|0|2|0|0|0|0|0|0|0|0|0|0|0|0|0|0|0|2|0|0|0|0|0|0|0|0|0|0|0|0|0|0|0|2|0|0|0|0|0|0|0|0|0|0|0|0|0|0,0:0|0:0|0:0|0:0|0:0|0:0|0:0|0:0|0:0|0:0|0:0|0:0|0:0|0:0|0:0|0:0|0:0|0:0|0:0|0:0|0:0|0:0|0:0|0:0|0:0|0:0|0:0|0:0|0:0|0:0|0:0|0:0|0:0|0:0|0:0|0:0|0:0|0:0|0:0|0:0|0:0|0:0|0:0|0:0|0:0|0:0|0:0|0:0|0:0|0:0|0:0|0:0|0:0|0:0|0:0|0:0|0:0|0:0|0:0|0:0|0:0|0:0,0:0:0:0:
24,64,92987,5,0,0:0:0:0:
240,104,93008,5,2,0:0:0:0:
248,96,93029,6,0,L|248:80,61,11.25,0|0|0|0|0|0|0|0|0|0|0|0|0|0|0|2|0|0|0|0|0|0|0|0|0|0|0|0|0|0|0|2|0|0|0|0|0|0|0|0|0|0|0|0|0|0|0|2|0|0|0|0|0|0|0|0|0|0|0|0|0|0,0:0|0:0|0:0|0:0|0:0|0:0|0:0|0:0|0:0|0:0|0:0|0:0|0:0|0:0|0:0|0:0|0:0|0:0|0:0|0:0|0:0|0:0|0:0|0:0|0:0|0:0|0:0|0:0|0:0|0:0|0:0|0:0|0:0|0:0|0:0|0:0|0:0|0:0|0:0|0:0|0:0|0:0|0:0|0:0|0:0|0:0|0:0|0:0|0:0|0:0|0:0|0:0|0:0|0:0|0:0|0:0|0:0|0:0|0:0|0:0|0:0|0:0,0:0:0:0:
256,72,94321,5,0,0:0:0:0:
504,96,94341,5,2,0:0:0:0:
496,88,94362,6,0,L|496:72,61,11.25,0|0|0|0|0|0|0|0|0|0|0|0|0|0|0|2|0|0|0|0|0|0|0|0|0|0|0|0|0|0|0|2|0|0|0|0|0|0|0|0|0|0|0|0|0|0|0|2|0|0|0|0|0|0|0|0|0|0|0|0|0|0,0:0|0:0|0:0|0:0|0:0|0:0|0:0|0:0|0:0|0:0|0:0|0:0|0:0|0:0|0:0|0:0|0:0|0:0|0:0|0:0|0:0|0:0|0:0|0:0|0:0|0:0|0:0|0:0|0:0|0:0|0:0|0:0|0:0|0:0|0:0|0:0|0:0|0:0|0:0|0:0|0:0|0:0|0:0|0:0|0:0|0:0|0:0|0:0|0:0|0:0|0:0|0:0|0:0|0:0|0:0|0:0|0:0|0:0|0:0|0:0|0:0|0:0,0:0:0:0:
488,64,95654,5,0,0:0:0:0:
272,104,95675,5,2,0:0:0:0:
264,96,95696,6,0,L|264:80,61,11.25,0|0|0|0|0|0|0|0|0|0|0|0|0|0|0|2|0|0|0|0|0|0|0|0|0|0|0|0|0|0|0|2|0|0|0|0|0|0|0|0|0|0|0|0|0|0|0|2|0|0|0|0|0|0|0|2|0|0|0|0|0|0,0:0|0:0|0:0|0:0|0:0|0:0|0:0|0:0|0:0|0:0|0:0|0:0|0:0|0:0|0:0|0:0|0:0|0:0|0:0|0:0|0:0|0:0|0:0|0:0|0:0|0:0|0:0|0:0|0:0|0:0|0:0|0:0|0:0|0:0|0:0|0:0|0:0|0:0|0:0|0:0|0:0|0:0|0:0|0:0|0:0|0:0|0:0|0:0|0:0|0:0|0:0|0:0|0:0|0:0|0:0|0:0|0:0|0:0|0:0|0:0|0:0|0:0,0:0:0:0:
256,72,96988,5,0,0:0:0:0:
8,192,97007,5,2,0:0:0:0:
16,184,97028,6,0,L|16:168,61,11.25,0|0|0|0|0|0|0|0|0|0|0|0|0|0|0|2|0|0|0|0|0|0|0|0|0|0|0|0|0|0|0|2|0|0|0|0|0|0|0|0|0|0|0|0|0|0|0|2|0|0|0|0|0|0|0|0|0|0|0|0|0|0,0:0|0:0|0:0|0:0|0:0|0:0|0:0|0:0|0:0|0:0|0:0|0:0|0:0|0:0|0:0|0:0|0:0|0:0|0:0|0:0|0:0|0:0|0:0|0:0|0:0|0:0|0:0|0:0|0:0|0:0|0:0|0:0|0:0|0:0|0:0|0:0|0:0|0:0|0:0|0:0|0:0|0:0|0:0|0:0|0:0|0:0|0:0|0:0|0:0|0:0|0:0|0:0|0:0|0:0|0:0|0:0|0:0|0:0|0:0|0:0|0:0|0:0,0:0:0:0:
24,160,98320,5,0,0:0:0:0:
240,200,98341,5,2,0:0:0:0:
248,192,98362,6,0,L|248:176,61,11.25,0|0|0|0|0|0|0|0|0|0|0|0|0|0|0|2|0|0|0|0|0|0|0|0|0|0|0|0|0|0|0|2|0|0|0|0|0|0|0|0|0|0|0|0|0|0|0|2|0|0|0|0|0|0|0|0|0|0|0|0|0|0,0:0|0:0|0:0|0:0|0:0|0:0|0:0|0:0|0:0|0:0|0:0|0:0|0:0|0:0|0:0|0:0|0:0|0:0|0:0|0:0|0:0|0:0|0:0|0:0|0:0|0:0|0:0|0:0|0:0|0:0|0:0|0:0|0:0|0:0|0:0|0:0|0:0|0:0|0:0|0:0|0:0|0:0|0:0|0:0|0:0|0:0|0:0|0:0|0:0|0:0|0:0|0:0|0:0|0:0|0:0|0:0|0:0|0:0|0:0|0:0|0:0|0:0,0:0:0:0:
256,168,99654,5,0,0:0:0:0:
504,192,99674,5,2,0:0:0:0:
496,184,99695,6,0,L|496:168,61,11.25,0|0|0|0|0|0|0|0|0|0|0|0|0|0|0|2|0|0|0|0|0|0|0|0|0|0|0|0|0|0|0|2|0|0|0|0|0|0|0|0|0|0|0|0|0|0|0|2|0|0|0|0|0|0|0|0|0|0|0|0|0|0,0:0|0:0|0:0|0:0|0:0|0:0|0:0|0:0|0:0|0:0|0:0|0:0|0:0|0:0|0:0|0:0|0:0|0:0|0:0|0:0|0:0|0:0|0:0|0:0|0:0|0:0|0:0|0:0|0:0|0:0|0:0|0:0|0:0|0:0|0:0|0:0|0:0|0:0|0:0|0:0|0:0|0:0|0:0|0:0|0:0|0:0|0:0|0:0|0:0|0:0|0:0|0:0|0:0|0:0|0:0|0:0|0:0|0:0|0:0|0:0|0:0|0:0,0:0:0:0:
488,160,100987,5,0,0:0:0:0:
272,200,101008,5,2,0:0:0:0:
264,192,101029,6,0,L|264:176,61,11.25,0|0|0|0|0|0|0|0|0|0|0|0|0|0|0|2|0|0|0|0|0|0|0|0|0|0|0|0|0|0|0|2|0|0|0|0|0|0|0|0|0|0|0|0|0|0|0|2|0|0|0|0|0|0|0|2|0|0|0|0|0|0,0:0|0:0|0:0|0:0|0:0|0:0|0:0|0:0|0:0|0:0|0:0|0:0|0:0|0:0|0:0|0:0|0:0|0:0|0:0|0:0|0:0|0:0|0:0|0:0|0:0|0:0|0:0|0:0|0:0|0:0|0:0|0:0|0:0|0:0|0:0|0:0|0:0|0:0|0:0|0:0|0:0|0:0|0:0|0:0|0:0|0:0|0:0|0:0|0:0|0:0|0:0|0:0|0:0|0:0|0:0|0:0|0:0|0:0|0:0|0:0|0:0|0:0,0:0:0:0:
256,168,102321,5,0,0:0:0:0:
8,192,102340,5,6,0:0:0:0:
16,184,102361,6,0,L|16:168,61,11.25,0|0|0|0|0|0|0|0|0|0|0|0|0|0|0|2|0|0|0|0|0|0|0|0|0|0|0|0|0|0|0|2|0|0|0|0|0|0|0|0|0|0|0|0|0|0|0|2|0|0|0|0|0|0|0|0|0|0|0|0|0|0,0:0|0:0|0:0|0:0|0:0|0:0|0:0|0:0|0:0|0:0|0:0|0:0|0:0|0:0|0:0|0:0|0:0|0:0|0:0|0:0|0:0|0:0|0:0|0:0|0:0|0:0|0:0|0:0|0:0|0:0|0:0|0:0|0:0|0:0|0:0|0:0|0:0|0:0|0:0|0:0|0:0|0:0|0:0|0:0|0:0|0:0|0:0|0:0|0:0|0:0|0:0|0:0|0:0|0:0|0:0|0:0|0:0|0:0|0:0|0:0|0:0|0:0,0:0:0:0:
24,160,103653,5,0,0:0:0:0:
240,200,103674,5,2,0:0:0:0:
248,192,103695,6,0,L|248:176,61,11.25,0|0|0|0|0|0|0|0|0|0|0|0|0|0|0|2|0|0|0|0|0|0|0|0|0|0|0|0|0|0|0|2|0|0|0|0|0|0|0|0|0|0|0|0|0|0|0|2|0|0|0|0|0|0|0|0|0|0|0|0|0|0,0:0|0:0|0:0|0:0|0:0|0:0|0:0|0:0|0:0|0:0|0:0|0:0|0:0|0:0|0:0|0:0|0:0|0:0|0:0|0:0|0:0|0:0|0:0|0:0|0:0|0:0|0:0|0:0|0:0|0:0|0:0|0:0|0:0|0:0|0:0|0:0|0:0|0:0|0:0|0:0|0:0|0:0|0:0|0:0|0:0|0:0|0:0|0:0|0:0|0:0|0:0|0:0|0:0|0:0|0:0|0:0|0:0|0:0|0:0|0:0|0:0|0:0,0:0:0:0:
256,168,104987,5,0,0:0:0:0:
504,192,105007,5,2,0:0:0:0:
504,192,105007,5,2,0:0:0:0:
496,184,105028,6,0,L|496:168,61,11.25,0|0|0|0|0|0|0|0|0|0|0|0|0|0|0|2|0|0|0|0|0|0|0|0|0|0|0|0|0|0|0|2|0|0|0|0|0|0|0|0|0|0|0|0|0|0|0|2|0|0|0|0|0|0|0|0|0|0|0|0|0|0,0:0|0:0|0:0|0:0|0:0|0:0|0:0|0:0|0:0|0:0|0:0|0:0|0:0|0:0|0:0|0:0|0:0|0:0|0:0|0:0|0:0|0:0|0:0|0:0|0:0|0:0|0:0|0:0|0:0|0:0|0:0|0:0|0:0|0:0|0:0|0:0|0:0|0:0|0:0|0:0|0:0|0:0|0:0|0:0|0:0|0:0|0:0|0:0|0:0|0:0|0:0|0:0|0:0|0:0|0:0|0:0|0:0|0:0|0:0|0:0|0:0|0:0,0:0:0:0:
496,184,105028,6,0,L|496:168,61,11.25,0|0|0|0|0|0|0|0|0|0|0|0|0|0|0|2|0|0|0|0|0|0|0|0|0|0|0|0|0|0|0|2|0|0|0|0|0|0|0|0|0|0|0|0|0|0|0|2|0|0|0|0|0|0|0|0|0|0|0|0|0|0,0:0|0:0|0:0|0:0|0:0|0:0|0:0|0:0|0:0|0:0|0:0|0:0|0:0|0:0|0:0|0:0|0:0|0:0|0:0|0:0|0:0|0:0|0:0|0:0|0:0|0:0|0:0|0:0|0:0|0:0|0:0|0:0|0:0|0:0|0:0|0:0|0:0|0:0|0:0|0:0|0:0|0:0|0:0|0:0|0:0|0:0|0:0|0:0|0:0|0:0|0:0|0:0|0:0|0:0|0:0|0:0|0:0|0:0|0:0|0:0|0:0|0:0,0:0:0:0:
488,160,106320,5,0,0:0:0:0:
488,160,106320,5,0,0:0:0:0:
488,160,106340,6,0,L|304:160,1,180
308,160,106507,6,0,L|400:160,1,90
398,160,106674,6,0,L|304:160,1,90
308,160,106840,6,0,L|400:160,1,90
398,160,107007,6,0,L|216:160,1,180
218,160,107340,6,0,L|392:160,1,168.75
392,136,107674,6,0,L|400:128,15,11.25,2|0|0|0|0|0|0|0|0|0|0|0|0|0|0|0,0:0|0:0|0:0|0:0|0:0|0:0|0:0|0:0|0:0|0:0|0:0|0:0|0:0|0:0|0:0|0:0,0:0:0:0:
392,112,108007,6,0,L|384:96,15,15.7499995193482,2|0|0|0|0|0|0|0|0|0|0|0|0|0|0|0,0:0|0:0|0:0|0:0|0:0|0:0|0:0|0:0|0:0|0:0|0:0|0:0|0:0|0:0|0:0|0:0,0:0:0:0:
64,88,108340,5,8,0:0:0:0:
88,224,108507,6,0,L|72:224,2,11.25,2|0|0,0:0|0:0|0:0,0:0:0:0:
256,224,108570,1,0,0:0:0:0:
424,224,108590,6,0,L|440:224,2,11.25,2|0|0,0:0|0:0|0:0,0:0:0:0:
256,224,108653,1,0,0:0:0:0:
88,224,108674,6,0,L|72:224,2,11.25,2|0|0,0:0|0:0|0:0,0:0:0:0:
248,224,108737,1,0,0:0:0:0:
424,224,108757,6,0,L|440:224,2,11.25,2|0|0,0:0|0:0|0:0,0:0:0:0:
248,224,108820,1,0,0:0:0:0:
88,224,108840,6,0,L|72:224,2,11.25,2|0|0,0:0|0:0|0:0,0:0:0:0:
232,224,108903,1,0,0:0:0:0:
424,224,108923,6,0,L|440:224,2,11.25,2|0|0,0:0|0:0|0:0,0:0:0:0:
232,224,108986,1,0,0:0:0:0:
208,168,109007,6,0,L|208:152,15,11.25,2|0|0|0|2|0|0|0|2|0|0|0|2|0|0|0,0:0|0:0|0:0|0:0|0:0|0:0|0:0|0:0|0:0|0:0|0:0|0:0|0:0|0:0|0:0|0:0,0:0:0:0:
224,144,109340,6,0,P|264:96|192:48,1,168.75
160,104,109674,5,2,0:0:0:0:
168,96,109695,6,0,L|168:80,13,11.25,0|0|0|2|0|0|0|2|0|0|0|2|0|0,0:0|0:0|0:0|0:0|0:0|0:0|0:0|0:0|0:0|0:0|0:0|0:0|0:0|0:0,0:0:0:0:
176,80,109986,5,0,0:0:0:0:
512,192,110007,6,0,B|504:192|504:192|504:184,15,15.7499995193482
256,192,110340,6,0,P|304:168|272:128,1,110.249996635437
176,192,110507,6,0,P|160:160|184:128,1,78.75
352,192,110674,6,0,P|368:160|344:128,1,78.75
128,184,110840,6,0,P|112:152|136:120,1,78.75
136,88,111007,6,0,L|128:80,31,11.25
480,96,111674,5,0,0:0:0:0:
480,96,111684,5,0,0:0:0:0:
480,96,111695,5,0,0:0:0:0:
480,96,111705,5,0,0:0:0:0:
512,64,111716,5,0,0:0:0:0:
512,64,111726,5,0,0:0:0:0:
512,64,111737,5,0,0:0:0:0:
512,64,111747,5,0,0:0:0:0:
480,32,111757,5,0,0:0:0:0:
480,32,111767,5,0,0:0:0:0:
480,32,111778,5,0,0:0:0:0:
480,32,111788,5,0,0:0:0:0:
336,32,111799,5,0,0:0:0:0:
336,32,111809,5,0,0:0:0:0:
336,32,111820,5,0,0:0:0:0:
336,32,111830,5,0,0:0:0:0:
176,32,111841,5,0,0:0:0:0:
176,32,111851,5,0,0:0:0:0:
176,32,111862,5,0,0:0:0:0:
176,32,111872,5,0,0:0:0:0:
32,32,111882,5,0,0:0:0:0:
32,32,111892,5,0,0:0:0:0:
32,32,111903,5,0,0:0:0:0:
32,32,111913,5,0,0:0:0:0:
0,64,111924,5,0,0:0:0:0:
0,64,111934,5,0,0:0:0:0:
0,64,111945,5,0,0:0:0:0:
0,64,111955,5,0,0:0:0:0:
32,96,111965,5,0,0:0:0:0:
32,96,111975,5,0,0:0:0:0:
32,96,111986,5,0,0:0:0:0:
32,96,111996,5,0,0:0:0:0:
32,96,112007,5,0,0:0:0:0:
32,96,112017,5,0,0:0:0:0:
32,96,112028,5,0,0:0:0:0:
32,96,112038,5,0,0:0:0:0:
0,64,112048,5,0,0:0:0:0:
0,64,112058,5,0,0:0:0:0:
0,64,112069,5,0,0:0:0:0:
0,64,112079,5,0,0:0:0:0:
32,32,112090,5,0,0:0:0:0:
32,32,112100,5,0,0:0:0:0:
32,32,112111,5,0,0:0:0:0:
32,32,112121,5,0,0:0:0:0:
176,32,112131,5,0,0:0:0:0:
176,32,112141,5,0,0:0:0:0:
176,32,112152,5,0,0:0:0:0:
176,32,112162,5,0,0:0:0:0:
336,32,112173,5,0,0:0:0:0:
336,32,112183,5,0,0:0:0:0:
336,32,112194,5,0,0:0:0:0:
336,32,112204,5,0,0:0:0:0:
480,32,112215,5,0,0:0:0:0:
480,32,112225,5,0,0:0:0:0:
480,32,112236,5,0,0:0:0:0:
480,32,112246,5,0,0:0:0:0:
512,64,112256,5,0,0:0:0:0:
512,64,112266,5,0,0:0:0:0:
512,64,112277,5,0,0:0:0:0:
512,64,112287,5,0,0:0:0:0:
480,96,112298,5,0,0:0:0:0:
480,96,112308,5,0,0:0:0:0:
480,96,112319,5,0,0:0:0:0:
480,96,112329,5,0,0:0:0:0:
480,96,112340,5,8,0:0:0:0:
480,96,112350,5,8,0:0:0:0:
480,96,112361,5,8,0:0:0:0:
480,96,112371,5,8,0:0:0:0:
512,64,112382,5,0,0:0:0:0:
512,64,112392,5,0,0:0:0:0:
512,64,112403,5,0,0:0:0:0:
512,64,112413,5,0,0:0:0:0:
480,32,112423,5,0,0:0:0:0:
480,32,112433,5,0,0:0:0:0:
480,32,112444,5,0,0:0:0:0:
480,32,112454,5,0,0:0:0:0:
336,32,112465,5,0,0:0:0:0:
336,32,112475,5,0,0:0:0:0:
336,32,112486,5,0,0:0:0:0:
336,32,112496,5,0,0:0:0:0:
176,32,112507,5,2,0:0:0:0:
176,32,112517,5,2,0:0:0:0:
176,32,112528,5,2,0:0:0:0:
176,32,112538,5,2,0:0:0:0:
32,32,112548,5,0,0:0:0:0:
32,32,112558,5,0,0:0:0:0:
32,32,112569,5,0,0:0:0:0:
32,32,112579,5,0,0:0:0:0:
0,64,112590,5,0,0:0:0:0:
0,64,112600,5,0,0:0:0:0:
0,64,112611,5,0,0:0:0:0:
0,64,112621,5,0,0:0:0:0:
32,96,112631,5,8,0:0:0:0:
32,96,112641,5,8,0:0:0:0:
32,96,112652,5,8,0:0:0:0:
32,96,112662,5,8,0:0:0:0:
24,160,112674,2,0,L|272:160,1,236.249992790222
0,384,113007,6,0,L|0:200,1,180
8,384,113028,6,0,L|8:200,1,180
16,384,113049,6,0,L|16:200,1,180
24,384,113070,6,0,L|24:200,1,180
40,384,113090,6,0,L|40:200,1,180
48,384,113111,6,0,L|48:200,1,180
56,384,113132,6,0,L|56:200,1,180
64,384,113153,6,0,L|64:200,1,180
80,384,113174,6,0,L|80:200,1,180
88,384,113195,6,0,L|88:200,1,180
96,384,113216,6,0,L|96:200,1,180
104,384,113237,6,0,L|104:200,1,180
120,384,113257,6,0,L|120:200,1,180
128,384,113278,6,0,L|128:200,1,180
136,384,113299,6,0,L|136:200,1,180
144,384,113320,6,0,L|144:200,1,180
144,144,113674,6,0,L|328:144,1,180
144,136,113695,6,0,L|328:136,1,180
144,128,113715,6,0,L|328:128,1,180
144,120,113736,6,0,L|328:120,1,180
144,104,113757,6,0,L|328:104,1,180
144,96,113778,6,0,L|328:96,1,180
144,88,113798,6,0,L|328:88,1,180
144,80,113819,6,0,L|328:80,1,180
144,240,113840,6,0,L|328:240,1,180
144,248,113861,6,0,L|328:248,1,180
144,256,113881,6,0,L|328:256,1,180
144,264,113902,6,0,L|328:264,1,180
144,280,113923,6,0,L|328:280,1,180
144,288,113944,6,0,L|328:288,1,180
144,296,113964,6,0,L|328:296,1,180
144,304,113985,6,0,L|328:304,1,180
344,192,114340,6,0,L|360:192,3,11.25,2|0|0|0,0:0|0:0|0:0|0:0,0:0:0:0:
360,192,114340,6,0,L|376:192,3,11.25
360,192,114424,6,0,L|376:192,3,11.25,2|0|0|0,0:0|0:0|0:0|0:0,0:0:0:0:
344,192,114424,6,0,L|360:192,3,11.25
344,192,114507,6,0,L|360:192,3,11.25,2|0|0|0,0:0|0:0|0:0|0:0,0:0:0:0:
360,192,114507,6,0,L|376:192,3,11.25
360,192,114590,6,0,L|376:192,3,11.25,2|0|0|0,0:0|0:0|0:0|0:0,0:0:0:0:
344,192,114590,6,0,L|360:192,3,11.25
360,184,114674,6,0,L|360:56,1,125.999996154785
360,184,114695,6,0,L|360:56,1,125.999996154785
360,184,114715,6,0,L|360:56,1,125.999996154785
360,184,114736,6,0,L|360:56,1,125.999996154785
360,184,114757,6,0,L|360:56,1,125.999996154785
360,184,114778,6,0,L|360:56,1,125.999996154785
360,184,114799,6,0,L|360:56,1,125.999996154785
360,184,114820,6,0,L|360:56,1,125.999996154785
344,192,115007,6,0,L|360:192,3,11.25,2|0|0|0,0:0|0:0|0:0|0:0,0:0:0:0:
360,192,115007,6,0,L|376:192,3,11.25
360,192,115091,6,0,L|376:192,3,11.25,2|0|0|0,0:0|0:0|0:0|0:0,0:0:0:0:
344,192,115091,6,0,L|360:192,3,11.25
344,192,115174,6,0,L|360:192,3,11.25,2|0|0|0,0:0|0:0|0:0|0:0,0:0:0:0:
360,192,115174,6,0,L|376:192,3,11.25
344,192,115257,6,0,L|360:192,3,11.25
360,192,115257,6,0,L|376:192,3,11.25,2|0|0|0,0:0|0:0|0:0|0:0,0:0:0:0:
360,200,115341,6,0,L|360:328,1,125.999996154785
360,200,115362,6,0,L|360:328,1,125.999996154785
360,200,115382,6,0,L|360:328,1,125.999996154785
360,200,115403,6,0,L|360:328,1,125.999996154785
360,200,115424,6,0,L|360:328,1,125.999996154785
360,200,115445,6,0,L|360:328,1,125.999996154785
360,200,115466,6,0,L|360:328,1,125.999996154785
360,200,115487,6,0,L|360:328,1,125.999996154785
360,326,115674,6,0,L|264:328,1,90
270,327,115840,2,0,L|176:328,1,90
180,327,116007,2,0,L|272:328,1,90
270,327,116174,2,0,L|176:328,1,90
176,272,116340,6,2,L|224:272,1,45
221,272,116424,2,2,L|176:272,1,45
176,272,116507,6,2,L|224:272,1,45
221,272,116591,2,2,L|176:272,1,45
176,272,116674,6,2,L|224:272,1,45
221,272,116758,2,2,L|176:272,1,45
176,272,116840,6,2,L|224:272,1,45
221,272,116924,2,2,L|176:272,1,45
176,272,117007,1,0,0:0:0:0:
176,272,117028,1,0,0:0:0:0:
176,272,117049,1,0,0:0:0:0:
176,272,117070,1,0,0:0:0:0:
176,272,117090,1,0,0:0:0:0:
176,272,117111,1,0,0:0:0:0:
176,272,117132,1,0,0:0:0:0:
176,272,117153,1,0,0:0:0:0:
176,272,117174,1,0,0:0:0:0:
176,272,117195,1,0,0:0:0:0:
176,272,117215,1,0,0:0:0:0:
176,272,117236,1,0,0:0:0:0:
176,272,117257,1,0,0:0:0:0:
176,272,117278,1,0,0:0:0:0:
176,272,117299,1,0,0:0:0:0:
184,272,117320,1,0,0:0:0:0:
384,192,117340,5,0,0:0:0:0:
384,192,117361,1,0,0:0:0:0:
384,192,117382,1,0,0:0:0:0:
384,192,117403,1,0,0:0:0:0:
384,192,117424,1,0,0:0:0:0:
384,192,117445,1,0,0:0:0:0:
384,192,117465,1,0,0:0:0:0:
384,192,117486,1,0,0:0:0:0:
384,192,117507,1,0,0:0:0:0:
384,192,117528,1,0,0:0:0:0:
384,192,117549,1,0,0:0:0:0:
384,192,117570,1,0,0:0:0:0:
384,192,117590,1,0,0:0:0:0:
384,192,117611,1,0,0:0:0:0:
384,192,117632,1,0,0:0:0:0:
368,192,117653,1,0,0:0:0:0:
128,192,117674,5,10,0:0:0:0:
128,192,117695,1,0,0:0:0:0:
128,192,117716,1,0,0:0:0:0:
128,192,117737,1,0,0:0:0:0:
128,192,117758,1,0,0:0:0:0:
128,192,117779,1,0,0:0:0:0:
128,192,117799,1,0,0:0:0:0:
128,192,117820,1,0,0:0:0:0:
128,192,117841,1,0,0:0:0:0:
128,192,117862,1,0,0:0:0:0:
128,192,117883,1,0,0:0:0:0:
128,192,117904,1,0,0:0:0:0:
128,192,117924,1,0,0:0:0:0:
128,192,117945,1,0,0:0:0:0:
128,192,117966,1,0,0:0:0:0:
144,192,117987,1,0,0:0:0:0:
384,192,118007,5,10,0:0:0:0:
384,192,118028,1,0,0:0:0:0:
384,192,118049,1,0,0:0:0:0:
384,192,118070,1,0,0:0:0:0:
384,192,118091,1,0,0:0:0:0:
384,192,118112,1,0,0:0:0:0:
384,192,118132,1,0,0:0:0:0:
384,192,118153,1,0,0:0:0:0:
384,192,118174,1,0,0:0:0:0:
384,192,118195,1,0,0:0:0:0:
384,192,118216,1,0,0:0:0:0:
384,192,118237,1,0,0:0:0:0:
384,192,118257,1,0,0:0:0:0:
384,192,118278,1,0,0:0:0:0:
384,192,118299,1,0,0:0:0:0:
368,192,118320,1,0,0:0:0:0:
368,192,118340,6,0,L|184:192,1,180
188,192,118674,2,0,L|440:192,1,251.999992309571
440,136,119007,2,0,L|256:136,1,180
352,192,119174,2,0,L|256:192,1,90
304,256,119257,2,0,L|256:256,1,45
304,256,119340,2,0,L|256:256,1,45
304,256,119424,2,0,L|256:256,1,45
304,256,119507,2,0,L|256:256,1,45
304,256,119590,2,0,L|256:256,1,45
259,256,119674,6,0,L|264:240,15,11.25
262,245,120007,6,0,P|296:152|184:80,1,251.999992309571
184,79,120340,6,0,L|192:104,15,15.7499995193482
200,128,120674,6,0,P|304:144|280:272,1,251.999992309571
290,265,121007,6,0,L|104:272,1,180
110,271,121340,2,0,L|296:264,1,180
290,264,121674,2,0,L|104:264,1,180
110,264,122007,6,0,L|112:240,7,22.5
64,96,122340,6,0,L|48:96,15,11.25
0,96,122674,6,0,L|16:96,1,15.7499995193482,2|0,0:0|0:0,0:0:0:0:
160,96,122715,6,0,L|176:96,1,15.7499995193482
312,88,122757,6,0,L|328:88,1,15.7499995193482
472,88,122798,6,0,L|488:88,1,15.7499995193482
504,168,122840,6,0,L|488:168,1,15.7499995193482,2|0,0:0|0:0,0:0:0:0:
344,168,122881,6,0,L|328:168,1,15.7499995193482
192,160,122923,6,0,L|176:160,1,15.7499995193482
32,160,122964,6,0,L|16:160,1,15.7499995193482
0,256,123007,5,0,0:0:0:0:
8,248,123028,6,0,L|8:232,5,11.25
16,232,123153,5,0,0:0:0:0:
240,208,123174,5,0,0:0:0:0:
248,200,123195,6,0,L|248:184,5,11.25
256,184,123320,5,0,0:0:0:0:
512,256,123340,5,0,0:0:0:0:
504,248,123361,6,0,L|504:232,5,11.25
496,232,123486,5,0,0:0:0:0:
272,208,123507,5,0,0:0:0:0:
264,200,123528,6,0,L|264:184,5,11.25
256,184,123653,5,0,0:0:0:0:
64,256,123674,6,0,P|48:160|56:88,1,168.75
392,272,124007,2,0,P|472:160|416:96,1,236.249992790222
56,88,124340,1,10,0:0:0:0:
56,144,124507,6,0,L|64:128,23,11.25,2|0|0|0|2|0|0|0|2|0|0|0|2|0|0|0|2|0|0|0|2|0|0|0,0:0|0:0|0:0|0:0|0:0|0:0|0:0|0:0|0:0|0:0|0:0|0:0|0:0|0:0|0:0|0:0|0:0|0:0|0:0|0:0|0:0|0:0|0:0|0:0,0:0:0:0:
64,120,125007,5,2,0:0:0:0:
64,120,125028,5,0,0:0:0:0:
64,120,125049,5,0,0:0:0:0:
64,120,125070,5,0,0:0:0:0:
64,120,125090,5,2,0:0:0:0:
64,120,125111,5,0,0:0:0:0:
64,120,125132,5,0,0:0:0:0:
64,120,125153,5,0,0:0:0:0:
64,120,125174,5,2,0:0:0:0:
64,120,125195,5,0,0:0:0:0:
64,120,125215,5,0,0:0:0:0:
64,120,125236,5,0,0:0:0:0:
64,120,125257,5,2,0:0:0:0:
64,120,125278,5,0,0:0:0:0:
64,120,125299,5,0,0:0:0:0:
80,120,125320,5,0,0:0:0:0:
416,120,125340,6,0,L|400:120,15,11.25
64,120,125674,5,2,0:0:0:0:
64,120,125695,5,0,0:0:0:0:
64,120,125716,5,0,0:0:0:0:
64,120,125737,5,0,0:0:0:0:
64,120,125757,5,2,0:0:0:0:
64,120,125778,5,0,0:0:0:0:
64,120,125799,5,0,0:0:0:0:
64,120,125820,5,0,0:0:0:0:
64,120,125841,5,2,0:0:0:0:
64,120,125862,5,0,0:0:0:0:
64,120,125882,5,0,0:0:0:0:
64,120,125903,5,0,0:0:0:0:
64,120,125924,5,2,0:0:0:0:
64,120,125945,5,0,0:0:0:0:
64,120,125966,5,0,0:0:0:0:
80,120,125987,5,0,0:0:0:0:
416,120,126007,6,0,L|416:104,15,11.25
48,248,126340,6,0,L|56:224,1,22.5
256,216,126403,1,0,0:0:0:0:
464,248,126424,6,0,L|456:224,1,22.5
256,216,126486,1,0,0:0:0:0:
48,248,126507,6,0,L|56:224,1,22.5
248,216,126570,1,0,0:0:0:0:
464,248,126591,6,0,L|456:224,1,22.5
264,216,126653,1,0,0:0:0:0:
48,248,126674,6,0,L|56:224,1,22.5
256,216,126737,1,0,0:0:0:0:
464,248,126758,6,0,L|456:224,1,22.5
256,216,126820,1,0,0:0:0:0:
48,248,126841,6,0,L|56:224,1,22.5
248,216,126904,1,0,0:0:0:0:
464,248,126925,6,0,L|456:224,1,22.5
264,216,126987,1,0,0:0:0:0:
48,248,127007,6,0,L|56:224,1,22.5
256,216,127070,1,0,0:0:0:0:
464,248,127091,6,0,L|456:224,1,22.5
256,216,127153,1,0,0:0:0:0:
48,248,127174,6,0,L|56:224,1,22.5
248,216,127237,1,0,0:0:0:0:
464,248,127258,6,0,L|456:224,1,22.5
264,216,127320,1,0,0:0:0:0:
48,248,127340,6,0,L|56:224,1,22.5
256,216,127403,1,0,0:0:0:0:
464,248,127424,6,0,L|456:224,1,22.5
256,216,127486,1,0,0:0:0:0:
48,248,127507,6,0,L|56:224,1,22.5
248,216,127570,1,0,0:0:0:0:
464,248,127591,6,0,L|456:224,1,22.5
264,216,127653,1,0,0:0:0:0:
256,192,127674,12,0,128986,0:0:0:0:
256,192,127757,12,0,127777,0:0:0:0:
256,192,127757,12,0,127777,0:0:0:0:
256,192,127757,12,0,127777,0:0:0:0:
256,192,127757,12,0,127777,0:0:0:0:
256,192,127757,12,0,127777,0:0:0:0:
256,192,127757,12,0,127777,0:0:0:0:
256,192,127757,12,0,127777,0:0:0:0:
256,192,127757,12,0,127777,0:0:0:0:
256,192,127757,12,0,127777,0:0:0:0:
256,192,127757,12,0,127777,0:0:0:0:
256,192,127820,12,0,127840,0:0:0:0:
256,192,127820,12,0,127840,0:0:0:0:
256,192,127820,12,0,127840,0:0:0:0:
256,192,127820,12,0,127840,0:0:0:0:
256,192,127820,12,0,127840,0:0:0:0:
256,192,127820,12,0,127840,0:0:0:0:
256,192,127820,12,0,127840,0:0:0:0:
256,192,127820,12,0,127840,0:0:0:0:
256,192,127820,12,0,127840,0:0:0:0:
256,192,127820,12,0,127840,0:0:0:0:
256,192,127924,12,0,127944,0:0:0:0:
256,192,127924,12,0,127944,0:0:0:0:
256,192,127924,12,0,127944,0:0:0:0:
256,192,127924,12,0,127944,0:0:0:0:
256,192,127924,12,0,127944,0:0:0:0:
256,192,127924,12,0,127944,0:0:0:0:
256,192,127924,12,0,127944,0:0:0:0:
256,192,127924,12,0,127944,0:0:0:0:
256,192,127924,12,0,127944,0:0:0:0:
256,192,127924,12,0,127944,0:0:0:0:
256,192,128007,12,0,128027,0:0:0:0:
256,192,128007,12,0,128027,0:0:0:0:
256,192,128007,12,0,128027,0:0:0:0:
256,192,128007,12,0,128027,0:0:0:0:
256,192,128007,12,0,128027,0:0:0:0:
256,192,128007,12,0,128027,0:0:0:0:
256,192,128007,12,0,128027,0:0:0:0:
256,192,128007,12,0,128027,0:0:0:0:
256,192,128007,12,0,128027,0:0:0:0:
256,192,128007,12,0,128027,0:0:0:0:
256,192,128174,12,0,128194,0:0:0:0:
256,192,128174,12,0,128194,0:0:0:0:
256,192,128174,12,0,128194,0:0:0:0:
256,192,128174,12,0,128194,0:0:0:0:
256,192,128174,12,0,128194,0:0:0:0:
256,192,128174,12,0,128194,0:0:0:0:
256,192,128174,12,0,128194,0:0:0:0:
256,192,128174,12,0,128194,0:0:0:0:
256,192,128174,12,0,128194,0:0:0:0:
256,192,128174,12,0,128194,0:0:0:0:
256,192,128340,12,0,128360,0:0:0:0:
256,192,128340,12,0,128360,0:0:0:0:
256,192,128340,12,0,128360,0:0:0:0:
256,192,128340,12,0,128360,0:0:0:0:
256,192,128340,12,0,128360,0:0:0:0:
256,192,128340,12,0,128360,0:0:0:0:
256,192,128340,12,0,128360,0:0:0:0:
256,192,128340,12,0,128360,0:0:0:0:
256,192,128340,12,0,128360,0:0:0:0:
256,192,128340,12,0,128360,0:0:0:0:
256,192,128507,12,0,128527,0:0:0:0:
256,192,128507,12,0,128527,0:0:0:0:
256,192,128507,12,0,128527,0:0:0:0:
256,192,128507,12,0,128527,0:0:0:0:
256,192,128507,12,0,128527,0:0:0:0:
256,192,128507,12,0,128527,0:0:0:0:
256,192,128507,12,0,128527,0:0:0:0:
256,192,128507,12,0,128527,0:0:0:0:
256,192,128507,12,0,128527,0:0:0:0:
256,192,128507,12,0,128527,0:0:0:0:
256,192,128674,12,0,128694,0:0:0:0:
256,192,128674,12,0,128694,0:0:0:0:
256,192,128674,12,0,128694,0:0:0:0:
256,192,128674,12,0,128694,0:0:0:0:
256,192,128674,12,0,128694,0:0:0:0:
256,192,128674,12,0,128694,0:0:0:0:
256,192,128674,12,0,128694,0:0:0:0:
256,192,128674,12,0,128694,0:0:0:0:
256,192,128674,12,0,128694,0:0:0:0:
256,192,128674,12,0,128694,0:0:0:0:
256,192,128840,12,0,128860,0:0:0:0:
256,192,128840,12,0,128860,0:0:0:0:
256,192,128840,12,0,128860,0:0:0:0:
256,192,128840,12,0,128860,0:0:0:0:
256,192,128840,12,0,128860,0:0:0:0:
256,192,128840,12,0,128860,0:0:0:0:
256,192,128840,12,0,128860,0:0:0:0:
256,192,128840,12,0,128860,0:0:0:0:
256,192,128840,12,0,128860,0:0:0:0:
256,192,128840,12,0,128860,0:0:0:0:
112,216,129007,6,0,L|64:208,1,45,2|0,0:0|0:0,0:0:0:0:
400,160,129174,2,0,L|400:96,1,45
128,160,129340,2,0,L|64:128,1,45,8|0,0:0|0:0,0:0:0:0:
448,144,129507,2,0,L|448:80,1,45
160,112,129674,2,0,L|112:80,1,45,2|0,0:0|0:0,0:0:0:0:
496,128,129840,2,0,L|496:80,1,45
192,80,130007,2,0,L|160:48,1,45,8|0,0:0|0:0,0:0:0:0:
512,208,130174,2,0,L|512:160,1,45
128,208,130340,6,0,L|64:208,1,45,2|0,0:0|0:0,0:0:0:0:
464,224,130507,2,0,L|416:224,1,45
192,160,130674,2,0,L|128:160,1,45,8|0,0:0|0:0,0:0:0:0:
496,128,130840,2,0,L|432:128,1,45
48,96,131007,6,0,L|112:96,1,45,2|0,0:0|0:0,0:0:0:0:
400,64,131174,2,0,L|464:64,1,45
0,160,131340,2,0,L|64:160,1,45,8|0,0:0|0:0,0:0:0:0:
352,144,131507,2,0,L|400:144,1,45
80,272,131674,6,0,L|64:208,1,45,2|0,0:0|0:0,0:0:0:0:
416,256,131840,2,0,L|480:256,1,45
96,208,132007,2,0,L|80:128,1,45,8|0,0:0|0:0,0:0:0:0:
432,208,132174,2,0,L|480:208,1,45
112,128,132340,2,0,L|96:80,1,45,2|0,0:0|0:0,0:0:0:0:
448,160,132507,2,0,L|496:160,1,45
64,112,132674,2,0,L|48:64,1,45,8|0,0:0|0:0,0:0:0:0:
416,112,132840,2,0,L|480:112,1,45
176,192,133007,6,0,L|160:192,2,11.25,2|0|0,0:0|0:0|0:0,0:0:0:0:
336,192,133090,6,0,L|352:192,2,11.25,2|0|0,0:0|0:0|0:0,0:0:0:0:
176,192,133174,6,0,L|160:192,2,11.25,2|0|0,0:0|0:0|0:0,0:0:0:0:
336,192,133257,6,0,L|352:192,2,11.25,2|0|0,0:0|0:0|0:0,0:0:0:0:
176,192,133340,6,0,L|176:176,15,11.25,8|0|0|0|0|0|0|0|0|0|0|0|0|0|0|0,0:0|0:0|0:0|0:0|0:0|0:0|0:0|0:0|0:0|0:0|0:0|0:0|0:0|0:0|0:0|0:0,0:0:0:0:
336,192,133674,6,0,L|336:176,31,11.25,2|0|0|0|0|0|0|0|0|0|0|0|0|0|0|0|8|0|0|0|0|0|0|0|8|0|0|0|0|0|0|0,0:0|0:0|0:0|0:0|0:0|0:0|0:0|0:0|0:0|0:0|0:0|0:0|0:0|0:0|0:0|0:0|0:0|0:0|0:0|0:0|0:0|0:0|0:0|0:0|0:0|0:0|0:0|0:0|0:0|0:0|0:0|0:0,0:0:0:0:
352,176,134340,6,0,L|352:96,1,45,6|0,0:0|0:0,0:0:0:0:
96,192,134507,2,0,L|32:192,1,45
384,160,134674,2,0,L|384:96,1,45,8|0,0:0|0:0,0:0:0:0:
96,176,134840,2,0,L|48:176,1,45
112,144,135007,6,0,L|64:144,1,45,2|0,0:0|0:0,0:0:0:0:
432,144,135174,2,0,L|416:96,1,45
144,112,135340,2,0,L|96:112,1,45,8|0,0:0|0:0,0:0:0:0:
464,96,135507,2,0,L|432:64,1,45
80,96,135674,6,0,L|112:64,1,45,2|0,0:0|0:0,0:0:0:0:
384,80,135840,2,0,L|432:48,1,45
128,128,136007,2,0,L|80:112,1,45,8|0,0:0|0:0,0:0:0:0:
432,144,136174,2,0,L|384:128,1,45
64,208,136340,2,0,L|96:160,1,45,2|0,0:0|0:0,0:0:0:0:
416,224,136507,2,0,L|432:176,1,45
128,304,136674,2,0,L|96:256,1,45,8|0,0:0|0:0,0:0:0:0:
432,320,136840,2,0,L|400:288,1,45
0,208,137007,5,2,0:0:0:0:
16,192,137028,2,0,L|16:176,5,11.25
32,160,137153,1,0,0:0:0:0:
240,208,137174,5,8,0:0:0:0:
256,192,137195,2,0,L|256:176,1,11.25
272,160,137236,1,0,0:0:0:0:
512,208,137257,5,8,0:0:0:0:
496,192,137278,2,0,L|496:176,1,11.25
480,160,137319,1,0,0:0:0:0:
272,208,137340,5,2,0:0:0:0:
256,192,137361,2,0,L|256:176,5,11.25
240,160,137486,1,0,0:0:0:0:
0,208,137507,5,2,0:0:0:0:
16,192,137528,2,0,L|16:176,5,11.25
32,160,137653,1,0,0:0:0:0:
0,208,137674,5,2,0:0:0:0:
16,192,137695,2,0,L|16:176,5,11.25
32,160,137820,1,0,0:0:0:0:
240,208,137841,5,8,0:0:0:0:
256,192,137862,2,0,L|256:176,1,11.25
272,160,137903,1,0,0:0:0:0:
512,208,137924,5,8,0:0:0:0:
496,192,137945,2,0,L|496:176,1,11.25
480,160,137986,1,0,0:0:0:0:
272,208,138007,5,2,0:0:0:0:
256,192,138028,2,0,L|256:176,5,11.25
240,160,138153,1,0,0:0:0:0:
0,208,138174,5,2,0:0:0:0:
16,192,138195,2,0,L|16:176,5,11.25
32,160,138320,1,0,0:0:0:0:
16,96,138340,5,2,0:0:0:0:
16,96,138361,6,0,L|32:96,1,11.25
0,96,138403,5,0,0:0:0:0:
16,96,138424,5,2,0:0:0:0:
16,96,138445,6,0,L|32:96,1,11.25
0,96,138486,5,0,0:0:0:0:
16,96,138507,5,2,0:0:0:0:
16,96,138528,6,0,L|32:96,1,11.25
0,96,138570,5,0,0:0:0:0:
16,96,138590,5,2,0:0:0:0:
16,96,138611,6,0,L|32:96,1,11.25
0,96,138653,5,0,0:0:0:0:
256,96,138674,5,2,0:0:0:0:
256,96,138695,6,0,L|240:96,1,11.25
272,96,138737,5,0,0:0:0:0:
256,96,138758,5,2,0:0:0:0:
256,96,138779,6,0,L|240:96,1,11.25
272,96,138820,5,0,0:0:0:0:
256,96,138841,5,2,0:0:0:0:
256,96,138862,6,0,L|240:96,1,11.25
272,96,138904,5,0,0:0:0:0:
256,96,138924,5,2,0:0:0:0:
256,96,138945,6,0,L|240:96,1,11.25
272,96,138987,5,0,0:0:0:0:
80,176,139007,5,2,0:0:0:0:
80,176,139028,6,0,L|96:176,1,11.25
64,176,139070,5,0,0:0:0:0:
80,176,139091,5,2,0:0:0:0:
80,176,139112,6,0,L|96:176,1,11.25
64,176,139153,5,0,0:0:0:0:
80,176,139174,5,2,0:0:0:0:
80,176,139195,6,0,L|96:176,1,11.25
64,176,139237,5,0,0:0:0:0:
80,176,139257,5,2,0:0:0:0:
80,176,139278,6,0,L|96:176,1,11.25
64,176,139320,5,0,0:0:0:0:
320,176,139341,5,2,0:0:0:0:
320,176,139362,6,0,L|304:176,1,11.25
336,176,139404,5,0,0:0:0:0:
320,176,139425,5,2,0:0:0:0:
320,176,139446,6,0,L|304:176,1,11.25
336,176,139487,5,0,0:0:0:0:
320,176,139508,5,2,0:0:0:0:
320,176,139529,6,0,L|304:176,1,11.25
336,176,139571,5,0,0:0:0:0:
320,176,139591,5,2,0:0:0:0:
320,176,139612,6,0,L|304:176,1,11.25
336,176,139654,5,0,0:0:0:0:
384,176,139674,6,0,L|432:176,1,45,6|0,0:0|0:0,0:0:0:0:
96,192,139840,2,0,L|96:144,1,45
400,224,140007,2,0,L|448:224,1,45,8|0,0:0|0:0,0:0:0:0:
80,224,140174,2,0,L|80:160,1,45
416,272,140340,2,0,L|464:272,1,45,2|0,0:0|0:0,0:0:0:0:
64,256,140507,2,0,L|64:208,1,45
432,320,140674,2,0,L|480:320,1,45,8|0,0:0|0:0,0:0:0:0:
48,304,140840,2,0,L|48:256,1,45
384,176,141007,6,0,L|448:176,1,45,2|0,0:0|0:0,0:0:0:0:
128,176,141174,2,0,L|80:176,1,45
384,112,141340,2,0,L|448:112,1,45,8|0,0:0|0:0,0:0:0:0:
112,128,141507,2,0,L|64:128,1,45
384,64,141674,2,0,L|432:64,1,45,2|0,0:0|0:0,0:0:0:0:
96,96,141840,2,0,L|48:96,1,45
384,16,142007,2,0,L|432:16,1,45,8|0,0:0|0:0,0:0:0:0:
80,64,142174,2,0,L|16:64,1,45
384,240,142340,6,0,L|400:192,1,45,2|0,0:0|0:0,0:0:0:0:
112,224,142507,2,0,L|48:224,1,45
432,240,142674,2,0,L|448:192,1,45,8|0,0:0|0:0,0:0:0:0:
160,224,142840,2,0,L|112:224,1,45
496,240,143007,2,0,L|512:192,1,45,2|0,0:0|0:0,0:0:0:0:
224,224,143174,2,0,L|176:224,1,45
432,240,143340,2,0,L|448:192,1,45,8|0,0:0|0:0,0:0:0:0:
160,224,143507,2,0,L|112:224,1,45
336,192,143674,6,0,L|352:192,2,11.25,2|0|0,0:0|0:0|0:0,0:0:0:0:
176,192,143757,6,0,L|160:192,2,11.25,2|0|0,0:0|0:0|0:0,0:0:0:0:
336,192,143841,6,0,L|352:192,2,11.25,2|0|0,0:0|0:0|0:0,0:0:0:0:
176,192,143924,6,0,L|160:192,2,11.25,2|0|0,0:0|0:0|0:0,0:0:0:0:
336,192,144007,6,0,L|336:176,15,11.25,8|0|0|0|0|0|0|0|0|0|0|0|0|0|0|0,0:0|0:0|0:0|0:0|0:0|0:0|0:0|0:0|0:0|0:0|0:0|0:0|0:0|0:0|0:0|0:0,0:0:0:0:
176,192,144341,6,0,L|176:176,31,11.25,2|0|0|0|0|0|0|0|0|0|0|0|0|0|0|0|8|0|0|0|0|0|0|0|8|0|0|0|0|0|0|0,0:0|0:0|0:0|0:0|0:0|0:0|0:0|0:0|0:0|0:0|0:0|0:0|0:0|0:0|0:0|0:0|0:0|0:0|0:0|0:0|0:0|0:0|0:0|0:0|0:0|0:0|0:0|0:0|0:0|0:0|0:0|0:0,0:0:0:0:
176,176,145007,6,0,L|176:128,1,45,2|0,0:0|0:0,0:0:0:0:
384,96,145174,2,0,L|384:48,1,45
48,128,145340,2,0,L|48:48,1,45,8|0,0:0|0:0,0:0:0:0:
384,240,145507,2,0,L|384:160,1,45
112,320,145674,2,0,L|112:256,1,45,2|0,0:0|0:0,0:0:0:0:
464,320,145840,2,0,L|464:256,1,45
208,192,146007,2,0,L|208:128,1,45,8|0,0:0|0:0,0:0:0:0:
448,112,146174,2,0,L|448:48,1,45
240,112,146340,6,0,L|240:64,1,45,6|0,0:0|0:0,0:0:0:0:
16,240,146507,2,0,L|16:176,1,45
272,288,146674,2,0,L|272:224,1,45,8|0,0:0|0:0,0:0:0:0:
496,256,146840,2,0,L|496:208,1,45
240,176,147007,2,0,L|224:112,1,45,2|0,0:0|0:0,0:0:0:0:
16,128,147174,2,0,L|16:80,1,45
432,112,147340,2,0,L|448:64,1,45,8|0,0:0|0:0,0:0:0:0:
240,256,147507,2,0,L|240:208,1,45
96,240,147674,6,0,L|80:160,1,45,6|0,0:0|0:0,0:0:0:0:
352,240,147840,2,0,L|368:176,1,45
176,160,148007,2,0,L|160:112,1,45,8|0,0:0|0:0,0:0:0:0:
432,160,148174,2,0,L|448:112,1,45
96,176,148340,6,0,L|80:112,1,45,6|0,0:0|0:0,0:0:0:0:
352,160,148507,2,0,L|368:112,1,45
192,272,148674,2,0,L|176:192,1,45,8|0,0:0|0:0,0:0:0:0:
400,288,148840,2,0,L|416:224,1,45
480,96,149007,5,8,0:0:0:0:
480,96,149017,5,8,0:0:0:0:
480,96,149028,5,8,0:0:0:0:
480,96,149038,5,8,0:0:0:0:
512,64,149049,5,0,0:0:0:0:
512,64,149059,5,0,0:0:0:0:
512,64,149070,5,0,0:0:0:0:
512,64,149080,5,0,0:0:0:0:
480,32,149090,5,0,0:0:0:0:
480,32,149100,5,0,0:0:0:0:
480,32,149111,5,0,0:0:0:0:
480,32,149121,5,0,0:0:0:0:
336,32,149132,5,0,0:0:0:0:
336,32,149142,5,0,0:0:0:0:
336,32,149153,5,0,0:0:0:0:
336,32,149163,5,0,0:0:0:0:
176,32,149174,5,2,0:0:0:0:
176,32,149184,5,2,0:0:0:0:
176,32,149195,5,2,0:0:0:0:
176,32,149205,5,2,0:0:0:0:
32,32,149215,5,0,0:0:0:0:
32,32,149225,5,0,0:0:0:0:
32,32,149236,5,0,0:0:0:0:
32,32,149246,5,0,0:0:0:0:
0,64,149257,5,0,0:0:0:0:
0,64,149267,5,0,0:0:0:0:
0,64,149278,5,0,0:0:0:0:
0,64,149288,5,0,0:0:0:0:
32,96,149298,5,8,0:0:0:0:
32,96,149308,5,8,0:0:0:0:
32,96,149319,5,8,0:0:0:0:
32,96,149329,5,8,0:0:0:0:
32,96,149340,5,8,0:0:0:0:
32,96,149350,5,8,0:0:0:0:
32,96,149361,5,8,0:0:0:0:
32,96,149371,5,8,0:0:0:0:
0,128,149381,5,0,0:0:0:0:
0,128,149391,5,0,0:0:0:0:
0,128,149402,5,0,0:0:0:0:
0,128,149412,5,0,0:0:0:0:
32,160,149423,5,0,0:0:0:0:
32,160,149433,5,0,0:0:0:0:
32,160,149444,5,0,0:0:0:0:
32,160,149454,5,0,0:0:0:0:
176,160,149464,5,2,0:0:0:0:
176,160,149474,5,2,0:0:0:0:
176,160,149485,5,2,0:0:0:0:
176,160,149495,5,2,0:0:0:0:
336,160,149506,5,0,0:0:0:0:
336,160,149516,5,0,0:0:0:0:
336,160,149527,5,0,0:0:0:0:
336,160,149537,5,0,0:0:0:0:
480,160,149548,5,0,0:0:0:0:
480,160,149558,5,0,0:0:0:0:
480,160,149569,5,0,0:0:0:0:
480,160,149579,5,0,0:0:0:0:
512,128,149589,5,0,0:0:0:0:
512,128,149599,5,0,0:0:0:0:
512,128,149610,5,0,0:0:0:0:
512,128,149620,5,0,0:0:0:0:
480,96,149631,5,8,0:0:0:0:
480,96,149641,5,8,0:0:0:0:
480,96,149652,5,8,0:0:0:0:
480,96,149662,5,8,0:0:0:0:
480,96,149674,5,8,0:0:0:0:
480,96,149684,5,8,0:0:0:0:
480,96,149695,5,8,0:0:0:0:
480,96,149705,5,8,0:0:0:0:
512,64,149716,5,0,0:0:0:0:
512,64,149726,5,0,0:0:0:0:
512,64,149737,5,0,0:0:0:0:
512,64,149747,5,0,0:0:0:0:
480,32,149757,5,0,0:0:0:0:
480,32,149767,5,0,0:0:0:0:
480,32,149778,5,0,0:0:0:0:
480,32,149788,5,0,0:0:0:0:
336,32,149799,5,0,0:0:0:0:
336,32,149809,5,0,0:0:0:0:
336,32,149820,5,0,0:0:0:0:
336,32,149830,5,0,0:0:0:0:
176,32,149841,5,2,0:0:0:0:
176,32,149851,5,2,0:0:0:0:
176,32,149862,5,2,0:0:0:0:
176,32,149872,5,2,0:0:0:0:
32,32,149882,5,0,0:0:0:0:
32,32,149892,5,0,0:0:0:0:
32,32,149903,5,0,0:0:0:0:
32,32,149913,5,0,0:0:0:0:
0,64,149924,5,0,0:0:0:0:
0,64,149934,5,0,0:0:0:0:
0,64,149945,5,0,0:0:0:0:
0,64,149955,5,0,0:0:0:0:
32,96,149965,5,8,0:0:0:0:
32,96,149975,5,8,0:0:0:0:
32,96,149986,5,8,0:0:0:0:
32,96,149996,5,8,0:0:0:0:
32,96,150007,5,8,0:0:0:0:
32,96,150017,5,8,0:0:0:0:
32,96,150028,5,8,0:0:0:0:
32,96,150038,5,8,0:0:0:0:
0,128,150048,5,0,0:0:0:0:
0,128,150058,5,0,0:0:0:0:
0,128,150069,5,0,0:0:0:0:
0,128,150079,5,0,0:0:0:0:
32,160,150090,5,0,0:0:0:0:
32,160,150100,5,0,0:0:0:0:
32,160,150111,5,0,0:0:0:0:
32,160,150121,5,0,0:0:0:0:
176,160,150131,5,2,0:0:0:0:
176,160,150141,5,2,0:0:0:0:
176,160,150152,5,2,0:0:0:0:
176,160,150162,5,2,0:0:0:0:
336,160,150173,5,0,0:0:0:0:
336,160,150183,5,0,0:0:0:0:
336,160,150194,5,0,0:0:0:0:
336,160,150204,5,0,0:0:0:0:
480,160,150215,5,0,0:0:0:0:
480,160,150225,5,0,0:0:0:0:
480,160,150236,5,0,0:0:0:0:
480,160,150246,5,0,0:0:0:0:
512,128,150256,5,0,0:0:0:0:
512,128,150266,5,0,0:0:0:0:
512,128,150277,5,0,0:0:0:0:
512,128,150287,5,0,0:0:0:0:
480,96,150298,5,8,0:0:0:0:
480,96,150308,5,8,0:0:0:0:
480,96,150319,5,8,0:0:0:0:
480,96,150329,5,8,0:0:0:0:
256,192,150340,5,4,0:0:0:0:
256,192,150361,12,0,150986,0:0:0:0:
0,192,151007,5,8,0:0:0:0:
256,192,151028,12,0,151653,0:0:0:0:
128,192,151674,5,0,1:0:0:0:
256,192,151695,12,0,152320,0:0:0:0:
256,192,152340,5,8,0:0:0:0:
256,192,152361,12,0,152986,0:0:0:0:
256,192,153007,5,0,1:0:0:0:
256,192,153028,12,0,153653,0:0:0:0:
256,192,153674,5,8,0:0:0:0:
256,192,153695,12,0,154320,0:0:0:0:
256,192,154340,5,0,1:0:0:0:
256,192,154361,12,0,154986,0:0:0:0:
256,192,155007,5,8,0:0:0:0:
256,192,155028,12,0,155653,0:0:0:0:
256,192,155674,5,4,1:0:0:0:
256,192,155695,12,0,156320,0:0:0:0:
256,192,156341,5,8,0:0:0:0:
256,192,156362,12,0,156987,0:0:0:0:
256,192,157007,5,0,1:0:0:0:
256,192,157028,12,0,157653,0:0:0:0:
256,192,157674,5,8,0:0:0:0:
256,192,157695,12,0,158320,0:0:0:0:
256,192,158340,5,4,1:0:0:0:
256,192,158361,12,0,158986,0:0:0:0:
256,192,159007,5,8,0:0:0:0:
256,192,159028,12,0,159653,0:0:0:0:
256,192,159674,5,4,1:0:0:0:
256,192,159695,12,0,160320,0:0:0:0:
256,192,160341,5,8,0:0:0:0:
96,192,160507,6,2,L|80:192,2,11.25
256,192,160590,1,2,0:0:0:0:
416,192,160632,2,2,L|432:192,2,11.25
427,192,160695,6,0,L|416:176,7,11.25,0|0|0|0|0|0|0|8,0:0|0:0|0:0|0:0|0:0|0:0|0:0|0:0,0:0:0:0:
0,192,161007,6,0,L|16:192,12,11.25,10|0|0|0|0|0|0|0|0|0|0|0|0,0:0|0:0|0:0|0:0|0:0|0:0|0:0|0:0|0:0|0:0|0:0|0:0|0:0,0:0:0:0:
128,192,161278,5,0,0:0:0:0:
256,192,161299,5,0,0:0:0:0:
384,192,161320,5,0,0:0:0:0:
512,192,161340,6,0,L|496:192,12,11.25,2|0|0|0|0|0|0|0|0|0|0|0|0,0:0|0:0|0:0|0:0|0:0|0:0|0:0|0:0|0:0|0:0|0:0|0:0|0:0,0:0:0:0:
384,192,161611,5,0,0:0:0:0:
256,192,161632,5,0,0:0:0:0:
128,192,161653,5,0,0:0:0:0:
0,128,161674,6,0,L|16:128,12,11.25,10|0|0|0|0|0|0|0|0|0|0|0|0,0:0|0:0|0:0|0:0|0:0|0:0|0:0|0:0|0:0|0:0|0:0|0:0|0:0,0:0:0:0:
128,128,161945,5,0,0:0:0:0:
256,128,161966,5,0,0:0:0:0:
384,128,161987,5,0,0:0:0:0:
512,128,162007,6,0,L|496:128,12,11.25,2|0|0|0|0|0|0|0|0|0|0|0|0,0:0|0:0|0:0|0:0|0:0|0:0|0:0|0:0|0:0|0:0|0:0|0:0|0:0,0:0:0:0:
384,128,162278,5,0,0:0:0:0:
256,128,162299,5,0,0:0:0:0:
128,128,162320,5,0,0:0:0:0:
0,256,162340,6,0,L|16:256,12,11.25,10|0|0|0|0|0|0|0|0|0|0|0|0,0:0|0:0|0:0|0:0|0:0|0:0|0:0|0:0|0:0|0:0|0:0|0:0|0:0,0:0:0:0:
128,256,162611,5,0,0:0:0:0:
256,256,162632,5,0,0:0:0:0:
384,256,162653,5,0,0:0:0:0:
512,256,162673,6,0,L|496:256,12,11.25,2|0|0|0|0|0|0|0|0|0|0|0|0,0:0|0:0|0:0|0:0|0:0|0:0|0:0|0:0|0:0|0:0|0:0|0:0|0:0,0:0:0:0:
384,256,162944,5,0,0:0:0:0:
256,256,162965,5,0,0:0:0:0:
128,256,162986,5,0,0:0:0:0:
0,64,163007,6,0,L|16:64,12,11.25,10|0|0|0|0|0|0|0|0|0|0|0|0,0:0|0:0|0:0|0:0|0:0|0:0|0:0|0:0|0:0|0:0|0:0|0:0|0:0,0:0:0:0:
128,64,163278,5,0,0:0:0:0:
256,64,163299,5,0,0:0:0:0:
384,64,163320,5,0,0:0:0:0:
512,64,163340,6,0,L|496:64,12,11.25,2|0|0|0|0|0|0|0|0|0|0|0|0,0:0|0:0|0:0|0:0|0:0|0:0|0:0|0:0|0:0|0:0|0:0|0:0|0:0,0:0:0:0:
384,64,163611,5,0,0:0:0:0:
256,64,163632,5,0,0:0:0:0:
128,64,163653,5,0,0:0:0:0:
0,320,163674,6,0,L|16:320,12,11.25,10|0|0|0|0|0|0|0|0|0|0|0|0,0:0|0:0|0:0|0:0|0:0|0:0|0:0|0:0|0:0|0:0|0:0|0:0|0:0,0:0:0:0:
128,320,163945,5,0,0:0:0:0:
256,320,163966,5,0,0:0:0:0:
384,320,163987,5,0,0:0:0:0:
512,320,164007,6,0,L|496:320,12,11.25,2|0|0|0|0|0|0|0|0|0|0|0|0,0:0|0:0|0:0|0:0|0:0|0:0|0:0|0:0|0:0|0:0|0:0|0:0|0:0,0:0:0:0:
384,320,164278,5,0,0:0:0:0:
256,320,164299,5,0,0:0:0:0:
128,320,164320,5,0,0:0:0:0:
0,16,164340,6,0,L|16:16,12,11.25,10|0|0|0|0|0|0|0|0|0|0|0|0,0:0|0:0|0:0|0:0|0:0|0:0|0:0|0:0|0:0|0:0|0:0|0:0|0:0,0:0:0:0:
128,16,164611,5,0,0:0:0:0:
256,16,164632,5,0,0:0:0:0:
384,16,164653,5,0,0:0:0:0:
512,16,164673,6,0,L|496:16,12,11.25,2|0|0|0|0|0|0|0|0|0|0|0|0,0:0|0:0|0:0|0:0|0:0|0:0|0:0|0:0|0:0|0:0|0:0|0:0|0:0,0:0:0:0:
384,16,164944,5,0,0:0:0:0:
256,16,164965,5,0,0:0:0:0:
128,16,164986,5,0,0:0:0:0:
0,368,165007,6,0,L|16:368,12,11.25,10|0|0|0|0|0|0|0|0|0|0|0|0,0:0|0:0|0:0|0:0|0:0|0:0|0:0|0:0|0:0|0:0|0:0|0:0|0:0,0:0:0:0:
128,368,165278,5,0,0:0:0:0:
256,368,165299,5,0,0:0:0:0:
384,368,165320,5,0,0:0:0:0:
512,368,165340,6,0,L|496:368,12,11.25,2|0|0|0|0|0|0|0|0|0|0|0|0,0:0|0:0|0:0|0:0|0:0|0:0|0:0|0:0|0:0|0:0|0:0|0:0|0:0,0:0:0:0:
384,368,165611,5,0,0:0:0:0:
256,368,165632,5,0,0:0:0:0:
128,368,165653,5,0,0:0:0:0:
0,192,165674,6,0,L|16:192,12,11.25,10|0|0|0|0|0|0|0|0|0|0|0|0,0:0|0:0|0:0|0:0|0:0|0:0|0:0|0:0|0:0|0:0|0:0|0:0|0:0,0:0:0:0:
128,192,165945,5,0,0:0:0:0:
256,192,165966,5,0,0:0:0:0:
384,192,165987,5,0,0:0:0:0:
512,192,166007,6,0,L|496:192,12,11.25,2|0|0|0|0|0|0|0|0|0|0|0|0,0:0|0:0|0:0|0:0|0:0|0:0|0:0|0:0|0:0|0:0|0:0|0:0|0:0,0:0:0:0:
384,192,166278,5,0,0:0:0:0:
256,192,166299,5,0,0:0:0:0:
128,192,166320,5,0,0:0:0:0:
384,192,166340,6,0,L|400:192,2,11.25,10|0|0,0:0|0:0|0:0,0:0:0:0:
128,192,166507,6,0,L|112:192,2,11.25,2|0|0,0:0|0:0|0:0,0:0:0:0:
384,192,166674,6,0,L|400:192,2,11.25,10|0|0,0:0|0:0|0:0,0:0:0:0:
128,192,166841,6,0,L|112:192,2,11.25,2|0|0,0:0|0:0|0:0,0:0:0:0:
384,128,167007,6,0,L|400:128,2,11.25,10|0|0,0:0|0:0|0:0,0:0:0:0:
128,128,167174,6,0,L|112:128,2,11.25,2|0|0,0:0|0:0|0:0,0:0:0:0:
384,128,167341,6,0,L|400:128,2,11.25,10|0|0,0:0|0:0|0:0,0:0:0:0:
128,128,167508,6,0,L|112:128,2,11.25,2|0|0,0:0|0:0|0:0,0:0:0:0:
384,192,167674,6,0,L|400:192,2,11.25,10|0|0,0:0|0:0|0:0,0:0:0:0:
128,192,167841,6,0,L|112:192,2,11.25,2|0|0,0:0|0:0|0:0,0:0:0:0:
384,192,168008,6,0,L|400:192,2,11.25,10|0|0,0:0|0:0|0:0,0:0:0:0:
128,192,168175,6,0,L|112:192,2,11.25,2|0|0,0:0|0:0|0:0,0:0:0:0:
384,256,168340,6,0,L|400:256,2,11.25,10|0|0,0:0|0:0|0:0,0:0:0:0:
128,256,168507,6,0,L|112:256,2,11.25,2|0|0,0:0|0:0|0:0,0:0:0:0:
384,256,168674,6,0,L|400:256,2,11.25,10|0|0,0:0|0:0|0:0,0:0:0:0:
128,256,168841,6,0,L|112:256,2,11.25,2|0|0,0:0|0:0|0:0,0:0:0:0:
128,224,169007,5,2,0:0:0:0:
128,224,169028,1,0,0:0:0:0:
128,224,169049,1,0,0:0:0:0:
128,224,169070,1,0,0:0:0:0:
128,224,169090,1,2,0:0:0:0:
128,224,169111,1,0,0:0:0:0:
128,224,169132,1,0,0:0:0:0:
128,224,169153,1,0,0:0:0:0:
128,224,169174,1,2,0:0:0:0:
128,224,169195,1,0,0:0:0:0:
128,224,169215,1,0,0:0:0:0:
128,224,169236,1,0,0:0:0:0:
128,224,169257,1,2,0:0:0:0:
128,224,169278,1,0,0:0:0:0:
128,224,169299,1,0,0:0:0:0:
144,224,169320,1,0,0:0:0:0:
384,224,169340,5,2,0:0:0:0:
384,224,169361,1,0,0:0:0:0:
384,224,169382,1,0,0:0:0:0:
384,224,169403,1,0,0:0:0:0:
384,224,169423,1,2,0:0:0:0:
384,224,169444,1,0,0:0:0:0:
384,224,169465,1,0,0:0:0:0:
384,224,169486,1,0,0:0:0:0:
384,224,169507,1,2,0:0:0:0:
384,224,169528,1,0,0:0:0:0:
384,224,169548,1,0,0:0:0:0:
384,224,169569,1,0,0:0:0:0:
384,224,169590,1,2,0:0:0:0:
384,224,169611,1,0,0:0:0:0:
384,224,169632,1,0,0:0:0:0:
368,224,169653,1,0,0:0:0:0:
240,208,169674,6,2,L|240:192,1,11.25
256,208,169674,2,2,L|256:192,1,11.25
272,208,169674,2,2,L|272:192,1,11.25
240,208,169715,6,2,L|240:192,1,11.25
272,208,169715,2,2,L|272:192,1,11.25
256,208,169715,2,2,L|256:192,1,11.25
240,208,169757,6,2,L|240:192,1,11.25
256,208,169757,2,2,L|256:192,1,11.25
272,208,169757,2,2,L|272:192,1,11.25
240,208,169799,6,2,L|240:192,1,11.25
272,208,169799,2,2,L|272:192,1,11.25
256,208,169799,2,2,L|256:192,1,11.25
240,208,169840,6,2,L|240:192,1,11.25
256,208,169840,2,2,L|256:192,1,11.25
272,208,169840,2,2,L|272:192,1,11.25
240,208,169882,6,2,L|240:192,1,11.25
272,208,169882,2,2,L|272:192,1,11.25
256,208,169882,2,2,L|256:192,1,11.25
240,208,169924,6,2,L|240:192,1,11.25
256,208,169924,2,2,L|256:192,1,11.25
272,208,169924,2,2,L|272:192,1,11.25
240,208,169965,6,2,L|240:192,1,11.25
272,208,169965,2,2,L|272:192,1,11.25
256,208,169965,2,2,L|256:192,1,11.25
240,208,170007,6,2,L|240:192,1,11.25
256,208,170007,2,2,L|256:192,1,11.25
272,208,170007,2,2,L|272:192,1,11.25
240,208,170048,6,2,L|240:192,1,11.25
272,208,170048,2,2,L|272:192,1,11.25
256,208,170048,2,2,L|256:192,1,11.25
240,208,170090,6,2,L|240:192,1,11.25
256,208,170090,2,2,L|256:192,1,11.25
272,208,170090,2,2,L|272:192,1,11.25
240,208,170132,6,2,L|240:192,1,11.25
256,208,170132,2,2,L|256:192,1,11.25
272,208,170132,2,2,L|272:192,1,11.25
240,208,170173,6,2,L|240:192,1,11.25
256,208,170173,2,2,L|256:192,1,11.25
272,208,170173,2,2,L|272:192,1,11.25
240,208,170215,6,2,L|240:192,1,11.25
256,208,170215,2,2,L|256:192,1,11.25
272,208,170215,2,2,L|272:192,1,11.25
240,208,170257,6,2,L|240:192,1,11.25
272,208,170257,2,2,L|272:192,1,11.25
256,208,170257,2,2,L|256:192,1,11.25
240,208,170298,6,2,L|240:192,1,11.25
272,208,170298,2,2,L|272:192,1,11.25
256,208,170298,2,2,L|256:192,1,11.25
256,192,170340,12,4,171340,0:0:0:0:
80,120,171674,5,2,0:0:0:0:
80,120,171695,5,2,0:0:0:0:
99,108,171715,5,0,0:0:0:0:
99,108,171736,5,0,0:0:0:0:
119,97,171757,5,0,0:0:0:0:
119,97,171778,5,0,0:0:0:0:
256,88,171799,5,0,0:0:0:0:
256,88,171820,5,0,0:0:0:0:
432,120,171841,5,0,0:0:0:0:
432,120,171862,5,0,0:0:0:0:
413,108,171882,5,0,0:0:0:0:
413,108,171903,5,0,0:0:0:0:
393,97,171924,5,0,0:0:0:0:
393,97,171945,5,0,0:0:0:0:
256,88,171966,5,0,0:0:0:0:
256,88,171987,5,0,0:0:0:0:
24,120,172007,5,2,0:0:0:0:
24,120,172028,5,2,0:0:0:0:
43,108,172048,5,0,0:0:0:0:
43,108,172069,5,0,0:0:0:0:
63,97,172090,5,0,0:0:0:0:
63,97,172111,5,0,0:0:0:0:
256,88,172132,5,0,0:0:0:0:
256,88,172153,5,0,0:0:0:0:
408,120,172174,5,0,0:0:0:0:
408,120,172195,5,0,0:0:0:0:
389,108,172215,5,0,0:0:0:0:
389,108,172236,5,0,0:0:0:0:
369,97,172257,5,0,0:0:0:0:
369,97,172278,5,0,0:0:0:0:
256,88,172299,5,0,0:0:0:0:
256,88,172320,5,0,0:0:0:0:
120,120,172341,5,2,0:0:0:0:
120,120,172362,5,2,0:0:0:0:
139,108,172382,5,0,0:0:0:0:
139,108,172403,5,0,0:0:0:0:
159,97,172424,5,0,0:0:0:0:
159,97,172445,5,0,0:0:0:0:
296,88,172466,5,0,0:0:0:0:
296,88,172487,5,0,0:0:0:0:
472,120,172508,5,0,0:0:0:0:
472,120,172529,5,0,0:0:0:0:
453,108,172549,5,0,0:0:0:0:
453,108,172570,5,0,0:0:0:0:
433,97,172591,5,0,0:0:0:0:
433,97,172612,5,0,0:0:0:0:
296,88,172633,5,0,0:0:0:0:
296,88,172654,5,0,0:0:0:0:
64,120,172674,5,2,0:0:0:0:
64,120,172695,5,2,0:0:0:0:
83,108,172715,5,0,0:0:0:0:
83,108,172736,5,0,0:0:0:0:
103,97,172757,5,0,0:0:0:0:
103,97,172778,5,0,0:0:0:0:
296,88,172799,5,0,0:0:0:0:
296,88,172820,5,0,0:0:0:0:
448,120,172841,5,0,0:0:0:0:
448,120,172862,5,0,0:0:0:0:
429,108,172882,5,0,0:0:0:0:
429,108,172903,5,0,0:0:0:0:
409,97,172924,5,0,0:0:0:0:
409,97,172945,5,0,0:0:0:0:
296,88,172966,5,0,0:0:0:0:
296,88,172987,5,0,0:0:0:0:
64,168,173007,5,2,0:0:0:0:
64,168,173028,5,2,0:0:0:0:
83,156,173048,5,0,0:0:0:0:
83,156,173069,5,0,0:0:0:0:
103,145,173090,5,0,0:0:0:0:
103,145,173111,5,0,0:0:0:0:
240,136,173132,5,0,0:0:0:0:
240,136,173153,5,0,0:0:0:0:
416,168,173174,5,0,0:0:0:0:
416,168,173195,5,0,0:0:0:0:
397,156,173215,5,0,0:0:0:0:
397,156,173236,5,0,0:0:0:0:
377,145,173257,5,0,0:0:0:0:
377,145,173278,5,0,0:0:0:0:
240,136,173299,5,0,0:0:0:0:
240,136,173320,5,0,0:0:0:0:
8,168,173340,5,2,0:0:0:0:
8,168,173361,5,2,0:0:0:0:
27,156,173381,5,0,0:0:0:0:
27,156,173402,5,0,0:0:0:0:
47,145,173423,5,0,0:0:0:0:
47,145,173444,5,0,0:0:0:0:
240,136,173465,5,0,0:0:0:0:
240,136,173486,5,0,0:0:0:0:
392,168,173507,5,0,0:0:0:0:
392,168,173528,5,0,0:0:0:0:
373,156,173548,5,0,0:0:0:0:
373,156,173569,5,0,0:0:0:0:
353,145,173590,5,0,0:0:0:0:
353,145,173611,5,0,0:0:0:0:
240,136,173632,5,0,0:0:0:0:
240,136,173653,5,0,0:0:0:0:
104,208,173674,5,2,0:0:0:0:
104,208,173695,5,2,0:0:0:0:
123,196,173715,5,0,0:0:0:0:
123,196,173736,5,0,0:0:0:0:
143,185,173757,5,0,0:0:0:0:
143,185,173778,5,0,0:0:0:0:
280,176,173799,5,0,0:0:0:0:
280,176,173820,5,0,0:0:0:0:
456,208,173841,5,0,0:0:0:0:
456,208,173862,5,0,0:0:0:0:
437,196,173882,5,0,0:0:0:0:
437,196,173903,5,0,0:0:0:0:
417,185,173924,5,0,0:0:0:0:
417,185,173945,5,0,0:0:0:0:
280,176,173966,5,0,0:0:0:0:
280,176,173987,5,0,0:0:0:0:
80,120,174007,5,2,0:0:0:0:
80,120,174028,5,2,0:0:0:0:
99,108,174048,5,0,0:0:0:0:
99,108,174069,5,0,0:0:0:0:
119,97,174090,5,0,0:0:0:0:
119,97,174111,5,0,0:0:0:0:
256,88,174132,5,0,0:0:0:0:
256,88,174153,5,0,0:0:0:0:
432,120,174174,5,0,0:0:0:0:
432,120,174195,5,0,0:0:0:0:
413,108,174215,5,0,0:0:0:0:
413,108,174236,5,0,0:0:0:0:
393,97,174257,5,0,0:0:0:0:
393,97,174278,5,0,0:0:0:0:
256,88,174299,5,0,0:0:0:0:
256,88,174320,5,0,0:0:0:0:
24,120,174340,5,2,0:0:0:0:
24,120,174361,5,2,0:0:0:0:
43,108,174381,5,0,0:0:0:0:
43,108,174402,5,0,0:0:0:0:
63,97,174423,5,0,0:0:0:0:
63,97,174444,5,0,0:0:0:0:
256,88,174465,5,0,0:0:0:0:
256,88,174486,5,0,0:0:0:0:
408,120,174507,5,0,0:0:0:0:
408,120,174528,5,0,0:0:0:0:
389,108,174548,5,0,0:0:0:0:
389,108,174569,5,0,0:0:0:0:
369,97,174590,5,0,0:0:0:0:
369,97,174611,5,0,0:0:0:0:
256,88,174632,5,0,0:0:0:0:
256,88,174653,5,0,0:0:0:0:
120,120,174674,5,2,0:0:0:0:
120,120,174695,5,2,0:0:0:0:
139,108,174715,5,0,0:0:0:0:
139,108,174736,5,0,0:0:0:0:
159,97,174757,5,0,0:0:0:0:
159,97,174778,5,0,0:0:0:0:
296,88,174799,5,0,0:0:0:0:
296,88,174820,5,0,0:0:0:0:
472,120,174841,5,0,0:0:0:0:
472,120,174862,5,0,0:0:0:0:
453,108,174882,5,0,0:0:0:0:
453,108,174903,5,0,0:0:0:0:
433,97,174924,5,0,0:0:0:0:
433,97,174945,5,0,0:0:0:0:
296,88,174966,5,0,0:0:0:0:
296,88,174987,5,0,0:0:0:0:
64,120,175007,5,2,0:0:0:0:
64,120,175028,5,2,0:0:0:0:
83,108,175048,5,0,0:0:0:0:
83,108,175069,5,0,0:0:0:0:
103,97,175090,5,0,0:0:0:0:
103,97,175111,5,0,0:0:0:0:
296,88,175132,5,0,0:0:0:0:
296,88,175153,5,0,0:0:0:0:
448,120,175174,5,0,0:0:0:0:
448,120,175195,5,0,0:0:0:0:
429,108,175215,5,0,0:0:0:0:
429,108,175236,5,0,0:0:0:0:
409,97,175257,5,0,0:0:0:0:
409,97,175278,5,0,0:0:0:0:
296,88,175299,5,0,0:0:0:0:
296,88,175320,5,0,0:0:0:0:
64,168,175340,5,2,0:0:0:0:
64,168,175361,5,2,0:0:0:0:
83,156,175381,5,0,0:0:0:0:
83,156,175402,5,0,0:0:0:0:
103,145,175423,5,0,0:0:0:0:
103,145,175444,5,0,0:0:0:0:
240,136,175465,5,0,0:0:0:0:
240,136,175486,5,0,0:0:0:0:
416,168,175507,5,0,0:0:0:0:
416,168,175528,5,0,0:0:0:0:
397,156,175548,5,0,0:0:0:0:
397,156,175569,5,0,0:0:0:0:
377,145,175590,5,0,0:0:0:0:
377,145,175611,5,0,0:0:0:0:
240,136,175632,5,0,0:0:0:0:
240,136,175653,5,0,0:0:0:0:
8,168,175673,5,2,0:0:0:0:
8,168,175694,5,2,0:0:0:0:
27,156,175714,5,0,0:0:0:0:
27,156,175735,5,0,0:0:0:0:
47,145,175756,5,0,0:0:0:0:
47,145,175777,5,0,0:0:0:0:
240,136,175798,5,0,0:0:0:0:
240,136,175819,5,0,0:0:0:0:
392,168,175840,5,0,0:0:0:0:
392,168,175861,5,0,0:0:0:0:
373,156,175881,5,0,0:0:0:0:
373,156,175902,5,0,0:0:0:0:
353,145,175923,5,0,0:0:0:0:
353,145,175944,5,0,0:0:0:0:
240,136,175965,5,0,0:0:0:0:
240,136,175986,5,0,0:0:0:0:
104,208,176007,5,2,0:0:0:0:
104,208,176028,5,2,0:0:0:0:
123,196,176048,5,0,0:0:0:0:
123,196,176069,5,0,0:0:0:0:
143,185,176090,5,0,0:0:0:0:
143,185,176111,5,0,0:0:0:0:
280,176,176132,5,0,0:0:0:0:
280,176,176153,5,0,0:0:0:0:
456,208,176174,5,0,0:0:0:0:
456,208,176195,5,0,0:0:0:0:
437,196,176215,5,0,0:0:0:0:
437,196,176236,5,0,0:0:0:0:
417,185,176257,5,0,0:0:0:0:
417,185,176278,5,0,0:0:0:0:
280,176,176299,5,0,0:0:0:0:
280,176,176320,5,0,0:0:0:0:
80,120,176340,5,2,0:0:0:0:
80,120,176361,5,2,0:0:0:0:
99,108,176381,5,0,0:0:0:0:
99,108,176402,5,0,0:0:0:0:
119,97,176423,5,0,0:0:0:0:
119,97,176444,5,0,0:0:0:0:
256,88,176465,5,0,0:0:0:0:
256,88,176486,5,0,0:0:0:0:
432,120,176507,5,0,0:0:0:0:
432,120,176528,5,0,0:0:0:0:
413,108,176548,5,0,0:0:0:0:
413,108,176569,5,0,0:0:0:0:
393,97,176590,5,0,0:0:0:0:
393,97,176611,5,0,0:0:0:0:
256,88,176632,5,0,0:0:0:0:
256,88,176653,5,0,0:0:0:0:
24,120,176673,5,2,0:0:0:0:
24,120,176694,5,2,0:0:0:0:
43,108,176714,5,0,0:0:0:0:
43,108,176735,5,0,0:0:0:0:
63,97,176756,5,0,0:0:0:0:
63,97,176777,5,0,0:0:0:0:
256,88,176798,5,0,0:0:0:0:
256,88,176819,5,0,0:0:0:0:
408,120,176840,5,0,0:0:0:0:
408,120,176861,5,0,0:0:0:0:
389,108,176881,5,0,0:0:0:0:
389,108,176902,5,0,0:0:0:0:
369,97,176923,5,0,0:0:0:0:
369,97,176944,5,0,0:0:0:0:
256,88,176965,5,0,0:0:0:0:
256,88,176986,5,0,0:0:0:0:
120,120,177007,5,6,0:0:0:0:
120,120,177028,5,2,0:0:0:0:
139,108,177048,5,0,0:0:0:0:
139,108,177069,5,0,0:0:0:0:
159,97,177090,5,0,0:0:0:0:
159,97,177111,5,0,0:0:0:0:
296,88,177132,5,0,0:0:0:0:
296,88,177153,5,0,0:0:0:0:
472,120,177174,5,0,0:0:0:0:
472,120,177195,5,0,0:0:0:0:
453,108,177215,5,0,0:0:0:0:
453,108,177236,5,0,0:0:0:0:
433,97,177257,5,0,0:0:0:0:
433,97,177278,5,0,0:0:0:0:
296,88,177299,5,0,0:0:0:0:
296,88,177320,5,0,0:0:0:0:
64,120,177340,5,2,0:0:0:0:
64,120,177361,5,2,0:0:0:0:
83,108,177381,5,0,0:0:0:0:
83,108,177402,5,0,0:0:0:0:
103,97,177423,5,0,0:0:0:0:
103,97,177444,5,0,0:0:0:0:
296,88,177465,5,0,0:0:0:0:
296,88,177486,5,0,0:0:0:0:
448,120,177507,5,0,0:0:0:0:
448,120,177528,5,0,0:0:0:0:
429,108,177548,5,0,0:0:0:0:
429,108,177569,5,0,0:0:0:0:
409,97,177590,5,0,0:0:0:0:
409,97,177611,5,0,0:0:0:0:
296,88,177632,5,0,0:0:0:0:
296,88,177653,5,0,0:0:0:0:
64,168,177673,5,2,0:0:0:0:
64,168,177694,5,2,0:0:0:0:
83,156,177714,5,0,0:0:0:0:
83,156,177735,5,0,0:0:0:0:
103,145,177756,5,0,0:0:0:0:
103,145,177777,5,0,0:0:0:0:
240,136,177798,5,0,0:0:0:0:
240,136,177819,5,0,0:0:0:0:
416,168,177840,5,0,0:0:0:0:
416,168,177861,5,0,0:0:0:0:
397,156,177881,5,0,0:0:0:0:
397,156,177902,5,0,0:0:0:0:
377,145,177923,5,0,0:0:0:0:
377,145,177944,5,0,0:0:0:0:
240,136,177965,5,0,0:0:0:0:
240,136,177986,5,0,0:0:0:0:
8,168,178006,5,2,0:0:0:0:
8,168,178027,5,2,0:0:0:0:
27,156,178047,5,0,0:0:0:0:
27,156,178068,5,0,0:0:0:0:
47,145,178089,5,0,0:0:0:0:
47,145,178110,5,0,0:0:0:0:
240,136,178131,5,0,0:0:0:0:
240,136,178152,5,0,0:0:0:0:
392,168,178173,5,0,0:0:0:0:
392,168,178194,5,0,0:0:0:0:
373,156,178214,5,0,0:0:0:0:
373,156,178235,5,0,0:0:0:0:
353,145,178256,5,0,0:0:0:0:
353,145,178277,5,0,0:0:0:0:
240,136,178298,5,0,0:0:0:0:
240,136,178319,5,0,0:0:0:0:
104,208,178340,5,2,0:0:0:0:
104,208,178361,5,2,0:0:0:0:
123,196,178381,5,0,0:0:0:0:
123,196,178402,5,0,0:0:0:0:
143,185,178423,5,0,0:0:0:0:
143,185,178444,5,0,0:0:0:0:
280,176,178465,5,0,0:0:0:0:
280,176,178486,5,0,0:0:0:0:
456,208,178507,5,0,0:0:0:0:
456,208,178528,5,0,0:0:0:0:
437,196,178548,5,0,0:0:0:0:
437,196,178569,5,0,0:0:0:0:
417,185,178590,5,0,0:0:0:0:
417,185,178611,5,0,0:0:0:0:
280,176,178632,5,0,0:0:0:0:
280,176,178653,5,0,0:0:0:0:
80,120,178674,5,2,0:0:0:0:
80,120,178695,5,2,0:0:0:0:
99,108,178715,5,0,0:0:0:0:
99,108,178736,5,0,0:0:0:0:
119,97,178757,5,0,0:0:0:0:
119,97,178778,5,0,0:0:0:0:
256,88,178799,5,0,0:0:0:0:
256,88,178820,5,0,0:0:0:0:
432,120,178841,5,0,0:0:0:0:
432,120,178862,5,0,0:0:0:0:
413,108,178882,5,0,0:0:0:0:
413,108,178903,5,0,0:0:0:0:
393,97,178924,5,0,0:0:0:0:
393,97,178945,5,0,0:0:0:0:
256,88,178966,5,0,0:0:0:0:
256,88,178987,5,0,0:0:0:0:
24,120,179007,5,2,0:0:0:0:
24,120,179028,5,2,0:0:0:0:
43,108,179048,5,0,0:0:0:0:
43,108,179069,5,0,0:0:0:0:
63,97,179090,5,0,0:0:0:0:
63,97,179111,5,0,0:0:0:0:
256,88,179132,5,0,0:0:0:0:
256,88,179153,5,0,0:0:0:0:
408,120,179174,5,0,0:0:0:0:
408,120,179195,5,0,0:0:0:0:
389,108,179215,5,0,0:0:0:0:
389,108,179236,5,0,0:0:0:0:
369,97,179257,5,0,0:0:0:0:
369,97,179278,5,0,0:0:0:0:
256,88,179299,5,0,0:0:0:0:
256,88,179320,5,0,0:0:0:0:
120,120,179341,5,2,0:0:0:0:
120,120,179362,5,2,0:0:0:0:
139,108,179382,5,0,0:0:0:0:
139,108,179403,5,0,0:0:0:0:
159,97,179424,5,0,0:0:0:0:
159,97,179445,5,0,0:0:0:0:
296,88,179466,5,0,0:0:0:0:
296,88,179487,5,0,0:0:0:0:
472,120,179508,5,0,0:0:0:0:
472,120,179529,5,0,0:0:0:0:
453,108,179549,5,0,0:0:0:0:
453,108,179570,5,0,0:0:0:0:
433,97,179591,5,0,0:0:0:0:
433,97,179612,5,0,0:0:0:0:
296,88,179633,5,0,0:0:0:0:
296,88,179654,5,0,0:0:0:0:
64,120,179674,5,6,0:0:0:0:
64,120,179695,5,2,0:0:0:0:
83,108,179715,5,0,0:0:0:0:
83,108,179736,5,0,0:0:0:0:
103,97,179757,5,0,0:0:0:0:
103,97,179778,5,0,0:0:0:0:
296,88,179799,5,0,0:0:0:0:
296,88,179820,5,0,0:0:0:0:
448,120,179841,5,0,0:0:0:0:
448,120,179862,5,0,0:0:0:0:
429,108,179882,5,0,0:0:0:0:
429,108,179903,5,0,0:0:0:0:
409,97,179924,5,0,0:0:0:0:
409,97,179945,5,0,0:0:0:0:
296,88,179966,5,0,0:0:0:0:
296,88,179987,5,0,0:0:0:0:
64,168,180007,5,2,0:0:0:0:
64,168,180028,5,2,0:0:0:0:
83,156,180048,5,0,0:0:0:0:
83,156,180069,5,0,0:0:0:0:
103,145,180090,5,0,0:0:0:0:
103,145,180111,5,0,0:0:0:0:
240,136,180132,5,0,0:0:0:0:
240,136,180153,5,0,0:0:0:0:
416,168,180174,5,0,0:0:0:0:
416,168,180195,5,0,0:0:0:0:
397,156,180215,5,0,0:0:0:0:
397,156,180236,5,0,0:0:0:0:
377,145,180257,5,0,0:0:0:0:
377,145,180278,5,0,0:0:0:0:
240,136,180299,5,0,0:0:0:0:
240,136,180320,5,0,0:0:0:0:
8,168,180340,5,2,0:0:0:0:
8,168,180361,5,2,0:0:0:0:
27,156,180381,5,0,0:0:0:0:
27,156,180402,5,0,0:0:0:0:
47,145,180423,5,0,0:0:0:0:
47,145,180444,5,0,0:0:0:0:
240,136,180465,5,0,0:0:0:0:
240,136,180486,5,0,0:0:0:0:
392,168,180507,5,0,0:0:0:0:
392,168,180528,5,0,0:0:0:0:
373,156,180548,5,0,0:0:0:0:
373,156,180569,5,0,0:0:0:0:
353,145,180590,5,0,0:0:0:0:
353,145,180611,5,0,0:0:0:0:
240,136,180632,5,0,0:0:0:0:
240,136,180653,5,0,0:0:0:0:
104,208,180674,5,2,0:0:0:0:
104,208,180695,5,2,0:0:0:0:
123,196,180715,5,0,0:0:0:0:
123,196,180736,5,0,0:0:0:0:
143,185,180757,5,0,0:0:0:0:
143,185,180778,5,0,0:0:0:0:
280,176,180799,5,0,0:0:0:0:
280,176,180820,5,0,0:0:0:0:
456,208,180841,5,0,0:0:0:0:
456,208,180862,5,0,0:0:0:0:
437,196,180882,5,0,0:0:0:0:
437,196,180903,5,0,0:0:0:0:
417,185,180924,5,0,0:0:0:0:
417,185,180945,5,0,0:0:0:0:
280,176,180966,5,0,0:0:0:0:
280,176,180987,5,0,0:0:0:0:
80,120,181007,5,6,0:0:0:0:
80,120,181028,5,2,0:0:0:0:
99,108,181048,5,0,0:0:0:0:
99,108,181069,5,0,0:0:0:0:
119,97,181090,5,0,0:0:0:0:
119,97,181111,5,0,0:0:0:0:
256,88,181132,5,0,0:0:0:0:
256,88,181153,5,0,0:0:0:0:
432,120,181174,5,0,0:0:0:0:
432,120,181195,5,0,0:0:0:0:
413,108,181215,5,0,0:0:0:0:
413,108,181236,5,0,0:0:0:0:
393,97,181257,5,0,0:0:0:0:
393,97,181278,5,0,0:0:0:0:
256,88,181299,5,0,0:0:0:0:
256,88,181320,5,0,0:0:0:0:
24,120,181340,5,2,0:0:0:0:
24,120,181361,5,2,0:0:0:0:
43,108,181381,5,0,0:0:0:0:
43,108,181402,5,0,0:0:0:0:
63,97,181423,5,0,0:0:0:0:
63,97,181444,5,0,0:0:0:0:
256,88,181465,5,0,0:0:0:0:
256,88,181486,5,0,0:0:0:0:
408,120,181507,5,0,0:0:0:0:
408,120,181528,5,0,0:0:0:0:
389,108,181548,5,0,0:0:0:0:
389,108,181569,5,0,0:0:0:0:
369,97,181590,5,0,0:0:0:0:
369,97,181611,5,0,0:0:0:0:
256,88,181632,5,0,0:0:0:0:
256,88,181653,5,0,0:0:0:0:
120,120,181674,5,2,0:0:0:0:
120,120,181695,5,2,0:0:0:0:
139,108,181715,5,0,0:0:0:0:
139,108,181736,5,0,0:0:0:0:
159,97,181757,5,0,0:0:0:0:
159,97,181778,5,0,0:0:0:0:
296,88,181799,5,0,0:0:0:0:
296,88,181820,5,0,0:0:0:0:
472,120,181841,5,0,0:0:0:0:
472,120,181862,5,0,0:0:0:0:
453,108,181882,5,0,0:0:0:0:
453,108,181903,5,0,0:0:0:0:
433,97,181924,5,0,0:0:0:0:
433,97,181945,5,0,0:0:0:0:
296,88,181966,5,0,0:0:0:0:
296,88,181987,5,0,0:0:0:0:
64,120,182007,5,2,0:0:0:0:
64,120,182028,5,2,0:0:0:0:
83,108,182048,5,0,0:0:0:0:
83,108,182069,5,0,0:0:0:0:
103,97,182090,5,0,0:0:0:0:
103,97,182111,5,0,0:0:0:0:
296,88,182132,5,0,0:0:0:0:
296,88,182153,5,0,0:0:0:0:
448,120,182174,5,0,0:0:0:0:
448,120,182195,5,0,0:0:0:0:
429,108,182215,5,0,0:0:0:0:
429,108,182236,5,0,0:0:0:0:
409,97,182257,5,0,0:0:0:0:
409,97,182278,5,0,0:0:0:0:
296,88,182299,5,0,0:0:0:0:
296,88,182320,5,0,0:0:0:0:
64,168,182340,5,6,0:0:0:0:
64,168,182361,5,2,0:0:0:0:
83,156,182381,5,0,0:0:0:0:
83,156,182402,5,0,0:0:0:0:
103,145,182423,5,0,0:0:0:0:
103,145,182444,5,0,0:0:0:0:
240,136,182465,5,0,0:0:0:0:
240,136,182486,5,0,0:0:0:0:
416,168,182507,5,0,0:0:0:0:
416,168,182528,5,0,0:0:0:0:
397,156,182548,5,0,0:0:0:0:
397,156,182569,5,0,0:0:0:0:
377,145,182590,5,0,0:0:0:0:
377,145,182611,5,0,0:0:0:0:
240,136,182632,5,0,0:0:0:0:
240,136,182653,5,0,0:0:0:0:
8,168,182673,5,2,0:0:0:0:
8,168,182694,5,2,0:0:0:0:
27,156,182714,5,0,0:0:0:0:
27,156,182735,5,0,0:0:0:0:
47,145,182756,5,0,0:0:0:0:
47,145,182777,5,0,0:0:0:0:
240,136,182798,5,0,0:0:0:0:
240,136,182819,5,0,0:0:0:0:
392,168,182840,5,0,0:0:0:0:
392,168,182861,5,0,0:0:0:0:
373,156,182881,5,0,0:0:0:0:
373,156,182902,5,0,0:0:0:0:
353,145,182923,5,0,0:0:0:0:
353,145,182944,5,0,0:0:0:0:
240,136,182965,5,0,0:0:0:0:
240,136,182986,5,0,0:0:0:0:
104,208,183007,5,2,0:0:0:0:
104,208,183028,5,2,0:0:0:0:
123,196,183048,5,0,0:0:0:0:
123,196,183069,5,0,0:0:0:0:
143,185,183090,5,0,0:0:0:0:
143,185,183111,5,0,0:0:0:0:
280,176,183132,5,0,0:0:0:0:
280,176,183153,5,0,0:0:0:0:
456,208,183174,5,0,0:0:0:0:
456,208,183195,5,0,0:0:0:0:
437,196,183215,5,0,0:0:0:0:
437,196,183236,5,0,0:0:0:0:
417,185,183257,5,0,0:0:0:0:
417,185,183278,5,0,0:0:0:0:
280,176,183299,5,0,0:0:0:0:
280,176,183320,5,0,0:0:0:0:
80,120,183340,5,2,0:0:0:0:
80,120,183361,5,2,0:0:0:0:
99,108,183381,5,0,0:0:0:0:
99,108,183402,5,0,0:0:0:0:
119,97,183423,5,0,0:0:0:0:
119,97,183444,5,0,0:0:0:0:
256,88,183465,5,0,0:0:0:0:
256,88,183486,5,0,0:0:0:0:
432,120,183507,5,0,0:0:0:0:
432,120,183528,5,0,0:0:0:0:
413,108,183548,5,0,0:0:0:0:
413,108,183569,5,0,0:0:0:0:
393,97,183590,5,0,0:0:0:0:
393,97,183611,5,0,0:0:0:0:
256,88,183632,5,0,0:0:0:0:
256,88,183653,5,0,0:0:0:0:
24,120,183673,5,2,0:0:0:0:
24,120,183694,5,2,0:0:0:0:
43,108,183714,5,0,0:0:0:0:
43,108,183735,5,0,0:0:0:0:
63,97,183756,5,0,0:0:0:0:
63,97,183777,5,0,0:0:0:0:
256,88,183798,5,0,0:0:0:0:
256,88,183819,5,0,0:0:0:0:
408,120,183840,5,0,0:0:0:0:
408,120,183861,5,0,0:0:0:0:
389,108,183881,5,0,0:0:0:0:
389,108,183902,5,0,0:0:0:0:
369,97,183923,5,0,0:0:0:0:
369,97,183944,5,0,0:0:0:0:
256,88,183965,5,0,0:0:0:0:
256,88,183986,5,0,0:0:0:0:
120,120,184007,5,2,0:0:0:0:
120,120,184028,5,2,0:0:0:0:
139,108,184048,5,0,0:0:0:0:
139,108,184069,5,0,0:0:0:0:
159,97,184090,5,0,0:0:0:0:
159,97,184111,5,0,0:0:0:0:
296,88,184132,5,0,0:0:0:0:
296,88,184153,5,0,0:0:0:0:
472,120,184174,5,0,0:0:0:0:
472,120,184195,5,0,0:0:0:0:
453,108,184215,5,0,0:0:0:0:
453,108,184236,5,0,0:0:0:0:
433,97,184257,5,0,0:0:0:0:
433,97,184278,5,0,0:0:0:0:
296,88,184299,5,0,0:0:0:0:
296,88,184320,5,0,0:0:0:0:
64,120,184340,5,2,0:0:0:0:
64,120,184361,5,2,0:0:0:0:
83,108,184381,5,0,0:0:0:0:
83,108,184402,5,0,0:0:0:0:
103,97,184423,5,0,0:0:0:0:
103,97,184444,5,0,0:0:0:0:
296,88,184465,5,0,0:0:0:0:
296,88,184486,5,0,0:0:0:0:
448,120,184507,5,0,0:0:0:0:
448,120,184528,5,0,0:0:0:0:
429,108,184548,5,0,0:0:0:0:
429,108,184569,5,0,0:0:0:0:
409,97,184590,5,0,0:0:0:0:
409,97,184611,5,0,0:0:0:0:
296,88,184632,5,0,0:0:0:0:
296,88,184653,5,0,0:0:0:0:
64,168,184673,5,2,0:0:0:0:
64,168,184694,5,2,0:0:0:0:
83,156,184714,5,0,0:0:0:0:
83,156,184735,5,0,0:0:0:0:
103,145,184756,5,0,0:0:0:0:
103,145,184777,5,0,0:0:0:0:
240,136,184798,5,0,0:0:0:0:
240,136,184819,5,0,0:0:0:0:
416,168,184840,5,0,0:0:0:0:
416,168,184861,5,0,0:0:0:0:
397,156,184881,5,0,0:0:0:0:
397,156,184902,5,0,0:0:0:0:
377,145,184923,5,0,0:0:0:0:
377,145,184944,5,0,0:0:0:0:
240,136,184965,5,0,0:0:0:0:
240,136,184986,5,0,0:0:0:0:
8,168,185006,5,2,0:0:0:0:
8,168,185027,5,2,0:0:0:0:
27,156,185047,5,0,0:0:0:0:
27,156,185068,5,0,0:0:0:0:
47,145,185089,5,0,0:0:0:0:
47,145,185110,5,0,0:0:0:0:
240,136,185131,5,0,0:0:0:0:
240,136,185152,5,0,0:0:0:0:
392,168,185173,5,0,0:0:0:0:
392,168,185194,5,0,0:0:0:0:
373,156,185214,5,0,0:0:0:0:
373,156,185235,5,0,0:0:0:0:
353,145,185256,5,0,0:0:0:0:
353,145,185277,5,0,0:0:0:0:
240,136,185298,5,0,0:0:0:0:
240,136,185319,5,0,0:0:0:0:
104,208,185340,5,2,0:0:0:0:
104,208,185361,5,2,0:0:0:0:
123,196,185381,5,0,0:0:0:0:
123,196,185402,5,0,0:0:0:0:
143,185,185423,5,0,0:0:0:0:
143,185,185444,5,0,0:0:0:0:
280,176,185465,5,0,0:0:0:0:
280,176,185486,5,0,0:0:0:0:
456,208,185507,5,0,0:0:0:0:
456,208,185528,5,0,0:0:0:0:
437,196,185548,5,0,0:0:0:0:
437,196,185569,5,0,0:0:0:0:
417,185,185590,5,0,0:0:0:0:
417,185,185611,5,0,0:0:0:0:
280,176,185632,5,0,0:0:0:0:
280,176,185653,5,0,0:0:0:0:
80,120,185674,5,2,0:0:0:0:
80,120,185695,5,2,0:0:0:0:
99,108,185715,5,0,0:0:0:0:
99,108,185736,5,0,0:0:0:0:
119,97,185757,5,0,0:0:0:0:
119,97,185778,5,0,0:0:0:0:
256,88,185799,5,0,0:0:0:0:
256,88,185820,5,0,0:0:0:0:
432,120,185841,5,0,0:0:0:0:
432,120,185862,5,0,0:0:0:0:
413,108,185882,5,0,0:0:0:0:
413,108,185903,5,0,0:0:0:0:
393,97,185924,5,0,0:0:0:0:
393,97,185945,5,0,0:0:0:0:
256,88,185966,5,0,0:0:0:0:
256,88,185987,5,0,0:0:0:0:
24,120,186007,5,2,0:0:0:0:
24,120,186028,5,2,0:0:0:0:
43,108,186048,5,0,0:0:0:0:
43,108,186069,5,0,0:0:0:0:
63,97,186090,5,0,0:0:0:0:
63,97,186111,5,0,0:0:0:0:
256,88,186132,5,0,0:0:0:0:
256,88,186153,5,0,0:0:0:0:
408,120,186174,5,0,0:0:0:0:
408,120,186195,5,0,0:0:0:0:
389,108,186215,5,0,0:0:0:0:
389,108,186236,5,0,0:0:0:0:
369,97,186257,5,0,0:0:0:0:
369,97,186278,5,0,0:0:0:0:
256,88,186299,5,0,0:0:0:0:
256,88,186320,5,0,0:0:0:0:
120,120,186341,5,2,0:0:0:0:
120,120,186362,5,2,0:0:0:0:
139,108,186382,5,0,0:0:0:0:
139,108,186403,5,0,0:0:0:0:
159,97,186424,5,0,0:0:0:0:
159,97,186445,5,0,0:0:0:0:
296,88,186466,5,0,0:0:0:0:
296,88,186487,5,0,0:0:0:0:
472,120,186508,5,0,0:0:0:0:
472,120,186529,5,0,0:0:0:0:
453,108,186549,5,0,0:0:0:0:
453,108,186570,5,0,0:0:0:0:
433,97,186591,5,0,0:0:0:0:
433,97,186612,5,0,0:0:0:0:
296,88,186633,5,0,0:0:0:0:
296,88,186654,5,0,0:0:0:0:
64,120,186674,5,2,0:0:0:0:
64,120,186695,5,2,0:0:0:0:
83,108,186715,5,0,0:0:0:0:
83,108,186736,5,0,0:0:0:0:
103,97,186757,5,0,0:0:0:0:
103,97,186778,5,0,0:0:0:0:
296,88,186799,5,0,0:0:0:0:
296,88,186820,5,0,0:0:0:0:
448,120,186841,5,0,0:0:0:0:
448,120,186862,5,0,0:0:0:0:
429,108,186882,5,0,0:0:0:0:
429,108,186903,5,0,0:0:0:0:
409,97,186924,5,0,0:0:0:0:
409,97,186945,5,0,0:0:0:0:
296,88,186966,5,0,0:0:0:0:
296,88,186987,5,0,0:0:0:0:
64,168,187007,5,2,0:0:0:0:
64,168,187028,5,2,0:0:0:0:
83,156,187048,5,0,0:0:0:0:
83,156,187069,5,0,0:0:0:0:
103,145,187090,5,0,0:0:0:0:
103,145,187111,5,0,0:0:0:0:
240,136,187132,5,0,0:0:0:0:
240,136,187153,5,0,0:0:0:0:
416,168,187174,5,0,0:0:0:0:
416,168,187195,5,0,0:0:0:0:
397,156,187215,5,0,0:0:0:0:
397,156,187236,5,0,0:0:0:0:
377,145,187257,5,0,0:0:0:0:
377,145,187278,5,0,0:0:0:0:
240,136,187299,5,0,0:0:0:0:
240,136,187320,5,0,0:0:0:0:
8,168,187340,5,2,0:0:0:0:
8,168,187361,5,2,0:0:0:0:
27,156,187381,5,0,0:0:0:0:
27,156,187402,5,0,0:0:0:0:
47,145,187423,5,0,0:0:0:0:
47,145,187444,5,0,0:0:0:0:
240,136,187465,5,0,0:0:0:0:
240,136,187486,5,0,0:0:0:0:
392,168,187507,5,0,0:0:0:0:
392,168,187528,5,0,0:0:0:0:
373,156,187548,5,0,0:0:0:0:
373,156,187569,5,0,0:0:0:0:
353,145,187590,5,0,0:0:0:0:
353,145,187611,5,0,0:0:0:0:
240,136,187632,5,0,0:0:0:0:
240,136,187653,5,0,0:0:0:0:
104,208,187674,5,6,0:0:0:0:
104,208,187695,5,2,0:0:0:0:
123,196,187715,5,0,0:0:0:0:
123,196,187736,5,0,0:0:0:0:
143,185,187757,5,0,0:0:0:0:
143,185,187778,5,0,0:0:0:0:
280,176,187799,5,0,0:0:0:0:
280,176,187820,5,0,0:0:0:0:
456,208,187841,5,0,0:0:0:0:
456,208,187862,5,0,0:0:0:0:
437,196,187882,5,0,0:0:0:0:
437,196,187903,5,0,0:0:0:0:
417,185,187924,5,0,0:0:0:0:
417,185,187945,5,0,0:0:0:0:
280,176,187966,5,0,0:0:0:0:
280,176,187987,5,0,0:0:0:0:
80,120,188007,5,2,0:0:0:0:
80,120,188028,5,2,0:0:0:0:
99,108,188048,5,0,0:0:0:0:
99,108,188069,5,0,0:0:0:0:
119,97,188090,5,0,0:0:0:0:
119,97,188111,5,0,0:0:0:0:
256,88,188132,5,0,0:0:0:0:
256,88,188153,5,0,0:0:0:0:
432,120,188174,5,0,0:0:0:0:
432,120,188195,5,0,0:0:0:0:
413,108,188215,5,0,0:0:0:0:
413,108,188236,5,0,0:0:0:0:
393,97,188257,5,0,0:0:0:0:
393,97,188278,5,0,0:0:0:0:
256,88,188299,5,0,0:0:0:0:
256,88,188320,5,0,0:0:0:0:
24,120,188340,5,2,0:0:0:0:
24,120,188361,5,2,0:0:0:0:
43,108,188381,5,0,0:0:0:0:
43,108,188402,5,0,0:0:0:0:
63,97,188423,5,0,0:0:0:0:
63,97,188444,5,0,0:0:0:0:
256,88,188465,5,0,0:0:0:0:
256,88,188486,5,0,0:0:0:0:
408,120,188507,5,0,0:0:0:0:
408,120,188528,5,0,0:0:0:0:
389,108,188548,5,0,0:0:0:0:
389,108,188569,5,0,0:0:0:0:
369,97,188590,5,0,0:0:0:0:
369,97,188611,5,0,0:0:0:0:
256,88,188632,5,0,0:0:0:0:
256,88,188653,5,0,0:0:0:0:
120,120,188674,5,2,0:0:0:0:
120,120,188695,5,2,0:0:0:0:
139,108,188715,5,0,0:0:0:0:
139,108,188736,5,0,0:0:0:0:
159,97,188757,5,0,0:0:0:0:
159,97,188778,5,0,0:0:0:0:
296,88,188799,5,0,0:0:0:0:
296,88,188820,5,0,0:0:0:0:
472,120,188841,5,0,0:0:0:0:
472,120,188862,5,0,0:0:0:0:
453,108,188882,5,0,0:0:0:0:
453,108,188903,5,0,0:0:0:0:
433,97,188924,5,0,0:0:0:0:
433,97,188945,5,0,0:0:0:0:
296,88,188966,5,0,0:0:0:0:
296,88,188987,5,0,0:0:0:0:
64,120,189007,5,6,0:0:0:0:
64,120,189028,5,2,0:0:0:0:
83,108,189048,5,0,0:0:0:0:
83,108,189069,5,0,0:0:0:0:
103,97,189090,5,0,0:0:0:0:
103,97,189111,5,0,0:0:0:0:
296,88,189132,5,0,0:0:0:0:
296,88,189153,5,0,0:0:0:0:
448,120,189174,5,0,0:0:0:0:
448,120,189195,5,0,0:0:0:0:
429,108,189215,5,0,0:0:0:0:
429,108,189236,5,0,0:0:0:0:
409,97,189257,5,0,0:0:0:0:
409,97,189278,5,0,0:0:0:0:
296,88,189299,5,0,0:0:0:0:
296,88,189320,5,0,0:0:0:0:
64,168,189340,5,2,0:0:0:0:
64,168,189361,5,2,0:0:0:0:
83,156,189381,5,0,0:0:0:0:
83,156,189402,5,0,0:0:0:0:
103,145,189423,5,0,0:0:0:0:
103,145,189444,5,0,0:0:0:0:
240,136,189465,5,0,0:0:0:0:
240,136,189486,5,0,0:0:0:0:
416,168,189507,5,0,0:0:0:0:
416,168,189528,5,0,0:0:0:0:
397,156,189548,5,0,0:0:0:0:
397,156,189569,5,0,0:0:0:0:
377,145,189590,5,0,0:0:0:0:
377,145,189611,5,0,0:0:0:0:
240,136,189632,5,0,0:0:0:0:
240,136,189653,5,0,0:0:0:0:
8,168,189673,5,2,0:0:0:0:
8,168,189694,5,2,0:0:0:0:
27,156,189714,5,0,0:0:0:0:
27,156,189735,5,0,0:0:0:0:
47,145,189756,5,0,0:0:0:0:
47,145,189777,5,0,0:0:0:0:
240,136,189798,5,0,0:0:0:0:
240,136,189819,5,0,0:0:0:0:
392,168,189840,5,0,0:0:0:0:
392,168,189861,5,0,0:0:0:0:
373,156,189881,5,0,0:0:0:0:
373,156,189902,5,0,0:0:0:0:
353,145,189923,5,0,0:0:0:0:
353,145,189944,5,0,0:0:0:0:
240,136,189965,5,0,0:0:0:0:
240,136,189986,5,0,0:0:0:0:
104,208,190007,5,2,0:0:0:0:
104,208,190028,5,2,0:0:0:0:
123,196,190048,5,0,0:0:0:0:
123,196,190069,5,0,0:0:0:0:
143,185,190090,5,0,0:0:0:0:
143,185,190111,5,0,0:0:0:0:
280,176,190132,5,0,0:0:0:0:
280,176,190153,5,0,0:0:0:0:
456,208,190174,5,0,0:0:0:0:
456,208,190195,5,0,0:0:0:0:
437,196,190215,5,0,0:0:0:0:
437,196,190236,5,0,0:0:0:0:
417,185,190257,5,0,0:0:0:0:
417,185,190278,5,0,0:0:0:0:
280,176,190299,5,0,0:0:0:0:
280,176,190320,5,0,0:0:0:0:
80,120,190340,5,6,0:0:0:0:
80,120,190361,5,2,0:0:0:0:
99,108,190381,5,0,0:0:0:0:
99,108,190402,5,0,0:0:0:0:
119,97,190423,5,0,0:0:0:0:
119,97,190444,5,0,0:0:0:0:
256,88,190465,5,0,0:0:0:0:
256,88,190486,5,0,0:0:0:0:
432,120,190507,5,0,0:0:0:0:
432,120,190528,5,0,0:0:0:0:
413,108,190548,5,0,0:0:0:0:
413,108,190569,5,0,0:0:0:0:
393,97,190590,5,0,0:0:0:0:
393,97,190611,5,0,0:0:0:0:
256,88,190632,5,0,0:0:0:0:
256,88,190653,5,0,0:0:0:0:
24,120,190673,5,2,0:0:0:0:
24,120,190694,5,2,0:0:0:0:
43,108,190714,5,0,0:0:0:0:
43,108,190735,5,0,0:0:0:0:
63,97,190756,5,0,0:0:0:0:
63,97,190777,5,0,0:0:0:0:
256,88,190798,5,0,0:0:0:0:
256,88,190819,5,0,0:0:0:0:
408,120,190840,5,0,0:0:0:0:
408,120,190861,5,0,0:0:0:0:
389,108,190881,5,0,0:0:0:0:
389,108,190902,5,0,0:0:0:0:
369,97,190923,5,0,0:0:0:0:
369,97,190944,5,0,0:0:0:0:
256,88,190965,5,0,0:0:0:0:
256,88,190986,5,0,0:0:0:0:
120,120,191007,5,6,0:0:0:0:
120,120,191028,5,2,0:0:0:0:
139,108,191048,5,0,0:0:0:0:
139,108,191069,5,0,0:0:0:0:
159,97,191090,5,0,0:0:0:0:
159,97,191111,5,0,0:0:0:0:
296,88,191132,5,0,0:0:0:0:
296,88,191153,5,0,0:0:0:0:
472,120,191174,5,0,0:0:0:0:
472,120,191195,5,0,0:0:0:0:
453,108,191215,5,0,0:0:0:0:
453,108,191236,5,0,0:0:0:0:
433,97,191257,5,0,0:0:0:0:
433,97,191278,5,0,0:0:0:0:
296,88,191299,5,0,0:0:0:0:
296,88,191320,5,0,0:0:0:0:
64,120,191340,5,2,0:0:0:0:
64,120,191361,5,2,0:0:0:0:
83,108,191381,5,0,0:0:0:0:
83,108,191402,5,0,0:0:0:0:
103,97,191423,5,0,0:0:0:0:
103,97,191444,5,0,0:0:0:0:
296,88,191465,5,0,0:0:0:0:
296,88,191486,5,0,0:0:0:0:
448,120,191507,5,0,0:0:0:0:
448,120,191528,5,0,0:0:0:0:
429,108,191548,5,0,0:0:0:0:
429,108,191569,5,0,0:0:0:0:
409,97,191590,5,0,0:0:0:0:
409,97,191611,5,0,0:0:0:0:
296,88,191632,5,0,0:0:0:0:
296,88,191653,5,0,0:0:0:0:
480,96,191674,5,8,0:0:0:0:
480,96,191684,5,8,0:0:0:0:
480,96,191695,5,8,0:0:0:0:
480,96,191705,5,8,0:0:0:0:
512,64,191716,5,0,0:0:0:0:
512,64,191726,5,0,0:0:0:0:
512,64,191737,5,0,0:0:0:0:
512,64,191747,5,0,0:0:0:0:
480,32,191757,5,0,0:0:0:0:
480,32,191767,5,0,0:0:0:0:
480,32,191778,5,0,0:0:0:0:
480,32,191788,5,0,0:0:0:0:
336,32,191799,5,0,0:0:0:0:
336,32,191809,5,0,0:0:0:0:
336,32,191820,5,0,0:0:0:0:
336,32,191830,5,0,0:0:0:0:
176,32,191841,5,2,0:0:0:0:
176,32,191851,5,2,0:0:0:0:
176,32,191862,5,2,0:0:0:0:
176,32,191872,5,2,0:0:0:0:
32,32,191882,5,0,0:0:0:0:
32,32,191892,5,0,0:0:0:0:
32,32,191903,5,0,0:0:0:0:
32,32,191913,5,0,0:0:0:0:
0,64,191924,5,0,0:0:0:0:
0,64,191934,5,0,0:0:0:0:
0,64,191945,5,0,0:0:0:0:
0,64,191955,5,0,0:0:0:0:
32,96,191965,5,8,0:0:0:0:
32,96,191975,5,8,0:0:0:0:
32,96,191986,5,8,0:0:0:0:
32,96,191996,5,8,0:0:0:0:
32,288,192007,5,8,0:0:0:0:
32,288,192017,5,8,0:0:0:0:
32,288,192028,5,8,0:0:0:0:
32,288,192038,5,8,0:0:0:0:
0,320,192048,5,0,0:0:0:0:
0,320,192058,5,0,0:0:0:0:
0,320,192069,5,0,0:0:0:0:
0,320,192079,5,0,0:0:0:0:
32,352,192090,5,0,0:0:0:0:
32,352,192100,5,0,0:0:0:0:
32,352,192111,5,0,0:0:0:0:
32,352,192121,5,0,0:0:0:0:
176,352,192131,5,2,0:0:0:0:
176,352,192141,5,2,0:0:0:0:
176,352,192152,5,2,0:0:0:0:
176,352,192162,5,2,0:0:0:0:
336,352,192173,5,0,0:0:0:0:
336,352,192183,5,0,0:0:0:0:
336,352,192194,5,0,0:0:0:0:
336,352,192204,5,0,0:0:0:0:
480,352,192215,5,0,0:0:0:0:
480,352,192225,5,0,0:0:0:0:
480,352,192236,5,0,0:0:0:0:
480,352,192246,5,0,0:0:0:0:
512,320,192256,5,0,0:0:0:0:
512,320,192266,5,0,0:0:0:0:
512,320,192277,5,0,0:0:0:0:
512,320,192287,5,0,0:0:0:0:
480,288,192298,5,8,0:0:0:0:
480,288,192308,5,8,0:0:0:0:
480,288,192319,5,8,0:0:0:0:
480,288,192329,5,8,0:0:0:0:
480,96,192340,5,8,0:0:0:0:
480,96,192350,5,8,0:0:0:0:
480,96,192361,5,8,0:0:0:0:
480,96,192371,5,8,0:0:0:0:
512,64,192382,5,0,0:0:0:0:
512,64,192392,5,0,0:0:0:0:
512,64,192403,5,0,0:0:0:0:
512,64,192413,5,0,0:0:0:0:
480,32,192423,5,0,0:0:0:0:
480,32,192433,5,0,0:0:0:0:
480,32,192444,5,0,0:0:0:0:
480,32,192454,5,0,0:0:0:0:
336,32,192465,5,0,0:0:0:0:
336,32,192475,5,0,0:0:0:0:
336,32,192486,5,0,0:0:0:0:
336,32,192496,5,0,0:0:0:0:
176,32,192507,5,2,0:0:0:0:
176,32,192517,5,2,0:0:0:0:
176,32,192528,5,2,0:0:0:0:
176,32,192538,5,2,0:0:0:0:
32,32,192548,5,0,0:0:0:0:
32,32,192558,5,0,0:0:0:0:
32,32,192569,5,0,0:0:0:0:
32,32,192579,5,0,0:0:0:0:
0,64,192590,5,0,0:0:0:0:
0,64,192600,5,0,0:0:0:0:
0,64,192611,5,0,0:0:0:0:
0,64,192621,5,0,0:0:0:0:
32,96,192631,5,8,0:0:0:0:
32,96,192641,5,8,0:0:0:0:
32,96,192652,5,8,0:0:0:0:
32,96,192662,5,8,0:0:0:0:
32,288,192673,5,8,0:0:0:0:
32,288,192683,5,8,0:0:0:0:
32,288,192694,5,8,0:0:0:0:
32,288,192704,5,8,0:0:0:0:
0,320,192714,5,0,0:0:0:0:
0,320,192724,5,0,0:0:0:0:
0,320,192735,5,0,0:0:0:0:
0,320,192745,5,0,0:0:0:0:
32,352,192756,5,0,0:0:0:0:
32,352,192766,5,0,0:0:0:0:
32,352,192777,5,0,0:0:0:0:
32,352,192787,5,0,0:0:0:0:
176,352,192797,5,2,0:0:0:0:
176,352,192807,5,2,0:0:0:0:
176,352,192818,5,2,0:0:0:0:
176,352,192828,5,2,0:0:0:0:
336,352,192839,5,0,0:0:0:0:
336,352,192849,5,0,0:0:0:0:
336,352,192860,5,0,0:0:0:0:
336,352,192870,5,0,0:0:0:0:
480,352,192881,5,0,0:0:0:0:
480,352,192891,5,0,0:0:0:0:
480,352,192902,5,0,0:0:0:0:
480,352,192912,5,0,0:0:0:0:
512,320,192922,5,0,0:0:0:0:
512,320,192932,5,0,0:0:0:0:
512,320,192943,5,0,0:0:0:0:
512,320,192953,5,0,0:0:0:0:
480,288,192964,5,8,0:0:0:0:
480,288,192974,5,8,0:0:0:0:
480,288,192985,5,8,0:0:0:0:
480,288,192995,5,8,0:0:0:0:
0,192,193007,6,0,L|16:192,1,11.25,2|0,0:0|0:0,0:0:0:0:
160,192,193049,2,0,L|176:192,1,11.25
336,192,193090,6,0,L|352:192,1,11.25
496,192,193132,2,0,L|512:192,1,11.25
512,192,193174,6,0,L|496:192,1,11.25
352,192,193216,2,0,L|336:192,1,11.25
176,192,193257,6,0,L|160:192,1,11.25
16,192,193299,2,0,L|0:192,1,11.25
0,192,193340,6,0,L|16:192,1,11.25,2|0,0:0|0:0,0:0:0:0:
160,192,193382,2,0,L|176:192,1,11.25
336,192,193423,6,0,L|352:192,1,11.25
496,192,193465,2,0,L|512:192,1,11.25
512,192,193507,6,0,L|496:192,1,11.25
352,192,193549,2,0,L|336:192,1,11.25
176,192,193590,6,0,L|160:192,1,11.25
16,192,193632,2,0,L|0:192,1,11.25
0,192,193674,6,0,L|16:192,1,11.25,2|0,0:0|0:0,0:0:0:0:
160,192,193716,2,0,L|176:192,1,11.25
336,192,193757,6,0,L|352:192,1,11.25
496,192,193799,2,0,L|512:192,1,11.25
512,192,193841,6,0,L|496:192,1,11.25
352,192,193883,2,0,L|336:192,1,11.25
176,192,193924,6,0,L|160:192,1,11.25
16,192,193966,2,0,L|0:192,1,11.25
0,192,194007,6,0,L|16:192,1,11.25,2|0,0:0|0:0,0:0:0:0:
160,192,194049,2,0,L|176:192,1,11.25
336,192,194090,6,0,L|352:192,1,11.25
496,192,194132,2,0,L|512:192,1,11.25
512,192,194174,6,0,L|496:192,1,11.25
352,192,194216,2,0,L|336:192,1,11.25
176,192,194257,6,0,L|160:192,1,11.25
16,192,194299,2,0,L|0:192,1,11.25
0,256,194340,6,0,L|16:256,1,11.25,2|0,0:0|0:0,0:0:0:0:
160,256,194382,2,0,L|176:256,1,11.25
336,256,194423,6,0,L|352:256,1,11.25
496,256,194465,2,0,L|512:256,1,11.25
512,256,194507,6,0,L|496:256,1,11.25
352,256,194549,2,0,L|336:256,1,11.25
176,256,194590,6,0,L|160:256,1,11.25
16,256,194632,2,0,L|0:256,1,11.25
0,256,194673,6,0,L|16:256,1,11.25,2|0,0:0|0:0,0:0:0:0:
160,256,194715,2,0,L|176:256,1,11.25
336,256,194756,6,0,L|352:256,1,11.25
496,256,194798,2,0,L|512:256,1,11.25
512,256,194840,6,0,L|496:256,1,11.25
352,256,194882,2,0,L|336:256,1,11.25
176,256,194923,6,0,L|160:256,1,11.25
16,256,194965,2,0,L|0:256,1,11.25
0,256,195007,6,0,L|16:256,1,11.25,2|0,0:0|0:0,0:0:0:0:
160,256,195049,2,0,L|176:256,1,11.25
336,256,195090,6,0,L|352:256,1,11.25
496,256,195132,2,0,L|512:256,1,11.25
512,256,195174,6,0,L|496:256,1,11.25
352,256,195216,2,0,L|336:256,1,11.25
176,256,195257,6,0,L|160:256,1,11.25
16,256,195299,2,0,L|0:256,1,11.25
0,256,195340,6,0,L|16:256,1,11.25,2|0,0:0|0:0,0:0:0:0:
160,256,195382,2,0,L|176:256,1,11.25
336,256,195423,6,0,L|352:256,1,11.25
496,256,195465,2,0,L|512:256,1,11.25
512,256,195507,6,0,L|496:256,1,11.25
352,256,195549,2,0,L|336:256,1,11.25
176,256,195590,6,0,L|160:256,1,11.25
16,256,195632,2,0,L|0:256,1,11.25
0,144,195674,6,0,L|16:144,1,11.25,2|0,0:0|0:0,0:0:0:0:
160,144,195716,2,0,L|176:144,1,11.25
336,144,195757,6,0,L|352:144,1,11.25
496,144,195799,2,0,L|512:144,1,11.25
512,144,195841,6,0,L|496:144,1,11.25
352,144,195883,2,0,L|336:144,1,11.25
176,144,195924,6,0,L|160:144,1,11.25
16,144,195966,2,0,L|0:144,1,11.25
0,144,196007,6,0,L|16:144,1,11.25,2|0,0:0|0:0,0:0:0:0:
160,144,196049,2,0,L|176:144,1,11.25
336,144,196090,6,0,L|352:144,1,11.25
496,144,196132,2,0,L|512:144,1,11.25
512,144,196174,6,0,L|496:144,1,11.25
352,144,196216,2,0,L|336:144,1,11.25
176,144,196257,6,0,L|160:144,1,11.25
16,144,196299,2,0,L|0:144,1,11.25
0,144,196341,6,0,L|16:144,1,11.25,2|0,0:0|0:0,0:0:0:0:
160,144,196383,2,0,L|176:144,1,11.25
336,144,196424,6,0,L|352:144,1,11.25
496,144,196466,2,0,L|512:144,1,11.25
512,144,196508,6,0,L|496:144,1,11.25
352,144,196550,2,0,L|336:144,1,11.25
176,144,196591,6,0,L|160:144,1,11.25
16,144,196633,2,0,L|0:144,1,11.25
0,144,196674,6,0,L|16:144,1,11.25,2|0,0:0|0:0,0:0:0:0:
160,144,196716,2,0,L|176:144,1,11.25
336,144,196757,6,0,L|352:144,1,11.25
496,144,196799,2,0,L|512:144,1,11.25
512,144,196841,6,0,L|496:144,1,11.25
352,144,196883,2,0,L|336:144,1,11.25
176,144,196924,6,0,L|160:144,1,11.25
16,144,196966,2,0,L|0:144,1,11.25
0,192,197007,6,0,L|16:192,1,11.25,2|0,0:0|0:0,0:0:0:0:
160,192,197049,2,0,L|176:192,1,11.25
336,192,197090,6,0,L|352:192,1,11.25
496,192,197132,2,0,L|512:192,1,11.25
512,192,197174,6,0,L|496:192,1,11.25
352,192,197216,2,0,L|336:192,1,11.25
176,192,197257,6,0,L|160:192,1,11.25
16,192,197299,2,0,L|0:192,1,11.25
0,192,197340,6,0,L|16:192,1,11.25,2|0,0:0|0:0,0:0:0:0:
160,192,197382,2,0,L|176:192,1,11.25
336,192,197423,6,0,L|352:192,1,11.25
496,192,197465,2,0,L|512:192,1,11.25
512,192,197507,6,0,L|496:192,1,11.25
352,192,197549,2,0,L|336:192,1,11.25
176,192,197590,6,0,L|160:192,1,11.25
16,192,197632,2,0,L|0:192,1,11.25
0,192,197674,6,0,L|16:192,1,11.25,2|0,0:0|0:0,0:0:0:0:
160,192,197716,2,0,L|176:192,1,11.25
336,192,197757,6,0,L|352:192,1,11.25
496,192,197799,2,0,L|512:192,1,11.25
512,192,197841,6,0,L|496:192,1,11.25
352,192,197883,2,0,L|336:192,1,11.25
176,192,197924,6,0,L|160:192,1,11.25
16,192,197966,2,0,L|0:192,1,11.25
0,192,198007,6,0,L|16:192,1,11.25,2|0,0:0|0:0,0:0:0:0:
160,192,198049,2,0,L|176:192,1,11.25
336,192,198090,6,0,L|352:192,1,11.25
496,192,198132,2,0,L|512:192,1,11.25
512,192,198174,6,0,L|496:192,1,11.25
352,192,198216,2,0,L|336:192,1,11.25
176,192,198257,6,0,L|160:192,1,11.25
16,192,198299,2,0,L|0:192,1,11.25
0,240,198340,6,0,L|16:240,1,11.25,6|0,0:0|0:0,0:0:0:0:
160,240,198382,2,0,L|176:240,1,11.25
336,240,198423,6,0,L|352:240,1,11.25
496,240,198465,2,0,L|512:240,1,11.25
512,240,198507,6,0,L|496:240,1,11.25
352,240,198549,2,0,L|336:240,1,11.25
176,240,198590,6,0,L|160:240,1,11.25
16,240,198632,2,0,L|0:240,1,11.25
0,240,198673,6,0,L|16:240,1,11.25,2|0,0:0|0:0,0:0:0:0:
160,240,198715,2,0,L|176:240,1,11.25
336,240,198756,6,0,L|352:240,1,11.25
496,240,198798,2,0,L|512:240,1,11.25
512,240,198840,6,0,L|496:240,1,11.25
352,240,198882,2,0,L|336:240,1,11.25
176,240,198923,6,0,L|160:240,1,11.25
16,240,198965,2,0,L|0:240,1,11.25
0,240,199007,6,0,L|16:240,1,11.25,2|0,0:0|0:0,0:0:0:0:
160,240,199049,2,0,L|176:240,1,11.25
336,240,199090,6,0,L|352:240,1,11.25
496,240,199132,2,0,L|512:240,1,11.25
512,240,199174,6,0,L|496:240,1,11.25
352,240,199216,2,0,L|336:240,1,11.25
176,240,199257,6,0,L|160:240,1,11.25
16,240,199299,2,0,L|0:240,1,11.25
0,240,199340,6,0,L|16:240,1,11.25,2|0,0:0|0:0,0:0:0:0:
160,240,199382,2,0,L|176:240,1,11.25
336,240,199423,6,0,L|352:240,1,11.25
496,240,199465,2,0,L|512:240,1,11.25
512,240,199507,6,0,L|496:240,1,11.25
352,240,199549,2,0,L|336:240,1,11.25
176,240,199590,6,0,L|160:240,1,11.25
16,240,199632,2,0,L|0:240,1,11.25
0,192,199674,6,0,L|16:192,1,11.25,2|0,0:0|0:0,0:0:0:0:
160,192,199716,2,0,L|176:192,1,11.25
336,192,199757,6,0,L|352:192,1,11.25
496,192,199799,2,0,L|512:192,1,11.25
512,192,199841,6,0,L|496:192,1,11.25
352,192,199883,2,0,L|336:192,1,11.25
176,192,199924,6,0,L|160:192,1,11.25
16,192,199966,2,0,L|0:192,1,11.25
0,192,200007,6,0,L|16:192,1,11.25,2|0,0:0|0:0,0:0:0:0:
160,192,200049,2,0,L|176:192,1,11.25
336,192,200090,6,0,L|352:192,1,11.25
496,192,200132,2,0,L|512:192,1,11.25
512,192,200174,6,0,L|496:192,1,11.25
352,192,200216,2,0,L|336:192,1,11.25
176,192,200257,6,0,L|160:192,1,11.25
16,192,200299,2,0,L|0:192,1,11.25
0,192,200341,6,0,L|16:192,1,11.25,2|0,0:0|0:0,0:0:0:0:
160,192,200383,2,0,L|176:192,1,11.25
336,192,200424,6,0,L|352:192,1,11.25
496,192,200466,2,0,L|512:192,1,11.25
512,192,200508,6,0,L|496:192,1,11.25
352,192,200550,2,0,L|336:192,1,11.25
176,192,200591,6,0,L|160:192,1,11.25
16,192,200633,2,0,L|0:192,1,11.25
0,192,200674,6,0,L|16:192,1,11.25,2|0,0:0|0:0,0:0:0:0:
160,192,200716,2,0,L|176:192,1,11.25
336,192,200757,6,0,L|352:192,1,11.25
496,192,200799,2,0,L|512:192,1,11.25
512,192,200841,6,0,L|496:192,1,11.25
352,192,200883,2,0,L|336:192,1,11.25
176,192,200924,6,0,L|160:192,1,11.25
16,192,200966,2,0,L|0:192,1,11.25
0,96,201007,6,0,L|16:96,1,11.25,2|0,0:0|0:0,0:0:0:0:
160,96,201049,2,0,L|176:96,1,11.25
336,96,201090,6,0,L|352:96,1,11.25
496,96,201132,2,0,L|512:96,1,11.25
512,96,201174,6,0,L|496:96,1,11.25
352,96,201216,2,0,L|336:96,1,11.25
176,96,201257,6,0,L|160:96,1,11.25
16,96,201299,2,0,L|0:96,1,11.25
0,96,201340,6,0,L|16:96,1,11.25,2|0,0:0|0:0,0:0:0:0:
160,96,201382,2,0,L|176:96,1,11.25
336,96,201423,6,0,L|352:96,1,11.25
496,96,201465,2,0,L|512:96,1,11.25
512,96,201507,6,0,L|496:96,1,11.25
352,96,201549,2,0,L|336:96,1,11.25
176,96,201590,6,0,L|160:96,1,11.25
16,96,201632,2,0,L|0:96,1,11.25
0,96,201674,6,0,L|16:96,1,11.25,2|0,0:0|0:0,0:0:0:0:
160,96,201716,2,0,L|176:96,1,11.25
336,96,201757,6,0,L|352:96,1,11.25
496,96,201799,2,0,L|512:96,1,11.25
512,96,201841,6,0,L|496:96,1,11.25
352,96,201883,2,0,L|336:96,1,11.25
176,96,201924,6,0,L|160:96,1,11.25
16,96,201966,2,0,L|0:96,1,11.25
0,96,202007,6,0,L|16:96,1,11.25,2|0,0:0|0:0,0:0:0:0:
160,96,202049,2,0,L|176:96,1,11.25
336,96,202090,6,0,L|352:96,1,11.25
496,96,202132,2,0,L|512:96,1,11.25
512,96,202174,6,0,L|496:96,1,11.25
352,96,202216,2,0,L|336:96,1,11.25
176,96,202257,6,0,L|160:96,1,11.25
16,96,202299,2,0,L|0:96,1,11.25
0,272,202340,6,0,L|16:272,1,11.25,2|0,0:0|0:0,0:0:0:0:
160,272,202382,2,0,L|176:272,1,11.25
336,272,202423,6,0,L|352:272,1,11.25
496,272,202465,2,0,L|512:272,1,11.25
512,272,202507,6,0,L|496:272,1,11.25
352,272,202549,2,0,L|336:272,1,11.25
176,272,202590,6,0,L|160:272,1,11.25
16,272,202632,2,0,L|0:272,1,11.25
0,272,202673,6,0,L|16:272,1,11.25,2|0,0:0|0:0,0:0:0:0:
160,272,202715,2,0,L|176:272,1,11.25
336,272,202756,6,0,L|352:272,1,11.25
496,272,202798,2,0,L|512:272,1,11.25
512,272,202840,6,0,L|496:272,1,11.25
352,272,202882,2,0,L|336:272,1,11.25
176,272,202923,6,0,L|160:272,1,11.25
16,272,202965,2,0,L|0:272,1,11.25
0,272,203007,6,0,L|16:272,1,11.25,2|0,0:0|0:0,0:0:0:0:
160,272,203049,2,0,L|176:272,1,11.25
336,272,203090,6,0,L|352:272,1,11.25
496,272,203132,2,0,L|512:272,1,11.25
512,272,203174,6,0,L|496:272,1,11.25
352,272,203216,2,0,L|336:272,1,11.25
176,272,203257,6,0,L|160:272,1,11.25
16,272,203299,2,0,L|0:272,1,11.25
0,272,203340,6,0,L|16:272,1,11.25,2|0,0:0|0:0,0:0:0:0:
160,272,203382,2,0,L|176:272,1,11.25
336,272,203423,6,0,L|352:272,1,11.25,2|0,0:0|0:0,0:0:0:0:
496,272,203465,2,0,L|512:272,1,11.25
512,272,203507,6,0,L|496:272,1,11.25,2|0,0:0|0:0,0:0:0:0:
352,272,203549,2,0,L|336:272,1,11.25
176,272,203590,6,0,L|160:272,1,11.25,2|0,0:0|0:0,0:0:0:0:
16,272,203632,2,0,L|0:272,1,11.25
0,192,203674,6,0,L|16:192,1,11.25,6|0,0:0|0:0,0:0:0:0:
160,192,203716,2,0,L|176:192,1,11.25
336,192,203757,6,0,L|352:192,1,11.25
496,192,203799,2,0,L|512:192,1,11.25
512,192,203841,6,0,L|496:192,1,11.25
352,192,203883,2,0,L|336:192,1,11.25
176,192,203924,6,0,L|160:192,1,11.25
16,192,203966,2,0,L|0:192,1,11.25
0,192,204007,6,0,L|16:192,1,11.25,2|0,0:0|0:0,0:0:0:0:
160,192,204049,2,0,L|176:192,1,11.25
336,192,204090,6,0,L|352:192,1,11.25
496,192,204132,2,0,L|512:192,1,11.25
512,192,204174,6,0,L|496:192,1,11.25
352,192,204216,2,0,L|336:192,1,11.25
176,192,204257,6,0,L|160:192,1,11.25
16,192,204299,2,0,L|0:192,1,11.25
0,192,204341,6,0,L|16:192,1,11.25,2|0,0:0|0:0,0:0:0:0:
160,192,204383,2,0,L|176:192,1,11.25
336,192,204424,6,0,L|352:192,1,11.25
496,192,204466,2,0,L|512:192,1,11.25
512,192,204508,6,0,L|496:192,1,11.25
352,192,204550,2,0,L|336:192,1,11.25
176,192,204591,6,0,L|160:192,1,11.25
16,192,204633,2,0,L|0:192,1,11.25
0,192,204674,6,0,L|16:192,1,11.25,2|0,0:0|0:0,0:0:0:0:
160,192,204716,2,0,L|176:192,1,11.25
336,192,204757,6,0,L|352:192,1,11.25
496,192,204799,2,0,L|512:192,1,11.25
512,192,204841,6,0,L|496:192,1,11.25
352,192,204883,2,0,L|336:192,1,11.25
176,192,204924,6,0,L|160:192,1,11.25
16,192,204966,2,0,L|0:192,1,11.25
0,128,205007,6,0,L|16:128,1,11.25,2|0,0:0|0:0,0:0:0:0:
160,128,205049,2,0,L|176:128,1,11.25
336,128,205090,6,0,L|352:128,1,11.25
496,128,205132,2,0,L|512:128,1,11.25
512,128,205174,6,0,L|496:128,1,11.25
352,128,205216,2,0,L|336:128,1,11.25
176,128,205257,6,0,L|160:128,1,11.25
16,128,205299,2,0,L|0:128,1,11.25
0,128,205340,6,0,L|16:128,1,11.25,2|0,0:0|0:0,0:0:0:0:
160,128,205382,2,0,L|176:128,1,11.25
336,128,205423,6,0,L|352:128,1,11.25
496,128,205465,2,0,L|512:128,1,11.25
512,128,205507,6,0,L|496:128,1,11.25
352,128,205549,2,0,L|336:128,1,11.25
176,128,205590,6,0,L|160:128,1,11.25
16,128,205632,2,0,L|0:128,1,11.25
0,128,205674,6,0,L|16:128,1,11.25,2|0,0:0|0:0,0:0:0:0:
160,128,205716,2,0,L|176:128,1,11.25
336,128,205757,6,0,L|352:128,1,11.25
496,128,205799,2,0,L|512:128,1,11.25
512,128,205841,6,0,L|496:128,1,11.25
352,128,205883,2,0,L|336:128,1,11.25
176,128,205924,6,0,L|160:128,1,11.25
16,128,205966,2,0,L|0:128,1,11.25
0,128,206007,6,0,L|16:128,1,11.25,2|0,0:0|0:0,0:0:0:0:
160,128,206049,2,0,L|176:128,1,11.25
336,128,206090,6,0,L|352:128,1,11.25
496,128,206132,2,0,L|512:128,1,11.25
512,128,206174,6,0,L|496:128,1,11.25
352,128,206216,2,0,L|336:128,1,11.25
176,128,206257,6,0,L|160:128,1,11.25
16,128,206299,2,0,L|0:128,1,11.25
0,240,206341,6,0,L|16:240,1,11.25,2|0,0:0|0:0,0:0:0:0:
160,240,206383,2,0,L|176:240,1,11.25
336,240,206424,6,0,L|352:240,1,11.25
496,240,206466,2,0,L|512:240,1,11.25
512,240,206508,6,0,L|496:240,1,11.25
352,240,206550,2,0,L|336:240,1,11.25
176,240,206591,6,0,L|160:240,1,11.25
16,240,206633,2,0,L|0:240,1,11.25
0,240,206674,6,0,L|16:240,1,11.25,2|0,0:0|0:0,0:0:0:0:
160,240,206716,2,0,L|176:240,1,11.25
336,240,206757,6,0,L|352:240,1,11.25
496,240,206799,2,0,L|512:240,1,11.25
512,240,206841,6,0,L|496:240,1,11.25
352,240,206883,2,0,L|336:240,1,11.25
176,240,206924,6,0,L|160:240,1,11.25
16,240,206966,2,0,L|0:240,1,11.25
0,240,207008,6,0,L|16:240,1,11.25,2|0,0:0|0:0,0:0:0:0:
160,240,207050,2,0,L|176:240,1,11.25
336,240,207091,6,0,L|352:240,1,11.25
496,240,207133,2,0,L|512:240,1,11.25
512,240,207175,6,0,L|496:240,1,11.25
352,240,207217,2,0,L|336:240,1,11.25
176,240,207258,6,0,L|160:240,1,11.25
16,240,207300,2,0,L|0:240,1,11.25
0,240,207341,6,0,L|16:240,1,11.25,2|0,0:0|0:0,0:0:0:0:
160,240,207383,2,0,L|176:240,1,11.25
336,240,207424,6,0,L|352:240,1,11.25
496,240,207466,2,0,L|512:240,1,11.25
512,240,207508,6,0,L|496:240,1,11.25
352,240,207550,2,0,L|336:240,1,11.25
176,240,207591,6,0,L|160:240,1,11.25
16,240,207633,2,0,L|0:240,1,11.25
0,192,207674,6,0,L|16:192,1,11.25,2|0,0:0|0:0,0:0:0:0:
160,192,207716,2,0,L|176:192,1,11.25
336,192,207757,6,0,L|352:192,1,11.25
496,192,207799,2,0,L|512:192,1,11.25
512,192,207841,6,0,L|496:192,1,11.25
352,192,207883,2,0,L|336:192,1,11.25
176,192,207924,6,0,L|160:192,1,11.25
16,192,207966,2,0,L|0:192,1,11.25
0,192,208007,6,0,L|16:192,1,11.25,2|0,0:0|0:0,0:0:0:0:
160,192,208049,2,0,L|176:192,1,11.25
336,192,208090,6,0,L|352:192,1,11.25
496,192,208132,2,0,L|512:192,1,11.25
512,192,208174,6,0,L|496:192,1,11.25
352,192,208216,2,0,L|336:192,1,11.25
176,192,208257,6,0,L|160:192,1,11.25
16,192,208299,2,0,L|0:192,1,11.25
0,192,208341,6,0,L|16:192,1,11.25,2|0,0:0|0:0,0:0:0:0:
160,192,208383,2,0,L|176:192,1,11.25
336,192,208424,6,0,L|352:192,1,11.25
496,192,208466,2,0,L|512:192,1,11.25
512,192,208508,6,0,L|496:192,1,11.25
352,192,208550,2,0,L|336:192,1,11.25
176,192,208591,6,0,L|160:192,1,11.25
16,192,208633,2,0,L|0:192,1,11.25
0,192,208674,6,0,L|16:192,1,11.25,2|0,0:0|0:0,0:0:0:0:
160,192,208716,2,0,L|176:192,1,11.25
336,192,208757,6,0,L|352:192,1,11.25
496,192,208799,2,0,L|512:192,1,11.25
512,192,208841,6,0,L|496:192,1,11.25
352,192,208883,2,0,L|336:192,1,11.25
176,192,208924,6,0,L|160:192,1,11.25
16,192,208966,2,0,L|0:192,1,11.25
0,144,209007,6,0,L|16:144,1,11.25,6|0,0:0|0:0,0:0:0:0:
160,144,209049,2,0,L|176:144,1,11.25
336,144,209090,6,0,L|352:144,1,11.25
496,144,209132,2,0,L|512:144,1,11.25
512,144,209174,6,0,L|496:144,1,11.25
352,144,209216,2,0,L|336:144,1,11.25
176,144,209257,6,0,L|160:144,1,11.25
16,144,209299,2,0,L|0:144,1,11.25
0,144,209340,6,0,L|16:144,1,11.25,2|0,0:0|0:0,0:0:0:0:
160,144,209382,2,0,L|176:144,1,11.25
336,144,209423,6,0,L|352:144,1,11.25
496,144,209465,2,0,L|512:144,1,11.25
512,144,209507,6,0,L|496:144,1,11.25
352,144,209549,2,0,L|336:144,1,11.25
176,144,209590,6,0,L|160:144,1,11.25
16,144,209632,2,0,L|0:144,1,11.25
0,144,209674,6,0,L|16:144,1,11.25,2|0,0:0|0:0,0:0:0:0:
160,144,209716,2,0,L|176:144,1,11.25
336,144,209757,6,0,L|352:144,1,11.25
496,144,209799,2,0,L|512:144,1,11.25
512,144,209841,6,0,L|496:144,1,11.25
352,144,209883,2,0,L|336:144,1,11.25
176,144,209924,6,0,L|160:144,1,11.25
16,144,209966,2,0,L|0:144,1,11.25
0,144,210007,6,0,L|16:144,1,11.25,2|0,0:0|0:0,0:0:0:0:
160,144,210049,2,0,L|176:144,1,11.25
336,144,210090,6,0,L|352:144,1,11.25
496,144,210132,2,0,L|512:144,1,11.25
512,144,210174,6,0,L|496:144,1,11.25
352,144,210216,2,0,L|336:144,1,11.25
176,144,210257,6,0,L|160:144,1,11.25
16,144,210299,2,0,L|0:144,1,11.25
0,192,210341,6,0,L|16:192,1,11.25,2|0,0:0|0:0,0:0:0:0:
160,192,210383,2,0,L|176:192,1,11.25
336,192,210424,6,0,L|352:192,1,11.25
496,192,210466,2,0,L|512:192,1,11.25
512,192,210508,6,0,L|496:192,1,11.25
352,192,210550,2,0,L|336:192,1,11.25
176,192,210591,6,0,L|160:192,1,11.25
16,192,210633,2,0,L|0:192,1,11.25
0,192,210674,6,0,L|16:192,1,11.25,2|0,0:0|0:0,0:0:0:0:
160,192,210716,2,0,L|176:192,1,11.25
336,192,210757,6,0,L|352:192,1,11.25
496,192,210799,2,0,L|512:192,1,11.25
512,192,210841,6,0,L|496:192,1,11.25
352,192,210883,2,0,L|336:192,1,11.25
176,192,210924,6,0,L|160:192,1,11.25
16,192,210966,2,0,L|0:192,1,11.25
0,192,211008,6,0,L|16:192,1,11.25,2|0,0:0|0:0,0:0:0:0:
160,192,211050,2,0,L|176:192,1,11.25
336,192,211091,6,0,L|352:192,1,11.25
496,192,211133,2,0,L|512:192,1,11.25
512,192,211175,6,0,L|496:192,1,11.25
352,192,211217,2,0,L|336:192,1,11.25
176,192,211258,6,0,L|160:192,1,11.25
16,192,211300,2,0,L|0:192,1,11.25
0,192,211341,6,0,L|16:192,1,11.25,2|0,0:0|0:0,0:0:0:0:
160,192,211383,2,0,L|176:192,1,11.25
336,192,211424,6,0,L|352:192,1,11.25
496,192,211466,2,0,L|512:192,1,11.25
512,192,211508,6,0,L|496:192,1,11.25
352,192,211550,2,0,L|336:192,1,11.25
176,192,211591,6,0,L|160:192,1,11.25
16,192,211633,2,0,L|0:192,1,11.25
0,288,211674,6,0,L|16:288,1,11.25,2|0,0:0|0:0,0:0:0:0:
160,288,211716,2,0,L|176:288,1,11.25
336,288,211757,6,0,L|352:288,1,11.25
496,288,211799,2,0,L|512:288,1,11.25
512,288,211841,6,0,L|496:288,1,11.25
352,288,211883,2,0,L|336:288,1,11.25
176,288,211924,6,0,L|160:288,1,11.25
16,288,211966,2,0,L|0:288,1,11.25
0,288,212007,6,0,L|16:288,1,11.25,2|0,0:0|0:0,0:0:0:0:
160,288,212049,2,0,L|176:288,1,11.25
336,288,212090,6,0,L|352:288,1,11.25
496,288,212132,2,0,L|512:288,1,11.25
512,288,212174,6,0,L|496:288,1,11.25
352,288,212216,2,0,L|336:288,1,11.25
176,288,212257,6,0,L|160:288,1,11.25
16,288,212299,2,0,L|0:288,1,11.25
0,288,212341,6,0,L|16:288,1,11.25,2|0,0:0|0:0,0:0:0:0:
160,288,212383,2,0,L|176:288,1,11.25
336,288,212424,6,0,L|352:288,1,11.25
496,288,212466,2,0,L|512:288,1,11.25
512,288,212508,6,0,L|496:288,1,11.25
352,288,212550,2,0,L|336:288,1,11.25
176,288,212591,6,0,L|160:288,1,11.25
16,288,212633,2,0,L|0:288,1,11.25
0,288,212674,6,0,L|16:288,1,11.25,2|0,0:0|0:0,0:0:0:0:
160,288,212716,2,0,L|176:288,1,11.25
336,288,212757,6,0,L|352:288,1,11.25
496,288,212799,2,0,L|512:288,1,11.25
512,288,212841,6,0,L|496:288,1,11.25
352,288,212883,2,0,L|336:288,1,11.25
176,288,212924,6,0,L|160:288,1,11.25
16,288,212966,2,0,L|0:288,1,11.25
0,112,213007,6,0,L|16:112,1,11.25,2|0,0:0|0:0,0:0:0:0:
160,112,213049,2,0,L|176:112,1,11.25
336,112,213090,6,0,L|352:112,1,11.25
496,112,213132,2,0,L|512:112,1,11.25
512,112,213174,6,0,L|496:112,1,11.25
352,112,213216,2,0,L|336:112,1,11.25
176,112,213257,6,0,L|160:112,1,11.25
16,112,213299,2,0,L|0:112,1,11.25
0,112,213340,6,0,L|16:112,1,11.25,2|0,0:0|0:0,0:0:0:0:
160,112,213382,2,0,L|176:112,1,11.25
336,112,213423,6,0,L|352:112,1,11.25
496,112,213465,2,0,L|512:112,1,11.25
512,112,213507,6,0,L|496:112,1,11.25
352,112,213549,2,0,L|336:112,1,11.25
176,112,213590,6,0,L|160:112,1,11.25
16,112,213632,2,0,L|0:112,1,11.25
0,112,213674,6,0,L|16:112,1,11.25,2|0,0:0|0:0,0:0:0:0:
160,112,213716,2,0,L|176:112,1,11.25
336,112,213757,6,0,L|352:112,1,11.25
496,112,213799,2,0,L|512:112,1,11.25
512,112,213841,6,0,L|496:112,1,11.25
352,112,213883,2,0,L|336:112,1,11.25
176,112,213924,6,0,L|160:112,1,11.25
16,112,213966,2,0,L|0:112,1,11.25
0,112,214007,6,0,L|16:112,1,11.25,2|0,0:0|0:0,0:0:0:0:
160,112,214049,2,0,L|176:112,1,11.25
336,112,214090,6,0,L|352:112,1,11.25,2|0,0:0|0:0,0:0:0:0:
496,112,214132,2,0,L|512:112,1,11.25
512,112,214174,6,0,L|496:112,1,11.25,2|0,0:0|0:0,0:0:0:0:
352,112,214216,2,0,L|336:112,1,11.25
176,112,214257,6,0,L|160:112,1,11.25,2|0,0:0|0:0,0:0:0:0:
16,112,214299,2,0,L|0:112,1,11.25
256,192,214340,5,4,0:0:0:0:
256,192,214361,12,0,217007,0:0:0:0:
