osu file format v14

[General]
AudioFilename: audio.mp3
AudioLeadIn: 0
PreviewTime: 170669
Countdown: 1
SampleSet: Soft
StackLeniency: 0.2
Mode: 2
LetterboxInBreaks: 0
WidescreenStoryboard: 1

[Editor]
DistanceSpacing: 2
BeatDivisor: 1
GridSize: 16
TimelineZoom: 2.540088

[Metadata]
Title:AiAe
TitleUnicode:AiAe
Artist:Yuyoyuppe
ArtistUnicode:ゆよゆっぺ
Creator:ExGon
Version:Rhythm Game
Source:
Tags:Yolomania 3 Yolo3 YUYOYU EP DJ'TEKINA//SOMETHING Hatsune Miku Append Dark Vocaloid Hardcore Dubstep DakkyChan
BeatmapID:1165130
BeatmapSetID:550105

[Difficulty]
HPDrainRate:2
CircleSize:3
OverallDifficulty:0
ApproachRate:0
SliderMultiplier:3
SliderTickRate:1

[Events]
//Background and Video events
0,0,"bg.png",0,0
//Break Periods
//Storyboard Layer 0 (Background)
//Storyboard Layer 1 (Fail)
//Storyboard Layer 2 (Pass)
//Storyboard Layer 3 (Foreground)
//Storyboard Sound Samples

[TimingPoints]
670,333.333333333333,4,2,0,5,1,0

[HitObjects]
0,192,64961,5,0,0:0:0:0:
8,192,64982,5,0,0:0:0:0:
16,192,65003,5,0,0:0:0:0:
25,192,65024,5,0,0:0:0:0:
512,192,65044,5,0,0:0:0:0:
504,192,65065,5,0,0:0:0:0:
496,192,65086,5,0,0:0:0:0:
487,192,65107,5,0,0:0:0:0:
0,192,65128,5,0,0:0:0:0:
8,192,65149,5,0,0:0:0:0:
16,192,65169,5,0,0:0:0:0:
25,192,65190,5,0,0:0:0:0:
512,192,65211,5,0,0:0:0:0:
504,192,65232,5,0,0:0:0:0:
496,192,65253,5,0,0:0:0:0:
487,192,65274,5,0,0:0:0:0:
0,192,65294,5,0,0:0:0:0:
8,192,65315,5,0,0:0:0:0:
16,192,65336,5,0,0:0:0:0:
25,192,65357,5,0,0:0:0:0:
512,192,65378,5,0,0:0:0:0:
504,192,65399,5,0,0:0:0:0:
496,192,65419,5,0,0:0:0:0:
487,192,65440,5,0,0:0:0:0:
0,192,65461,5,0,0:0:0:0:
8,192,65482,5,0,0:0:0:0:
16,192,65503,5,0,0:0:0:0:
25,192,65524,5,0,0:0:0:0:
512,192,65544,5,0,0:0:0:0:
504,192,65565,5,0,0:0:0:0:
496,192,65586,5,0,0:0:0:0:
487,192,65607,5,0,0:0:0:0:
0,192,65628,5,0,0:0:0:0:
8,192,65649,5,0,0:0:0:0:
16,192,65669,5,0,0:0:0:0:
25,192,65690,5,0,0:0:0:0:
512,192,65711,5,0,0:0:0:0:
504,192,65732,5,0,0:0:0:0:
496,192,65753,5,0,0:0:0:0:
487,192,65774,5,0,0:0:0:0:
0,192,65794,5,0,0:0:0:0:
8,192,65815,5,0,0:0:0:0:
16,192,65836,5,0,0:0:0:0:
25,192,65857,5,0,0:0:0:0:
512,192,65878,5,0,0:0:0:0:
504,192,65899,5,0,0:0:0:0:
496,192,65919,5,0,0:0:0:0:
487,192,65940,5,0,0:0:0:0:
0,192,65961,5,0,0:0:0:0:
8,192,65982,5,0,0:0:0:0:
16,192,66003,5,0,0:0:0:0:
25,192,66024,5,0,0:0:0:0:
512,192,66044,5,0,0:0:0:0:
504,192,66065,5,0,0:0:0:0:
496,192,66086,5,0,0:0:0:0:
487,192,66107,5,0,0:0:0:0:
0,192,66128,5,0,0:0:0:0:
8,192,66149,5,0,0:0:0:0:
16,192,66169,5,0,0:0:0:0:
25,192,66190,5,0,0:0:0:0:
512,192,66211,5,0,0:0:0:0:
504,192,66232,5,0,0:0:0:0:
496,192,66253,5,0,0:0:0:0:
487,192,66274,5,0,0:0:0:0:
0,192,66294,5,0,0:0:0:0:
8,192,66315,5,0,0:0:0:0:
16,192,66336,5,0,0:0:0:0:
25,192,66357,5,0,0:0:0:0:
512,192,66378,5,0,0:0:0:0:
504,192,66399,5,0,0:0:0:0:
496,192,66419,5,0,0:0:0:0:
487,192,66440,5,0,0:0:0:0:
0,192,66461,5,0,0:0:0:0:
8,192,66482,5,0,0:0:0:0:
16,192,66503,5,0,0:0:0:0:
25,192,66524,5,0,0:0:0:0:
512,192,66544,5,0,0:0:0:0:
504,192,66565,5,0,0:0:0:0:
496,192,66586,5,0,0:0:0:0:
487,192,66607,5,0,0:0:0:0:
0,192,66628,5,0,0:0:0:0:
8,192,66649,5,0,0:0:0:0:
16,192,66669,5,0,0:0:0:0:
25,192,66690,5,0,0:0:0:0:
512,192,66711,5,0,0:0:0:0:
504,192,66732,5,0,0:0:0:0:
496,192,66753,5,0,0:0:0:0:
487,192,66774,5,0,0:0:0:0:
0,192,66794,5,0,0:0:0:0:
8,192,66815,5,0,0:0:0:0:
16,192,66836,5,0,0:0:0:0:
25,192,66857,5,0,0:0:0:0:
512,192,66878,5,0,0:0:0:0:
504,192,66899,5,0,0:0:0:0:
496,192,66919,5,0,0:0:0:0:
487,192,66940,5,0,0:0:0:0:
0,192,66961,5,0,0:0:0:0:
8,192,66982,5,0,0:0:0:0:
16,192,67003,5,0,0:0:0:0:
25,192,67024,5,0,0:0:0:0:
512,192,67044,5,0,0:0:0:0:
504,192,67065,5,0,0:0:0:0:
496,192,67086,5,0,0:0:0:0:
487,192,67107,5,0,0:0:0:0:
0,192,67128,5,0,0:0:0:0:
8,192,67149,5,0,0:0:0:0:
16,192,67169,5,0,0:0:0:0:
25,192,67190,5,0,0:0:0:0:
512,192,67211,5,0,0:0:0:0:
504,192,67232,5,0,0:0:0:0:
496,192,67253,5,0,0:0:0:0:
487,192,67274,5,0,0:0:0:0:
0,192,67294,5,0,0:0:0:0:
8,192,67315,5,0,0:0:0:0:
16,192,67336,5,0,0:0:0:0:
25,192,67357,5,0,0:0:0:0:
512,192,67378,5,0,0:0:0:0:
504,192,67399,5,0,0:0:0:0:
496,192,67419,5,0,0:0:0:0:
487,192,67440,5,0,0:0:0:0:
0,192,67461,5,0,0:0:0:0:
8,192,67482,5,0,0:0:0:0:
16,192,67503,5,0,0:0:0:0:
25,192,67524,5,0,0:0:0:0:
512,192,67544,5,0,0:0:0:0:
504,192,67565,5,0,0:0:0:0:
496,192,67586,5,0,0:0:0:0:
487,192,67607,5,0,0:0:0:0:
0,192,67628,5,0,0:0:0:0:
8,192,67649,5,0,0:0:0:0:
16,192,67669,5,0,0:0:0:0:
25,192,67690,5,0,0:0:0:0:
512,192,67711,5,0,0:0:0:0:
504,192,67732,5,0,0:0:0:0:
496,192,67753,5,0,0:0:0:0:
487,192,67774,5,0,0:0:0:0:
0,192,67794,5,0,0:0:0:0:
8,192,67815,5,0,0:0:0:0:
16,192,67836,5,0,0:0:0:0:
25,192,67857,5,0,0:0:0:0:
512,192,67878,5,0,0:0:0:0:
504,192,67899,5,0,0:0:0:0:
496,192,67919,5,0,0:0:0:0:
487,192,67940,5,0,0:0:0:0:
0,192,67961,5,0,0:0:0:0:
8,192,67982,5,0,0:0:0:0:
16,192,68003,5,0,0:0:0:0:
25,192,68024,5,0,0:0:0:0:
512,192,68044,5,0,0:0:0:0:
504,192,68065,5,0,0:0:0:0:
496,192,68086,5,0,0:0:0:0:
487,192,68107,5,0,0:0:0:0:
0,192,68128,5,0,0:0:0:0:
8,192,68149,5,0,0:0:0:0:
16,192,68169,5,0,0:0:0:0:
25,192,68190,5,0,0:0:0:0:
512,192,68211,5,0,0:0:0:0:
504,192,68232,5,0,0:0:0:0:
496,192,68253,5,0,0:0:0:0:
487,192,68274,5,0,0:0:0:0:
0,192,68294,5,0,0:0:0:0:
8,192,68315,5,0,0:0:0:0:
16,192,68336,5,0,0:0:0:0:
25,192,68357,5,0,0:0:0:0:
512,192,68378,5,0,0:0:0:0:
504,192,68399,5,0,0:0:0:0:
496,192,68419,5,0,0:0:0:0:
487,192,68440,5,0,0:0:0:0:
0,192,68461,5,0,0:0:0:0:
8,192,68482,5,0,0:0:0:0:
16,192,68503,5,0,0:0:0:0:
25,192,68524,5,0,0:0:0:0:
512,192,68544,5,0,0:0:0:0:
504,192,68565,5,0,0:0:0:0:
496,192,68586,5,0,0:0:0:0:
487,192,68607,5,0,0:0:0:0:
0,192,68628,5,0,0:0:0:0:
8,192,68649,5,0,0:0:0:0:
16,192,68669,5,0,0:0:0:0:
25,192,68690,5,0,0:0:0:0:
512,192,68711,5,0,0:0:0:0:
504,192,68732,5,0,0:0:0:0:
496,192,68753,5,0,0:0:0:0:
487,192,68774,5,0,0:0:0:0:
0,192,68794,5,0,0:0:0:0:
8,192,68815,5,0,0:0:0:0:
16,192,68836,5,0,0:0:0:0:
25,192,68857,5,0,0:0:0:0:
512,192,68878,5,0,0:0:0:0:
504,192,68899,5,0,0:0:0:0:
496,192,68919,5,0,0:0:0:0:
487,192,68940,5,0,0:0:0:0:
0,192,68961,5,0,0:0:0:0:
8,192,68982,5,0,0:0:0:0:
16,192,69003,5,0,0:0:0:0:
25,192,69024,5,0,0:0:0:0:
512,192,69044,5,0,0:0:0:0:
504,192,69065,5,0,0:0:0:0:
496,192,69086,5,0,0:0:0:0:
487,192,69107,5,0,0:0:0:0:
0,192,69128,5,0,0:0:0:0:
8,192,69149,5,0,0:0:0:0:
16,192,69169,5,0,0:0:0:0:
25,192,69190,5,0,0:0:0:0:
512,192,69211,5,0,0:0:0:0:
504,192,69232,5,0,0:0:0:0:
496,192,69253,5,0,0:0:0:0:
487,192,69274,5,0,0:0:0:0:
0,192,69294,5,0,0:0:0:0:
8,192,69315,5,0,0:0:0:0:
16,192,69336,5,0,0:0:0:0:
25,192,69357,5,0,0:0:0:0:
512,192,69378,5,0,0:0:0:0:
504,192,69399,5,0,0:0:0:0:
496,192,69419,5,0,0:0:0:0:
487,192,69440,5,0,0:0:0:0:
0,192,69461,5,0,0:0:0:0:
8,192,69482,5,0,0:0:0:0:
16,192,69503,5,0,0:0:0:0:
25,192,69524,5,0,0:0:0:0:
512,192,69544,5,0,0:0:0:0:
504,192,69565,5,0,0:0:0:0:
496,192,69586,5,0,0:0:0:0:
487,192,69607,5,0,0:0:0:0:
0,192,69628,5,0,0:0:0:0:
8,192,69649,5,0,0:0:0:0:
16,192,69669,5,0,0:0:0:0:
25,192,69690,5,0,0:0:0:0:
512,192,69711,5,0,0:0:0:0:
504,192,69732,5,0,0:0:0:0:
496,192,69753,5,0,0:0:0:0:
487,192,69774,5,0,0:0:0:0:
0,192,69794,5,0,0:0:0:0:
8,192,69815,5,0,0:0:0:0:
16,192,69836,5,0,0:0:0:0:
25,192,69857,5,0,0:0:0:0:
512,192,69878,5,0,0:0:0:0:
504,192,69899,5,0,0:0:0:0:
496,192,69919,5,0,0:0:0:0:
487,192,69940,5,0,0:0:0:0:
0,192,69961,5,0,0:0:0:0:
8,192,69982,5,0,0:0:0:0:
16,192,70003,5,0,0:0:0:0:
25,192,70024,5,0,0:0:0:0:
512,192,70044,5,0,0:0:0:0:
504,192,70065,5,0,0:0:0:0:
496,192,70086,5,0,0:0:0:0:
487,192,70107,5,0,0:0:0:0:
0,192,70128,5,0,0:0:0:0:
8,192,70149,5,0,0:0:0:0:
16,192,70169,5,0,0:0:0:0:
25,192,70190,5,0,0:0:0:0:
512,192,70211,5,0,0:0:0:0:
504,192,70232,5,0,0:0:0:0:
496,192,70253,5,0,0:0:0:0:
487,192,70274,5,0,0:0:0:0:
0,192,70294,5,0,0:0:0:0:
8,192,70315,5,0,0:0:0:0:
16,192,70336,5,0,0:0:0:0:
25,192,70357,5,0,0:0:0:0:
512,192,70378,5,0,0:0:0:0:
504,192,70399,5,0,0:0:0:0:
496,192,70419,5,0,0:0:0:0:
487,192,70440,5,0,0:0:0:0:
0,192,70461,5,0,0:0:0:0:
8,192,70482,5,0,0:0:0:0:
16,192,70503,5,0,0:0:0:0:
25,192,70524,5,0,0:0:0:0:
512,192,70544,5,0,0:0:0:0:
504,192,70565,5,0,0:0:0:0:
496,192,70586,5,0,0:0:0:0:
487,192,70607,5,0,0:0:0:0:
0,192,70628,5,0,0:0:0:0:
8,192,70649,5,0,0:0:0:0:
16,192,70669,5,0,0:0:0:0:
25,192,70690,5,0,0:0:0:0:
512,192,70711,5,0,0:0:0:0:
504,192,70732,5,0,0:0:0:0:
496,192,70753,5,0,0:0:0:0:
487,192,70774,5,0,0:0:0:0:
0,192,70794,5,0,0:0:0:0:
8,192,70815,5,0,0:0:0:0:
16,192,70836,5,0,0:0:0:0:
25,192,70857,5,0,0:0:0:0:
512,192,70878,5,0,0:0:0:0:
504,192,70899,5,0,0:0:0:0:
496,192,70919,5,0,0:0:0:0:
487,192,70940,5,0,0:0:0:0:
0,192,70961,5,0,0:0:0:0:
8,192,70982,5,0,0:0:0:0:
16,192,71003,5,0,0:0:0:0:
25,192,71024,5,0,0:0:0:0:
512,192,71044,5,0,0:0:0:0:
504,192,71065,5,0,0:0:0:0:
496,192,71086,5,0,0:0:0:0:
487,192,71107,5,0,0:0:0:0:
0,192,71128,5,0,0:0:0:0:
8,192,71149,5,0,0:0:0:0:
16,192,71169,5,0,0:0:0:0:
25,192,71190,5,0,0:0:0:0:
512,192,71211,5,0,0:0:0:0:
504,192,71232,5,0,0:0:0:0:
496,192,71253,5,0,0:0:0:0:
487,192,71274,5,0,0:0:0:0:
0,192,71294,5,0,0:0:0:0:
8,192,71315,5,0,0:0:0:0:
16,192,71336,5,0,0:0:0:0:
25,192,71357,5,0,0:0:0:0:
512,192,71378,5,0,0:0:0:0:
504,192,71399,5,0,0:0:0:0:
496,192,71419,5,0,0:0:0:0:
487,192,71440,5,0,0:0:0:0:
0,192,71461,5,0,0:0:0:0:
8,192,71482,5,0,0:0:0:0:
16,192,71503,5,0,0:0:0:0:
25,192,71524,5,0,0:0:0:0:
512,192,71544,5,0,0:0:0:0:
504,192,71565,5,0,0:0:0:0:
496,192,71586,5,0,0:0:0:0:
487,192,71607,5,0,0:0:0:0:
0,192,71628,5,0,0:0:0:0:
8,192,71649,5,0,0:0:0:0:
16,192,71669,5,0,0:0:0:0:
25,192,71690,5,0,0:0:0:0:
512,192,71711,5,0,0:0:0:0:
504,192,71732,5,0,0:0:0:0:
496,192,71753,5,0,0:0:0:0:
487,192,71774,5,0,0:0:0:0:
0,192,71794,5,0,0:0:0:0:
8,192,71815,5,0,0:0:0:0:
16,192,71836,5,0,0:0:0:0:
25,192,71857,5,0,0:0:0:0:
512,192,71878,5,0,0:0:0:0:
504,192,71899,5,0,0:0:0:0:
496,192,71919,5,0,0:0:0:0:
487,192,71940,5,0,0:0:0:0:
0,192,71961,5,0,0:0:0:0:
8,192,71982,5,0,0:0:0:0:
16,192,72003,5,0,0:0:0:0:
25,192,72024,5,0,0:0:0:0:
512,192,72044,5,0,0:0:0:0:
504,192,72065,5,0,0:0:0:0:
496,192,72086,5,0,0:0:0:0:
487,192,72107,5,0,0:0:0:0:
0,192,72128,5,0,0:0:0:0:
8,192,72149,5,0,0:0:0:0:
16,192,72169,5,0,0:0:0:0:
25,192,72190,5,0,0:0:0:0:
512,192,72211,5,0,0:0:0:0:
504,192,72232,5,0,0:0:0:0:
496,192,72253,5,0,0:0:0:0:
487,192,72274,5,0,0:0:0:0:
0,192,72294,5,0,0:0:0:0:
8,192,72315,5,0,0:0:0:0:
16,192,72336,5,0,0:0:0:0:
25,192,72357,5,0,0:0:0:0:
512,192,72378,5,0,0:0:0:0:
504,192,72399,5,0,0:0:0:0:
496,192,72419,5,0,0:0:0:0:
487,192,72440,5,0,0:0:0:0:
0,192,72461,5,0,0:0:0:0:
8,192,72482,5,0,0:0:0:0:
16,192,72503,5,0,0:0:0:0:
25,192,72524,5,0,0:0:0:0:
512,192,72544,5,0,0:0:0:0:
504,192,72565,5,0,0:0:0:0:
496,192,72586,5,0,0:0:0:0:
487,192,72607,5,0,0:0:0:0:
0,192,72628,5,0,0:0:0:0:
8,192,72649,5,0,0:0:0:0:
16,192,72669,5,0,0:0:0:0:
25,192,72690,5,0,0:0:0:0:
512,192,72711,5,0,0:0:0:0:
504,192,72732,5,0,0:0:0:0:
496,192,72753,5,0,0:0:0:0:
487,192,72774,5,0,0:0:0:0:
0,192,72794,5,0,0:0:0:0:
8,192,72815,5,0,0:0:0:0:
16,192,72836,5,0,0:0:0:0:
25,192,72857,5,0,0:0:0:0:
512,192,72878,5,0,0:0:0:0:
504,192,72899,5,0,0:0:0:0:
496,192,72919,5,0,0:0:0:0:
487,192,72940,5,0,0:0:0:0:
0,192,72961,5,0,0:0:0:0:
8,192,72982,5,0,0:0:0:0:
16,192,73003,5,0,0:0:0:0:
25,192,73024,5,0,0:0:0:0:
512,192,73044,5,0,0:0:0:0:
504,192,73065,5,0,0:0:0:0:
496,192,73086,5,0,0:0:0:0:
487,192,73107,5,0,0:0:0:0:
0,192,73128,5,0,0:0:0:0:
8,192,73149,5,0,0:0:0:0:
16,192,73169,5,0,0:0:0:0:
25,192,73190,5,0,0:0:0:0:
512,192,73211,5,0,0:0:0:0:
504,192,73232,5,0,0:0:0:0:
496,192,73253,5,0,0:0:0:0:
487,192,73274,5,0,0:0:0:0:
0,192,73294,5,0,0:0:0:0:
8,192,73315,5,0,0:0:0:0:
16,192,73336,5,0,0:0:0:0:
25,192,73357,5,0,0:0:0:0:
512,192,73378,5,0,0:0:0:0:
504,192,73399,5,0,0:0:0:0:
496,192,73419,5,0,0:0:0:0:
487,192,73440,5,0,0:0:0:0:
0,192,73461,5,0,0:0:0:0:
8,192,73482,5,0,0:0:0:0:
16,192,73503,5,0,0:0:0:0:
25,192,73524,5,0,0:0:0:0:
512,192,73544,5,0,0:0:0:0:
504,192,73565,5,0,0:0:0:0:
496,192,73586,5,0,0:0:0:0:
487,192,73607,5,0,0:0:0:0:
0,192,73628,5,0,0:0:0:0:
8,192,73649,5,0,0:0:0:0:
16,192,73669,5,0,0:0:0:0:
25,192,73690,5,0,0:0:0:0:
512,192,73711,5,0,0:0:0:0:
504,192,73732,5,0,0:0:0:0:
496,192,73753,5,0,0:0:0:0:
487,192,73774,5,0,0:0:0:0:
0,192,73794,5,0,0:0:0:0:
8,192,73815,5,0,0:0:0:0:
16,192,73836,5,0,0:0:0:0:
25,192,73857,5,0,0:0:0:0:
512,192,73878,5,0,0:0:0:0:
504,192,73899,5,0,0:0:0:0:
496,192,73919,5,0,0:0:0:0:
487,192,73940,5,0,0:0:0:0:
0,192,73961,5,0,0:0:0:0:
8,192,73982,5,0,0:0:0:0:
16,192,74003,5,0,0:0:0:0:
25,192,74024,5,0,0:0:0:0:
512,192,74044,5,0,0:0:0:0:
504,192,74065,5,0,0:0:0:0:
496,192,74086,5,0,0:0:0:0:
487,192,74107,5,0,0:0:0:0:
0,192,74128,5,0,0:0:0:0:
8,192,74149,5,0,0:0:0:0:
16,192,74169,5,0,0:0:0:0:
25,192,74190,5,0,0:0:0:0:
512,192,74211,5,0,0:0:0:0:
504,192,74232,5,0,0:0:0:0:
496,192,74253,5,0,0:0:0:0:
487,192,74274,5,0,0:0:0:0:
0,192,74294,5,0,0:0:0:0:
8,192,74315,5,0,0:0:0:0:
16,192,74336,5,0,0:0:0:0:
25,192,74357,5,0,0:0:0:0:
512,192,74378,5,0,0:0:0:0:
504,192,74399,5,0,0:0:0:0:
496,192,74419,5,0,0:0:0:0:
487,192,74440,5,0,0:0:0:0:
0,192,74461,5,0,0:0:0:0:
8,192,74482,5,0,0:0:0:0:
16,192,74503,5,0,0:0:0:0:
25,192,74524,5,0,0:0:0:0:
512,192,74544,5,0,0:0:0:0:
504,192,74565,5,0,0:0:0:0:
496,192,74586,5,0,0:0:0:0:
487,192,74607,5,0,0:0:0:0:
0,192,74628,5,0,0:0:0:0:
8,192,74649,5,0,0:0:0:0:
16,192,74669,5,0,0:0:0:0:
25,192,74690,5,0,0:0:0:0:
512,192,74711,5,0,0:0:0:0:
504,192,74732,5,0,0:0:0:0:
496,192,74753,5,0,0:0:0:0:
487,192,74774,5,0,0:0:0:0:
0,192,74794,5,0,0:0:0:0:
8,192,74815,5,0,0:0:0:0:
16,192,74836,5,0,0:0:0:0:
25,192,74857,5,0,0:0:0:0:
512,192,74878,5,0,0:0:0:0:
504,192,74899,5,0,0:0:0:0:
496,192,74919,5,0,0:0:0:0:
487,192,74940,5,0,0:0:0:0:
0,192,74961,5,0,0:0:0:0:
8,192,74982,5,0,0:0:0:0:
16,192,75003,5,0,0:0:0:0:
25,192,75024,5,0,0:0:0:0:
512,192,75044,5,0,0:0:0:0:
504,192,75065,5,0,0:0:0:0:
496,192,75086,5,0,0:0:0:0:
487,192,75107,5,0,0:0:0:0:
0,192,75128,5,0,0:0:0:0:
8,192,75149,5,0,0:0:0:0:
16,192,75169,5,0,0:0:0:0:
25,192,75190,5,0,0:0:0:0:
512,192,75211,5,0,0:0:0:0:
504,192,75232,5,0,0:0:0:0:
496,192,75253,5,0,0:0:0:0:
487,192,75274,5,0,0:0:0:0:
0,192,75294,5,0,0:0:0:0:
8,192,75315,5,0,0:0:0:0:
16,192,75336,5,0,0:0:0:0:
25,192,75357,5,0,0:0:0:0:
512,192,75378,5,0,0:0:0:0:
504,192,75399,5,0,0:0:0:0:
496,192,75419,5,0,0:0:0:0:
487,192,75440,5,0,0:0:0:0:
512,192,75461,5,0,0:0:0:0:
504,192,75482,5,0,0:0:0:0:
496,192,75503,5,0,0:0:0:0:
487,192,75524,5,0,0:0:0:0:
0,192,75544,5,0,0:0:0:0:
8,192,75565,5,0,0:0:0:0:
16,192,75586,5,0,0:0:0:0:
25,192,75607,5,0,0:0:0:0:
512,192,75628,5,0,0:0:0:0:
504,192,75649,5,0,0:0:0:0:
496,192,75669,5,0,0:0:0:0:
487,192,75690,5,0,0:0:0:0:
0,192,75711,5,0,0:0:0:0:
8,192,75732,5,0,0:0:0:0:
16,192,75753,5,0,0:0:0:0:
25,192,75774,5,0,0:0:0:0:
512,192,75794,5,0,0:0:0:0:
504,192,75815,5,0,0:0:0:0:
496,192,75836,5,0,0:0:0:0:
487,192,75857,5,0,0:0:0:0:
0,192,75878,5,0,0:0:0:0:
8,192,75899,5,0,0:0:0:0:
16,192,75919,5,0,0:0:0:0:
25,192,75940,5,0,0:0:0:0:
512,192,75961,5,0,0:0:0:0:
504,192,75982,5,0,0:0:0:0:
496,192,76003,5,0,0:0:0:0:
487,192,76024,5,0,0:0:0:0:
0,192,76044,5,0,0:0:0:0:
8,192,76065,5,0,0:0:0:0:
16,192,76086,5,0,0:0:0:0:
25,192,76107,5,0,0:0:0:0:
512,192,76128,5,0,0:0:0:0:
504,192,76149,5,0,0:0:0:0:
496,192,76169,5,0,0:0:0:0:
487,192,76190,5,0,0:0:0:0:
0,192,76211,5,0,0:0:0:0:
8,192,76232,5,0,0:0:0:0:
16,192,76253,5,0,0:0:0:0:
25,192,76274,5,0,0:0:0:0:
512,192,76294,5,0,0:0:0:0:
504,192,76315,5,0,0:0:0:0:
496,192,76336,5,0,0:0:0:0:
487,192,76357,5,0,0:0:0:0:
0,192,76378,5,0,0:0:0:0:
8,192,76399,5,0,0:0:0:0:
16,192,76419,5,0,0:0:0:0:
25,192,76440,5,0,0:0:0:0:
512,192,76461,5,0,0:0:0:0:
504,192,76482,5,0,0:0:0:0:
496,192,76503,5,0,0:0:0:0:
487,192,76524,5,0,0:0:0:0:
0,192,76544,5,0,0:0:0:0:
8,192,76565,5,0,0:0:0:0:
16,192,76586,5,0,0:0:0:0:
25,192,76607,5,0,0:0:0:0:
512,192,76628,5,0,0:0:0:0:
504,192,76649,5,0,0:0:0:0:
496,192,76669,5,0,0:0:0:0:
487,192,76690,5,0,0:0:0:0:
0,192,76711,5,0,0:0:0:0:
8,192,76732,5,0,0:0:0:0:
16,192,76753,5,0,0:0:0:0:
25,192,76774,5,0,0:0:0:0:
512,192,76794,5,0,0:0:0:0:
504,192,76815,5,0,0:0:0:0:
496,192,76836,5,0,0:0:0:0:
487,192,76857,5,0,0:0:0:0:
0,192,76878,5,0,0:0:0:0:
8,192,76899,5,0,0:0:0:0:
16,192,76919,5,0,0:0:0:0:
25,192,76940,5,0,0:0:0:0:
512,192,76961,5,0,0:0:0:0:
504,192,76982,5,0,0:0:0:0:
496,192,77003,5,0,0:0:0:0:
487,192,77024,5,0,0:0:0:0:
0,192,77044,5,0,0:0:0:0:
8,192,77065,5,0,0:0:0:0:
16,192,77086,5,0,0:0:0:0:
25,192,77107,5,0,0:0:0:0:
512,192,77128,5,0,0:0:0:0:
504,192,77149,5,0,0:0:0:0:
496,192,77169,5,0,0:0:0:0:
487,192,77190,5,0,0:0:0:0:
0,192,77211,5,0,0:0:0:0:
8,192,77232,5,0,0:0:0:0:
16,192,77253,5,0,0:0:0:0:
25,192,77274,5,0,0:0:0:0:
512,192,77294,5,0,0:0:0:0:
504,192,77315,5,0,0:0:0:0:
496,192,77336,5,0,0:0:0:0:
487,192,77357,5,0,0:0:0:0:
0,192,77378,5,0,0:0:0:0:
8,192,77399,5,0,0:0:0:0:
16,192,77419,5,0,0:0:0:0:
25,192,77440,5,0,0:0:0:0:
512,192,77461,5,0,0:0:0:0:
504,192,77482,5,0,0:0:0:0:
496,192,77503,5,0,0:0:0:0:
487,192,77524,5,0,0:0:0:0:
0,192,77544,5,0,0:0:0:0:
8,192,77565,5,0,0:0:0:0:
16,192,77586,5,0,0:0:0:0:
25,192,77607,5,0,0:0:0:0:
512,192,77628,5,0,0:0:0:0:
504,192,77649,5,0,0:0:0:0:
496,192,77669,5,0,0:0:0:0:
487,192,77690,5,0,0:0:0:0:
0,192,77711,5,0,0:0:0:0:
8,192,77732,5,0,0:0:0:0:
16,192,77753,5,0,0:0:0:0:
25,192,77774,5,0,0:0:0:0:
512,192,77794,5,0,0:0:0:0:
504,192,77815,5,0,0:0:0:0:
496,192,77836,5,0,0:0:0:0:
487,192,77857,5,0,0:0:0:0:
0,192,77878,5,0,0:0:0:0:
8,192,77899,5,0,0:0:0:0:
16,192,77919,5,0,0:0:0:0:
25,192,77940,5,0,0:0:0:0:
512,192,77961,5,0,0:0:0:0:
504,192,77982,5,0,0:0:0:0:
496,192,78003,5,0,0:0:0:0:
487,192,78024,5,0,0:0:0:0:
0,192,78044,5,0,0:0:0:0:
8,192,78065,5,0,0:0:0:0:
16,192,78086,5,0,0:0:0:0:
25,192,78107,5,0,0:0:0:0:
512,192,78128,5,0,0:0:0:0:
504,192,78149,5,0,0:0:0:0:
496,192,78169,5,0,0:0:0:0:
487,192,78190,5,0,0:0:0:0:
0,192,78211,5,0,0:0:0:0:
8,192,78232,5,0,0:0:0:0:
16,192,78253,5,0,0:0:0:0:
25,192,78274,5,0,0:0:0:0:
512,192,78294,5,0,0:0:0:0:
504,192,78315,5,0,0:0:0:0:
496,192,78336,5,0,0:0:0:0:
487,192,78357,5,0,0:0:0:0:
0,192,78378,5,0,0:0:0:0:
8,192,78399,5,0,0:0:0:0:
16,192,78419,5,0,0:0:0:0:
25,192,78440,5,0,0:0:0:0:
512,192,78461,5,0,0:0:0:0:
504,192,78482,5,0,0:0:0:0:
496,192,78503,5,0,0:0:0:0:
487,192,78524,5,0,0:0:0:0:
0,192,78544,5,0,0:0:0:0:
8,192,78565,5,0,0:0:0:0:
16,192,78586,5,0,0:0:0:0:
25,192,78607,5,0,0:0:0:0:
512,192,78628,5,0,0:0:0:0:
504,192,78649,5,0,0:0:0:0:
496,192,78669,5,0,0:0:0:0:
487,192,78690,5,0,0:0:0:0:
0,192,78711,5,0,0:0:0:0:
8,192,78732,5,0,0:0:0:0:
16,192,78753,5,0,0:0:0:0:
25,192,78774,5,0,0:0:0:0:
512,192,78794,5,0,0:0:0:0:
504,192,78815,5,0,0:0:0:0:
496,192,78836,5,0,0:0:0:0:
487,192,78857,5,0,0:0:0:0:
0,192,78878,5,0,0:0:0:0:
8,192,78899,5,0,0:0:0:0:
16,192,78919,5,0,0:0:0:0:
25,192,78940,5,0,0:0:0:0:
512,192,78961,5,0,0:0:0:0:
504,192,78982,5,0,0:0:0:0:
496,192,79003,5,0,0:0:0:0:
487,192,79024,5,0,0:0:0:0:
0,192,79044,5,0,0:0:0:0:
8,192,79065,5,0,0:0:0:0:
16,192,79086,5,0,0:0:0:0:
25,192,79107,5,0,0:0:0:0:
512,192,79128,5,0,0:0:0:0:
504,192,79149,5,0,0:0:0:0:
496,192,79169,5,0,0:0:0:0:
487,192,79190,5,0,0:0:0:0:
0,192,79211,5,0,0:0:0:0:
8,192,79232,5,0,0:0:0:0:
16,192,79253,5,0,0:0:0:0:
25,192,79274,5,0,0:0:0:0:
512,192,79294,5,0,0:0:0:0:
504,192,79315,5,0,0:0:0:0:
496,192,79336,5,0,0:0:0:0:
487,192,79357,5,0,0:0:0:0:
0,192,79378,5,0,0:0:0:0:
8,192,79399,5,0,0:0:0:0:
16,192,79419,5,0,0:0:0:0:
25,192,79440,5,0,0:0:0:0:
512,192,79461,5,0,0:0:0:0:
504,192,79482,5,0,0:0:0:0:
496,192,79503,5,0,0:0:0:0:
487,192,79524,5,0,0:0:0:0:
0,192,79544,5,0,0:0:0:0:
8,192,79565,5,0,0:0:0:0:
16,192,79586,5,0,0:0:0:0:
25,192,79607,5,0,0:0:0:0:
512,192,79628,5,0,0:0:0:0:
504,192,79649,5,0,0:0:0:0:
496,192,79669,5,0,0:0:0:0:
487,192,79690,5,0,0:0:0:0:
0,192,79711,5,0,0:0:0:0:
8,192,79732,5,0,0:0:0:0:
16,192,79753,5,0,0:0:0:0:
25,192,79774,5,0,0:0:0:0:
512,192,79794,5,0,0:0:0:0:
504,192,79815,5,0,0:0:0:0:
496,192,79836,5,0,0:0:0:0:
487,192,79857,5,0,0:0:0:0:
0,192,79878,5,0,0:0:0:0:
8,192,79899,5,0,0:0:0:0:
16,192,79919,5,0,0:0:0:0:
25,192,79940,5,0,0:0:0:0:
512,192,79961,5,0,0:0:0:0:
504,192,79982,5,0,0:0:0:0:
496,192,80003,5,0,0:0:0:0:
487,192,80024,5,0,0:0:0:0:
0,192,80044,5,0,0:0:0:0:
8,192,80065,5,0,0:0:0:0:
16,192,80086,5,0,0:0:0:0:
25,192,80107,5,0,0:0:0:0:
512,192,80128,5,0,0:0:0:0:
504,192,80149,5,0,0:0:0:0:
496,192,80169,5,0,0:0:0:0:
487,192,80190,5,0,0:0:0:0:
0,192,80211,5,0,0:0:0:0:
8,192,80232,5,0,0:0:0:0:
16,192,80253,5,0,0:0:0:0:
25,192,80274,5,0,0:0:0:0:
512,192,80294,5,0,0:0:0:0:
504,192,80315,5,0,0:0:0:0:
496,192,80336,5,0,0:0:0:0:
487,192,80357,5,0,0:0:0:0:
0,192,80378,5,0,0:0:0:0:
8,192,80399,5,0,0:0:0:0:
16,192,80419,5,0,0:0:0:0:
25,192,80440,5,0,0:0:0:0:
512,192,80461,5,0,0:0:0:0:
504,192,80482,5,0,0:0:0:0:
496,192,80503,5,0,0:0:0:0:
487,192,80524,5,0,0:0:0:0:
0,192,80544,5,0,0:0:0:0:
8,192,80565,5,0,0:0:0:0:
16,192,80586,5,0,0:0:0:0:
25,192,80607,5,0,0:0:0:0:
512,192,80628,5,0,0:0:0:0:
504,192,80649,5,0,0:0:0:0:
496,192,80669,5,0,0:0:0:0:
487,192,80690,5,0,0:0:0:0:
0,192,80711,5,0,0:0:0:0:
8,192,80732,5,0,0:0:0:0:
16,192,80753,5,0,0:0:0:0:
25,192,80774,5,0,0:0:0:0:
512,192,80794,5,0,0:0:0:0:
504,192,80815,5,0,0:0:0:0:
496,192,80836,5,0,0:0:0:0:
487,192,80857,5,0,0:0:0:0:
0,192,80878,5,0,0:0:0:0:
8,192,80899,5,0,0:0:0:0:
16,192,80919,5,0,0:0:0:0:
25,192,80940,5,0,0:0:0:0:
512,192,80961,5,0,0:0:0:0:
504,192,80982,5,0,0:0:0:0:
496,192,81003,5,0,0:0:0:0:
487,192,81024,5,0,0:0:0:0:
0,192,81044,5,0,0:0:0:0:
8,192,81065,5,0,0:0:0:0:
16,192,81086,5,0,0:0:0:0:
25,192,81107,5,0,0:0:0:0:
512,192,81128,5,0,0:0:0:0:
504,192,81149,5,0,0:0:0:0:
496,192,81169,5,0,0:0:0:0:
487,192,81190,5,0,0:0:0:0:
0,192,81211,5,0,0:0:0:0:
8,192,81232,5,0,0:0:0:0:
16,192,81253,5,0,0:0:0:0:
25,192,81274,5,0,0:0:0:0:
512,192,81294,5,0,0:0:0:0:
504,192,81315,5,0,0:0:0:0:
496,192,81336,5,0,0:0:0:0:
487,192,81357,5,0,0:0:0:0:
0,192,81378,5,0,0:0:0:0:
8,192,81399,5,0,0:0:0:0:
16,192,81419,5,0,0:0:0:0:
25,192,81440,5,0,0:0:0:0:
512,192,81461,5,0,0:0:0:0:
504,192,81482,5,0,0:0:0:0:
496,192,81503,5,0,0:0:0:0:
487,192,81524,5,0,0:0:0:0:
0,192,81544,5,0,0:0:0:0:
8,192,81565,5,0,0:0:0:0:
16,192,81586,5,0,0:0:0:0:
25,192,81607,5,0,0:0:0:0:
512,192,81628,5,0,0:0:0:0:
504,192,81649,5,0,0:0:0:0:
496,192,81669,5,0,0:0:0:0:
487,192,81690,5,0,0:0:0:0:
0,192,81711,5,0,0:0:0:0:
8,192,81732,5,0,0:0:0:0:
16,192,81753,5,0,0:0:0:0:
25,192,81774,5,0,0:0:0:0:
512,192,81794,5,0,0:0:0:0:
504,192,81815,5,0,0:0:0:0:
496,192,81836,5,0,0:0:0:0:
487,192,81857,5,0,0:0:0:0:
0,192,81878,5,0,0:0:0:0:
8,192,81899,5,0,0:0:0:0:
16,192,81919,5,0,0:0:0:0:
25,192,81940,5,0,0:0:0:0:
512,192,81961,5,0,0:0:0:0:
504,192,81982,5,0,0:0:0:0:
496,192,82003,5,0,0:0:0:0:
487,192,82024,5,0,0:0:0:0:
0,192,82044,5,0,0:0:0:0:
8,192,82065,5,0,0:0:0:0:
16,192,82086,5,0,0:0:0:0:
25,192,82107,5,0,0:0:0:0:
512,192,82128,5,0,0:0:0:0:
504,192,82149,5,0,0:0:0:0:
496,192,82169,5,0,0:0:0:0:
487,192,82190,5,0,0:0:0:0:
0,192,82211,5,0,0:0:0:0:
8,192,82232,5,0,0:0:0:0:
16,192,82253,5,0,0:0:0:0:
25,192,82274,5,0,0:0:0:0:
512,192,82294,5,0,0:0:0:0:
504,192,82315,5,0,0:0:0:0:
496,192,82336,5,0,0:0:0:0:
487,192,82357,5,0,0:0:0:0:
0,192,82378,5,0,0:0:0:0:
8,192,82399,5,0,0:0:0:0:
16,192,82419,5,0,0:0:0:0:
25,192,82440,5,0,0:0:0:0:
512,192,82461,5,0,0:0:0:0:
504,192,82482,5,0,0:0:0:0:
496,192,82503,5,0,0:0:0:0:
487,192,82524,5,0,0:0:0:0:
0,192,82544,5,0,0:0:0:0:
8,192,82565,5,0,0:0:0:0:
16,192,82586,5,0,0:0:0:0:
25,192,82607,5,0,0:0:0:0:
512,192,82628,5,0,0:0:0:0:
504,192,82649,5,0,0:0:0:0:
496,192,82669,5,0,0:0:0:0:
487,192,82690,5,0,0:0:0:0:
0,192,82711,5,0,0:0:0:0:
8,192,82732,5,0,0:0:0:0:
16,192,82753,5,0,0:0:0:0:
25,192,82774,5,0,0:0:0:0:
512,192,82794,5,0,0:0:0:0:
504,192,82815,5,0,0:0:0:0:
496,192,82836,5,0,0:0:0:0:
487,192,82857,5,0,0:0:0:0:
0,192,82878,5,0,0:0:0:0:
8,192,82899,5,0,0:0:0:0:
16,192,82919,5,0,0:0:0:0:
25,192,82940,5,0,0:0:0:0:
512,192,82961,5,0,0:0:0:0:
504,192,82982,5,0,0:0:0:0:
496,192,83003,5,0,0:0:0:0:
487,192,83024,5,0,0:0:0:0:
0,192,83044,5,0,0:0:0:0:
8,192,83065,5,0,0:0:0:0:
16,192,83086,5,0,0:0:0:0:
25,192,83107,5,0,0:0:0:0:
512,192,83128,5,0,0:0:0:0:
504,192,83149,5,0,0:0:0:0:
496,192,83169,5,0,0:0:0:0:
487,192,83190,5,0,0:0:0:0:
0,192,83211,5,0,0:0:0:0:
8,192,83232,5,0,0:0:0:0:
16,192,83253,5,0,0:0:0:0:
25,192,83274,5,0,0:0:0:0:
512,192,83294,5,0,0:0:0:0:
504,192,83315,5,0,0:0:0:0:
496,192,83336,5,0,0:0:0:0:
487,192,83357,5,0,0:0:0:0:
0,192,83378,5,0,0:0:0:0:
8,192,83399,5,0,0:0:0:0:
16,192,83419,5,0,0:0:0:0:
25,192,83440,5,0,0:0:0:0:
512,192,83461,5,0,0:0:0:0:
504,192,83482,5,0,0:0:0:0:
496,192,83503,5,0,0:0:0:0:
487,192,83524,5,0,0:0:0:0:
0,192,83544,5,0,0:0:0:0:
8,192,83565,5,0,0:0:0:0:
16,192,83586,5,0,0:0:0:0:
25,192,83607,5,0,0:0:0:0:
512,192,83628,5,0,0:0:0:0:
504,192,83649,5,0,0:0:0:0:
496,192,83669,5,0,0:0:0:0:
487,192,83690,5,0,0:0:0:0:
0,192,83711,5,0,0:0:0:0:
8,192,83732,5,0,0:0:0:0:
16,192,83753,5,0,0:0:0:0:
25,192,83774,5,0,0:0:0:0:
512,192,83794,5,0,0:0:0:0:
504,192,83815,5,0,0:0:0:0:
496,192,83836,5,0,0:0:0:0:
487,192,83857,5,0,0:0:0:0:
0,192,83878,5,0,0:0:0:0:
8,192,83899,5,0,0:0:0:0:
16,192,83919,5,0,0:0:0:0:
25,192,83940,5,0,0:0:0:0:
512,192,83961,5,0,0:0:0:0:
504,192,83982,5,0,0:0:0:0:
496,192,84003,5,0,0:0:0:0:
487,192,84024,5,0,0:0:0:0:
0,192,84044,5,0,0:0:0:0:
8,192,84065,5,0,0:0:0:0:
16,192,84086,5,0,0:0:0:0:
25,192,84107,5,0,0:0:0:0:
512,192,84128,5,0,0:0:0:0:
504,192,84149,5,0,0:0:0:0:
496,192,84169,5,0,0:0:0:0:
487,192,84190,5,0,0:0:0:0:
0,192,84211,5,0,0:0:0:0:
8,192,84232,5,0,0:0:0:0:
16,192,84253,5,0,0:0:0:0:
25,192,84274,5,0,0:0:0:0:
512,192,84294,5,0,0:0:0:0:
504,192,84315,5,0,0:0:0:0:
496,192,84336,5,0,0:0:0:0:
487,192,84357,5,0,0:0:0:0:
0,192,84378,5,0,0:0:0:0:
8,192,84399,5,0,0:0:0:0:
16,192,84419,5,0,0:0:0:0:
25,192,84440,5,0,0:0:0:0:
512,192,84461,5,0,0:0:0:0:
504,192,84482,5,0,0:0:0:0:
496,192,84503,5,0,0:0:0:0:
487,192,84524,5,0,0:0:0:0:
0,192,84544,5,0,0:0:0:0:
8,192,84565,5,0,0:0:0:0:
16,192,84586,5,0,0:0:0:0:
25,192,84607,5,0,0:0:0:0:
512,192,84628,5,0,0:0:0:0:
504,192,84649,5,0,0:0:0:0:
496,192,84669,5,0,0:0:0:0:
487,192,84690,5,0,0:0:0:0:
0,192,84711,5,0,0:0:0:0:
8,192,84732,5,0,0:0:0:0:
16,192,84753,5,0,0:0:0:0:
25,192,84774,5,0,0:0:0:0:
512,192,84794,5,0,0:0:0:0:
504,192,84815,5,0,0:0:0:0:
496,192,84836,5,0,0:0:0:0:
487,192,84857,5,0,0:0:0:0:
0,192,84878,5,0,0:0:0:0:
8,192,84899,5,0,0:0:0:0:
16,192,84919,5,0,0:0:0:0:
25,192,84940,5,0,0:0:0:0:
512,192,84961,5,0,0:0:0:0:
504,192,84982,5,0,0:0:0:0:
496,192,85003,5,0,0:0:0:0:
487,192,85024,5,0,0:0:0:0:
0,192,85044,5,0,0:0:0:0:
8,192,85065,5,0,0:0:0:0:
16,192,85086,5,0,0:0:0:0:
25,192,85107,5,0,0:0:0:0:
512,192,85128,5,0,0:0:0:0:
504,192,85149,5,0,0:0:0:0:
496,192,85169,5,0,0:0:0:0:
487,192,85190,5,0,0:0:0:0:
0,192,85211,5,0,0:0:0:0:
8,192,85232,5,0,0:0:0:0:
16,192,85253,5,0,0:0:0:0:
25,192,85274,5,0,0:0:0:0:
512,192,85294,5,0,0:0:0:0:
504,192,85315,5,0,0:0:0:0:
496,192,85336,5,0,0:0:0:0:
487,192,85357,5,0,0:0:0:0:
0,192,85378,5,0,0:0:0:0:
8,192,85399,5,0,0:0:0:0:
16,192,85419,5,0,0:0:0:0:
25,192,85440,5,0,0:0:0:0:
512,192,85461,5,0,0:0:0:0:
504,192,85482,5,0,0:0:0:0:
496,192,85503,5,0,0:0:0:0:
487,192,85524,5,0,0:0:0:0:
0,192,85544,5,0,0:0:0:0:
8,192,85565,5,0,0:0:0:0:
16,192,85586,5,0,0:0:0:0:
25,192,85607,5,0,0:0:0:0:
512,192,85628,5,0,0:0:0:0:
504,192,85649,5,0,0:0:0:0:
496,192,85669,5,0,0:0:0:0:
487,192,85690,5,0,0:0:0:0:
0,192,85711,5,0,0:0:0:0:
8,192,85732,5,0,0:0:0:0:
16,192,85753,5,0,0:0:0:0:
25,192,85774,5,0,0:0:0:0:
512,192,85794,5,0,0:0:0:0:
504,192,85815,5,0,0:0:0:0:
496,192,85836,5,0,0:0:0:0:
487,192,85857,5,0,0:0:0:0:
0,192,85878,5,0,0:0:0:0:
8,192,85899,5,0,0:0:0:0:
16,192,85919,5,0,0:0:0:0:
25,192,85940,5,0,0:0:0:0:
512,192,85961,5,0,0:0:0:0:
504,192,85982,5,0,0:0:0:0:
496,192,86003,5,0,0:0:0:0:
487,192,86024,5,0,0:0:0:0:
0,192,86044,5,0,0:0:0:0:
8,192,86065,5,0,0:0:0:0:
16,192,86086,5,0,0:0:0:0:
25,192,86107,5,0,0:0:0:0:
512,192,86128,5,0,0:0:0:0:
504,192,86149,5,0,0:0:0:0:
496,192,86169,5,0,0:0:0:0:
487,192,86190,5,0,0:0:0:0:
0,192,86211,5,0,0:0:0:0:
8,192,86232,5,0,0:0:0:0:
16,192,86253,5,0,0:0:0:0:
25,192,86274,5,0,0:0:0:0:
512,192,86294,5,0,0:0:0:0:
504,192,86315,5,0,0:0:0:0:
496,192,86336,5,0,0:0:0:0:
487,192,86357,5,0,0:0:0:0:
0,192,86378,5,0,0:0:0:0:
8,192,86399,5,0,0:0:0:0:
16,192,86419,5,0,0:0:0:0:
25,192,86440,5,0,0:0:0:0:
