osu file format v14

[General]
AudioFilename: audio.mp3
AudioLeadIn: 0
PreviewTime: 170333
Countdown: 0
SampleSet: Normal
StackLeniency: 0.7
Mode: 1
LetterboxInBreaks: 0
WidescreenStoryboard: 1

[Editor]
DistanceSpacing: 1.5
BeatDivisor: 4
GridSize: 32
TimelineZoom: 3.2

[Metadata]
Title:AiAe
TitleUnicode:AiAe
Artist:Yuyoyuppe
ArtistUnicode:ゆよゆっぺ
Creator:Deathwing1306
Version:Muzukashii
Source:
Tags:dnb drum and 'n' bass drum'n'bass drum&bass d'n'b d&b hardcore instrumental electronic drumstep dj'tekina//something yuyoyu ep mamiya takehiro yuppemetal vocaloid fa featured artist
BeatmapID:2928041
BeatmapSetID:1394288

[Difficulty]
HPDrainRate:6
CircleSize:7
OverallDifficulty:5
ApproachRate:10
SliderMultiplier:1.4
SliderTickRate:1

[Events]
//Background and Video events
0,0,"bg.jpg",0,0
//Break Periods
//Storyboard Layer 0 (Background)
//Storyboard Layer 1 (Fail)
//Storyboard Layer 2 (Pass)
//Storyboard Layer 3 (Foreground)
//Storyboard Layer 4 (Overlay)
//Storyboard Sound Samples

[TimingPoints]
1000,333.333333333333,4,1,0,90,1,0
1000,-105.263157894737,4,1,0,90,0,0
22416,-142.857142857143,4,1,0,80,0,0
27666,-105.263157894737,4,1,0,80,0,0
27749,-142.857142857143,4,1,0,80,0,0
30333,-117.647058823529,4,1,0,80,0,0
30416,-142.857142857143,4,1,0,80,0,0
31666,-117.647058823529,4,1,0,80,0,0
31749,-142.857142857143,4,1,0,80,0,0
32499,-117.647058823529,4,1,0,80,0,0
32999,-105.263157894737,4,1,0,90,0,0
38166,-104.712041884817,4,1,0,90,0,0
38333,-104.166666666667,4,1,0,100,0,0
39666,-103.092783505155,4,1,0,100,0,0
40999,-103.092783505155,4,1,0,100,0,0
41333,-102.040816326531,4,1,0,100,0,0
41666,-101.010101010101,4,1,0,100,0,0
41999,-100,4,1,0,100,0,0
42333,-99.009900990099,4,1,0,100,0,0
42416,-111.111111111111,4,1,0,50,0,0
43333,-111.111111111111,4,1,0,90,0,0
43416,-109.89010989011,4,1,0,90,0,0
43499,-108.695652173913,4,1,0,90,0,0
43666,-100,4,1,0,100,0,1
64999,-100,4,1,0,100,0,0
65083,-105.263157894737,4,1,0,80,0,0
84916,-104.712041884817,4,1,0,80,0,0
84999,-104.166666666667,4,1,0,90,0,0
85166,-103.092783505155,4,1,0,90,0,0
85333,-102.040816326531,4,1,0,90,0,0
85666,-101.010101010101,4,1,0,90,0,0
86333,-100,4,1,0,100,0,0
103999,-99.009900990099,4,1,0,100,0,0
104666,-98.0392156862745,4,1,0,100,0,0
104999,-97.0873786407767,4,1,0,100,0,0
105166,-96.6183574879227,4,1,0,100,0,0
105333,-96.1538461538461,4,1,0,100,0,0
105666,-95.2380952380952,4,1,0,100,0,0
105999,-94.3396226415094,4,1,0,100,0,0
106333,-93.4579439252336,4,1,0,100,0,0
106416,-100,4,1,0,50,0,0
107666,-100,4,1,0,100,0,1
112166,-101.010101010101,4,1,0,100,0,1
112333,-102.040816326531,4,1,0,100,0,1
112666,-104.166666666667,4,1,0,100,0,1
112999,-100,4,1,0,100,0,1
116999,-100,4,1,0,100,0,0
117333,-102.040816326531,4,1,0,100,0,0
117666,-104.166666666667,4,1,0,100,0,0
117999,-106.382978723404,4,1,0,100,0,0
118333,-100,4,1,0,100,0,1
126333,-99.009900990099,4,1,0,100,0,1
126499,-98.0392156862745,4,1,0,100,0,1
126666,-97.0873786407767,4,1,0,100,0,1
126999,-95.2380952380952,4,1,0,100,0,1
127166,-94.3396226415094,4,1,0,100,0,1
127333,-93.4579439252336,4,1,0,100,0,1
127499,-92.5925925925926,4,1,0,100,0,1
127666,-94.3396226415094,4,1,0,80,0,0
127833,-96.1538461538461,4,1,0,80,0,0
127916,-97.0873786407767,4,1,0,80,0,0
127999,-98.0392156862745,4,1,0,80,0,0
128166,-100,4,1,0,80,0,0
128333,-102.040816326531,4,1,0,80,0,0
128666,-106.382978723404,4,1,0,80,0,0
128999,-100,4,1,0,100,0,1
148999,-100,4,1,0,100,0,0
149333,-99.009900990099,4,1,0,100,0,0
149666,-98.0392156862745,4,1,0,100,0,0
149999,-97.0873786407767,4,1,0,100,0,0
150333,-96.1538461538461,4,1,0,100,0,0
150416,-142.857142857143,4,1,0,80,0,0
155666,-105.263157894737,4,1,0,80,0,0
160333,-104.166666666667,4,1,0,80,0,0
160416,-103.626943005181,4,1,0,80,0,0
160499,-103.092783505155,4,1,0,80,0,0
160666,-102.040816326531,4,1,0,80,0,0
160749,-101.522842639594,4,1,0,80,0,0
160833,-101.010101010101,4,1,0,80,0,0
160999,-100,4,1,0,90,0,0
166166,-99.502487562189,4,1,0,90,0,0
166333,-99.009900990099,4,1,0,100,0,0
167666,-98.0392156862745,4,1,0,100,0,0
168999,-97.0873786407767,4,1,0,100,0,0
169333,-96.1538461538461,4,1,0,100,0,0
169666,-95.2380952380952,4,1,0,100,0,0
169999,-94.3396226415094,4,1,0,100,0,0
170333,-93.4579439252336,4,1,0,50,0,0
170416,-100,4,1,0,50,0,0
171666,-100,4,1,0,100,0,1
214333,-100,4,1,0,90,0,0
214666,-101.010101010101,4,1,0,90,0,0
214999,-102.040816326531,4,1,0,90,0,0
215166,-103.092783505155,4,1,0,90,0,0
215333,-104.166666666667,4,1,0,90,0,0
215666,-105.263157894737,4,1,0,90,0,0
216333,-109.89010989011,4,1,0,90,0,0
216666,-111.111111111111,4,1,0,90,0,0
225083,-117.647058823529,4,1,0,90,0,0
230416,-125,4,1,0,90,0,0
234916,-123.456790123457,4,1,0,90,0,0
234999,-121.951219512195,4,1,0,90,0,0
235166,-119.047619047619,4,1,0,90,0,0
235333,-116.279069767442,4,1,0,90,0,0
235499,-113.636363636364,4,1,0,90,0,0
235583,-112.359550561798,4,1,0,90,0,0

[HitObjects]
262,196,1000,5,4,0:0:0:0:
278,189,1333,1,8,0:0:0:0:
283,199,1833,1,0,0:0:0:0:
283,199,1999,1,8,0:0:0:0:
273,172,2333,1,0,0:0:0:0:
273,172,2666,1,8,0:0:0:0:
273,172,2833,1,0,0:0:0:0:
276,192,3166,1,0,0:0:0:0:
276,192,3333,1,8,0:0:0:0:
228,207,3583,1,0,0:0:0:0:
295,198,3666,1,0,0:0:0:0:
281,222,3999,1,8,0:0:0:0:
295,198,4499,1,0,0:0:0:0:
296,197,4666,1,8,0:0:0:0:
269,201,4999,1,0,0:0:0:0:
255,190,5249,1,0,0:0:0:0:
294,216,5333,1,8,0:0:0:0:
310,220,5499,1,0,0:0:0:0:
339,237,5833,1,0,0:0:0:0:
282,192,5999,1,8,0:0:0:0:
271,196,6083,1,8,0:0:0:0:
282,192,6166,1,8,0:0:0:0:
282,192,6333,1,4,0:0:0:0:
309,245,6666,1,8,0:0:0:0:
321,234,7166,1,0,0:0:0:0:
317,227,7333,1,8,0:0:0:0:
279,203,7666,1,0,0:0:0:0:
286,226,7999,1,8,0:0:0:0:
286,226,8166,1,0,0:0:0:0:
286,226,8499,1,0,0:0:0:0:
286,226,8666,1,8,0:0:0:0:
336,245,8916,1,0,0:0:0:0:
273,224,8999,1,0,0:0:0:0:
282,214,9333,1,8,0:0:0:0:
260,205,9833,1,0,0:0:0:0:
260,205,9999,1,8,0:0:0:0:
260,205,10333,1,0,0:0:0:0:
252,186,10666,1,8,0:0:0:0:
252,186,10833,1,0,0:0:0:0:
264,187,10999,1,8,0:0:0:0:
312,214,11166,1,8,0:0:0:0:
312,214,11333,1,8,0:0:0:0:
302,221,11416,1,8,0:0:0:0:
352,248,11499,1,8,0:0:0:0:
352,248,11666,1,4,0:0:0:0:
266,199,11999,1,8,0:0:0:0:
266,199,12499,1,0,0:0:0:0:
266,199,12666,1,8,0:0:0:0:
266,209,12999,1,0,0:0:0:0:
266,209,13333,1,8,0:0:0:0:
276,185,13499,1,0,0:0:0:0:
266,209,13833,1,0,0:0:0:0:
266,209,13999,1,8,0:0:0:0:
266,196,14249,1,8,0:0:0:0:
266,196,14333,1,0,0:0:0:0:
276,198,14666,1,8,0:0:0:0:
286,231,14999,1,0,0:0:0:0:
291,211,15166,1,0,0:0:0:0:
291,211,15333,1,8,0:0:0:0:
252,199,15666,1,0,0:0:0:0:
248,203,15999,1,8,0:0:0:0:
257,207,16166,1,0,0:0:0:0:
246,227,16499,1,0,0:0:0:0:
276,204,16666,1,8,0:0:0:0:
260,197,16749,1,8,0:0:0:0:
276,204,16833,1,8,0:0:0:0:
276,204,16999,1,4,0:0:0:0:
267,186,17333,1,8,0:0:0:0:
267,186,17833,1,0,0:0:0:0:
267,186,17999,1,8,0:0:0:0:
270,203,18333,1,0,0:0:0:0:
270,203,18666,1,8,0:0:0:0:
281,222,18833,1,0,0:0:0:0:
270,203,19166,1,0,0:0:0:0:
270,203,19333,1,8,0:0:0:0:
294,189,19583,1,8,0:0:0:0:
258,144,19666,1,0,0:0:0:0:
271,192,19999,1,8,0:0:0:0:
261,194,20333,1,0,0:0:0:0:
285,195,20666,1,8,0:0:0:0:
295,203,20999,1,0,0:0:0:0:
243,199,21333,1,0,0:0:0:0:
319,196,21666,1,0,0:0:0:0:
315,202,21833,1,0,0:0:0:0:
323,205,21999,1,8,0:0:0:0:
323,205,22083,1,8,0:0:0:0:
323,205,22166,1,8,0:0:0:0:
315,194,22333,1,4,0:0:0:0:
284,182,23666,1,0,0:0:0:0:
259,197,24999,1,8,0:0:0:0:
281,213,26333,1,8,0:0:0:0:
258,192,27666,1,4,0:0:0:0:
257,187,28999,1,8,0:0:0:0:
255,190,30333,1,4,0:0:0:0:
259,203,31666,1,4,0:0:0:0:
288,191,32499,1,0,0:0:0:0:
261,192,32583,1,0,0:0:0:0:
288,191,32666,1,8,0:0:0:0:
261,192,32999,1,12,0:0:0:0:
115,55,33333,1,8,0:0:0:0:
261,192,33666,1,8,0:0:0:0:
67,143,33999,1,8,0:0:0:0:
246,190,34333,1,0,0:0:0:0:
271,193,34666,1,8,0:0:0:0:
264,190,34999,1,0,0:0:0:0:
264,190,35666,1,8,0:0:0:0:
264,190,35999,1,8,0:0:0:0:
294,199,36333,1,0,0:0:0:0:
266,183,36666,1,0,0:0:0:0:
266,183,36999,1,8,0:0:0:0:
282,199,37333,1,0,0:0:0:0:
301,225,37666,1,8,0:0:0:0:
257,212,37999,1,0,0:0:0:0:
286,209,38166,1,8,0:0:0:0:
286,209,38333,1,8,0:0:0:0:
280,221,38666,1,8,0:0:0:0:
258,214,38999,1,8,0:0:0:0:
238,214,39166,1,0,0:0:0:0:
258,214,39333,1,8,0:0:0:0:
258,214,39666,1,8,0:0:0:0:
272,228,39999,1,0,0:0:0:0:
369,198,40166,1,0,0:0:0:0:
258,214,40333,1,8,0:0:0:0:
292,194,40499,1,0,0:0:0:0:
280,200,40666,1,8,0:0:0:0:
280,200,40999,1,8,0:0:0:0:
320,222,41166,1,0,0:0:0:0:
320,222,41333,1,8,0:0:0:0:
299,210,41499,1,8,0:0:0:0:
342,234,41666,1,8,0:0:0:0:
263,216,41749,1,8,0:0:0:0:
263,216,41833,1,8,0:0:0:0:
308,238,41999,1,8,0:0:0:0:
297,227,42083,1,8,0:0:0:0:
298,227,42166,1,8,0:0:0:0:
308,238,42333,1,0,0:0:0:0:
246,204,43333,1,8,0:0:0:0:
246,204,43416,1,8,0:0:0:0:
246,204,43499,1,8,0:0:0:0:
246,204,43666,1,4,0:0:0:0:
246,204,43999,1,8,0:0:0:0:
240,189,44333,1,0,0:0:0:0:
242,188,44499,1,8,0:0:0:0:
205,192,44583,1,8,0:0:0:0:
235,173,44666,1,8,0:0:0:0:
258,205,44833,1,8,0:0:0:0:
258,205,44999,1,0,0:0:0:0:
261,212,45333,1,8,0:0:0:0:
288,207,45499,1,0,0:0:0:0:
293,235,45666,1,0,0:0:0:0:
293,235,45749,1,0,0:0:0:0:
290,217,45833,1,0,0:0:0:0:
290,217,45999,1,8,0:0:0:0:
238,211,46166,1,8,0:0:0:0:
261,186,46333,1,0,0:0:0:0:
230,207,46666,1,8,0:0:0:0:
236,195,46999,1,0,0:0:0:0:
266,191,47166,1,0,0:0:0:0:
283,179,47333,1,8,0:0:0:0:
265,177,47666,1,0,0:0:0:0:
278,191,47999,1,8,0:0:0:0:
295,227,48166,1,8,0:0:0:0:
278,179,48249,1,8,0:0:0:0:
296,192,48333,1,8,0:0:0:0:
278,180,48499,1,0,0:0:0:0:
255,196,48666,1,8,0:0:0:0:
281,198,48833,1,8,0:0:0:0:
256,192,48999,1,4,0:0:0:0:
266,202,49333,1,8,0:0:0:0:
229,207,49666,1,0,0:0:0:0:
275,205,49833,1,0,0:0:0:0:
296,195,49999,1,8,0:0:0:0:
293,193,50333,1,8,0:0:0:0:
300,217,50666,1,8,0:0:0:0:
309,211,50833,1,0,0:0:0:0:
316,214,50999,1,0,0:0:0:0:
340,216,51083,1,0,0:0:0:0:
300,199,51166,1,0,0:0:0:0:
296,199,51333,1,8,0:0:0:0:
281,193,51666,1,0,0:0:0:0:
241,185,51999,1,8,0:0:0:0:
295,210,52166,1,0,0:0:0:0:
205,191,52249,1,0,0:0:0:0:
299,207,52333,1,0,0:0:0:0:
288,227,52499,1,0,0:0:0:0:
280,202,52666,1,8,0:0:0:0:
296,197,52999,1,8,0:0:0:0:
258,195,53333,1,8,0:0:0:0:
227,180,53499,1,0,0:0:0:0:
281,210,53666,1,8,0:0:0:0:
332,185,53999,1,8,0:0:0:0:
268,192,54083,1,8,0:0:0:0:
268,192,54166,1,8,0:0:0:0:
268,192,54333,1,4,0:0:0:0:
304,208,54999,1,0,0:0:0:0:
304,208,55166,1,8,0:0:0:0:
276,207,55249,1,8,0:0:0:0:
292,202,55333,1,8,0:0:0:0:
302,208,55499,1,8,0:0:0:0:
206,202,55666,1,0,0:0:0:0:
216,196,55999,1,8,0:0:0:0:
341,208,56333,1,0,0:0:0:0:
341,208,56416,1,0,0:0:0:0:
315,189,56499,1,0,0:0:0:0:
243,216,56666,1,8,0:0:0:0:
293,201,56833,1,8,0:0:0:0:
236,195,56999,1,0,0:0:0:0:
308,192,57333,1,8,0:0:0:0:
328,231,57666,1,0,0:0:0:0:
337,223,57749,1,0,0:0:0:0:
283,194,57833,1,0,0:0:0:0:
286,226,57999,1,8,0:0:0:0:
281,216,58333,1,0,0:0:0:0:
236,195,58666,1,8,0:0:0:0:
275,206,58833,1,0,0:0:0:0:
289,210,58999,1,8,0:0:0:0:
306,245,59333,1,8,0:0:0:0:
296,212,59499,1,8,0:0:0:0:
253,177,59666,1,4,0:0:0:0:
287,211,59999,1,8,0:0:0:0:
283,236,60166,1,0,0:0:0:0:
283,236,60333,1,0,0:0:0:0:
289,172,60666,1,8,0:0:0:0:
284,145,60999,1,4,0:0:0:0:
284,207,61333,1,8,0:0:0:0:
305,199,61499,1,0,0:0:0:0:
308,196,61666,1,0,0:0:0:0:
282,213,61999,1,8,0:0:0:0:
256,186,62333,1,4,0:0:0:0:
256,192,62666,1,8,0:0:0:0:
254,194,62999,1,4,0:0:0:0:
256,192,63333,1,8,0:0:0:0:
288,196,63666,1,4,0:0:0:0:
281,194,63833,1,8,0:0:0:0:
260,183,63999,1,4,0:0:0:0:
281,194,64166,1,8,0:0:0:0:
260,183,64333,1,4,0:0:0:0:
281,194,64499,1,8,0:0:0:0:
260,183,64666,1,0,0:0:0:0:
157,181,64749,1,0,0:0:0:0:
157,181,64833,1,0,0:0:0:0:
176,186,64999,1,12,0:0:0:0:
243,220,65333,1,8,0:0:0:0:
305,223,65499,1,0,0:0:0:0:
276,184,65999,1,8,0:0:0:0:
271,200,66333,1,0,0:0:0:0:
264,229,66499,1,0,0:0:0:0:
288,224,66666,1,8,0:0:0:0:
262,201,66833,1,0,0:0:0:0:
281,205,67166,1,0,0:0:0:0:
263,196,67333,1,8,0:0:0:0:
340,202,67416,1,8,0:0:0:0:
340,202,67499,1,8,0:0:0:0:
340,202,67666,1,0,0:0:0:0:
276,181,67999,1,8,0:0:0:0:
246,202,68166,1,0,0:0:0:0:
276,206,68499,1,0,0:0:0:0:
272,182,68666,1,8,0:0:0:0:
280,187,68999,1,0,0:0:0:0:
288,192,69333,1,8,0:0:0:0:
288,192,69499,1,0,0:0:0:0:
335,218,69833,1,0,0:0:0:0:
335,208,69999,1,8,0:0:0:0:
335,208,70083,1,8,0:0:0:0:
335,208,70166,1,8,0:0:0:0:
335,208,70333,1,4,0:0:0:0:
232,229,70666,1,8,0:0:0:0:
269,207,70833,1,0,0:0:0:0:
269,217,71333,1,8,0:0:0:0:
282,205,71499,1,0,0:0:0:0:
271,214,71666,1,0,0:0:0:0:
271,214,71999,1,8,0:0:0:0:
269,217,72166,1,0,0:0:0:0:
288,192,72499,1,0,0:0:0:0:
233,194,72666,1,8,0:0:0:0:
283,207,72749,1,8,0:0:0:0:
283,207,72833,1,8,0:0:0:0:
283,206,72999,1,0,0:0:0:0:
277,199,73333,1,8,0:0:0:0:
283,207,73499,1,0,0:0:0:0:
296,212,73833,1,0,0:0:0:0:
277,195,73999,1,8,0:0:0:0:
277,194,74333,1,0,0:0:0:0:
304,207,74666,1,8,0:0:0:0:
304,207,74833,1,0,0:0:0:0:
288,192,75166,1,0,0:0:0:0:
273,184,75333,1,8,0:0:0:0:
295,200,75499,1,8,0:0:0:0:
354,188,75666,1,4,0:0:0:0:
276,172,75999,1,8,0:0:0:0:
256,193,76166,1,0,0:0:0:0:
276,172,76666,1,8,0:0:0:0:
276,172,76999,1,0,0:0:0:0:
319,207,77166,1,0,0:0:0:0:
276,172,77333,1,8,0:0:0:0:
276,172,77499,1,0,0:0:0:0:
288,192,77833,1,0,0:0:0:0:
274,184,77999,1,8,0:0:0:0:
318,191,78083,1,8,0:0:0:0:
281,184,78166,1,8,0:0:0:0:
263,178,78333,1,0,0:0:0:0:
279,196,78666,1,8,0:0:0:0:
315,210,78833,1,0,0:0:0:0:
290,222,79166,1,0,0:0:0:0:
278,183,79333,1,8,0:0:0:0:
279,196,79666,1,0,0:0:0:0:
288,192,79999,1,8,0:0:0:0:
281,195,80166,1,0,0:0:0:0:
288,192,80499,1,0,0:0:0:0:
261,186,80666,1,8,0:0:0:0:
261,186,80749,1,8,0:0:0:0:
261,186,80833,1,8,0:0:0:0:
261,186,80999,1,4,0:0:0:0:
255,189,81333,1,8,0:0:0:0:
231,201,81499,1,0,0:0:0:0:
255,189,81999,1,8,0:0:0:0:
321,226,82166,1,8,0:0:0:0:
255,189,82333,1,0,0:0:0:0:
288,192,82666,1,8,0:0:0:0:
255,189,82833,1,0,0:0:0:0:
288,224,83166,1,0,0:0:0:0:
247,192,83333,1,8,0:0:0:0:
275,216,83416,1,8,0:0:0:0:
247,192,83499,1,8,0:0:0:0:
250,182,83666,1,0,0:0:0:0:
249,186,83999,1,8,0:0:0:0:
263,208,84166,1,0,0:0:0:0:
322,228,84499,1,0,0:0:0:0:
275,212,84666,1,8,0:0:0:0:
263,189,84833,1,0,0:0:0:0:
264,190,84916,1,0,0:0:0:0:
264,190,84999,1,0,0:0:0:0:
288,192,85166,1,0,0:0:0:0:
285,195,85333,1,8,0:0:0:0:
244,184,85666,1,0,0:0:0:0:
250,189,85749,1,0,0:0:0:0:
250,189,85833,1,0,0:0:0:0:
278,185,85999,1,8,0:0:0:0:
288,192,86166,1,8,0:0:0:0:
305,195,86333,1,4,0:0:0:0:
256,192,86999,1,0,0:0:0:0:
160,128,87333,1,8,0:0:0:0:
256,192,87666,1,0,0:0:0:0:
256,192,87833,1,0,0:0:0:0:
256,192,87999,1,8,0:0:0:0:
326,214,88333,1,0,0:0:0:0:
256,192,88666,1,8,0:0:0:0:
256,192,88833,1,0,0:0:0:0:
256,192,88999,1,0,0:0:0:0:
261,188,89333,1,8,0:0:0:0:
288,224,89666,1,0,0:0:0:0:
286,203,89833,1,0,0:0:0:0:
256,192,89999,1,8,0:0:0:0:
260,192,90333,1,0,0:0:0:0:
224,192,90666,1,0,0:0:0:0:
266,191,90999,1,8,0:0:0:0:
276,190,91333,1,8,0:0:0:0:
276,190,91499,1,8,0:0:0:0:
249,183,91666,1,4,0:0:0:0:
274,178,91999,1,8,0:0:0:0:
313,188,92333,1,0,0:0:0:0:
264,191,92666,1,8,0:0:0:0:
265,189,92833,1,8,0:0:0:0:
261,191,92999,1,0,0:0:0:0:
264,191,93333,1,8,0:0:0:0:
288,192,93666,1,0,0:0:0:0:
288,192,93833,1,0,0:0:0:0:
286,193,93999,1,8,0:0:0:0:
292,197,94333,1,0,0:0:0:0:
282,202,94666,1,8,0:0:0:0:
306,212,94999,1,0,0:0:0:0:
306,212,95166,1,0,0:0:0:0:
276,177,95333,1,8,0:0:0:0:
272,193,95666,1,0,0:0:0:0:
288,192,95999,1,0,0:0:0:0:
259,209,96333,1,8,0:0:0:0:
256,192,96499,1,8,0:0:0:0:
260,203,96666,1,8,0:0:0:0:
261,201,96749,1,8,0:0:0:0:
260,203,96833,1,8,0:0:0:0:
260,203,96999,1,4,0:0:0:0:
267,178,97666,1,0,0:0:0:0:
260,203,97833,1,0,0:0:0:0:
260,207,97999,1,8,0:0:0:0:
265,205,98333,1,0,0:0:0:0:
260,207,98666,1,8,0:0:0:0:
260,207,98833,1,8,0:0:0:0:
265,205,98999,1,0,0:0:0:0:
260,207,99333,1,8,0:0:0:0:
260,207,99666,1,0,0:0:0:0:
271,213,99833,1,0,0:0:0:0:
288,192,99999,1,8,0:0:0:0:
288,228,100333,1,0,0:0:0:0:
249,209,100666,1,8,0:0:0:0:
253,207,100833,1,0,0:0:0:0:
307,245,100916,1,0,0:0:0:0:
254,207,100999,1,0,0:0:0:0:
259,204,101333,1,0,0:0:0:0:
256,224,101666,1,8,0:0:0:0:
260,207,101999,1,8,0:0:0:0:
271,218,102166,1,8,0:0:0:0:
271,218,102333,1,4,0:0:0:0:
293,192,102666,1,8,0:0:0:0:
297,197,102833,1,8,0:0:0:0:
284,167,102999,1,0,0:0:0:0:
261,207,103333,1,8,0:0:0:0:
261,207,103666,1,4,0:0:0:0:
183,192,103833,1,0,0:0:0:0:
259,203,103999,1,8,0:0:0:0:
258,203,104166,1,0,0:0:0:0:
313,206,104333,1,0,0:0:0:0:
262,204,104666,1,8,0:0:0:0:
261,199,104999,1,8,0:0:0:0:
294,230,105166,1,0,0:0:0:0:
260,197,105333,1,8,0:0:0:0:
288,221,105666,1,0,0:0:0:0:
256,224,105749,1,0,0:0:0:0:
256,224,105833,1,0,0:0:0:0:
288,221,105999,1,8,0:0:0:0:
288,221,106083,1,8,0:0:0:0:
288,221,106166,1,8,0:0:0:0:
288,221,106333,1,0,0:0:0:0:
256,191,107666,1,4,0:0:0:0:
239,199,107833,1,8,0:0:0:0:
239,198,107999,1,0,0:0:0:0:
240,205,108333,1,0,0:0:0:0:
240,204,108499,1,8,0:0:0:0:
240,204,108583,1,8,0:0:0:0:
240,204,108666,1,8,0:0:0:0:
266,221,108833,1,8,0:0:0:0:
252,225,108999,1,0,0:0:0:0:
297,203,109166,1,0,0:0:0:0:
266,221,109333,1,8,0:0:0:0:
256,213,109666,1,0,0:0:0:0:
224,224,109749,1,0,0:0:0:0:
256,213,109833,1,0,0:0:0:0:
256,213,109999,1,8,0:0:0:0:
251,209,110333,1,0,0:0:0:0:
248,203,110666,1,0,0:0:0:0:
249,205,110999,1,8,0:0:0:0:
275,212,111666,1,0,0:0:0:0:
217,193,111833,1,0,0:0:0:0:
255,204,111999,1,8,0:0:0:0:
255,204,112166,1,8,0:0:0:0:
255,204,112333,1,0,0:0:0:0:
252,201,112666,1,0,0:0:0:0:
254,199,112999,1,4,0:0:0:0:
268,213,113166,1,0,0:0:0:0:
268,213,113333,1,8,0:0:0:0:
268,199,113666,1,0,0:0:0:0:
268,198,113833,1,8,0:0:0:0:
268,198,113916,1,8,0:0:0:0:
268,197,113999,1,8,0:0:0:0:
268,197,114166,1,8,0:0:0:0:
268,199,114333,1,0,0:0:0:0:
276,194,114499,1,8,0:0:0:0:
288,192,114666,1,0,0:0:0:0:
254,187,114999,1,0,0:0:0:0:
254,184,115166,1,0,0:0:0:0:
255,182,115333,1,8,0:0:0:0:
255,182,115666,1,0,0:0:0:0:
260,188,116333,1,8,0:0:0:0:
260,184,116499,1,8,0:0:0:0:
260,183,116583,1,8,0:0:0:0:
260,182,116666,1,8,0:0:0:0:
260,182,116833,1,8,0:0:0:0:
260,182,116999,1,0,0:0:0:0:
256,192,117333,1,0,0:0:0:0:
260,187,117666,1,8,0:0:0:0:
261,195,117999,1,0,0:0:0:0:
261,194,118333,1,4,0:0:0:0:
275,199,118499,1,8,0:0:0:0:
274,198,118666,1,0,0:0:0:0:
267,196,118999,1,0,0:0:0:0:
267,194,119166,1,8,0:0:0:0:
267,194,119249,1,8,0:0:0:0:
267,194,119333,1,8,0:0:0:0:
267,194,119499,1,8,0:0:0:0:
267,196,119666,1,0,0:0:0:0:
256,224,119999,1,8,0:0:0:0:
268,208,120333,1,0,0:0:0:0:
267,207,120499,1,0,0:0:0:0:
266,207,120666,1,8,0:0:0:0:
250,186,120999,1,0,0:0:0:0:
271,204,121166,1,8,0:0:0:0:
272,195,121333,1,0,0:0:0:0:
272,205,121499,1,0,0:0:0:0:
265,192,121666,1,8,0:0:0:0:
276,216,122333,1,0,0:0:0:0:
260,212,122499,1,8,0:0:0:0:
260,212,122666,1,0,0:0:0:0:
265,207,122999,1,0,0:0:0:0:
288,192,123166,1,8,0:0:0:0:
332,202,123333,1,0,0:0:0:0:
320,224,123499,1,8,0:0:0:0:
256,198,123666,1,4,0:0:0:0:
267,197,123833,1,0,0:0:0:0:
266,197,123999,1,8,0:0:0:0:
250,195,124333,1,0,0:0:0:0:
256,198,124499,1,8,0:0:0:0:
255,194,124583,1,8,0:0:0:0:
255,194,124666,1,8,0:0:0:0:
255,194,124833,1,8,0:0:0:0:
255,194,124999,1,0,0:0:0:0:
256,192,125333,1,0,0:0:0:0:
266,189,125666,1,0,0:0:0:0:
266,189,125833,1,0,0:0:0:0:
284,199,125999,1,8,0:0:0:0:
260,191,126333,1,0,0:0:0:0:
266,189,126499,1,8,0:0:0:0:
267,185,126666,1,0,0:0:0:0:
268,198,126999,1,8,0:0:0:0:
267,198,127166,1,0,0:0:0:0:
265,193,127333,1,8,0:0:0:0:
299,218,127499,1,8,0:0:0:0:
247,191,127666,1,0,0:0:0:0:
251,190,127833,1,0,0:0:0:0:
262,197,127916,1,0,0:0:0:0:
241,190,127999,1,0,0:0:0:0:
268,214,128166,1,0,0:0:0:0:
253,189,128333,1,0,0:0:0:0:
256,187,128666,1,0,0:0:0:0:
262,192,128999,1,12,0:0:0:0:
256,187,129333,1,8,0:0:0:0:
256,182,129666,1,8,0:0:0:0:
263,181,129833,1,0,0:0:0:0:
263,182,129999,1,8,0:0:0:0:
265,181,130333,1,0,0:0:0:0:
254,182,130666,1,8,0:0:0:0:
340,208,130999,1,0,0:0:0:0:
288,192,131166,1,0,0:0:0:0:
207,170,131333,1,8,0:0:0:0:
261,193,131499,1,8,0:0:0:0:
256,192,131583,1,8,0:0:0:0:
262,192,131666,1,8,0:0:0:0:
256,192,131833,1,0,0:0:0:0:
255,194,131999,1,8,0:0:0:0:
256,192,132333,1,0,0:0:0:0:
213,222,132499,1,0,0:0:0:0:
248,186,132666,1,8,0:0:0:0:
248,186,132999,1,0,0:0:0:0:
253,202,133083,1,0,0:0:0:0:
256,201,133166,1,0,0:0:0:0:
257,200,133333,1,8,0:0:0:0:
252,192,133666,1,0,0:0:0:0:
288,192,133833,1,0,0:0:0:0:
257,177,133999,1,8,0:0:0:0:
258,176,134166,1,8,0:0:0:0:
256,176,134333,1,4,0:0:0:0:
334,194,134666,1,8,0:0:0:0:
251,173,134999,1,8,0:0:0:0:
236,199,135166,1,0,0:0:0:0:
231,202,135333,1,8,0:0:0:0:
248,196,135666,1,0,0:0:0:0:
265,193,135999,1,8,0:0:0:0:
270,208,136333,1,0,0:0:0:0:
288,192,136499,1,0,0:0:0:0:
262,195,136666,1,8,0:0:0:0:
256,192,136833,1,0,0:0:0:0:
288,192,136916,1,0,0:0:0:0:
333,162,136999,1,0,0:0:0:0:
279,178,137166,1,8,0:0:0:0:
277,179,137333,1,8,0:0:0:0:
274,178,137666,1,0,0:0:0:0:
274,177,137833,1,8,0:0:0:0:
274,177,137999,1,8,0:0:0:0:
262,177,138333,1,0,0:0:0:0:
289,179,138416,1,0,0:0:0:0:
290,179,138499,1,0,0:0:0:0:
289,168,138666,1,8,0:0:0:0:
278,174,138999,1,0,0:0:0:0:
288,192,139166,1,0,0:0:0:0:
284,185,139333,1,8,0:0:0:0:
285,185,139416,1,8,0:0:0:0:
285,185,139499,1,8,0:0:0:0:
284,184,139666,1,4,0:0:0:0:
256,185,140333,1,0,0:0:0:0:
291,191,140666,1,8,0:0:0:0:
285,195,140999,1,0,0:0:0:0:
288,192,141166,1,0,0:0:0:0:
262,199,141333,1,8,0:0:0:0:
288,192,141666,1,0,0:0:0:0:
308,205,141999,1,8,0:0:0:0:
308,205,142083,1,8,0:0:0:0:
308,205,142166,1,8,0:0:0:0:
308,205,142333,1,8,0:0:0:0:
320,192,142666,1,0,0:0:0:0:
320,192,142833,1,0,0:0:0:0:
288,206,142999,1,8,0:0:0:0:
288,224,143333,1,0,0:0:0:0:
255,194,143666,1,0,0:0:0:0:
296,210,143749,1,0,0:0:0:0:
257,187,143833,1,0,0:0:0:0:
295,203,143999,1,8,0:0:0:0:
263,176,144333,1,0,0:0:0:0:
320,224,144499,1,0,0:0:0:0:
281,172,144666,1,8,0:0:0:0:
281,172,144833,1,8,0:0:0:0:
254,187,144999,1,4,0:0:0:0:
262,181,145333,1,0,0:0:0:0:
297,177,145666,1,8,0:0:0:0:
320,224,145999,1,0,0:0:0:0:
265,188,146333,1,8,0:0:0:0:
288,192,146499,1,0,0:0:0:0:
288,224,146666,1,8,0:0:0:0:
262,184,146999,1,0,0:0:0:0:
256,179,147333,1,8,0:0:0:0:
256,178,147499,1,0,0:0:0:0:
256,182,147583,1,0,0:0:0:0:
256,178,147666,1,0,0:0:0:0:
320,192,147833,1,0,0:0:0:0:
288,192,147999,1,8,0:0:0:0:
262,182,148333,1,8,0:0:0:0:
181,171,148499,1,0,0:0:0:0:
278,146,148666,1,8,0:0:0:0:
281,189,148999,1,4,0:0:0:0:
255,169,149166,1,8,0:0:0:0:
255,169,149333,1,0,0:0:0:0:
257,172,149666,1,0,0:0:0:0:
256,160,149749,1,0,0:0:0:0:
256,160,149833,1,0,0:0:0:0:
250,175,149999,1,8,0:0:0:0:
209,167,150083,1,8,0:0:0:0:
273,186,150166,1,8,0:0:0:0:
275,182,150333,1,4,0:0:0:0:
246,188,151666,1,8,0:0:0:0:
255,193,152999,1,0,0:0:0:0:
265,213,154333,1,8,0:0:0:0:
259,184,155666,1,4,0:0:0:0:
250,188,155999,1,8,0:0:0:0:
251,190,156499,1,0,0:0:0:0:
250,188,156666,1,8,0:0:0:0:
254,188,156999,1,0,0:0:0:0:
261,187,157333,1,8,0:0:0:0:
288,224,157499,1,0,0:0:0:0:
281,202,157833,1,0,0:0:0:0:
281,199,157999,1,8,0:0:0:0:
259,189,158333,1,4,0:0:0:0:
266,178,158666,1,8,0:0:0:0:
271,191,159166,1,0,0:0:0:0:
269,188,159333,1,8,0:0:0:0:
249,189,159666,1,4,0:0:0:0:
243,190,159999,1,8,0:0:0:0:
288,192,160166,1,0,0:0:0:0:
249,189,160333,1,8,0:0:0:0:
249,189,160416,1,8,0:0:0:0:
249,189,160499,1,8,0:0:0:0:
247,179,160666,1,0,0:0:0:0:
247,179,160749,1,0,0:0:0:0:
247,179,160833,1,0,0:0:0:0:
244,177,160999,1,12,0:0:0:0:
377,339,161333,1,8,0:0:0:0:
252,187,161666,1,8,0:0:0:0:
400,335,161999,1,8,0:0:0:0:
246,181,162333,1,0,0:0:0:0:
268,207,162666,1,8,0:0:0:0:
246,181,162999,1,0,0:0:0:0:
258,197,163666,1,8,0:0:0:0:
228,167,163999,1,8,0:0:0:0:
228,167,164333,1,0,0:0:0:0:
228,167,164666,1,0,0:0:0:0:
238,177,164999,1,8,0:0:0:0:
275,187,165333,1,0,0:0:0:0:
238,177,165666,1,8,0:0:0:0:
254,176,165999,1,0,0:0:0:0:
275,190,166166,1,8,0:0:0:0:
254,182,166333,1,8,0:0:0:0:
304,190,166666,1,8,0:0:0:0:
275,190,166999,1,8,0:0:0:0:
286,210,167166,1,0,0:0:0:0:
356,155,167333,1,8,0:0:0:0:
257,177,167666,1,8,0:0:0:0:
256,192,167999,1,0,0:0:0:0:
319,105,168166,1,0,0:0:0:0:
257,177,168333,1,8,0:0:0:0:
291,221,168499,1,0,0:0:0:0:
257,177,168666,1,8,0:0:0:0:
257,177,168999,1,8,0:0:0:0:
236,164,169166,1,0,0:0:0:0:
256,180,169333,1,8,0:0:0:0:
288,160,169499,1,8,0:0:0:0:
257,177,169666,1,0,0:0:0:0:
294,173,169749,1,0,0:0:0:0:
294,173,169833,1,0,0:0:0:0:
294,173,169999,1,8,0:0:0:0:
294,173,170083,1,8,0:0:0:0:
294,173,170166,1,8,0:0:0:0:
439,144,171666,1,4,0:0:0:0:
255,192,171999,1,8,0:0:0:0:
258,193,172333,1,0,0:0:0:0:
258,193,172499,1,8,0:0:0:0:
258,193,172583,1,8,0:0:0:0:
258,193,172666,1,8,0:0:0:0:
256,192,172833,1,8,0:0:0:0:
256,192,172999,1,0,0:0:0:0:
264,197,173333,1,8,0:0:0:0:
262,196,173499,1,0,0:0:0:0:
265,194,173666,1,0,0:0:0:0:
265,194,173749,1,0,0:0:0:0:
272,188,173833,1,0,0:0:0:0:
264,197,173999,1,8,0:0:0:0:
289,197,174166,1,8,0:0:0:0:
266,194,174333,1,0,0:0:0:0:
307,186,174666,1,0,0:0:0:0:
307,182,174833,1,8,0:0:0:0:
280,184,174999,1,0,0:0:0:0:
259,208,175083,1,0,0:0:0:0:
262,177,175166,1,0,0:0:0:0:
260,169,175333,1,8,0:0:0:0:
262,177,175666,1,0,0:0:0:0:
248,187,175999,1,8,0:0:0:0:
324,205,176166,1,0,0:0:0:0:
324,205,176249,1,0,0:0:0:0:
256,192,176333,1,0,0:0:0:0:
361,207,176499,1,0,0:0:0:0:
243,189,176666,1,8,0:0:0:0:
248,187,176833,1,8,0:0:0:0:
245,189,176999,1,4,0:0:0:0:
172,207,177333,1,8,0:0:0:0:
305,203,177666,1,0,0:0:0:0:
266,179,177833,1,0,0:0:0:0:
252,198,177999,1,8,0:0:0:0:
288,192,178333,1,0,0:0:0:0:
234,190,178666,1,8,0:0:0:0:
241,191,178833,1,0,0:0:0:0:
241,191,178916,1,0,0:0:0:0:
241,191,178999,1,0,0:0:0:0:
281,176,179166,1,0,0:0:0:0:
254,196,179333,1,8,0:0:0:0:
255,197,179666,1,0,0:0:0:0:
264,199,179999,1,8,0:0:0:0:
236,187,180166,1,0,0:0:0:0:
296,206,180333,1,8,0:0:0:0:
293,195,180416,1,8,0:0:0:0:
288,201,180499,1,8,0:0:0:0:
288,200,180666,1,0,0:0:0:0:
257,182,180999,1,8,0:0:0:0:
288,192,181333,1,8,0:0:0:0:
144,190,181499,1,0,0:0:0:0:
301,209,181666,1,8,0:0:0:0:
325,203,181999,1,8,0:0:0:0:
325,203,182083,1,8,0:0:0:0:
325,203,182166,1,8,0:0:0:0:
325,203,182333,1,4,0:0:0:0:
365,192,182999,1,0,0:0:0:0:
288,192,183166,1,8,0:0:0:0:
251,208,183249,1,8,0:0:0:0:
251,196,183333,1,8,0:0:0:0:
282,210,183499,1,8,0:0:0:0:
249,201,183666,1,0,0:0:0:0:
249,200,183999,1,8,0:0:0:0:
269,200,184166,1,0,0:0:0:0:
270,176,184249,1,0,0:0:0:0:
269,195,184333,1,0,0:0:0:0:
273,174,184499,1,0,0:0:0:0:
243,175,184666,1,8,0:0:0:0:
252,183,184999,1,0,0:0:0:0:
249,188,185333,1,8,0:0:0:0:
261,178,185499,1,0,0:0:0:0:
260,191,185666,1,0,0:0:0:0:
260,192,185749,1,0,0:0:0:0:
288,224,185833,1,0,0:0:0:0:
256,224,185999,1,8,0:0:0:0:
256,192,186166,1,8,0:0:0:0:
271,191,186333,1,0,0:0:0:0:
279,191,186666,1,8,0:0:0:0:
259,197,186999,1,0,0:0:0:0:
299,183,187166,1,0,0:0:0:0:
299,183,187333,1,8,0:0:0:0:
307,192,187499,1,8,0:0:0:0:
299,183,187666,1,4,0:0:0:0:
352,192,187999,1,8,0:0:0:0:
288,224,188166,1,0,0:0:0:0:
267,194,188333,1,0,0:0:0:0:
269,190,188666,1,8,0:0:0:0:
256,188,188999,1,4,0:0:0:0:
256,160,189333,1,8,0:0:0:0:
256,160,189499,1,0,0:0:0:0:
259,180,189666,1,0,0:0:0:0:
244,185,189999,1,8,0:0:0:0:
245,185,190333,1,4,0:0:0:0:
256,192,190666,1,8,0:0:0:0:
248,174,190999,1,4,0:0:0:0:
256,192,191333,1,8,0:0:0:0:
265,173,191666,1,4,0:0:0:0:
249,212,191833,1,8,0:0:0:0:
248,178,191999,1,4,0:0:0:0:
249,212,192166,1,8,0:0:0:0:
265,173,192333,1,4,0:0:0:0:
249,212,192499,1,8,0:0:0:0:
271,172,192666,1,0,0:0:0:0:
271,172,192749,1,0,0:0:0:0:
271,171,192833,1,0,0:0:0:0:
258,182,192999,1,12,0:0:0:0:
267,165,193666,1,8,0:0:0:0:
267,165,193999,1,8,0:0:0:0:
194,183,194333,1,0,0:0:0:0:
140,186,194416,1,0,0:0:0:0:
224,192,194499,1,0,0:0:0:0:
256,224,194666,1,8,0:0:0:0:
286,207,194833,1,8,0:0:0:0:
363,224,194999,1,0,0:0:0:0:
272,201,195333,1,8,0:0:0:0:
288,192,195499,1,0,0:0:0:0:
288,192,195583,1,0,0:0:0:0:
259,197,195666,1,0,0:0:0:0:
251,208,195999,1,8,0:0:0:0:
196,165,196166,1,8,0:0:0:0:
244,213,196333,1,0,0:0:0:0:
251,208,196666,1,8,0:0:0:0:
287,195,196833,1,0,0:0:0:0:
252,206,196999,1,0,0:0:0:0:
268,179,197083,1,0,0:0:0:0:
320,224,197166,1,0,0:0:0:0:
320,192,197333,1,8,0:0:0:0:
331,177,197499,1,8,0:0:0:0:
323,185,197666,1,0,0:0:0:0:
285,183,197999,1,8,0:0:0:0:
281,172,198083,1,8,0:0:0:0:
282,171,198166,1,8,0:0:0:0:
282,171,198333,1,4,0:0:0:0:
285,183,198666,1,8,0:0:0:0:
288,192,198999,1,0,0:0:0:0:
358,191,199166,1,0,0:0:0:0:
269,179,199333,1,8,0:0:0:0:
335,203,199416,1,8,0:0:0:0:
288,160,199499,1,8,0:0:0:0:
283,178,199666,1,0,0:0:0:0:
280,177,199999,1,8,0:0:0:0:
310,167,200166,1,8,0:0:0:0:
285,190,200333,1,0,0:0:0:0:
285,184,200666,1,8,0:0:0:0:
288,192,200833,1,0,0:0:0:0:
288,192,200916,1,0,0:0:0:0:
288,192,200999,1,0,0:0:0:0:
274,203,201333,1,8,0:0:0:0:
288,192,201499,1,8,0:0:0:0:
288,224,201666,1,0,0:0:0:0:
252,195,201999,1,0,0:0:0:0:
251,192,202333,1,8,0:0:0:0:
256,197,202666,1,8,0:0:0:0:
280,189,202833,1,0,0:0:0:0:
270,198,202999,1,8,0:0:0:0:
286,187,203333,1,8,0:0:0:0:
280,183,203416,1,8,0:0:0:0:
280,183,203499,1,8,0:0:0:0:
280,183,203666,1,4,0:0:0:0:
251,190,204333,1,0,0:0:0:0:
279,200,204499,1,0,0:0:0:0:
268,196,204666,1,8,0:0:0:0:
278,181,204833,1,0,0:0:0:0:
257,184,204916,1,0,0:0:0:0:
278,181,204999,1,0,0:0:0:0:
224,192,205166,1,0,0:0:0:0:
281,164,205333,1,8,0:0:0:0:
255,181,205666,1,0,0:0:0:0:
276,182,205999,1,8,0:0:0:0:
288,160,206166,1,0,0:0:0:0:
288,160,206249,1,0,0:0:0:0:
276,182,206333,1,0,0:0:0:0:
282,172,206666,1,8,0:0:0:0:
288,192,206833,1,8,0:0:0:0:
288,192,206999,1,0,0:0:0:0:
288,192,207083,1,0,0:0:0:0:
240,191,207166,1,0,0:0:0:0:
255,183,207333,1,8,0:0:0:0:
253,182,207666,1,0,0:0:0:0:
291,187,207999,1,8,0:0:0:0:
288,192,208166,1,8,0:0:0:0:
291,187,208249,1,8,0:0:0:0:
291,187,208333,1,8,0:0:0:0:
300,225,208499,1,0,0:0:0:0:
300,225,208666,1,8,0:0:0:0:
264,190,208999,1,4,0:0:0:0:
264,190,209333,1,8,0:0:0:0:
264,190,209499,1,0,0:0:0:0:
285,206,209666,1,0,0:0:0:0:
281,193,209999,1,8,0:0:0:0:
262,184,210333,1,4,0:0:0:0:
288,192,210666,1,8,0:0:0:0:
294,192,210833,1,0,0:0:0:0:
253,175,210999,1,0,0:0:0:0:
277,187,211333,1,8,0:0:0:0:
264,187,211666,1,4,0:0:0:0:
256,160,211999,1,8,0:0:0:0:
289,190,212333,1,4,0:0:0:0:
288,160,212666,1,8,0:0:0:0:
267,186,212999,1,4,0:0:0:0:
246,199,213166,1,8,0:0:0:0:
271,187,213333,1,4,0:0:0:0:
267,200,213499,1,8,0:0:0:0:
274,186,213666,1,4,0:0:0:0:
267,200,213833,1,8,0:0:0:0:
281,191,213999,1,0,0:0:0:0:
281,191,214083,1,0,0:0:0:0:
281,190,214166,1,0,0:0:0:0:
281,192,214333,1,12,0:0:0:0:
279,188,214666,1,0,0:0:0:0:
260,181,214999,1,8,0:0:0:0:
260,181,215166,1,8,0:0:0:0:
260,181,215333,1,0,0:0:0:0:
256,185,215666,1,8,0:0:0:0:
277,216,216333,1,8,0:0:0:0:
256,185,216666,1,0,0:0:0:0:
256,189,216999,1,8,0:0:0:0:
320,192,217166,1,8,0:0:0:0:
192,160,217333,1,0,0:0:0:0:
250,195,217666,1,8,0:0:0:0:
251,194,217999,1,0,0:0:0:0:
250,195,218333,1,8,0:0:0:0:
264,194,218666,1,0,0:0:0:0:
192,192,218999,1,8,0:0:0:0:
320,224,219166,1,0,0:0:0:0:
270,188,219333,1,8,0:0:0:0:
276,195,219499,1,8,0:0:0:0:
269,186,219666,1,4,0:0:0:0:
317,206,220333,1,8,0:0:0:0:
288,192,220666,1,0,0:0:0:0:
256,192,220999,1,8,0:0:0:0:
276,196,221166,1,8,0:0:0:0:
242,201,221333,1,0,0:0:0:0:
303,208,221666,1,8,0:0:0:0:
209,200,222333,1,0,0:0:0:0:
274,202,222666,1,0,0:0:0:0:
256,189,222999,1,8,0:0:0:0:
280,202,223166,1,8,0:0:0:0:
254,173,223333,1,0,0:0:0:0:
267,178,223666,1,8,0:0:0:0:
267,178,223999,1,0,0:0:0:0:
288,192,224333,1,8,0:0:0:0:
288,224,224499,1,0,0:0:0:0:
267,178,224666,1,8,0:0:0:0:
288,160,224749,1,8,0:0:0:0:
287,151,224833,1,8,0:0:0:0:
287,151,224999,1,12,0:0:0:0:
278,151,225666,1,8,0:0:0:0:
260,181,225999,1,0,0:0:0:0:
254,194,226333,1,8,0:0:0:0:
253,183,226999,1,8,0:0:0:0:
210,182,227333,1,0,0:0:0:0:
237,186,227499,1,0,0:0:0:0:
260,175,227666,1,8,0:0:0:0:
256,170,228333,1,8,0:0:0:0:
256,170,228666,1,0,0:0:0:0:
287,201,228833,1,0,0:0:0:0:
289,198,228999,1,8,0:0:0:0:
287,181,229499,1,8,0:0:0:0:
329,184,229666,1,0,0:0:0:0:
311,144,229833,1,0,0:0:0:0:
294,179,229999,1,0,0:0:0:0:
258,184,230333,1,12,0:0:0:0:
282,187,230999,1,8,0:0:0:0:
297,198,231666,1,8,0:0:0:0:
257,186,231999,1,0,0:0:0:0:
274,209,232333,1,8,0:0:0:0:
266,187,232999,1,8,0:0:0:0:
290,218,233666,1,8,0:0:0:0:
261,195,234333,1,8,0:0:0:0:
274,185,234916,1,8,0:0:0:0:
288,123,234999,1,0,0:0:0:0:
304,180,235166,1,8,0:0:0:0:
304,180,235333,1,0,0:0:0:0:
304,180,235499,1,0,0:0:0:0:
256,160,235583,1,0,0:0:0:0:
