osu file format v14

[General]
AudioFilename: audio.mp3
AudioLeadIn: 0
PreviewTime: 170333
Countdown: 0
SampleSet: Normal
StackLeniency: 0.7
Mode: 1
LetterboxInBreaks: 0
WidescreenStoryboard: 0

[Editor]
DistanceSpacing: 1.5
BeatDivisor: 4
GridSize: 32
TimelineZoom: 3.899999

[Metadata]
Title:AiAe
TitleUnicode:AiAe
Artist:Yuyoyuppe
ArtistUnicode:ゆよゆっぺ
Creator:Deathwing1306
Version:Affliction
Source:
Tags:dnb drum and 'n' bass drum'n'bass drum&bass d'n'b d&b hardcore instrumental electronic drumstep dj'tekina//something yuyoyu ep mamiya takehiro yuppemetal vocaloid fa featured artist
BeatmapID:2878134
BeatmapSetID:1394288

[Difficulty]
HPDrainRate:5
CircleSize:7
OverallDifficulty:7
ApproachRate:10
SliderMultiplier:1.4
SliderTickRate:1

[Events]
//Background and Video events
0,0,"bg.jpg",0,0
//Break Periods
//Storyboard Layer 0 (Background)
//Storyboard Layer 1 (Fail)
//Storyboard Layer 2 (Pass)
//Storyboard Layer 3 (Foreground)
//Storyboard Layer 4 (Overlay)
//Storyboard Sound Samples

[TimingPoints]
1000,333.333333333333,4,1,0,90,1,0
20916,-99.502487562189,4,1,0,90,0,0
20999,-99.009900990099,4,1,0,90,0,0
21249,-98.0392156862745,4,1,0,90,0,0
21333,-97.0873786407767,4,1,0,90,0,0
21583,-96.1538461538461,4,1,0,90,0,0
21666,-95.2380952380952,4,1,0,90,0,0
21833,-94.3396226415094,4,1,0,90,0,0
21916,-93.4579439252336,4,1,0,90,0,0
21999,-92.5925925925926,4,1,0,90,0,0
22041,-91.743119266055,4,1,0,90,0,0
22083,-90.9090909090909,4,1,0,90,0,0
22166,-90.0900900900901,4,1,0,90,0,0
22249,-89.2857142857143,4,1,0,90,0,0
22333,-88.4955752212389,4,1,0,90,0,0
22416,-133.333333333333,4,1,0,80,0,0
27666,-100,4,1,0,80,0,0
27749,-133.333333333333,4,1,0,80,0,0
30333,-100,4,1,0,80,0,0
30416,-133.333333333333,4,1,0,80,0,0
31666,-100,4,1,0,80,0,0
31749,-133.333333333333,4,1,0,80,0,0
32499,-125,4,1,0,80,0,0
32583,-117.647058823529,4,1,0,80,0,0
32666,-111.111111111111,4,1,0,80,0,0
32999,-100,4,1,0,90,0,0
38249,-99.502487562189,4,1,0,90,0,0
38333,-99.009900990099,4,1,0,100,0,0
38499,-98.0392156862745,4,1,0,100,0,0
38666,-97.0873786407767,4,1,0,100,0,0
38833,-96.1538461538461,4,1,0,100,0,0
38999,-95.2380952380952,4,1,0,100,0,0
39166,-94.3396226415094,4,1,0,100,0,0
39333,-93.4579439252336,4,1,0,100,0,0
39499,-92.5925925925926,4,1,0,100,0,0
39666,-91.743119266055,4,1,0,100,0,0
39833,-90.9090909090909,4,1,0,100,0,0
39999,-90.0900900900901,4,1,0,100,0,0
40166,-89.2857142857143,4,1,0,100,0,0
40333,-88.4955752212389,4,1,0,100,0,0
40499,-87.719298245614,4,1,0,100,0,0
40666,-86.9565217391304,4,1,0,100,0,0
40833,-86.2068965517241,4,1,0,100,0,0
40999,-85.4700854700855,4,1,0,100,0,0
41083,-85.1063829787234,4,1,0,100,0,0
41166,-84.7457627118644,4,1,0,100,0,0
41249,-84.3881856540084,4,1,0,100,0,0
41333,-84.0336134453781,4,1,0,100,0,0
41416,-83.6820083682008,4,1,0,100,0,0
41499,-83.3333333333333,4,1,0,100,0,0
41583,-82.9875518672199,4,1,0,100,0,0
41666,-82.6446280991736,4,1,0,100,0,0
41722,-82.3045267489712,4,1,0,100,0,0
41777,-81.9672131147541,4,1,0,100,0,0
41833,-81.6326530612245,4,1,0,100,0,0
41888,-81.3008130081301,4,1,0,100,0,0
41944,-80.9716599190283,4,1,0,100,0,0
41999,-80.6451612903226,4,1,0,100,0,0
42055,-80.3212851405623,4,1,0,100,0,0
42111,-80,4,1,0,100,0,0
42166,-79.6812749003984,4,1,0,100,0,0
42222,-79.3650793650794,4,1,0,100,0,0
42277,-79.0513833992095,4,1,0,100,0,0
42333,-78.7401574803149,4,1,0,100,0,0
42416,-100,4,1,0,50,0,0
43333,-98.0392156862745,4,1,0,90,0,0
43374,-97.0873786407767,4,1,0,90,0,0
43416,-96.1538461538461,4,1,0,90,0,0
43499,-94.3396226415094,4,1,0,90,0,0
43583,-92.5925925925926,4,1,0,90,0,0
43666,-90.9090909090909,4,1,0,100,0,1
49083,-89.2857142857143,4,1,0,100,0,1
54416,-87.719298245614,4,1,0,100,0,1
59749,-86.2068965517241,4,1,0,100,0,1
61083,-84.7457627118644,4,1,0,100,0,1
62416,-83.3333333333333,4,1,0,100,0,1
63083,-81.9672131147541,4,1,0,100,0,1
63749,-80.6451612903226,4,1,0,100,0,1
64083,-79.3650793650794,4,1,0,100,0,1
64416,-78.125,4,1,0,100,0,1
64999,-78.125,4,1,0,100,0,0
65083,-100,4,1,0,80,0,0
84916,-99.502487562189,4,1,0,80,0,0
84999,-99.009900990099,4,1,0,90,0,0
85166,-98.0392156862745,4,1,0,90,0,0
85333,-97.0873786407767,4,1,0,90,0,0
85499,-96.1538461538461,4,1,0,90,0,0
85583,-95.2380952380952,4,1,0,90,0,0
85666,-94.3396226415094,4,1,0,90,0,0
85708,-93.8967136150235,4,1,0,90,0,0
85749,-93.4579439252336,4,1,0,90,0,0
85791,-93.0232558139535,4,1,0,90,0,0
85833,-92.5925925925926,4,1,0,90,0,0
85916,-91.743119266055,4,1,0,90,0,0
85999,-90.9090909090909,4,1,0,90,0,0
86083,-90.0900900900901,4,1,0,90,0,0
86166,-89.2857142857143,4,1,0,90,0,0
86249,-88.4955752212389,4,1,0,90,0,0
86333,-87.719298245614,4,1,0,100,0,0
86499,-90.9090909090909,4,1,0,100,0,0
91749,-89.2857142857143,4,1,0,100,0,0
97083,-87.719298245614,4,1,0,100,0,0
102416,-86.2068965517241,4,1,0,100,0,0
103583,-85.8369098712446,4,1,0,100,0,0
103666,-85.4700854700855,4,1,0,100,0,0
103833,-84.7457627118644,4,1,0,100,0,0
103999,-84.0336134453781,4,1,0,100,0,0
104166,-83.3333333333333,4,1,0,100,0,0
104333,-82.6446280991736,4,1,0,100,0,0
104499,-81.9672131147541,4,1,0,100,0,0
104666,-81.3008130081301,4,1,0,100,0,0
104833,-80.6451612903226,4,1,0,100,0,0
104999,-80,4,1,0,100,0,0
105083,-79.6812749003984,4,1,0,100,0,0
105166,-79.3650793650794,4,1,0,100,0,0
105249,-79.0513833992095,4,1,0,100,0,0
105333,-78.7401574803149,4,1,0,100,0,0
105416,-78.4313725490196,4,1,0,100,0,0
105499,-78.125,4,1,0,100,0,0
105583,-77.8210116731517,4,1,0,100,0,0
105666,-77.5193798449612,4,1,0,100,0,0
105722,-77.2200772200772,4,1,0,100,0,0
105777,-76.9230769230769,4,1,0,100,0,0
105833,-76.6283524904215,4,1,0,100,0,0
105888,-76.3358778625954,4,1,0,100,0,0
105944,-76.0456273764259,4,1,0,100,0,0
105999,-75.7575757575758,4,1,0,100,0,0
106041,-75.4716981132076,4,1,0,100,0,0
106083,-75.187969924812,4,1,0,100,0,0
106124,-74.9063670411985,4,1,0,100,0,0
106166,-74.6268656716418,4,1,0,100,0,0
106208,-74.3494423791822,4,1,0,100,0,0
106249,-74.0740740740741,4,1,0,100,0,0
106291,-73.8007380073801,4,1,0,100,0,0
106333,-73.5294117647059,4,1,0,100,0,0
106416,-100,4,1,0,50,0,0
107666,-90.9090909090909,4,1,0,100,0,1
112499,-92.5925925925926,4,1,0,100,0,1
112583,-93.4579439252336,4,1,0,100,0,1
112666,-94.3396226415094,4,1,0,100,0,1
112999,-90.9090909090909,4,1,0,100,0,1
116999,-90.9090909090909,4,1,0,100,0,0
117166,-92.5925925925926,4,1,0,100,0,0
117249,-93.4579439252336,4,1,0,100,0,0
117333,-94.3396226415094,4,1,0,100,0,0
117499,-96.1538461538461,4,1,0,100,0,0
117583,-97.0873786407767,4,1,0,100,0,0
117666,-98.0392156862745,4,1,0,100,0,0
117999,-100,4,1,0,100,0,0
118333,-90.9090909090909,4,1,0,100,0,1
126333,-90.0900900900901,4,1,0,100,0,1
126499,-89.2857142857143,4,1,0,100,0,1
126583,-88.8888888888889,4,1,0,100,0,1
126666,-88.4955752212389,4,1,0,100,0,1
126833,-87.719298245614,4,1,0,100,0,1
126999,-86.9565217391304,4,1,0,100,0,1
127166,-86.2068965517241,4,1,0,100,0,1
127249,-85.8369098712446,4,1,0,100,0,1
127333,-85.4700854700855,4,1,0,100,0,1
127499,-84.7457627118644,4,1,0,100,0,1
127666,-86.2068965517241,4,1,0,80,0,0
127833,-87.719298245614,4,1,0,80,0,0
127916,-88.4955752212389,4,1,0,80,0,0
127999,-89.2857142857143,4,1,0,80,0,0
128166,-90.9090909090909,4,1,0,80,0,0
128333,-92.5925925925926,4,1,0,80,0,0
128499,-94.3396226415094,4,1,0,80,0,0
128666,-96.1538461538461,4,1,0,80,0,0
128833,-98.0392156862745,4,1,0,80,0,0
128999,-90.9090909090909,4,1,0,100,0,1
148999,-90.0900900900901,4,1,0,100,0,0
149166,-89.2857142857143,4,1,0,100,0,0
149249,-88.8888888888889,4,1,0,100,0,0
149333,-88.4955752212389,4,1,0,100,0,0
149416,-88.1057268722467,4,1,0,100,0,0
149583,-87.3362445414847,4,1,0,100,0,0
149666,-86.9565217391304,4,1,0,100,0,0
149749,-86.5800865800866,4,1,0,100,0,0
149833,-86.2068965517241,4,1,0,100,0,0
149874,-85.8369098712446,4,1,0,100,0,0
149916,-85.4700854700855,4,1,0,100,0,0
149958,-85.1063829787234,4,1,0,100,0,0
149999,-84.7457627118644,4,1,0,100,0,0
150083,-84.3881856540084,4,1,0,100,0,0
150166,-84.0336134453781,4,1,0,100,0,0
150208,-83.6820083682008,4,1,0,100,0,0
150249,-83.3333333333333,4,1,0,100,0,0
150291,-82.9875518672199,4,1,0,100,0,0
150333,-82.6446280991736,4,1,0,100,0,0
150416,-133.333333333333,4,1,0,80,0,0
155666,-111.111111111111,4,1,0,80,0,0
160333,-109.89010989011,4,1,0,80,0,0
160416,-108.695652173913,4,1,0,80,0,0
160499,-107.52688172043,4,1,0,80,0,0
160541,-106.382978723404,4,1,0,80,0,0
160583,-105.263157894737,4,1,0,80,0,0
160624,-104.166666666667,4,1,0,80,0,0
160666,-103.092783505155,4,1,0,80,0,0
160749,-102.040816326531,4,1,0,80,0,0
160833,-101.010101010101,4,1,0,80,0,0
160999,-100,4,1,0,90,0,0
166166,-99.502487562189,4,1,0,90,0,0
166333,-99.009900990099,4,1,0,100,0,0
166499,-98.0392156862745,4,1,0,100,0,0
166666,-97.0873786407767,4,1,0,100,0,0
166833,-96.1538461538461,4,1,0,100,0,0
166999,-95.2380952380952,4,1,0,100,0,0
167166,-94.3396226415094,4,1,0,100,0,0
167333,-93.4579439252336,4,1,0,100,0,0
167499,-92.5925925925926,4,1,0,100,0,0
167666,-91.743119266055,4,1,0,100,0,0
167833,-90.9090909090909,4,1,0,100,0,0
167999,-90.0900900900901,4,1,0,100,0,0
168166,-89.2857142857143,4,1,0,100,0,0
168333,-88.4955752212389,4,1,0,100,0,0
168499,-87.719298245614,4,1,0,100,0,0
168666,-86.9565217391304,4,1,0,100,0,0
168833,-86.2068965517241,4,1,0,100,0,0
168999,-85.4700854700855,4,1,0,100,0,0
169083,-85.1063829787234,4,1,0,100,0,0
169166,-84.7457627118644,4,1,0,100,0,0
169249,-84.3881856540084,4,1,0,100,0,0
169333,-84.0336134453781,4,1,0,100,0,0
169416,-83.6820083682008,4,1,0,100,0,0
169499,-83.3333333333333,4,1,0,100,0,0
169583,-82.9875518672199,4,1,0,100,0,0
169666,-82.6446280991736,4,1,0,100,0,0
169722,-82.3045267489712,4,1,0,100,0,0
169777,-81.9672131147541,4,1,0,100,0,0
169833,-81.6326530612245,4,1,0,100,0,0
169888,-81.3008130081301,4,1,0,100,0,0
169944,-80.9716599190283,4,1,0,100,0,0
169999,-80.6451612903226,4,1,0,100,0,0
170055,-80.3212851405623,4,1,0,100,0,0
170111,-80,4,1,0,100,0,0
170166,-79.6812749003984,4,1,0,100,0,0
170222,-79.3650793650794,4,1,0,100,0,0
170277,-79.0513833992095,4,1,0,100,0,0
170333,-78.7401574803149,4,1,0,50,0,0
170416,-100,4,1,0,50,0,0
171666,-90.9090909090909,4,1,0,100,0,1
177083,-89.2857142857143,4,1,0,100,0,1
182416,-87.719298245614,4,1,0,100,0,1
187749,-86.2068965517241,4,1,0,100,0,1
189083,-84.7457627118644,4,1,0,100,0,1
190416,-83.3333333333333,4,1,0,100,0,1
191083,-81.9672131147541,4,1,0,100,0,1
191749,-80.6451612903226,4,1,0,100,0,1
192083,-79.3650793650794,4,1,0,100,0,1
192416,-78.125,4,1,0,100,0,1
193166,-79.3650793650794,4,1,0,100,0,1
193249,-80,4,1,0,100,0,1
193333,-80.6451612903226,4,1,0,100,0,1
193499,-81.9672131147541,4,1,0,100,0,1
193583,-82.6446280991736,4,1,0,100,0,1
193666,-83.3333333333333,4,1,0,100,0,1
193749,-84.0336134453781,4,1,0,100,0,1
193833,-84.7457627118644,4,1,0,100,0,1
193916,-85.4700854700855,4,1,0,100,0,1
193999,-86.2068965517241,4,1,0,100,0,1
194166,-87.719298245614,4,1,0,100,0,1
194249,-88.4955752212389,4,1,0,100,0,1
194333,-89.2857142857143,4,1,0,100,0,1
194499,-90.9090909090909,4,1,0,100,0,1
198416,-89.2857142857143,4,1,0,100,0,1
203749,-87.719298245614,4,1,0,100,0,1
209083,-86.2068965517241,4,1,0,100,0,1
210416,-84.7457627118644,4,1,0,100,0,1
211749,-83.3333333333333,4,1,0,100,0,1
212416,-81.9672131147541,4,1,0,100,0,1
213083,-80.6451612903226,4,1,0,100,0,1
213416,-79.3650793650794,4,1,0,100,0,1
213749,-78.125,4,1,0,100,0,1
214333,-78.125,4,1,0,90,0,0
214499,-79.3650793650794,4,1,0,90,0,0
214666,-80.6451612903226,4,1,0,90,0,0
214833,-81.9672131147541,4,1,0,90,0,0
214999,-83.3333333333333,4,1,0,90,0,0
215166,-84.7457627118644,4,1,0,90,0,0
215249,-85.4700854700855,4,1,0,90,0,0
215333,-86.2068965517241,4,1,0,90,0,0
215499,-87.719298245614,4,1,0,90,0,0
215666,-89.2857142857143,4,1,0,90,0,0
215833,-90.9090909090909,4,1,0,90,0,0
215999,-92.5925925925926,4,1,0,90,0,0
216166,-94.3396226415094,4,1,0,90,0,0
216333,-96.1538461538461,4,1,0,90,0,0
216499,-98.0392156862745,4,1,0,90,0,0
216583,-99.009900990099,4,1,0,90,0,0
216666,-100,4,1,0,90,0,0
225083,-105.263157894737,4,1,0,90,0,0
230416,-111.111111111111,4,1,0,90,0,0
234916,-109.89010989011,4,1,0,90,0,0
234999,-108.695652173913,4,1,0,90,0,0
235083,-107.52688172043,4,1,0,90,0,0
235166,-106.382978723404,4,1,0,90,0,0
235249,-105.263157894737,4,1,0,90,0,0
235333,-104.166666666667,4,1,0,90,0,0
235416,-103.092783505155,4,1,0,90,0,0
235499,-102.040816326531,4,1,0,90,0,0
235583,-101.010101010101,4,1,0,90,0,0

[HitObjects]
271,198,1000,5,4,0:0:0:0:
251,165,1166,1,0,0:0:0:0:
264,184,1249,1,0,0:0:0:0:
275,197,1333,1,8,0:0:0:0:
289,198,1499,1,0,0:0:0:0:
288,197,1666,1,0,0:0:0:0:
326,229,1749,1,0,0:0:0:0:
326,229,1833,1,8,0:0:0:0:
326,229,1916,1,0,0:0:0:0:
326,229,1999,1,8,0:0:0:0:
248,194,2166,1,0,0:0:0:0:
248,194,2333,1,0,0:0:0:0:
261,236,2499,1,0,0:0:0:0:
209,236,2583,1,0,0:0:0:0:
271,217,2666,1,8,0:0:0:0:
271,217,2833,1,0,0:0:0:0:
271,217,2999,1,0,0:0:0:0:
311,235,3083,1,8,0:0:0:0:
311,235,3166,1,0,0:0:0:0:
292,192,3333,1,8,0:0:0:0:
236,224,3499,1,8,0:0:0:0:
265,226,3583,1,8,0:0:0:0:
278,221,3666,1,0,0:0:0:0:
336,204,3833,1,0,0:0:0:0:
296,225,3999,1,8,0:0:0:0:
298,211,4166,1,0,0:0:0:0:
297,210,4249,1,0,0:0:0:0:
297,210,4333,1,0,0:0:0:0:
296,209,4499,1,0,0:0:0:0:
296,209,4666,1,8,0:0:0:0:
351,226,4833,1,0,0:0:0:0:
261,181,4916,1,8,0:0:0:0:
338,229,4999,1,0,0:0:0:0:
296,194,5166,1,0,0:0:0:0:
315,232,5249,1,0,0:0:0:0:
315,232,5333,1,8,0:0:0:0:
286,212,5499,1,0,0:0:0:0:
250,191,5666,1,8,0:0:0:0:
250,191,5749,1,8,0:0:0:0:
250,191,5833,1,0,0:0:0:0:
250,191,5916,1,0,0:0:0:0:
250,191,5999,1,8,0:0:0:0:
296,223,6166,1,8,0:0:0:0:
317,238,6249,1,8,0:0:0:0:
296,222,6333,1,4,0:0:0:0:
300,201,6499,1,0,0:0:0:0:
235,229,6666,1,8,0:0:0:0:
270,208,6833,1,0,0:0:0:0:
270,208,6916,1,0,0:0:0:0:
270,208,6999,1,0,0:0:0:0:
274,207,7166,1,0,0:0:0:0:
274,207,7333,1,8,0:0:0:0:
264,212,7499,1,0,0:0:0:0:
281,221,7666,1,0,0:0:0:0:
284,219,7749,1,0,0:0:0:0:
307,201,7833,1,0,0:0:0:0:
307,201,7916,1,0,0:0:0:0:
307,201,7999,1,8,0:0:0:0:
275,192,8166,1,0,0:0:0:0:
275,192,8333,1,0,0:0:0:0:
187,186,8416,1,0,0:0:0:0:
293,199,8499,1,8,0:0:0:0:
293,199,8583,1,0,0:0:0:0:
293,199,8666,1,8,0:0:0:0:
265,203,8833,1,0,0:0:0:0:
271,199,8916,1,8,0:0:0:0:
290,211,8999,1,0,0:0:0:0:
244,184,9166,1,0,0:0:0:0:
244,184,9333,1,8,0:0:0:0:
263,218,9499,1,0,0:0:0:0:
261,215,9666,1,8,0:0:0:0:
279,211,9749,1,8,0:0:0:0:
279,211,9833,1,0,0:0:0:0:
279,211,9916,1,0,0:0:0:0:
279,211,9999,1,8,0:0:0:0:
281,218,10166,1,0,0:0:0:0:
271,189,10249,1,0,0:0:0:0:
281,218,10333,1,0,0:0:0:0:
308,231,10499,1,0,0:0:0:0:
308,227,10666,1,8,0:0:0:0:
264,206,10833,1,0,0:0:0:0:
277,213,10999,1,8,0:0:0:0:
277,213,11166,1,8,0:0:0:0:
277,212,11333,1,8,0:0:0:0:
270,186,11416,1,0,0:0:0:0:
270,186,11499,1,8,0:0:0:0:
270,186,11583,1,8,0:0:0:0:
270,186,11666,1,4,0:0:0:0:
308,239,11833,1,0,0:0:0:0:
316,237,11999,1,8,0:0:0:0:
288,174,12166,1,0,0:0:0:0:
288,174,12249,1,0,0:0:0:0:
288,174,12333,1,0,0:0:0:0:
301,222,12499,1,0,0:0:0:0:
273,207,12666,1,8,0:0:0:0:
273,207,12833,1,0,0:0:0:0:
273,207,12999,1,0,0:0:0:0:
282,203,13166,1,0,0:0:0:0:
282,203,13249,1,0,0:0:0:0:
282,203,13333,1,8,0:0:0:0:
291,203,13499,1,0,0:0:0:0:
301,169,13583,1,0,0:0:0:0:
301,169,13666,1,0,0:0:0:0:
320,206,13833,1,0,0:0:0:0:
327,219,13999,1,8,0:0:0:0:
293,202,14166,1,8,0:0:0:0:
291,203,14249,1,0,0:0:0:0:
291,203,14333,1,8,0:0:0:0:
301,178,14499,1,0,0:0:0:0:
301,178,14666,1,8,0:0:0:0:
280,215,14833,1,0,0:0:0:0:
286,221,14916,1,0,0:0:0:0:
286,218,14999,1,8,0:0:0:0:
268,182,15166,1,0,0:0:0:0:
268,182,15333,1,8,0:0:0:0:
272,190,15499,1,0,0:0:0:0:
257,187,15583,1,0,0:0:0:0:
257,185,15666,1,8,0:0:0:0:
257,185,15833,1,0,0:0:0:0:
257,185,15999,1,8,0:0:0:0:
263,183,16166,1,0,0:0:0:0:
263,182,16333,1,0,0:0:0:0:
285,181,16416,1,8,0:0:0:0:
190,183,16499,1,0,0:0:0:0:
285,181,16583,1,0,0:0:0:0:
285,181,16666,1,8,0:0:0:0:
250,176,16833,1,8,0:0:0:0:
251,176,16916,1,8,0:0:0:0:
251,174,16999,1,4,0:0:0:0:
299,211,17166,1,0,0:0:0:0:
292,209,17333,1,8,0:0:0:0:
290,207,17499,1,0,0:0:0:0:
290,207,17583,1,0,0:0:0:0:
290,203,17666,1,0,0:0:0:0:
251,208,17833,1,0,0:0:0:0:
251,208,17999,1,8,0:0:0:0:
280,180,18166,1,0,0:0:0:0:
303,212,18249,1,8,0:0:0:0:
280,180,18333,1,0,0:0:0:0:
280,180,18499,1,0,0:0:0:0:
280,180,18583,1,0,0:0:0:0:
280,180,18666,1,8,0:0:0:0:
272,167,18833,1,0,0:0:0:0:
272,167,18999,1,0,0:0:0:0:
272,167,19166,1,0,0:0:0:0:
272,167,19249,1,0,0:0:0:0:
272,167,19333,1,8,0:0:0:0:
277,188,19499,1,8,0:0:0:0:
259,217,19583,1,8,0:0:0:0:
277,188,19666,1,0,0:0:0:0:
269,208,19833,1,0,0:0:0:0:
278,206,19999,1,8,0:0:0:0:
320,202,20166,1,8,0:0:0:0:
320,202,20249,1,8,0:0:0:0:
278,206,20333,1,0,0:0:0:0:
284,202,20499,1,0,0:0:0:0:
284,202,20666,1,8,0:0:0:0:
284,202,20833,1,8,0:0:0:0:
224,192,20916,1,8,0:0:0:0:
284,202,20999,1,0,0:0:0:0:
277,188,21249,1,8,0:0:0:0:
277,188,21333,1,0,0:0:0:0:
269,175,21583,1,8,0:0:0:0:
269,175,21666,1,0,0:0:0:0:
310,232,21833,1,0,0:0:0:0:
308,217,21916,1,0,0:0:0:0:
331,218,21999,1,0,0:0:0:0:
293,218,22041,1,0,0:0:0:0:
183,202,22083,1,8,0:0:0:0:
308,178,22166,1,8,0:0:0:0:
265,185,22249,1,8,0:0:0:0:
265,185,22333,1,4,0:0:0:0:
264,194,22999,1,0,0:0:0:0:
280,192,23666,1,8,0:0:0:0:
231,190,24333,1,8,0:0:0:0:
266,182,24999,1,0,0:0:0:0:
326,187,25666,1,8,0:0:0:0:
295,238,26333,1,8,0:0:0:0:
286,213,26999,1,8,0:0:0:0:
260,193,27666,1,4,0:0:0:0:
289,193,28333,1,8,0:0:0:0:
289,193,28999,1,8,0:0:0:0:
278,191,29666,1,8,0:0:0:0:
257,189,30333,1,4,0:0:0:0:
253,179,30999,1,8,0:0:0:0:
257,183,31666,1,4,0:0:0:0:
331,217,32499,1,0,0:0:0:0:
331,217,32583,1,0,0:0:0:0:
331,217,32666,1,8,0:0:0:0:
323,213,32999,1,12,0:0:0:0:
241,203,33333,1,8,0:0:0:0:
243,194,33666,1,8,0:0:0:0:
243,194,33999,1,8,0:0:0:0:
257,197,34333,1,0,0:0:0:0:
260,194,34666,1,0,0:0:0:0:
260,194,34999,1,0,0:0:0:0:
260,194,35333,1,0,0:0:0:0:
260,194,35666,1,8,0:0:0:0:
253,205,35999,1,8,0:0:0:0:
286,219,36333,1,0,0:0:0:0:
282,222,36666,1,0,0:0:0:0:
281,222,36999,1,8,0:0:0:0:
281,222,37333,1,0,0:0:0:0:
242,217,37666,1,8,0:0:0:0:
246,216,37999,1,0,0:0:0:0:
260,207,38166,1,8,0:0:0:0:
224,211,38249,1,8,0:0:0:0:
246,216,38333,1,8,0:0:0:0:
281,211,38499,1,0,0:0:0:0:
281,211,38666,1,8,0:0:0:0:
299,232,38833,1,0,0:0:0:0:
299,232,38999,1,8,0:0:0:0:
288,213,39166,1,0,0:0:0:0:
288,213,39333,1,8,0:0:0:0:
288,213,39499,1,0,0:0:0:0:
288,213,39666,1,8,0:0:0:0:
281,219,39833,1,8,0:0:0:0:
281,221,39999,1,0,0:0:0:0:
281,221,40166,1,0,0:0:0:0:
281,221,40333,1,8,0:0:0:0:
292,202,40499,1,0,0:0:0:0:
292,202,40666,1,8,0:0:0:0:
292,202,40833,1,0,0:0:0:0:
292,202,40999,1,8,0:0:0:0:
258,197,41083,1,0,0:0:0:0:
258,197,41166,1,0,0:0:0:0:
258,197,41249,1,0,0:0:0:0:
258,197,41333,1,8,0:0:0:0:
296,212,41416,1,0,0:0:0:0:
296,212,41499,1,8,0:0:0:0:
296,221,41583,1,0,0:0:0:0:
296,221,41666,1,8,0:0:0:0:
332,238,41722,1,8,0:0:0:0:
332,238,41777,1,8,0:0:0:0:
366,263,41833,1,0,0:0:0:0:
256,224,41888,1,0,0:0:0:0:
218,192,41944,1,0,0:0:0:0:
299,214,41999,1,8,0:0:0:0:
361,182,42055,1,8,0:0:0:0:
361,182,42111,1,8,0:0:0:0:
361,182,42166,1,8,0:0:0:0:
369,207,42222,1,8,0:0:0:0:
120,206,42277,1,8,0:0:0:0:
369,207,42333,1,0,0:0:0:0:
249,191,43333,1,8,0:0:0:0:
249,191,43374,1,8,0:0:0:0:
283,195,43416,1,8,0:0:0:0:
311,239,43499,1,8,0:0:0:0:
263,183,43583,1,8,0:0:0:0:
346,217,43666,1,4,0:0:0:0:
271,207,43833,1,0,0:0:0:0:
240,237,43916,1,0,0:0:0:0:
306,241,43999,1,8,0:0:0:0:
316,183,44166,1,0,0:0:0:0:
316,183,44333,1,8,0:0:0:0:
316,183,44416,1,0,0:0:0:0:
257,172,44499,1,0,0:0:0:0:
261,175,44583,1,0,0:0:0:0:
261,176,44666,1,8,0:0:0:0:
316,183,44833,1,0,0:0:0:0:
316,183,44999,1,8,0:0:0:0:
257,172,45166,1,0,0:0:0:0:
261,175,45249,1,0,0:0:0:0:
261,176,45333,1,8,0:0:0:0:
316,183,45416,1,8,0:0:0:0:
316,183,45499,1,0,0:0:0:0:
316,183,45583,1,8,0:0:0:0:
316,183,45666,1,0,0:0:0:0:
257,172,45833,1,0,0:0:0:0:
261,176,45999,1,8,0:0:0:0:
286,222,46083,1,8,0:0:0:0:
291,222,46166,1,0,0:0:0:0:
291,222,46249,1,0,0:0:0:0:
291,222,46333,1,8,0:0:0:0:
291,221,46416,1,0,0:0:0:0:
291,221,46499,1,0,0:0:0:0:
291,221,46583,1,0,0:0:0:0:
291,221,46666,1,8,0:0:0:0:
280,215,46833,1,0,0:0:0:0:
280,215,46999,1,8,0:0:0:0:
316,183,47083,1,0,0:0:0:0:
316,183,47166,1,0,0:0:0:0:
316,183,47249,1,0,0:0:0:0:
316,183,47333,1,8,0:0:0:0:
257,172,47499,1,0,0:0:0:0:
128,160,47583,1,0,0:0:0:0:
261,176,47666,1,8,0:0:0:0:
249,194,47833,1,0,0:0:0:0:
250,194,47999,1,8,0:0:0:0:
316,183,48083,1,8,0:0:0:0:
316,183,48166,1,0,0:0:0:0:
316,183,48249,1,8,0:0:0:0:
316,183,48333,1,0,0:0:0:0:
257,172,48499,1,0,0:0:0:0:
261,176,48666,1,8,0:0:0:0:
253,188,48749,1,0,0:0:0:0:
253,188,48833,1,8,0:0:0:0:
253,188,48916,1,8,0:0:0:0:
253,188,48999,1,4,0:0:0:0:
285,183,49166,1,0,0:0:0:0:
285,183,49249,1,0,0:0:0:0:
285,183,49333,1,8,0:0:0:0:
316,183,49416,1,8,0:0:0:0:
316,183,49499,1,0,0:0:0:0:
316,183,49583,1,8,0:0:0:0:
316,183,49666,1,0,0:0:0:0:
257,172,49833,1,0,0:0:0:0:
261,176,49999,1,8,0:0:0:0:
316,183,50083,1,8,0:0:0:0:
316,183,50166,1,0,0:0:0:0:
316,183,50249,1,0,0:0:0:0:
316,183,50333,1,8,0:0:0:0:
257,172,50499,1,0,0:0:0:0:
261,175,50583,1,0,0:0:0:0:
261,176,50666,1,8,0:0:0:0:
287,209,50833,1,0,0:0:0:0:
287,209,50916,1,8,0:0:0:0:
287,209,50999,1,8,0:0:0:0:
316,183,51083,1,0,0:0:0:0:
257,172,51166,1,0,0:0:0:0:
261,175,51249,1,0,0:0:0:0:
261,176,51333,1,8,0:0:0:0:
258,184,51499,1,0,0:0:0:0:
258,184,51666,1,8,0:0:0:0:
253,199,51833,1,0,0:0:0:0:
253,199,51916,1,0,0:0:0:0:
253,199,51999,1,8,0:0:0:0:
253,199,52166,1,0,0:0:0:0:
253,199,52333,1,8,0:0:0:0:
253,199,52416,1,0,0:0:0:0:
253,199,52499,1,0,0:0:0:0:
253,199,52583,1,0,0:0:0:0:
253,199,52666,1,8,0:0:0:0:
253,199,52833,1,0,0:0:0:0:
253,199,52999,1,8,0:0:0:0:
242,184,53166,1,0,0:0:0:0:
242,184,53249,1,0,0:0:0:0:
242,184,53333,1,8,0:0:0:0:
242,184,53499,1,0,0:0:0:0:
224,192,53583,1,8,0:0:0:0:
242,184,53666,1,8,0:0:0:0:
242,184,53833,1,0,0:0:0:0:
242,184,53999,1,8,0:0:0:0:
298,199,54083,1,8,0:0:0:0:
298,199,54166,1,8,0:0:0:0:
298,199,54249,1,8,0:0:0:0:
298,199,54333,1,4,0:0:0:0:
285,198,54499,1,0,0:0:0:0:
276,200,54583,1,0,0:0:0:0:
276,200,54666,1,8,0:0:0:0:
256,232,54749,1,8,0:0:0:0:
256,232,54833,1,0,0:0:0:0:
256,232,54999,1,8,0:0:0:0:
256,232,55166,1,0,0:0:0:0:
256,232,55333,1,8,0:0:0:0:
256,232,55416,1,8,0:0:0:0:
256,232,55499,1,0,0:0:0:0:
256,232,55583,1,0,0:0:0:0:
256,232,55666,1,8,0:0:0:0:
256,232,55833,1,0,0:0:0:0:
256,232,55999,1,8,0:0:0:0:
256,232,56083,1,8,0:0:0:0:
256,232,56166,1,0,0:0:0:0:
288,224,56249,1,8,0:0:0:0:
256,232,56333,1,0,0:0:0:0:
256,232,56499,1,0,0:0:0:0:
256,232,56583,1,0,0:0:0:0:
256,232,56666,1,8,0:0:0:0:
288,217,56833,1,0,0:0:0:0:
288,217,56999,1,8,0:0:0:0:
256,232,57083,1,0,0:0:0:0:
256,232,57166,1,0,0:0:0:0:
256,232,57249,1,0,0:0:0:0:
256,232,57333,1,8,0:0:0:0:
288,217,57416,1,8,0:0:0:0:
288,217,57499,1,0,0:0:0:0:
256,224,57583,1,8,0:0:0:0:
288,217,57666,1,0,0:0:0:0:
256,232,57833,1,0,0:0:0:0:
256,232,57916,1,0,0:0:0:0:
256,232,57999,1,8,0:0:0:0:
288,217,58166,1,0,0:0:0:0:
288,217,58333,1,8,0:0:0:0:
256,232,58416,1,0,0:0:0:0:
256,232,58499,1,0,0:0:0:0:
256,232,58583,1,0,0:0:0:0:
256,232,58666,1,8,0:0:0:0:
288,217,58833,1,0,0:0:0:0:
192,192,58916,1,0,0:0:0:0:
288,217,58999,1,8,0:0:0:0:
256,232,59083,1,0,0:0:0:0:
256,232,59166,1,0,0:0:0:0:
256,232,59249,1,0,0:0:0:0:
256,232,59333,1,8,0:0:0:0:
266,191,59416,1,0,0:0:0:0:
288,217,59499,1,8,0:0:0:0:
288,217,59583,1,8,0:0:0:0:
288,217,59666,1,4,0:0:0:0:
327,209,59833,1,0,0:0:0:0:
322,209,59916,1,0,0:0:0:0:
293,210,59999,1,8,0:0:0:0:
288,192,60166,1,0,0:0:0:0:
288,192,60333,1,8,0:0:0:0:
288,192,60416,1,0,0:0:0:0:
288,192,60499,1,0,0:0:0:0:
288,192,60583,1,0,0:0:0:0:
288,192,60666,1,8,0:0:0:0:
288,192,60749,1,8,0:0:0:0:
288,192,60833,1,8,0:0:0:0:
288,192,60916,1,8,0:0:0:0:
288,192,60999,1,4,0:0:0:0:
288,192,61166,1,0,0:0:0:0:
288,192,61249,1,0,0:0:0:0:
288,192,61333,1,8,0:0:0:0:
288,192,61499,1,0,0:0:0:0:
288,192,61666,1,8,0:0:0:0:
256,192,61749,1,8,0:0:0:0:
241,191,61833,1,0,0:0:0:0:
224,160,61916,1,0,0:0:0:0:
245,191,61999,1,8,0:0:0:0:
282,193,62083,1,0,0:0:0:0:
206,222,62166,1,8,0:0:0:0:
206,222,62249,1,8,0:0:0:0:
210,212,62333,1,4,0:0:0:0:
216,211,62499,1,0,0:0:0:0:
216,211,62583,1,0,0:0:0:0:
216,210,62666,1,8,0:0:0:0:
266,199,62749,1,8,0:0:0:0:
266,199,62833,1,8,0:0:0:0:
266,199,62916,1,8,0:0:0:0:
271,200,62999,1,4,0:0:0:0:
266,199,63166,1,0,0:0:0:0:
266,199,63249,1,0,0:0:0:0:
266,199,63333,1,8,0:0:0:0:
191,181,63416,1,0,0:0:0:0:
191,181,63499,1,8,0:0:0:0:
191,181,63583,1,8,0:0:0:0:
218,187,63666,1,4,0:0:0:0:
283,191,63833,1,8,0:0:0:0:
283,191,63916,1,8,0:0:0:0:
283,191,63999,1,4,0:0:0:0:
283,191,64166,1,8,0:0:0:0:
283,191,64249,1,8,0:0:0:0:
283,191,64333,1,4,0:0:0:0:
324,208,64499,1,8,0:0:0:0:
324,208,64583,1,8,0:0:0:0:
382,269,64666,1,0,0:0:0:0:
382,269,64749,1,0,0:0:0:0:
382,269,64833,1,0,0:0:0:0:
382,269,64916,1,0,0:0:0:0:
382,269,64999,1,12,0:0:0:0:
256,211,65333,1,8,0:0:0:0:
253,207,65499,1,0,0:0:0:0:
306,239,65833,1,0,0:0:0:0:
306,239,65999,1,8,0:0:0:0:
283,214,66333,1,0,0:0:0:0:
271,193,66666,1,8,0:0:0:0:
270,203,66833,1,0,0:0:0:0:
270,202,67166,1,0,0:0:0:0:
270,204,67333,1,8,0:0:0:0:
336,232,67416,1,8,0:0:0:0:
336,232,67499,1,8,0:0:0:0:
336,232,67583,1,8,0:0:0:0:
336,232,67666,1,0,0:0:0:0:
275,206,67999,1,8,0:0:0:0:
274,203,68166,1,0,0:0:0:0:
286,227,68499,1,0,0:0:0:0:
286,227,68666,1,8,0:0:0:0:
295,214,68999,1,0,0:0:0:0:
281,199,69333,1,8,0:0:0:0:
287,182,69499,1,0,0:0:0:0:
328,223,69833,1,0,0:0:0:0:
328,223,69999,1,8,0:0:0:0:
327,207,70083,1,0,0:0:0:0:
327,207,70166,1,8,0:0:0:0:
327,207,70249,1,8,0:0:0:0:
327,208,70333,1,4,0:0:0:0:
274,190,70666,1,8,0:0:0:0:
274,190,70833,1,0,0:0:0:0:
292,202,71166,1,0,0:0:0:0:
292,202,71333,1,8,0:0:0:0:
463,383,71666,1,0,0:0:0:0:
271,202,71999,1,8,0:0:0:0:
310,212,72166,1,0,0:0:0:0:
315,213,72499,1,0,0:0:0:0:
310,212,72666,1,8,0:0:0:0:
303,206,72749,1,8,0:0:0:0:
303,206,72833,1,8,0:0:0:0:
303,206,72916,1,8,0:0:0:0:
303,206,72999,1,0,0:0:0:0:
243,190,73333,1,8,0:0:0:0:
243,190,73499,1,0,0:0:0:0:
243,190,73833,1,0,0:0:0:0:
243,190,73999,1,8,0:0:0:0:
223,192,74333,1,0,0:0:0:0:
233,198,74666,1,8,0:0:0:0:
279,208,74833,1,0,0:0:0:0:
279,208,75166,1,0,0:0:0:0:
279,208,75333,1,8,0:0:0:0:
290,192,75499,1,8,0:0:0:0:
290,192,75583,1,8,0:0:0:0:
264,187,75666,1,4,0:0:0:0:
255,187,75999,1,8,0:0:0:0:
265,200,76166,1,0,0:0:0:0:
265,200,76499,1,0,0:0:0:0:
265,200,76666,1,8,0:0:0:0:
255,189,76999,1,0,0:0:0:0:
218,154,77333,1,8,0:0:0:0:
239,175,77499,1,0,0:0:0:0:
239,175,77833,1,0,0:0:0:0:
239,175,77999,1,8,0:0:0:0:
307,211,78083,1,8,0:0:0:0:
307,211,78166,1,8,0:0:0:0:
307,211,78249,1,8,0:0:0:0:
307,211,78333,1,0,0:0:0:0:
342,230,78666,1,8,0:0:0:0:
342,230,78833,1,0,0:0:0:0:
342,230,79166,1,0,0:0:0:0:
342,230,79333,1,8,0:0:0:0:
309,227,79666,1,0,0:0:0:0:
270,221,79999,1,8,0:0:0:0:
270,221,80166,1,0,0:0:0:0:
270,221,80499,1,0,0:0:0:0:
270,221,80666,1,8,0:0:0:0:
277,207,80749,1,0,0:0:0:0:
276,204,80833,1,8,0:0:0:0:
276,204,80916,1,8,0:0:0:0:
276,204,80999,1,4,0:0:0:0:
257,193,81333,1,8,0:0:0:0:
257,193,81499,1,0,0:0:0:0:
257,193,81833,1,0,0:0:0:0:
257,193,81999,1,8,0:0:0:0:
257,193,82333,1,0,0:0:0:0:
267,181,82666,1,8,0:0:0:0:
264,184,82833,1,0,0:0:0:0:
293,189,83166,1,0,0:0:0:0:
293,189,83333,1,8,0:0:0:0:
287,206,83416,1,8,0:0:0:0:
287,206,83499,1,8,0:0:0:0:
286,205,83583,1,8,0:0:0:0:
285,205,83666,1,0,0:0:0:0:
292,206,83999,1,8,0:0:0:0:
296,195,84166,1,0,0:0:0:0:
298,208,84499,1,0,0:0:0:0:
298,207,84666,1,8,0:0:0:0:
295,213,84833,1,0,0:0:0:0:
295,213,84916,1,0,0:0:0:0:
295,212,84999,1,8,0:0:0:0:
306,223,85166,1,0,0:0:0:0:
305,222,85333,1,8,0:0:0:0:
289,203,85499,1,0,0:0:0:0:
256,224,85583,1,0,0:0:0:0:
289,203,85666,1,8,0:0:0:0:
316,215,85708,1,8,0:0:0:0:
332,203,85749,1,8,0:0:0:0:
310,207,85791,1,8,0:0:0:0:
401,59,85833,1,0,0:0:0:0:
331,217,85916,1,0,0:0:0:0:
331,217,85999,1,8,0:0:0:0:
278,216,86083,1,8,0:0:0:0:
276,215,86166,1,8,0:0:0:0:
276,215,86249,1,8,0:0:0:0:
278,216,86333,1,4,0:0:0:0:
334,235,86499,1,0,0:0:0:0:
332,238,86583,1,0,0:0:0:0:
324,244,86666,1,8,0:0:0:0:
185,206,86833,1,0,0:0:0:0:
282,228,86999,1,8,0:0:0:0:
235,214,87166,1,8,0:0:0:0:
235,214,87249,1,8,0:0:0:0:
235,214,87333,1,0,0:0:0:0:
308,217,87499,1,0,0:0:0:0:
308,217,87666,1,8,0:0:0:0:
257,184,87749,1,0,0:0:0:0:
308,217,87833,1,0,0:0:0:0:
308,217,87916,1,0,0:0:0:0:
308,217,87999,1,8,0:0:0:0:
311,214,88083,1,8,0:0:0:0:
312,214,88166,1,0,0:0:0:0:
312,214,88333,1,8,0:0:0:0:
312,214,88499,1,0,0:0:0:0:
312,214,88583,1,0,0:0:0:0:
312,214,88666,1,8,0:0:0:0:
348,226,88833,1,8,0:0:0:0:
311,214,88916,1,8,0:0:0:0:
348,226,88999,1,0,0:0:0:0:
279,208,89166,1,0,0:0:0:0:
279,208,89333,1,8,0:0:0:0:
288,197,89499,1,0,0:0:0:0:
288,197,89583,1,0,0:0:0:0:
288,197,89666,1,8,0:0:0:0:
288,197,89749,1,8,0:0:0:0:
288,197,89833,1,0,0:0:0:0:
288,197,89916,1,0,0:0:0:0:
288,197,89999,1,8,0:0:0:0:
286,194,90166,1,8,0:0:0:0:
288,197,90249,1,8,0:0:0:0:
288,197,90333,1,0,0:0:0:0:
301,196,90499,1,0,0:0:0:0:
301,195,90666,1,8,0:0:0:0:
232,232,90833,1,0,0:0:0:0:
246,230,90916,1,0,0:0:0:0:
266,219,90999,1,8,0:0:0:0:
292,212,91166,1,0,0:0:0:0:
292,212,91333,1,8,0:0:0:0:
178,201,91416,1,0,0:0:0:0:
206,212,91499,1,8,0:0:0:0:
227,210,91583,1,0,0:0:0:0:
227,210,91666,1,12,0:0:0:0:
266,212,91833,1,0,0:0:0:0:
266,212,91999,1,8,0:0:0:0:
269,187,92166,1,0,0:0:0:0:
269,187,92249,1,0,0:0:0:0:
269,187,92333,1,8,0:0:0:0:
278,182,92499,1,0,0:0:0:0:
278,182,92666,1,8,0:0:0:0:
235,186,92833,1,8,0:0:0:0:
235,186,92916,1,8,0:0:0:0:
235,186,92999,1,0,0:0:0:0:
269,194,93083,1,0,0:0:0:0:
283,204,93166,1,0,0:0:0:0:
282,200,93249,1,0,0:0:0:0:
284,200,93333,1,8,0:0:0:0:
267,145,93499,1,0,0:0:0:0:
267,145,93666,1,8,0:0:0:0:
267,145,93749,1,0,0:0:0:0:
267,145,93833,1,0,0:0:0:0:
267,145,93916,1,0,0:0:0:0:
267,145,93999,1,8,0:0:0:0:
296,199,94166,1,8,0:0:0:0:
296,199,94249,1,8,0:0:0:0:
296,199,94333,1,0,0:0:0:0:
296,172,94499,1,0,0:0:0:0:
295,175,94666,1,8,0:0:0:0:
271,161,94833,1,0,0:0:0:0:
271,161,94916,1,0,0:0:0:0:
271,161,94999,1,8,0:0:0:0:
262,173,95166,1,0,0:0:0:0:
263,172,95333,1,8,0:0:0:0:
242,161,95416,1,0,0:0:0:0:
242,161,95499,1,8,0:0:0:0:
242,161,95583,1,8,0:0:0:0:
242,161,95666,1,0,0:0:0:0:
245,174,95833,1,0,0:0:0:0:
245,174,95916,1,0,0:0:0:0:
245,174,95999,1,8,0:0:0:0:
247,176,96166,1,0,0:0:0:0:
246,178,96333,1,8,0:0:0:0:
254,155,96416,1,0,0:0:0:0:
254,155,96499,1,8,0:0:0:0:
254,155,96583,1,0,0:0:0:0:
254,155,96666,1,8,0:0:0:0:
269,156,96749,1,8,0:0:0:0:
269,156,96833,1,8,0:0:0:0:
269,156,96916,1,8,0:0:0:0:
269,157,96999,1,4,0:0:0:0:
243,156,97166,1,0,0:0:0:0:
243,156,97249,1,0,0:0:0:0:
243,156,97333,1,8,0:0:0:0:
243,156,97499,1,0,0:0:0:0:
243,156,97666,1,8,0:0:0:0:
243,156,97749,1,8,0:0:0:0:
243,156,97833,1,0,0:0:0:0:
238,156,97916,1,0,0:0:0:0:
237,154,97999,1,8,0:0:0:0:
247,174,98166,1,8,0:0:0:0:
247,174,98249,1,8,0:0:0:0:
247,174,98333,1,0,0:0:0:0:
256,221,98499,1,0,0:0:0:0:
256,221,98666,1,8,0:0:0:0:
252,219,98833,1,0,0:0:0:0:
252,219,98916,1,0,0:0:0:0:
252,219,98999,1,8,0:0:0:0:
268,204,99166,1,0,0:0:0:0:
268,204,99333,1,8,0:0:0:0:
268,204,99416,1,0,0:0:0:0:
268,204,99499,1,0,0:0:0:0:
268,204,99583,1,0,0:0:0:0:
268,204,99666,1,8,0:0:0:0:
246,239,99833,1,0,0:0:0:0:
260,218,99999,1,8,0:0:0:0:
262,217,100083,1,8,0:0:0:0:
262,217,100166,1,0,0:0:0:0:
262,217,100333,1,8,0:0:0:0:
298,205,100499,1,0,0:0:0:0:
298,205,100583,1,0,0:0:0:0:
298,205,100666,1,8,0:0:0:0:
262,195,100833,1,0,0:0:0:0:
262,195,100999,1,8,0:0:0:0:
294,225,101083,1,0,0:0:0:0:
275,186,101166,1,0,0:0:0:0:
262,163,101249,1,0,0:0:0:0:
275,185,101333,1,8,0:0:0:0:
291,181,101416,1,8,0:0:0:0:
292,182,101499,1,0,0:0:0:0:
347,239,101583,1,0,0:0:0:0:
292,182,101666,1,8,0:0:0:0:
280,192,101833,1,0,0:0:0:0:
280,192,101999,1,8,0:0:0:0:
283,194,102083,1,0,0:0:0:0:
282,193,102166,1,8,0:0:0:0:
278,194,102249,1,0,0:0:0:0:
278,193,102333,1,12,0:0:0:0:
244,199,102499,1,0,0:0:0:0:
248,201,102583,1,0,0:0:0:0:
251,197,102666,1,8,0:0:0:0:
252,196,102833,1,0,0:0:0:0:
252,196,102999,1,8,0:0:0:0:
279,197,103166,1,0,0:0:0:0:
279,197,103249,1,0,0:0:0:0:
279,197,103333,1,8,0:0:0:0:
279,197,103499,1,8,0:0:0:0:
279,197,103583,1,8,0:0:0:0:
279,197,103666,1,4,0:0:0:0:
269,221,103833,1,0,0:0:0:0:
273,213,103999,1,8,0:0:0:0:
265,188,104166,1,0,0:0:0:0:
265,188,104333,1,0,0:0:0:0:
292,200,104499,1,0,0:0:0:0:
292,200,104666,1,8,0:0:0:0:
287,181,104833,1,0,0:0:0:0:
287,181,104999,1,8,0:0:0:0:
282,194,105083,1,0,0:0:0:0:
281,195,105166,1,0,0:0:0:0:
281,195,105249,1,0,0:0:0:0:
281,195,105333,1,8,0:0:0:0:
281,195,105416,1,0,0:0:0:0:
281,195,105499,1,0,0:0:0:0:
281,195,105583,1,0,0:0:0:0:
281,195,105666,1,8,0:0:0:0:
359,158,105722,1,8,0:0:0:0:
359,158,105777,1,8,0:0:0:0:
359,158,105833,1,0,0:0:0:0:
390,161,105888,1,0,0:0:0:0:
243,180,105944,1,0,0:0:0:0:
390,161,105999,1,8,0:0:0:0:
366,153,106041,1,8,0:0:0:0:
366,153,106083,1,8,0:0:0:0:
365,154,106124,1,8,0:0:0:0:
365,156,106166,1,8,0:0:0:0:
296,127,106208,1,8,0:0:0:0:
296,127,106249,1,8,0:0:0:0:
296,127,106291,1,8,0:0:0:0:
308,137,106333,1,0,0:0:0:0:
236,189,107666,1,4,0:0:0:0:
262,187,107833,1,8,0:0:0:0:
308,199,107999,1,0,0:0:0:0:
292,218,108333,1,0,0:0:0:0:
249,185,108499,1,8,0:0:0:0:
249,185,108583,1,8,0:0:0:0:
249,185,108666,1,8,0:0:0:0:
249,185,108749,1,8,0:0:0:0:
295,215,108833,1,8,0:0:0:0:
295,215,108916,1,8,0:0:0:0:
294,215,108999,1,0,0:0:0:0:
281,206,109166,1,0,0:0:0:0:
278,206,109249,1,0,0:0:0:0:
279,205,109333,1,8,0:0:0:0:
265,205,109388,1,0,0:0:0:0:
265,205,109444,1,0,0:0:0:0:
265,205,109499,1,0,0:0:0:0:
303,217,109666,1,0,0:0:0:0:
311,210,109833,1,0,0:0:0:0:
311,210,109916,1,0,0:0:0:0:
311,210,109999,1,8,0:0:0:0:
283,205,110055,1,8,0:0:0:0:
283,205,110111,1,8,0:0:0:0:
283,205,110166,1,8,0:0:0:0:
256,182,110333,1,0,0:0:0:0:
256,182,110499,1,8,0:0:0:0:
266,183,110666,1,0,0:0:0:0:
241,217,110833,1,8,0:0:0:0:
241,217,110999,1,0,0:0:0:0:
297,212,111166,1,8,0:0:0:0:
290,208,111249,1,8,0:0:0:0:
291,208,111333,1,8,0:0:0:0:
261,191,111416,1,8,0:0:0:0:
261,191,111499,1,8,0:0:0:0:
261,191,111583,1,8,0:0:0:0:
261,191,111666,1,0,0:0:0:0:
336,243,111833,1,8,0:0:0:0:
311,180,111999,1,8,0:0:0:0:
316,195,112041,1,8,0:0:0:0:
347,210,112166,1,8,0:0:0:0:
347,210,112208,1,8,0:0:0:0:
331,237,112333,1,0,0:0:0:0:
306,206,112499,1,8,0:0:0:0:
320,203,112583,1,8,0:0:0:0:
320,202,112666,1,0,0:0:0:0:
264,177,112999,1,4,0:0:0:0:
272,173,113166,1,0,0:0:0:0:
273,171,113333,1,8,0:0:0:0:
343,210,113666,1,0,0:0:0:0:
326,212,113833,1,8,0:0:0:0:
326,212,113916,1,8,0:0:0:0:
326,211,113999,1,8,0:0:0:0:
372,244,114083,1,8,0:0:0:0:
372,244,114166,1,8,0:0:0:0:
372,244,114249,1,8,0:0:0:0:
372,244,114333,1,0,0:0:0:0:
233,186,114499,1,8,0:0:0:0:
233,186,114583,1,8,0:0:0:0:
272,177,114666,1,0,0:0:0:0:
266,194,114722,1,0,0:0:0:0:
272,177,114777,1,0,0:0:0:0:
272,177,114833,1,0,0:0:0:0:
279,174,114999,1,0,0:0:0:0:
259,211,115083,1,0,0:0:0:0:
284,185,115166,1,0,0:0:0:0:
284,184,115249,1,0,0:0:0:0:
284,184,115333,1,8,0:0:0:0:
278,219,115388,1,8,0:0:0:0:
278,219,115444,1,8,0:0:0:0:
291,215,115499,1,8,0:0:0:0:
284,181,115666,1,0,0:0:0:0:
251,182,115833,1,8,0:0:0:0:
251,177,115999,1,8,0:0:0:0:
291,201,116166,1,8,0:0:0:0:
272,174,116333,1,0,0:0:0:0:
265,202,116499,1,8,0:0:0:0:
265,202,116583,1,8,0:0:0:0:
265,202,116666,1,8,0:0:0:0:
305,180,116749,1,8,0:0:0:0:
266,173,116833,1,8,0:0:0:0:
267,173,116916,1,8,0:0:0:0:
267,173,116999,1,0,0:0:0:0:
260,217,117166,1,0,0:0:0:0:
260,217,117249,1,0,0:0:0:0:
263,216,117333,1,0,0:0:0:0:
296,202,117499,1,0,0:0:0:0:
239,208,117583,1,0,0:0:0:0:
296,202,117666,1,8,0:0:0:0:
296,202,117999,1,0,0:0:0:0:
326,229,118333,1,4,0:0:0:0:
276,208,118499,1,8,0:0:0:0:
276,208,118666,1,0,0:0:0:0:
271,187,118999,1,0,0:0:0:0:
276,208,119166,1,8,0:0:0:0:
285,198,119249,1,8,0:0:0:0:
285,198,119333,1,8,0:0:0:0:
285,198,119416,1,8,0:0:0:0:
285,198,119499,1,8,0:0:0:0:
285,198,119583,1,8,0:0:0:0:
285,198,119666,1,0,0:0:0:0:
315,223,119833,1,0,0:0:0:0:
315,223,119916,1,0,0:0:0:0:
315,223,119999,1,8,0:0:0:0:
312,163,120055,1,0,0:0:0:0:
312,163,120111,1,0,0:0:0:0:
311,166,120166,1,0,0:0:0:0:
261,201,120333,1,0,0:0:0:0:
278,203,120499,1,0,0:0:0:0:
278,203,120583,1,0,0:0:0:0:
278,202,120666,1,8,0:0:0:0:
266,217,120722,1,8,0:0:0:0:
266,216,120777,1,8,0:0:0:0:
266,215,120833,1,8,0:0:0:0:
265,209,120999,1,0,0:0:0:0:
302,222,121166,1,8,0:0:0:0:
283,192,121333,1,0,0:0:0:0:
283,192,121499,1,8,0:0:0:0:
254,174,121666,1,0,0:0:0:0:
257,188,121833,1,8,0:0:0:0:
257,188,121916,1,8,0:0:0:0:
257,188,121999,1,8,0:0:0:0:
257,188,122083,1,8,0:0:0:0:
257,188,122166,1,8,0:0:0:0:
257,188,122249,1,8,0:0:0:0:
257,188,122333,1,0,0:0:0:0:
265,169,122499,1,8,0:0:0:0:
294,194,122555,1,8,0:0:0:0:
294,194,122611,1,8,0:0:0:0:
294,194,122666,1,0,0:0:0:0:
339,158,122749,1,0,0:0:0:0:
339,158,122833,1,8,0:0:0:0:
259,159,122999,1,8,0:0:0:0:
317,189,123083,1,0,0:0:0:0:
260,159,123166,1,8,0:0:0:0:
293,215,123222,1,8,0:0:0:0:
293,215,123277,1,8,0:0:0:0:
260,159,123333,1,0,0:0:0:0:
263,159,123416,1,8,0:0:0:0:
259,159,123499,1,0,0:0:0:0:
256,175,123666,1,4,0:0:0:0:
148,189,123833,1,0,0:0:0:0:
164,190,123999,1,8,0:0:0:0:
269,186,124333,1,0,0:0:0:0:
227,199,124499,1,8,0:0:0:0:
231,197,124583,1,8,0:0:0:0:
236,196,124666,1,8,0:0:0:0:
341,209,124749,1,8,0:0:0:0:
341,209,124833,1,8,0:0:0:0:
341,209,124916,1,8,0:0:0:0:
341,209,124999,1,0,0:0:0:0:
156,212,125166,1,8,0:0:0:0:
182,215,125249,1,8,0:0:0:0:
244,209,125333,1,0,0:0:0:0:
245,213,125388,1,0,0:0:0:0:
245,213,125444,1,0,0:0:0:0:
245,213,125499,1,0,0:0:0:0:
237,216,125666,1,0,0:0:0:0:
212,181,125749,1,0,0:0:0:0:
237,216,125833,1,0,0:0:0:0:
237,216,125916,1,0,0:0:0:0:
237,217,125999,1,8,0:0:0:0:
244,209,126055,1,8,0:0:0:0:
244,209,126111,1,8,0:0:0:0:
244,209,126166,1,8,0:0:0:0:
254,197,126333,1,0,0:0:0:0:
253,201,126499,1,8,0:0:0:0:
284,212,126583,1,8,0:0:0:0:
253,201,126666,1,0,0:0:0:0:
249,210,126833,1,0,0:0:0:0:
251,210,126999,1,8,0:0:0:0:
276,194,127166,1,0,0:0:0:0:
298,209,127249,1,0,0:0:0:0:
276,194,127333,1,8,0:0:0:0:
299,196,127499,1,8,0:0:0:0:
299,196,127666,1,0,0:0:0:0:
321,221,127833,1,0,0:0:0:0:
321,221,127916,1,0,0:0:0:0:
323,207,127999,1,0,0:0:0:0:
307,224,128166,1,0,0:0:0:0:
314,224,128333,1,0,0:0:0:0:
376,226,128499,1,0,0:0:0:0:
376,226,128666,1,0,0:0:0:0:
376,226,128833,1,0,0:0:0:0:
376,226,128999,1,12,0:0:0:0:
255,215,129166,1,0,0:0:0:0:
235,204,129249,1,0,0:0:0:0:
235,204,129333,1,8,0:0:0:0:
235,204,129499,1,0,0:0:0:0:
235,204,129666,1,8,0:0:0:0:
235,204,129749,1,8,0:0:0:0:
235,204,129833,1,0,0:0:0:0:
235,204,129916,1,0,0:0:0:0:
235,204,129999,1,8,0:0:0:0:
235,204,130166,1,0,0:0:0:0:
235,204,130333,1,8,0:0:0:0:
235,204,130499,1,0,0:0:0:0:
235,204,130583,1,0,0:0:0:0:
235,204,130666,1,8,0:0:0:0:
255,216,130833,1,0,0:0:0:0:
255,216,130999,1,8,0:0:0:0:
256,208,131083,1,8,0:0:0:0:
256,211,131166,1,0,0:0:0:0:
256,211,131249,1,0,0:0:0:0:
256,211,131333,1,8,0:0:0:0:
276,211,131499,1,8,0:0:0:0:
276,211,131666,1,0,0:0:0:0:
241,210,131749,1,0,0:0:0:0:
276,211,131833,1,8,0:0:0:0:
276,211,131916,1,8,0:0:0:0:
276,211,131999,1,0,0:0:0:0:
276,211,132166,1,8,0:0:0:0:
276,211,132333,1,0,0:0:0:0:
276,211,132499,1,8,0:0:0:0:
276,211,132583,1,8,0:0:0:0:
276,211,132666,1,0,0:0:0:0:
276,211,132833,1,8,0:0:0:0:
276,211,132999,1,0,0:0:0:0:
309,210,133083,1,0,0:0:0:0:
303,198,133166,1,0,0:0:0:0:
303,198,133249,1,0,0:0:0:0:
303,198,133333,1,8,0:0:0:0:
279,187,133666,1,0,0:0:0:0:
279,187,133833,1,0,0:0:0:0:
193,174,133874,1,0,0:0:0:0:
279,187,133999,1,0,0:0:0:0:
286,195,134041,1,8,0:0:0:0:
263,184,134166,1,8,0:0:0:0:
271,195,134208,1,8,0:0:0:0:
264,184,134333,1,4,0:0:0:0:
247,206,134499,1,0,0:0:0:0:
243,207,134583,1,0,0:0:0:0:
236,209,134666,1,8,0:0:0:0:
285,198,134833,1,0,0:0:0:0:
285,198,134999,1,8,0:0:0:0:
270,224,135083,1,8,0:0:0:0:
285,198,135166,1,0,0:0:0:0:
285,198,135249,1,0,0:0:0:0:
285,198,135333,1,8,0:0:0:0:
285,198,135499,1,0,0:0:0:0:
285,198,135666,1,8,0:0:0:0:
285,198,135833,1,0,0:0:0:0:
285,198,135916,1,0,0:0:0:0:
285,198,135999,1,8,0:0:0:0:
307,183,136166,1,0,0:0:0:0:
307,183,136333,1,8,0:0:0:0:
307,183,136416,1,8,0:0:0:0:
307,183,136499,1,0,0:0:0:0:
307,183,136583,1,0,0:0:0:0:
307,183,136666,1,8,0:0:0:0:
307,183,136833,1,8,0:0:0:0:
286,193,136916,1,8,0:0:0:0:
307,183,136999,1,0,0:0:0:0:
299,211,137166,1,8,0:0:0:0:
299,211,137333,1,0,0:0:0:0:
205,199,137374,1,8,0:0:0:0:
296,206,137499,1,0,0:0:0:0:
286,201,137541,1,8,0:0:0:0:
296,206,137666,1,0,0:0:0:0:
296,206,137833,1,8,0:0:0:0:
296,202,137999,1,0,0:0:0:0:
289,182,138041,1,8,0:0:0:0:
203,173,138166,1,0,0:0:0:0:
289,182,138208,1,8,0:0:0:0:
277,222,138333,1,0,0:0:0:0:
301,214,138499,1,0,0:0:0:0:
301,214,138583,1,0,0:0:0:0:
302,212,138666,1,8,0:0:0:0:
299,187,138916,1,8,0:0:0:0:
258,181,138999,1,0,0:0:0:0:
311,207,139083,1,0,0:0:0:0:
310,207,139166,1,0,0:0:0:0:
310,207,139249,1,0,0:0:0:0:
309,207,139333,1,8,0:0:0:0:
293,179,139416,1,8,0:0:0:0:
293,179,139499,1,8,0:0:0:0:
293,179,139583,1,8,0:0:0:0:
293,179,139666,1,4,0:0:0:0:
210,230,139833,1,0,0:0:0:0:
248,229,139916,1,0,0:0:0:0:
248,229,139999,1,8,0:0:0:0:
248,229,140166,1,0,0:0:0:0:
248,229,140333,1,8,0:0:0:0:
154,194,140416,1,0,0:0:0:0:
297,227,140499,1,8,0:0:0:0:
297,227,140583,1,8,0:0:0:0:
297,227,140666,1,0,0:0:0:0:
297,227,140833,1,0,0:0:0:0:
297,227,140999,1,8,0:0:0:0:
267,209,141083,1,8,0:0:0:0:
267,209,141166,1,0,0:0:0:0:
267,209,141249,1,0,0:0:0:0:
267,209,141333,1,8,0:0:0:0:
278,198,141499,1,0,0:0:0:0:
278,198,141666,1,8,0:0:0:0:
278,198,141833,1,0,0:0:0:0:
278,198,141916,1,0,0:0:0:0:
278,198,141999,1,8,0:0:0:0:
278,198,142166,1,0,0:0:0:0:
278,198,142333,1,8,0:0:0:0:
245,207,142416,1,0,0:0:0:0:
232,196,142499,1,8,0:0:0:0:
232,196,142583,1,8,0:0:0:0:
232,196,142666,1,0,0:0:0:0:
268,187,142833,1,0,0:0:0:0:
269,187,142999,1,8,0:0:0:0:
269,187,143083,1,8,0:0:0:0:
269,187,143166,1,0,0:0:0:0:
268,187,143249,1,0,0:0:0:0:
268,187,143333,1,8,0:0:0:0:
298,191,143499,1,0,0:0:0:0:
298,191,143666,1,8,0:0:0:0:
309,204,143749,1,0,0:0:0:0:
309,204,143833,1,0,0:0:0:0:
309,204,143916,1,0,0:0:0:0:
309,205,143999,1,8,0:0:0:0:
286,203,144333,1,0,0:0:0:0:
330,191,144499,1,0,0:0:0:0:
343,204,144541,1,0,0:0:0:0:
263,203,144666,1,0,0:0:0:0:
263,203,144708,1,8,0:0:0:0:
266,197,144833,1,8,0:0:0:0:
266,197,144874,1,8,0:0:0:0:
266,197,144999,1,4,0:0:0:0:
266,213,145166,1,0,0:0:0:0:
263,213,145249,1,0,0:0:0:0:
263,213,145333,1,8,0:0:0:0:
319,198,145499,1,0,0:0:0:0:
269,209,145666,1,8,0:0:0:0:
269,209,145749,1,8,0:0:0:0:
269,209,145833,1,0,0:0:0:0:
269,209,145916,1,0,0:0:0:0:
269,209,145999,1,8,0:0:0:0:
196,203,146166,1,0,0:0:0:0:
241,220,146333,1,8,0:0:0:0:
273,221,146499,1,0,0:0:0:0:
273,221,146583,1,0,0:0:0:0:
273,221,146666,1,8,0:0:0:0:
273,221,146833,1,0,0:0:0:0:
273,221,146999,1,8,0:0:0:0:
273,221,147083,1,8,0:0:0:0:
273,221,147166,1,0,0:0:0:0:
273,221,147249,1,0,0:0:0:0:
273,221,147333,1,8,0:0:0:0:
215,198,147499,1,0,0:0:0:0:
215,198,147666,1,8,0:0:0:0:
291,200,147833,1,8,0:0:0:0:
291,200,147916,1,8,0:0:0:0:
291,200,147999,1,0,0:0:0:0:
291,200,148166,1,0,0:0:0:0:
291,200,148333,1,8,0:0:0:0:
249,190,148499,1,0,0:0:0:0:
249,190,148583,1,0,0:0:0:0:
249,190,148666,1,8,0:0:0:0:
272,197,148833,1,8,0:0:0:0:
272,197,148999,1,4,0:0:0:0:
281,197,149166,1,8,0:0:0:0:
281,196,149249,1,8,0:0:0:0:
280,183,149333,1,0,0:0:0:0:
209,166,149416,1,8,0:0:0:0:
383,201,149583,1,8,0:0:0:0:
275,144,149666,1,0,0:0:0:0:
318,177,149749,1,0,0:0:0:0:
298,205,149833,1,8,0:0:0:0:
301,202,149874,1,8,0:0:0:0:
275,186,149916,1,8,0:0:0:0:
256,215,149958,1,8,0:0:0:0:
301,202,149999,1,0,0:0:0:0:
287,146,150083,1,0,0:0:0:0:
287,145,150166,1,8,0:0:0:0:
275,186,150208,1,8,0:0:0:0:
308,202,150249,1,8,0:0:0:0:
308,202,150291,1,8,0:0:0:0:
306,201,150333,1,0,0:0:0:0:
258,174,150999,1,0,0:0:0:0:
255,192,151666,1,8,0:0:0:0:
267,181,152333,1,8,0:0:0:0:
255,195,152999,1,0,0:0:0:0:
295,169,153666,1,0,0:0:0:0:
283,155,154333,1,8,0:0:0:0:
251,171,154999,1,8,0:0:0:0:
257,190,155666,1,4,0:0:0:0:
277,168,155999,1,8,0:0:0:0:
320,192,156166,1,0,0:0:0:0:
229,217,156499,1,0,0:0:0:0:
256,214,156666,1,8,0:0:0:0:
259,189,156999,1,0,0:0:0:0:
279,203,157333,1,8,0:0:0:0:
279,203,157499,1,0,0:0:0:0:
279,203,157833,1,0,0:0:0:0:
279,203,157999,1,8,0:0:0:0:
292,205,158333,1,4,0:0:0:0:
273,201,158666,1,8,0:0:0:0:
192,192,158833,1,0,0:0:0:0:
250,183,159166,1,0,0:0:0:0:
250,183,159333,1,8,0:0:0:0:
252,185,159666,1,4,0:0:0:0:
258,192,159999,1,8,0:0:0:0:
320,224,160166,1,0,0:0:0:0:
257,193,160333,1,0,0:0:0:0:
275,182,160416,1,0,0:0:0:0:
267,191,160499,1,8,0:0:0:0:
282,205,160541,1,8,0:0:0:0:
296,205,160583,1,8,0:0:0:0:
319,210,160624,1,8,0:0:0:0:
296,204,160666,1,0,0:0:0:0:
288,207,160749,1,0,0:0:0:0:
289,208,160833,1,0,0:0:0:0:
260,197,160999,1,12,0:0:0:0:
278,216,161333,1,8,0:0:0:0:
294,216,161666,1,8,0:0:0:0:
294,215,161999,1,8,0:0:0:0:
269,193,162333,1,0,0:0:0:0:
269,193,162666,1,0,0:0:0:0:
269,193,162999,1,0,0:0:0:0:
269,193,163333,1,0,0:0:0:0:
269,193,163666,1,8,0:0:0:0:
239,192,163999,1,8,0:0:0:0:
250,193,164333,1,0,0:0:0:0:
250,193,164666,1,0,0:0:0:0:
250,193,164999,1,8,0:0:0:0:
250,193,165333,1,0,0:0:0:0:
250,193,165666,1,8,0:0:0:0:
250,193,165999,1,0,0:0:0:0:
264,194,166166,1,8,0:0:0:0:
250,193,166333,1,8,0:0:0:0:
317,202,166499,1,0,0:0:0:0:
317,202,166666,1,8,0:0:0:0:
317,202,166833,1,0,0:0:0:0:
317,202,166999,1,8,0:0:0:0:
317,197,167166,1,0,0:0:0:0:
317,197,167333,1,8,0:0:0:0:
317,197,167499,1,0,0:0:0:0:
317,197,167666,1,8,0:0:0:0:
344,216,167833,1,8,0:0:0:0:
344,216,167999,1,0,0:0:0:0:
344,216,168166,1,0,0:0:0:0:
344,216,168333,1,8,0:0:0:0:
318,212,168499,1,0,0:0:0:0:
318,212,168666,1,8,0:0:0:0:
318,212,168833,1,0,0:0:0:0:
318,212,168999,1,8,0:0:0:0:
250,185,169083,1,0,0:0:0:0:
265,190,169166,1,0,0:0:0:0:
266,190,169249,1,0,0:0:0:0:
266,190,169333,1,8,0:0:0:0:
265,189,169416,1,0,0:0:0:0:
265,189,169499,1,8,0:0:0:0:
265,189,169583,1,0,0:0:0:0:
263,186,169666,1,8,0:0:0:0:
201,193,169722,1,8,0:0:0:0:
201,193,169777,1,8,0:0:0:0:
201,193,169833,1,0,0:0:0:0:
269,208,169888,1,0,0:0:0:0:
344,227,169944,1,0,0:0:0:0:
253,194,169999,1,8,0:0:0:0:
252,207,170055,1,8,0:0:0:0:
252,207,170111,1,8,0:0:0:0:
252,207,170166,1,8,0:0:0:0:
252,207,170222,1,8,0:0:0:0:
252,206,170277,1,8,0:0:0:0:
256,197,171666,1,4,0:0:0:0:
258,190,171833,1,0,0:0:0:0:
250,193,171916,1,0,0:0:0:0:
232,192,171999,1,8,0:0:0:0:
351,257,172083,1,8,0:0:0:0:
351,257,172166,1,0,0:0:0:0:
351,257,172249,1,8,0:0:0:0:
351,257,172333,1,8,0:0:0:0:
351,257,172416,1,0,0:0:0:0:
341,228,172499,1,0,0:0:0:0:
341,228,172583,1,0,0:0:0:0:
341,228,172666,1,8,0:0:0:0:
341,228,172833,1,8,0:0:0:0:
341,228,172999,1,0,0:0:0:0:
291,202,173083,1,8,0:0:0:0:
291,202,173166,1,8,0:0:0:0:
291,202,173249,1,0,0:0:0:0:
291,202,173333,1,8,0:0:0:0:
320,226,173416,1,0,0:0:0:0:
320,226,173499,1,0,0:0:0:0:
320,226,173583,1,8,0:0:0:0:
320,226,173666,1,0,0:0:0:0:
282,187,173833,1,0,0:0:0:0:
282,187,173999,1,8,0:0:0:0:
320,198,174083,1,8,0:0:0:0:
320,198,174166,1,0,0:0:0:0:
320,198,174249,1,0,0:0:0:0:
320,198,174333,1,8,0:0:0:0:
292,193,174499,1,8,0:0:0:0:
292,193,174583,1,8,0:0:0:0:
292,193,174666,1,0,0:0:0:0:
292,193,174833,1,0,0:0:0:0:
256,224,174916,1,8,0:0:0:0:
291,194,174999,1,8,0:0:0:0:
228,203,175083,1,0,0:0:0:0:
228,203,175166,1,0,0:0:0:0:
228,203,175249,1,0,0:0:0:0:
227,197,175333,1,8,0:0:0:0:
271,181,175499,1,0,0:0:0:0:
271,181,175666,1,8,0:0:0:0:
276,201,175749,1,0,0:0:0:0:
276,201,175833,1,8,0:0:0:0:
276,201,175916,1,8,0:0:0:0:
276,201,175999,1,0,0:0:0:0:
277,191,176166,1,0,0:0:0:0:
224,192,176249,1,8,0:0:0:0:
277,191,176333,1,8,0:0:0:0:
286,185,176416,1,0,0:0:0:0:
286,185,176499,1,0,0:0:0:0:
286,185,176583,1,0,0:0:0:0:
286,185,176666,1,8,0:0:0:0:
299,208,176749,1,0,0:0:0:0:
299,208,176833,1,8,0:0:0:0:
299,208,176916,1,8,0:0:0:0:
299,208,176999,1,4,0:0:0:0:
282,208,177166,1,0,0:0:0:0:
282,208,177249,1,0,0:0:0:0:
282,209,177333,1,8,0:0:0:0:
212,211,177416,1,0,0:0:0:0:
275,217,177499,1,8,0:0:0:0:
275,217,177583,1,8,0:0:0:0:
275,217,177666,1,0,0:0:0:0:
275,217,177833,1,0,0:0:0:0:
275,217,177999,1,8,0:0:0:0:
241,179,178083,1,0,0:0:0:0:
241,179,178166,1,0,0:0:0:0:
241,179,178249,1,0,0:0:0:0:
241,179,178333,1,8,0:0:0:0:
276,185,178416,1,8,0:0:0:0:
276,185,178499,1,0,0:0:0:0:
128,160,178583,1,0,0:0:0:0:
276,185,178666,1,8,0:0:0:0:
248,179,178833,1,0,0:0:0:0:
384,64,178916,1,8,0:0:0:0:
248,179,178999,1,8,0:0:0:0:
276,197,179083,1,0,0:0:0:0:
276,197,179166,1,0,0:0:0:0:
276,197,179249,1,0,0:0:0:0:
276,197,179333,1,8,0:0:0:0:
290,182,179499,1,8,0:0:0:0:
290,182,179666,1,0,0:0:0:0:
305,193,179749,1,8,0:0:0:0:
305,193,179833,1,0,0:0:0:0:
305,193,179916,1,0,0:0:0:0:
305,192,179999,1,8,0:0:0:0:
256,160,180083,1,8,0:0:0:0:
256,160,180166,1,0,0:0:0:0:
256,160,180249,1,0,0:0:0:0:
256,160,180333,1,8,0:0:0:0:
299,231,180499,1,0,0:0:0:0:
299,231,180666,1,8,0:0:0:0:
299,202,180749,1,0,0:0:0:0:
299,202,180833,1,0,0:0:0:0:
299,202,180916,1,0,0:0:0:0:
299,202,180999,1,8,0:0:0:0:
301,180,181166,1,0,0:0:0:0:
301,180,181249,1,0,0:0:0:0:
301,180,181333,1,8,0:0:0:0:
298,185,181499,1,0,0:0:0:0:
298,185,181583,1,8,0:0:0:0:
298,185,181666,1,8,0:0:0:0:
298,185,181749,1,0,0:0:0:0:
298,185,181833,1,0,0:0:0:0:
298,185,181916,1,0,0:0:0:0:
298,185,181999,1,8,0:0:0:0:
267,176,182083,1,8,0:0:0:0:
267,176,182166,1,8,0:0:0:0:
267,176,182249,1,8,0:0:0:0:
267,176,182333,1,4,0:0:0:0:
291,182,182499,1,0,0:0:0:0:
141,200,182583,1,0,0:0:0:0:
218,202,182666,1,8,0:0:0:0:
224,192,182749,1,8,0:0:0:0:
275,205,182833,1,0,0:0:0:0:
288,224,182916,1,8,0:0:0:0:
275,205,182999,1,0,0:0:0:0:
275,205,183166,1,0,0:0:0:0:
275,205,183333,1,8,0:0:0:0:
224,192,183416,1,0,0:0:0:0:
260,217,183499,1,8,0:0:0:0:
260,217,183583,1,8,0:0:0:0:
260,217,183666,1,0,0:0:0:0:
264,197,183833,1,0,0:0:0:0:
264,197,183916,1,0,0:0:0:0:
264,197,183999,1,8,0:0:0:0:
275,205,184166,1,0,0:0:0:0:
275,201,184249,1,8,0:0:0:0:
275,201,184333,1,8,0:0:0:0:
275,201,184416,1,0,0:0:0:0:
275,201,184499,1,0,0:0:0:0:
296,191,184583,1,0,0:0:0:0:
296,191,184666,1,8,0:0:0:0:
252,201,184749,1,8,0:0:0:0:
253,201,184833,1,0,0:0:0:0:
252,201,184916,1,0,0:0:0:0:
252,201,184999,1,8,0:0:0:0:
242,191,185166,1,0,0:0:0:0:
281,210,185333,1,8,0:0:0:0:
277,195,185416,1,0,0:0:0:0:
278,195,185499,1,0,0:0:0:0:
268,190,185583,1,8,0:0:0:0:
268,190,185666,1,8,0:0:0:0:
272,187,185749,1,0,0:0:0:0:
272,187,185833,1,0,0:0:0:0:
272,187,185916,1,0,0:0:0:0:
272,187,185999,1,8,0:0:0:0:
287,198,186166,1,0,0:0:0:0:
304,191,186333,1,8,0:0:0:0:
304,191,186416,1,0,0:0:0:0:
304,191,186499,1,0,0:0:0:0:
304,191,186583,1,0,0:0:0:0:
304,191,186666,1,8,0:0:0:0:
259,194,186749,1,0,0:0:0:0:
266,194,186833,1,8,0:0:0:0:
266,194,186916,1,8,0:0:0:0:
266,194,186999,1,0,0:0:0:0:
305,203,187166,1,0,0:0:0:0:
305,202,187333,1,8,0:0:0:0:
302,197,187416,1,0,0:0:0:0:
302,197,187499,1,8,0:0:0:0:
302,197,187583,1,8,0:0:0:0:
302,197,187666,1,4,0:0:0:0:
251,198,187833,1,0,0:0:0:0:
251,198,187916,1,0,0:0:0:0:
251,198,187999,1,8,0:0:0:0:
294,222,188083,1,0,0:0:0:0:
279,222,188166,1,0,0:0:0:0:
279,222,188249,1,8,0:0:0:0:
281,222,188333,1,8,0:0:0:0:
182,216,188416,1,8,0:0:0:0:
241,215,188499,1,0,0:0:0:0:
241,215,188583,1,0,0:0:0:0:
241,215,188666,1,8,0:0:0:0:
241,215,188749,1,0,0:0:0:0:
244,206,188833,1,8,0:0:0:0:
240,206,188916,1,8,0:0:0:0:
240,206,188999,1,4,0:0:0:0:
215,191,189166,1,0,0:0:0:0:
215,191,189249,1,0,0:0:0:0:
215,191,189333,1,8,0:0:0:0:
215,191,189416,1,0,0:0:0:0:
215,191,189499,1,0,0:0:0:0:
215,191,189583,1,8,0:0:0:0:
215,191,189666,1,8,0:0:0:0:
236,207,189749,1,0,0:0:0:0:
270,203,189833,1,0,0:0:0:0:
270,203,189916,1,0,0:0:0:0:
270,203,189999,1,8,0:0:0:0:
238,124,190083,1,8,0:0:0:0:
238,124,190166,1,8,0:0:0:0:
238,124,190249,1,8,0:0:0:0:
235,127,190333,1,4,0:0:0:0:
226,177,190499,1,0,0:0:0:0:
226,177,190583,1,0,0:0:0:0:
226,177,190666,1,8,0:0:0:0:
246,169,190749,1,0,0:0:0:0:
234,156,190833,1,8,0:0:0:0:
234,156,190916,1,8,0:0:0:0:
251,184,190999,1,4,0:0:0:0:
257,187,191166,1,0,0:0:0:0:
256,190,191249,1,0,0:0:0:0:
256,160,191333,1,8,0:0:0:0:
257,173,191416,1,8,0:0:0:0:
257,173,191499,1,8,0:0:0:0:
256,172,191583,1,8,0:0:0:0:
257,173,191666,1,4,0:0:0:0:
256,160,191833,1,8,0:0:0:0:
256,160,191916,1,8,0:0:0:0:
256,160,191999,1,4,0:0:0:0:
300,161,192166,1,8,0:0:0:0:
300,161,192249,1,8,0:0:0:0:
300,161,192333,1,4,0:0:0:0:
275,210,192499,1,8,0:0:0:0:
293,207,192583,1,8,0:0:0:0:
293,207,192666,1,0,0:0:0:0:
293,207,192749,1,0,0:0:0:0:
293,207,192833,1,0,0:0:0:0:
293,207,192916,1,0,0:0:0:0:
293,207,192999,1,12,0:0:0:0:
288,224,193166,1,0,0:0:0:0:
288,224,193249,1,0,0:0:0:0:
288,224,193333,1,8,0:0:0:0:
288,224,193499,1,8,0:0:0:0:
192,192,193583,1,0,0:0:0:0:
288,224,193666,1,8,0:0:0:0:
192,224,193749,1,0,0:0:0:0:
288,224,193833,1,0,0:0:0:0:
288,224,193916,1,0,0:0:0:0:
288,224,193999,1,8,0:0:0:0:
288,224,194166,1,0,0:0:0:0:
288,224,194249,1,0,0:0:0:0:
288,224,194333,1,8,0:0:0:0:
288,192,194499,1,0,0:0:0:0:
288,192,194666,1,8,0:0:0:0:
288,192,194749,1,0,0:0:0:0:
256,192,194833,1,0,0:0:0:0:
256,192,194916,1,8,0:0:0:0:
256,192,194999,1,8,0:0:0:0:
320,192,195166,1,0,0:0:0:0:
320,192,195249,1,0,0:0:0:0:
320,192,195333,1,8,0:0:0:0:
256,224,195499,1,8,0:0:0:0:
288,192,195666,1,0,0:0:0:0:
256,192,195833,1,8,0:0:0:0:
256,192,195916,1,8,0:0:0:0:
256,192,195999,1,0,0:0:0:0:
256,192,196166,1,8,0:0:0:0:
320,192,196249,1,8,0:0:0:0:
256,192,196333,1,0,0:0:0:0:
256,192,196416,1,0,0:0:0:0:
256,192,196499,1,0,0:0:0:0:
256,192,196583,1,0,0:0:0:0:
256,192,196666,1,8,0:0:0:0:
224,192,196833,1,8,0:0:0:0:
224,192,196999,1,0,0:0:0:0:
192,224,197083,1,0,0:0:0:0:
256,224,197166,1,8,0:0:0:0:
224,192,197249,1,0,0:0:0:0:
224,192,197333,1,8,0:0:0:0:
256,192,197499,1,0,0:0:0:0:
256,192,197583,1,8,0:0:0:0:
256,192,197666,1,0,0:0:0:0:
224,224,197833,1,8,0:0:0:0:
256,192,197999,1,0,0:0:0:0:
288,192,198083,1,8,0:0:0:0:
288,192,198166,1,8,0:0:0:0:
288,192,198249,1,8,0:0:0:0:
256,192,198333,1,4,0:0:0:0:
192,192,198499,1,0,0:0:0:0:
192,192,198583,1,0,0:0:0:0:
256,224,198666,1,8,0:0:0:0:
256,192,198833,1,0,0:0:0:0:
288,224,198916,1,8,0:0:0:0:
288,224,198999,1,0,0:0:0:0:
256,160,199083,1,0,0:0:0:0:
256,160,199166,1,8,0:0:0:0:
256,160,199249,1,8,0:0:0:0:
256,160,199333,1,0,0:0:0:0:
256,160,199499,1,8,0:0:0:0:
256,160,199666,1,0,0:0:0:0:
256,160,199833,1,8,0:0:0:0:
256,160,199916,1,8,0:0:0:0:
256,160,199999,1,0,0:0:0:0:
256,192,200166,1,0,0:0:0:0:
288,192,200249,1,8,0:0:0:0:
256,160,200333,1,8,0:0:0:0:
288,192,200416,1,0,0:0:0:0:
288,192,200499,1,0,0:0:0:0:
288,160,200666,1,8,0:0:0:0:
256,192,200833,1,0,0:0:0:0:
256,192,200916,1,0,0:0:0:0:
256,192,200999,1,8,0:0:0:0:
256,192,201166,1,0,0:0:0:0:
256,192,201333,1,8,0:0:0:0:
256,192,201416,1,0,0:0:0:0:
256,192,201499,1,0,0:0:0:0:
256,192,201583,1,8,0:0:0:0:
256,192,201666,1,8,0:0:0:0:
224,192,201833,1,0,0:0:0:0:
256,192,201999,1,8,0:0:0:0:
256,192,202083,1,0,0:0:0:0:
256,192,202166,1,0,0:0:0:0:
256,192,202249,1,0,0:0:0:0:
256,192,202333,1,8,0:0:0:0:
224,192,202499,1,0,0:0:0:0:
224,192,202583,1,0,0:0:0:0:
224,192,202666,1,8,0:0:0:0:
256,192,202833,1,0,0:0:0:0:
256,192,202916,1,0,0:0:0:0:
256,192,202999,1,8,0:0:0:0:
288,160,203166,1,0,0:0:0:0:
288,160,203249,1,0,0:0:0:0:
288,160,203333,1,8,0:0:0:0:
224,192,203416,1,8,0:0:0:0:
224,192,203499,1,8,0:0:0:0:
224,192,203583,1,8,0:0:0:0:
224,192,203666,1,4,0:0:0:0:
288,192,203833,1,8,0:0:0:0:
288,192,203916,1,0,0:0:0:0:
288,192,203999,1,8,0:0:0:0:
256,192,204083,1,8,0:0:0:0:
256,192,204166,1,8,0:0:0:0:
256,192,204249,1,0,0:0:0:0:
256,192,204333,1,8,0:0:0:0:
256,192,204416,1,8,0:0:0:0:
256,192,204499,1,0,0:0:0:0:
256,192,204583,1,0,0:0:0:0:
256,192,204666,1,8,0:0:0:0:
288,192,204833,1,0,0:0:0:0:
288,192,204999,1,8,0:0:0:0:
288,192,205083,1,8,0:0:0:0:
288,192,205166,1,8,0:0:0:0:
288,192,205249,1,0,0:0:0:0:
288,192,205333,1,8,0:0:0:0:
288,192,205416,1,8,0:0:0:0:
288,192,205499,1,0,0:0:0:0:
288,192,205583,1,8,0:0:0:0:
288,192,205666,1,8,0:0:0:0:
256,192,205749,1,0,0:0:0:0:
256,192,205833,1,0,0:0:0:0:
256,192,205916,1,0,0:0:0:0:
256,192,205999,1,8,0:0:0:0:
256,224,206166,1,0,0:0:0:0:
320,192,206333,1,8,0:0:0:0:
288,192,206416,1,0,0:0:0:0:
288,192,206499,1,0,0:0:0:0:
288,192,206583,1,0,0:0:0:0:
288,192,206666,1,8,0:0:0:0:
288,192,206749,1,8,0:0:0:0:
288,192,206833,1,0,0:0:0:0:
288,192,206916,1,8,0:0:0:0:
288,192,206999,1,8,0:0:0:0:
224,256,207083,1,0,0:0:0:0:
288,192,207166,1,0,0:0:0:0:
320,192,207249,1,0,0:0:0:0:
320,192,207333,1,8,0:0:0:0:
320,192,207499,1,0,0:0:0:0:
320,192,207666,1,0,0:0:0:0:
288,192,207749,1,8,0:0:0:0:
288,192,207833,1,0,0:0:0:0:
288,160,207916,1,0,0:0:0:0:
288,192,207999,1,8,0:0:0:0:
288,192,208083,1,0,0:0:0:0:
352,224,208166,1,0,0:0:0:0:
352,224,208249,1,8,0:0:0:0:
352,224,208333,1,8,0:0:0:0:
288,192,208416,1,0,0:0:0:0:
288,192,208499,1,0,0:0:0:0:
288,224,208583,1,0,0:0:0:0:
288,192,208666,1,8,0:0:0:0:
128,192,208749,1,8,0:0:0:0:
288,192,208833,1,8,0:0:0:0:
256,160,208916,1,8,0:0:0:0:
288,192,208999,1,4,0:0:0:0:
288,224,209166,1,0,0:0:0:0:
256,192,209249,1,0,0:0:0:0:
256,192,209333,1,8,0:0:0:0:
256,160,209416,1,0,0:0:0:0:
256,160,209499,1,8,0:0:0:0:
256,160,209583,1,8,0:0:0:0:
256,160,209666,1,0,0:0:0:0:
256,160,209749,1,0,0:0:0:0:
256,160,209833,1,0,0:0:0:0:
256,160,209916,1,0,0:0:0:0:
256,160,209999,1,8,0:0:0:0:
224,192,210083,1,0,0:0:0:0:
256,192,210166,1,8,0:0:0:0:
256,192,210249,1,8,0:0:0:0:
256,192,210333,1,4,0:0:0:0:
256,224,210499,1,0,0:0:0:0:
256,192,210583,1,0,0:0:0:0:
256,192,210666,1,8,0:0:0:0:
256,192,210749,1,0,0:0:0:0:
256,192,210833,1,8,0:0:0:0:
256,192,210916,1,8,0:0:0:0:
256,192,210999,1,0,0:0:0:0:
256,192,211083,1,0,0:0:0:0:
256,192,211166,1,8,0:0:0:0:
256,192,211249,1,0,0:0:0:0:
224,192,211333,1,8,0:0:0:0:
256,192,211416,1,8,0:0:0:0:
256,192,211499,1,8,0:0:0:0:
256,192,211583,1,8,0:0:0:0:
256,192,211666,1,4,0:0:0:0:
256,192,211833,1,0,0:0:0:0:
256,192,211916,1,0,0:0:0:0:
256,192,211999,1,8,0:0:0:0:
256,192,212083,1,0,0:0:0:0:
256,192,212166,1,8,0:0:0:0:
256,192,212249,1,8,0:0:0:0:
256,192,212333,1,4,0:0:0:0:
224,192,212499,1,0,0:0:0:0:
224,192,212583,1,0,0:0:0:0:
224,192,212666,1,8,0:0:0:0:
224,192,212749,1,8,0:0:0:0:
224,192,212833,1,8,0:0:0:0:
224,192,212916,1,8,0:0:0:0:
224,192,212999,1,4,0:0:0:0:
256,192,213166,1,8,0:0:0:0:
256,192,213249,1,8,0:0:0:0:
256,192,213333,1,4,0:0:0:0:
256,192,213499,1,8,0:0:0:0:
256,192,213583,1,8,0:0:0:0:
256,192,213666,1,4,0:0:0:0:
256,192,213833,1,8,0:0:0:0:
256,192,213916,1,8,0:0:0:0:
256,192,213999,1,0,0:0:0:0:
256,192,214083,1,0,0:0:0:0:
256,192,214166,1,0,0:0:0:0:
256,192,214249,1,0,0:0:0:0:
256,192,214333,1,12,0:0:0:0:
288,192,214499,1,8,0:0:0:0:
256,192,214666,1,0,0:0:0:0:
288,192,214833,1,0,0:0:0:0:
256,192,214999,1,8,0:0:0:0:
256,192,215166,1,8,0:0:0:0:
256,192,215249,1,8,0:0:0:0:
256,192,215333,1,0,0:0:0:0:
288,192,215499,1,0,0:0:0:0:
256,192,215666,1,8,0:0:0:0:
288,192,215833,1,8,0:0:0:0:
288,192,215999,1,0,0:0:0:0:
288,192,216166,1,0,0:0:0:0:
288,192,216333,1,8,0:0:0:0:
256,192,216499,1,8,0:0:0:0:
256,192,216583,1,8,0:0:0:0:
256,192,216666,1,0,0:0:0:0:
256,224,216833,1,8,0:0:0:0:
288,192,216916,1,0,0:0:0:0:
288,192,216999,1,8,0:0:0:0:
256,160,217166,1,8,0:0:0:0:
288,192,217333,1,0,0:0:0:0:
288,192,217499,1,0,0:0:0:0:
288,192,217666,1,8,0:0:0:0:
288,192,217833,1,8,0:0:0:0:
288,192,217916,1,8,0:0:0:0:
288,192,217999,1,0,0:0:0:0:
288,192,218166,1,0,0:0:0:0:
288,192,218333,1,8,0:0:0:0:
288,192,218499,1,0,0:0:0:0:
288,192,218666,1,8,0:0:0:0:
288,192,218833,1,0,0:0:0:0:
288,192,218916,1,8,0:0:0:0:
288,192,218999,1,0,0:0:0:0:
288,192,219166,1,8,0:0:0:0:
288,192,219249,1,8,0:0:0:0:
288,192,219333,1,0,0:0:0:0:
288,192,219499,1,0,0:0:0:0:
288,192,219583,1,0,0:0:0:0:
288,192,219666,1,12,0:0:0:0:
288,192,219833,1,0,0:0:0:0:
320,192,219999,1,8,0:0:0:0:
288,192,220166,1,8,0:0:0:0:
288,192,220333,1,0,0:0:0:0:
288,192,220499,1,0,0:0:0:0:
288,192,220666,1,8,0:0:0:0:
256,192,220833,1,0,0:0:0:0:
256,192,220916,1,0,0:0:0:0:
256,192,220999,1,8,0:0:0:0:
256,192,221166,1,0,0:0:0:0:
256,192,221333,1,8,0:0:0:0:
256,192,221499,1,8,0:0:0:0:
256,192,221666,1,0,0:0:0:0:
288,160,221833,1,0,0:0:0:0:
288,160,221999,1,8,0:0:0:0:
320,224,222166,1,0,0:0:0:0:
320,224,222249,1,8,0:0:0:0:
320,224,222333,1,0,0:0:0:0:
320,192,222499,1,0,0:0:0:0:
320,192,222666,1,8,0:0:0:0:
320,192,222833,1,8,0:0:0:0:
320,192,222999,1,0,0:0:0:0:
320,192,223166,1,0,0:0:0:0:
320,192,223333,1,8,0:0:0:0:
320,192,223499,1,0,0:0:0:0:
288,192,223583,1,0,0:0:0:0:
320,192,223666,1,8,0:0:0:0:
256,192,223833,1,0,0:0:0:0:
256,192,223999,1,8,0:0:0:0:
256,192,224166,1,0,0:0:0:0:
300,205,224249,1,8,0:0:0:0:
256,192,224333,1,0,0:0:0:0:
256,192,224499,1,8,0:0:0:0:
256,192,224666,1,8,0:0:0:0:
256,224,224749,1,0,0:0:0:0:
256,192,224833,1,8,0:0:0:0:
256,192,224916,1,0,0:0:0:0:
256,192,224999,1,12,0:0:0:0:
256,192,225333,1,8,0:0:0:0:
256,160,225499,1,0,0:0:0:0:
256,160,225583,1,0,0:0:0:0:
256,160,225666,1,8,0:0:0:0:
256,160,225833,1,0,0:0:0:0:
256,160,225999,1,8,0:0:0:0:
256,160,226166,1,8,0:0:0:0:
256,192,226333,1,0,0:0:0:0:
256,192,226666,1,8,0:0:0:0:
256,192,226833,1,0,0:0:0:0:
256,192,226916,1,0,0:0:0:0:
256,192,226999,1,8,0:0:0:0:
256,192,227166,1,8,0:0:0:0:
256,192,227333,1,0,0:0:0:0:
256,192,227499,1,8,0:0:0:0:
256,192,227583,1,0,0:0:0:0:
256,192,227666,1,8,0:0:0:0:
256,160,227999,1,0,0:0:0:0:
288,192,228166,1,0,0:0:0:0:
288,192,228249,1,0,0:0:0:0:
288,192,228333,1,8,0:0:0:0:
288,192,228666,1,0,0:0:0:0:
288,192,228833,1,0,0:0:0:0:
192,160,228916,1,0,0:0:0:0:
288,192,228999,1,8,0:0:0:0:
288,192,229333,1,0,0:0:0:0:
288,192,229499,1,0,0:0:0:0:
288,192,229583,1,8,0:0:0:0:
288,192,229666,1,0,0:0:0:0:
256,160,229833,1,0,0:0:0:0:
320,192,229999,1,8,0:0:0:0:
320,192,230166,1,0,0:0:0:0:
320,192,230249,1,0,0:0:0:0:
320,192,230333,1,12,0:0:0:0:
224,192,230666,1,0,0:0:0:0:
224,192,230999,1,8,0:0:0:0:
224,192,231166,1,8,0:0:0:0:
224,192,231249,1,8,0:0:0:0:
224,192,231333,1,0,0:0:0:0:
256,192,231666,1,8,0:0:0:0:
256,192,231999,1,0,0:0:0:0:
256,192,232333,1,8,0:0:0:0:
256,192,232499,1,8,0:0:0:0:
256,192,232583,1,8,0:0:0:0:
256,192,232666,1,0,0:0:0:0:
237,183,232833,1,8,0:0:0:0:
160,192,232916,1,0,0:0:0:0:
256,192,232999,1,8,0:0:0:0:
256,160,233333,1,0,0:0:0:0:
256,160,233666,1,8,0:0:0:0:
224,160,233833,1,0,0:0:0:0:
224,160,233916,1,0,0:0:0:0:
224,160,233999,1,0,0:0:0:0:
256,192,234333,1,8,0:0:0:0:
256,192,234666,1,0,0:0:0:0:
288,224,234916,1,8,0:0:0:0:
288,224,234999,1,0,0:0:0:0:
320,224,235083,1,0,0:0:0:0:
320,224,235166,1,8,0:0:0:0:
224,192,235249,1,8,0:0:0:0:
288,192,235333,1,0,0:0:0:0:
320,192,235416,1,0,0:0:0:0:
288,192,235499,1,0,0:0:0:0:
288,192,235583,1,0,0:0:0:0:
