osu file format v14

[General]
AudioFilename: audio.mp3
AudioLeadIn: 0
PreviewTime: 43666
Countdown: 1
SampleSet: None
StackLeniency: 0.7
Mode: 0
LetterboxInBreaks: 0
WidescreenStoryboard: 0

[Editor]
Bookmarks: 22348,43666,64999,86348,106348,129014,150348,171681,193014,214348,225014
DistanceSpacing: 1.7
BeatDivisor: 4
GridSize: 4
TimelineZoom: 4.399998

[Metadata]
Title:AiAe
TitleUnicode:AiAe
Artist:Yuyoyuppe
ArtistUnicode:ゆよゆっぺ
Creator:Bokamin
Version:Collab Extra
Source:
Tags:
BeatmapID:2443258
BeatmapSetID:791026

[Difficulty]
HPDrainRate:6
CircleSize:4
OverallDifficulty:9
ApproachRate:9.6
SliderMultiplier:1.7
SliderTickRate:1

[Events]
//Background and Video events
0,0,"maxresdefault.jpg",0,0
//Break Periods
2,22538,26829
//Storyboard Layer 0 (Background)
//Storyboard Layer 1 (Fail)
//Storyboard Layer 2 (Pass)
//Storyboard Layer 3 (Foreground)
//Storyboard Layer 4 (Overlay)
//Storyboard Sound Samples

[TimingPoints]
1005,333.333333333333,4,1,0,100,1,0
27338,-66.6666666666667,4,1,0,100,0,0
27671,-90.9090909090909,4,1,0,100,0,0
30004,-66.6666666666667,4,1,0,100,0,0
30338,-100,4,1,0,100,0,0
31671,-83.3333333333333,4,1,0,100,0,0
32671,-100,4,1,0,100,0,0
43671,-100,4,1,0,100,0,1
49004,-90.9090909090909,4,1,0,100,0,1
53921,-90.9090909090909,4,1,0,80,0,1
54004,-90.9090909090909,4,1,0,100,0,1
54338,-95.2380952380952,4,1,0,100,0,1
59671,-90.9090909090909,4,1,0,100,0,1
62338,-83.3333333333333,4,1,0,100,0,1
63004,-76.9230769230769,4,1,0,100,0,1
63671,-90.9090909090909,4,1,0,100,0,1
65004,-100,4,1,0,100,0,0
107338,-200,4,1,0,100,0,0
107671,-100,4,1,0,100,0,0
108171,-100,4,1,0,5,0,0
108338,-100,4,1,0,100,0,0
109504,-100,4,1,0,5,0,0
109671,-100,4,1,0,100,0,0
110171,-100,4,1,0,5,0,0
110338,-100,4,1,0,100,0,0
112504,-100,4,1,0,40,0,0
112671,-100,4,1,0,50,0,0
113004,-100,4,1,0,100,0,0
113504,-100,4,1,0,5,0,0
113671,-100,4,1,0,100,0,0
114921,-100,4,1,0,5,0,0
115004,-100,4,1,0,100,0,0
115588,-100,4,1,0,5,0,0
115671,-100,4,1,0,100,0,0
118838,-100,4,1,0,5,0,0
119004,-100,4,1,0,100,0,0
120171,-100,4,1,0,5,0,0
120338,-100,4,1,0,100,0,0
120838,-100,4,1,0,5,0,0
121004,-100,4,1,0,100,0,0
122588,-100,4,1,0,5,0,0
122671,-100,4,1,0,100,0,0
123254,-100,4,1,0,5,0,0
123338,-100,4,1,0,100,0,0
123588,-100,4,1,0,5,0,0
123671,-100,4,1,0,100,0,0
124171,-100,4,1,0,5,0,0
124338,-100,4,1,0,100,0,0
125504,-100,4,1,0,5,0,0
125671,-100,4,1,0,100,0,0
126171,-100,4,1,0,5,0,0
126338,-100,4,1,0,100,0,0
127671,-111.111111111111,4,1,0,40,0,0
129004,-100,4,1,0,100,0,0
149004,-66.6666666666667,4,1,0,100,0,0
149338,-100,4,1,0,100,0,0
155338,-66.6666666666667,4,1,0,100,0,0
155671,-100,4,1,0,100,0,0
171088,-200,4,1,0,100,0,0
171671,-100,4,1,0,100,0,1
214338,-100,4,1,0,100,0,0

[HitObjects]
40,24,671,6,0,L|32:168,1,127.5
9,232,1005,2,0,L|124:226,1,85
251,220,1338,1,0,0:0:0:0:
166,105,1504,1,0,0:0:0:0:
162,126,1588,1,0,0:0:0:0:
158,146,1671,1,0,0:0:0:0:
154,166,1754,1,0,0:0:0:0:
150,187,1838,1,0,0:0:0:0:
230,35,2004,6,0,B|323:21|323:21|369:37,1,127.5
301,126,2338,2,0,L|198:141,1,85
354,31,2671,1,0,0:0:0:0:
467,118,2838,1,0,0:0:0:0:
468,96,2921,1,0,0:0:0:0:
470,74,3004,1,0,0:0:0:0:
472,52,3088,1,0,0:0:0:0:
474,30,3171,1,0,0:0:0:0:
419,257,3338,6,0,L|426:377,1,85
423,341,3588,1,0,0:0:0:0:
423,341,3671,5,0,0:0:0:0:
505,211,3838,1,0,0:0:0:0:
390,346,4004,1,0,0:0:0:0:
192,281,4171,1,0,0:0:0:0:
213,280,4254,1,0,0:0:0:0:
234,279,4338,1,0,0:0:0:0:
255,278,4421,1,0,0:0:0:0:
276,278,4504,1,0,0:0:0:0:
134,384,4671,6,0,P|104:305|108:242,1,127.5
245,263,5004,2,0,L|159:249,1,85
325,180,5254,1,0,0:0:0:0:
355,188,5338,2,0,L|454:209,1,85
479,350,5671,5,0,0:0:0:0:
469,321,5754,1,0,0:0:0:0:
459,292,5838,1,0,0:0:0:0:
288,352,6004,1,0,0:0:0:0:
326,324,6088,1,0,0:0:0:0:
339,279,6171,1,0,0:0:0:0:
332,232,6254,1,0,0:0:0:0:
297,199,6338,6,0,P|267:264|275:328,1,127.5
297,199,6671,2,0,L|281:107,1,85
197,20,6921,1,0,0:0:0:0:
159,24,7004,1,0,0:0:0:0:
120,28,7088,1,0,0:0:0:0:
82,32,7171,1,0,0:0:0:0:
0,155,7338,6,0,L|138:145,1,127.5
204,235,7671,2,0,L|184:326,1,85
125,146,7921,1,0,0:0:0:0:
125,146,8004,2,0,L|148:48,1,85
239,189,8254,1,0,0:0:0:0:
245,226,8338,1,0,0:0:0:0:
252,263,8421,1,0,0:0:0:0:
259,300,8504,1,0,0:0:0:0:
456,283,8671,5,0,0:0:0:0:
422,265,8754,2,0,L|306:272,1,85
251,346,9004,2,0,L|146:353,1,85
19,384,9338,2,0,P|10:339|25:284,1,85
61,218,9588,1,0,0:0:0:0:
48,181,9671,1,0,0:0:0:0:
36,144,9754,1,0,0:0:0:0:
23,107,9838,1,0,0:0:0:0:
155,20,10004,6,0,L|142:129,1,85
143,98,10254,1,0,0:0:0:0:
143,98,10338,1,0,0:0:0:0:
0,111,10504,1,0,0:0:0:0:
274,23,10671,2,0,L|263:121,1,85
406,29,11004,1,0,0:0:0:0:
401,71,11087,1,0,0:0:0:0:
396,113,11170,1,0,0:0:0:0:
314,234,11338,5,0,0:0:0:0:
364,242,11421,1,0,0:0:0:0:
413,251,11504,1,0,0:0:0:0:
463,260,11588,1,0,0:0:0:0:
512,268,11671,1,0,0:0:0:0:
297,384,11838,5,0,0:0:0:0:
141,231,12004,2,0,L|237:231,1,85
88,348,12254,1,0,0:0:0:0:
82,314,12338,1,0,0:0:0:0:
77,280,12421,1,0,0:0:0:0:
72,246,12504,1,0,0:0:0:0:
206,131,12671,6,0,L|312:154,1,85
394,170,12921,1,0,0:0:0:0:
394,170,13004,1,0,0:0:0:0:
500,371,13171,1,0,0:0:0:0:
454,208,13338,2,0,L|446:301,1,85
389,361,13588,1,0,0:0:0:0:
355,368,13671,1,0,0:0:0:0:
321,375,13754,1,0,0:0:0:0:
287,382,13838,1,0,0:0:0:0:
50,243,14004,5,0,0:0:0:0:
91,230,14088,1,0,0:0:0:0:
133,225,14171,1,0,0:0:0:0:
175,226,14254,1,0,0:0:0:0:
217,229,14338,6,0,L|250:129,1,85
286,70,14588,1,0,0:0:0:0:
286,70,14671,2,0,L|348:150,1,85
419,318,15004,2,0,L|302:314,1,85
218,378,15254,1,0,0:0:0:0:
175,377,15338,1,0,0:0:0:0:
132,377,15421,1,0,0:0:0:0:
89,376,15504,1,0,0:0:0:0:
334,315,15671,6,0,L|419:318,1,85
241,384,15921,1,0,0:0:0:0:
241,384,16004,2,0,L|243:279,1,85
82,225,16338,1,0,0:0:0:0:
86,267,16421,1,0,0:0:0:0:
90,309,16504,1,0,0:0:0:0:
256,135,16671,5,0,0:0:0:0:
205,134,16754,1,0,0:0:0:0:
153,133,16838,1,0,0:0:0:0:
102,133,16921,1,0,0:0:0:0:
51,133,17004,1,0,0:0:0:0:
212,250,17171,5,0,0:0:0:0:
346,129,17338,2,0,L|461:127,1,85
510,196,17588,1,0,0:0:0:0:
509,225,17671,1,0,0:0:0:0:
508,254,17754,1,0,0:0:0:0:
508,283,17838,1,0,0:0:0:0:
451,113,18004,6,0,P|444:53|493:8,1,127.5
354,137,18338,2,0,L|258:126,1,85
501,77,18671,2,0,L|514:171,1,85
372,29,18921,1,0,0:0:0:0:
342,25,19004,1,0,0:0:0:0:
312,21,19088,1,0,0:0:0:0:
282,17,19171,1,0,0:0:0:0:
246,164,19338,6,0,L|237:65,1,85
185,251,19588,1,0,0:0:0:0:
185,251,19671,2,0,L|193:348,1,85
84,167,20004,2,0,L|-13:178,1,85
176,84,20338,2,0,L|169:0,1,85
32,71,20671,5,0,0:0:0:0:
26,117,20754,1,0,0:0:0:0:
20,163,20838,1,0,0:0:0:0:
15,209,20921,1,0,0:0:0:0:
10,255,21004,2,0,L|21:350,1,85
115,225,21254,5,0,0:0:0:0:
110,271,21337,2,0,L|121:366,1,85
238,365,21588,5,0,0:0:0:0:
269,378,21671,2,0,L|374:377,1,85
468,343,21921,6,0,L|483:374,1,21.25
473,325,22004,1,0,0:0:0:0:
465,252,22088,1,0,0:0:0:0:
457,180,22171,1,0,0:0:0:0:
449,108,22254,1,0,0:0:0:0:
441,35,22338,1,0,0:0:0:0:
134,23,27338,6,0,L|112:271,1,191.250007295609
107,281,27671,2,0,B|236:351|236:351|384:174|384:174|225:258|225:258|412:258|412:258|514:122|514:122|392:77|392:77|174:189,1,1262.25003852081
107,281,30004,2,0,B|207:309|207:309|312:289,1,191.250007295609
473,227,30338,2,0,P|414:360|396:136,1,637.5
473,227,31671,2,0,B|306:307|207:131|45:233,1,407.999987548829
38,262,32504,5,0,0:0:0:0:
41,311,32588,1,0,0:0:0:0:
48,364,32671,2,0,L|193:355,1,127.5
359,378,33004,5,0,0:0:0:0:
356,356,33088,1,0,0:0:0:0:
353,334,33171,1,0,0:0:0:0:
350,312,33254,1,0,0:0:0:0:
328,285,33338,1,0,0:0:0:0:
331,263,33422,1,0,0:0:0:0:
333,240,33505,1,0,0:0:0:0:
335,218,33588,1,0,0:0:0:0:
362,193,33671,1,0,0:0:0:0:
359,171,33755,1,0,0:0:0:0:
356,149,33838,1,0,0:0:0:0:
353,127,33921,1,0,0:0:0:0:
349,106,34004,5,0,0:0:0:0:
308,144,34088,1,0,0:0:0:0:
254,157,34171,1,0,0:0:0:0:
199,152,34254,1,0,0:0:0:0:
148,128,34338,5,0,0:0:0:0:
135,130,34421,1,0,0:0:0:0:
122,132,34504,1,0,0:0:0:0:
109,134,34588,1,0,0:0:0:0:
75,175,34671,1,0,0:0:0:0:
87,177,34754,1,0,0:0:0:0:
99,179,34838,1,0,0:0:0:0:
111,181,34921,1,0,0:0:0:0:
146,223,35004,5,0,0:0:0:0:
133,225,35087,1,0,0:0:0:0:
120,227,35170,1,0,0:0:0:0:
107,229,35254,1,0,0:0:0:0:
73,270,35337,1,0,0:0:0:0:
85,272,35420,1,0,0:0:0:0:
97,274,35504,1,0,0:0:0:0:
109,276,35587,1,0,0:0:0:0:
163,329,35671,5,0,0:0:0:0:
191,310,35754,1,0,0:0:0:0:
224,302,35838,1,0,0:0:0:0:
255,314,35921,1,0,0:0:0:0:
278,338,36004,1,0,0:0:0:0:
303,360,36088,1,0,0:0:0:0:
334,373,36171,1,0,0:0:0:0:
367,377,36254,1,0,0:0:0:0:
397,361,36338,5,0,0:0:0:0:
360,339,36421,1,0,0:0:0:0:
342,300,36504,1,0,0:0:0:0:
349,257,36588,1,0,0:0:0:0:
375,224,36671,1,0,0:0:0:0:
414,207,36754,1,0,0:0:0:0:
456,213,36838,1,0,0:0:0:0:
485,243,36921,1,0,0:0:0:0:
497,283,37004,5,0,0:0:0:0:
453,255,37088,1,0,0:0:0:0:
426,211,37171,1,0,0:0:0:0:
419,160,37254,1,0,0:0:0:0:
437,112,37338,1,0,0:0:0:0:
427,62,37421,1,0,0:0:0:0:
390,26,37504,1,0,0:0:0:0:
344,3,37588,1,0,0:0:0:0:
289,6,37671,5,0,0:0:0:0:
326,45,37754,1,0,0:0:0:0:
336,99,37838,1,0,0:0:0:0:
320,151,37921,1,0,0:0:0:0:
279,188,38004,1,0,0:0:0:0:
79,112,38171,6,0,L|33:108,2,42.5
72,196,38504,1,0,0:0:0:0:
100,276,38671,1,0,0:0:0:0:
165,330,38838,1,0,0:0:0:0:
300,340,39004,5,0,0:0:0:0:
216,281,39171,1,0,0:0:0:0:
176,186,39338,1,0,0:0:0:0:
195,86,39504,1,0,0:0:0:0:
301,15,39671,5,0,0:0:0:0:
285,124,39838,1,0,0:0:0:0:
269,233,40004,1,0,0:0:0:0:
254,342,40171,1,0,0:0:0:0:
27,159,40338,5,0,0:0:0:0:
345,197,40504,1,0,0:0:0:0:
102,258,40671,1,0,0:0:0:0:
267,33,40838,1,0,0:0:0:0:
486,127,41004,5,0,0:0:0:0:
477,125,41088,1,0,0:0:0:0:
468,123,41171,1,0,0:0:0:0:
459,121,41254,1,0,0:0:0:0:
450,119,41338,1,0,0:0:0:0:
441,117,41421,1,0,0:0:0:0:
432,115,41504,1,0,0:0:0:0:
423,113,41588,1,0,0:0:0:0:
417,109,41671,6,0,L|389:136,1,21.25
343,82,41754,2,0,L|325:111,1,21.25
265,83,41838,2,0,L|260:118,1,21.25
202,126,41921,2,0,L|207:161,1,21.25
161,190,42004,2,0,L|170:216,1,21.25
146,265,42088,2,0,L|172:291,1,21.25
165,338,42171,2,0,L|194:340,1,21.25
227,381,42254,2,0,L|261:378,1,21.25
256,192,42338,12,0,43254,0:0:0:0:
43,226,43338,6,0,L|45:206,12,10.625
57,114,43671,5,0,0:0:0:0:
98,119,43754,1,0,0:0:0:0:
140,112,43837,1,0,0:0:0:0:
178,92,43921,1,0,0:0:0:0:
207,62,44004,1,0,0:0:0:0:
247,68,44088,1,0,0:0:0:0:
289,60,44171,1,0,0:0:0:0:
327,41,44255,1,0,0:0:0:0:
356,11,44338,6,0,L|403:4,3,42.5
449,107,44671,2,0,L|496:100,3,42.5
348,182,45003,5,0,0:0:0:0:
330,220,45086,1,0,0:0:0:0:
327,262,45169,1,0,0:0:0:0:
340,303,45253,1,0,0:0:0:0:
366,336,45337,2,0,L|416:329,1,42.5
196,316,45503,2,0,L|246:309,1,42.5
85,268,45670,5,0,0:0:0:0:
86,239,45753,1,0,0:0:0:0:
88,211,45836,1,0,0:0:0:0:
90,183,45920,1,0,0:0:0:0:
141,114,46003,2,0,L|144:62,3,42.5
90,183,46337,5,0,0:0:0:0:
48,180,46420,1,0,0:0:0:0:
15,153,46503,1,0,0:0:0:0:
4,113,46587,1,0,0:0:0:0:
18,74,46670,1,0,0:0:0:0:
52,50,46753,1,0,0:0:0:0:
94,50,46837,1,0,0:0:0:0:
128,74,46920,1,0,0:0:0:0:
141,114,47003,5,0,0:0:0:0:
132,155,47086,1,0,0:0:0:0:
122,197,47169,1,0,0:0:0:0:
111,238,47253,1,0,0:0:0:0:
99,278,47337,2,0,L|104:336,3,42.5
219,242,47670,6,0,L|214:182,3,42.5
297,327,48003,2,0,L|354:313,1,42.5
421,215,48170,2,0,L|478:201,1,42.5
315,235,48337,5,0,0:0:0:0:
316,213,48420,1,0,0:0:0:0:
318,192,48503,1,0,0:0:0:0:
320,171,48587,1,0,0:0:0:0:
371,107,48670,1,0,0:0:0:0:
372,85,48753,1,0,0:0:0:0:
374,64,48837,1,0,0:0:0:0:
376,43,48920,1,0,0:0:0:0:
454,12,49003,5,0,0:0:0:0:
476,52,49086,1,0,0:0:0:0:
483,98,49169,1,0,0:0:0:0:
474,144,49253,1,0,0:0:0:0:
450,183,49336,1,0,0:0:0:0:
426,222,49419,1,0,0:0:0:0:
417,268,49503,1,0,0:0:0:0:
424,314,49586,1,0,0:0:0:0:
447,355,49670,6,0,L|383:346,3,46.7500014266968
211,356,50003,2,0,L|274:342,3,46.7500014266968
333,246,50337,5,0,0:0:0:0:
335,211,50420,1,0,0:0:0:0:
337,176,50503,1,0,0:0:0:0:
339,141,50587,1,0,0:0:0:0:
342,106,50670,2,0,L|337:45,1,46.7500014266968
144,104,50837,2,0,L|149:165,1,46.7500014266968
333,246,51003,5,0,0:0:0:0:
378,252,51086,1,0,0:0:0:0:
421,235,51169,1,0,0:0:0:0:
451,200,51253,1,0,0:0:0:0:
459,154,51337,2,0,L|455:104,3,46.7500014266968
374,31,51670,5,0,0:0:0:0:
339,62,51753,1,0,0:0:0:0:
296,79,51836,1,0,0:0:0:0:
250,78,51920,1,0,0:0:0:0:
207,61,52003,1,0,0:0:0:0:
165,40,52086,1,0,0:0:0:0:
119,39,52169,1,0,0:0:0:0:
77,58,52253,1,0,0:0:0:0:
47,94,52337,6,0,L|52:151,3,46.7500014266968
137,203,52670,2,0,L|142:260,3,46.7500014266968
287,355,53003,5,0,0:0:0:0:
287,355,53087,1,0,0:0:0:0:
287,355,53170,6,0,L|281:298,1,46.7500014266968
368,205,53337,1,0,0:0:0:0:
368,205,53420,1,0,0:0:0:0:
368,205,53503,2,0,L|374:146,1,46.7500014266968
284,56,53670,6,0,L|184:72,1,93.5000028533936
180,64,53920,1,0,0:0:0:0:
149,99,54003,5,0,0:0:0:0:
133,142,54086,1,0,0:0:0:0:
132,189,54170,1,0,0:0:0:0:
148,232,54253,1,0,0:0:0:0:
178,268,54337,5,0,0:0:0:0:
200,265,54420,1,0,0:0:0:0:
222,262,54503,1,0,0:0:0:0:
244,260,54587,1,0,0:0:0:0:
311,307,54670,5,0,0:0:0:0:
333,304,54753,1,0,0:0:0:0:
355,301,54836,1,0,0:0:0:0:
377,299,54920,1,0,0:0:0:0:
399,296,55003,6,0,L|404:241,3,44.6249986381531
304,149,55337,2,0,L|299:91,3,44.6249986381531
209,30,55670,5,0,0:0:0:0:
171,53,55753,1,0,0:0:0:0:
127,59,55836,1,0,0:0:0:0:
84,48,55920,1,0,0:0:0:0:
49,21,56003,2,0,L|44:84,1,44.6249986381531
165,185,56170,2,0,L|160:126,1,44.6249986381531
40,195,56337,5,0,0:0:0:0:
37,228,56420,1,0,0:0:0:0:
34,261,56503,1,0,0:0:0:0:
31,295,56587,1,0,0:0:0:0:
28,328,56670,2,0,L|24:381,3,44.6249986381531
212,247,57003,5,0,0:0:0:0:
209,217,57086,1,0,0:0:0:0:
206,187,57169,1,0,0:0:0:0:
204,158,57253,1,0,0:0:0:0:
144,96,57337,5,0,0:0:0:0:
146,67,57420,1,0,0:0:0:0:
147,37,57503,1,0,0:0:0:0:
148,7,57587,1,0,0:0:0:0:
248,43,57670,6,0,L|253:107,3,44.6249986381531
341,188,58003,6,0,L|343:123,3,44.6249986381531
448,81,58337,5,0,0:0:0:0:
471,118,58420,1,0,0:0:0:0:
481,162,58503,1,0,0:0:0:0:
476,206,58587,1,0,0:0:0:0:
457,246,58670,2,0,L|462:311,3,44.6249986381531
341,188,59003,6,0,L|336:134,1,44.6249986381531
239,307,59170,2,0,L|242:255,1,44.6249986381531
179,44,59337,2,0,L|185:103,1,44.6249986381531
97,278,59504,2,0,L|89:217,1,44.6249986381531
14,120,59670,5,0,0:0:0:0:
57,135,59753,1,0,0:0:0:0:
104,135,59836,1,0,0:0:0:0:
147,118,59920,1,0,0:0:0:0:
182,87,60003,1,0,0:0:0:0:
216,56,60086,1,0,0:0:0:0:
261,43,60169,1,0,0:0:0:0:
307,51,60253,1,0,0:0:0:0:
344,78,60336,5,0,0:0:0:0:
367,119,60419,1,0,0:0:0:0:
369,165,60503,1,0,0:0:0:0:
352,208,60586,1,0,0:0:0:0:
317,239,60671,1,0,0:0:0:0:
276,216,60754,1,0,0:0:0:0:
230,207,60837,1,0,0:0:0:0:
184,210,60921,1,0,0:0:0:0:
140,227,61003,5,0,0:0:0:0:
108,229,61086,1,0,0:0:0:0:
77,232,61169,1,0,0:0:0:0:
46,235,61253,1,0,0:0:0:0:
48,319,61337,1,0,0:0:0:0:
79,321,61420,1,0,0:0:0:0:
110,324,61503,1,0,0:0:0:0:
141,327,61587,1,0,0:0:0:0:
214,268,61670,5,0,0:0:0:0:
237,265,61753,1,0,0:0:0:0:
260,263,61836,1,0,0:0:0:0:
283,261,61920,1,0,0:0:0:0:
341,330,62003,1,8,0:0:0:0:
364,329,62086,1,8,0:0:0:0:
387,330,62170,1,8,0:0:0:0:
410,331,62253,1,8,0:0:0:0:
434,332,62337,5,0,0:0:0:0:
464,291,62420,1,0,0:0:0:0:
477,242,62503,1,0,0:0:0:0:
469,192,62587,1,0,0:0:0:0:
441,149,62670,1,0,0:0:0:0:
442,123,62753,1,0,0:0:0:0:
444,98,62836,1,0,0:0:0:0:
446,72,62920,1,0,0:0:0:0:
448,47,63003,5,0,0:0:0:0:
401,75,63086,1,0,0:0:0:0:
346,79,63169,1,0,0:0:0:0:
295,59,63253,1,0,0:0:0:0:
259,18,63337,2,0,P|225:10|192:9,3,55.2499974708558
80,81,63670,6,0,L|86:179,1,93.5000028533936
213,340,63919,1,0,0:0:0:0:
213,340,64003,2,0,L|218:235,1,93.5000028533936
162,120,64253,1,0,0:0:0:0:
162,120,64337,2,0,P|208:115|254:94,1,93.5000028533936
389,28,64588,1,0,0:0:0:0:
389,28,64671,5,0,0:0:0:0:
385,91,64754,1,0,0:0:0:0:
381,155,64837,1,0,0:0:0:0:
377,218,64921,1,0,0:0:0:0:
373,282,65004,5,0,0:0:0:0:
358,291,65088,1,0,0:0:0:0:
342,298,65171,1,0,0:0:0:0:
325,301,65254,1,0,0:0:0:0:
307,301,65338,1,0,0:0:0:0:
290,297,65421,1,0,0:0:0:0:
274,290,65504,1,0,0:0:0:0:
260,279,65588,1,0,0:0:0:0:
249,265,65671,5,0,0:0:0:0:
244,281,65754,1,0,0:0:0:0:
236,296,65838,1,0,0:0:0:0:
225,309,65921,1,0,0:0:0:0:
212,320,66004,1,0,0:0:0:0:
196,327,66088,1,0,0:0:0:0:
179,332,66171,1,0,0:0:0:0:
162,334,66254,1,0,0:0:0:0:
144,333,66338,5,0,0:0:0:0:
169,329,66421,1,0,0:0:0:0:
194,327,66504,1,0,0:0:0:0:
219,331,66588,1,0,0:0:0:0:
242,340,66671,1,0,0:0:0:0:
261,356,66754,1,0,0:0:0:0:
282,369,66838,1,0,0:0:0:0:
305,377,66921,1,0,0:0:0:0:
330,374,67004,5,0,0:0:0:0:
330,344,67088,1,0,0:0:0:0:
332,314,67171,1,0,0:0:0:0:
333,284,67254,1,0,0:0:0:0:
293,267,67338,5,0,0:0:0:0:
290,224,67421,1,0,0:0:0:0:
287,181,67504,1,0,0:0:0:0:
284,138,67588,1,0,0:0:0:0:
282,95,67671,5,0,0:0:0:0:
273,95,67754,1,0,0:0:0:0:
264,95,67838,1,0,0:0:0:0:
255,95,67921,1,0,0:0:0:0:
246,95,68004,1,0,0:0:0:0:
237,95,68088,1,0,0:0:0:0:
228,95,68171,1,0,0:0:0:0:
219,95,68254,1,0,0:0:0:0:
210,95,68338,5,0,0:0:0:0:
205,83,68421,1,0,0:0:0:0:
200,71,68504,1,0,0:0:0:0:
195,58,68588,1,0,0:0:0:0:
191,45,68671,1,0,0:0:0:0:
185,56,68754,1,0,0:0:0:0:
179,67,68838,1,0,0:0:0:0:
173,78,68921,1,0,0:0:0:0:
167,89,69004,5,0,0:0:0:0:
173,109,69088,1,0,0:0:0:0:
178,129,69171,1,0,0:0:0:0:
179,150,69254,1,0,0:0:0:0:
177,171,69338,1,0,0:0:0:0:
165,198,69421,1,0,0:0:0:0:
156,226,69504,1,0,0:0:0:0:
156,255,69588,1,0,0:0:0:0:
166,282,69671,5,0,0:0:0:0:
201,269,69754,1,0,0:0:0:0:
238,258,69838,1,0,0:0:0:0:
275,261,69921,1,0,0:0:0:0:
317,288,70004,5,0,0:0:0:0:
261,319,70088,1,0,0:0:0:0:
209,281,70171,1,0,0:0:0:0:
233,221,70254,1,0,0:0:0:0:
295,231,70338,6,0,L|386:249,1,85
481,270,70671,1,0,0:0:0:0:
352,353,70838,2,0,L|228:315,1,127.5
98,375,71171,1,0,0:0:0:0:
98,375,71254,1,0,0:0:0:0:
98,375,71338,5,0,0:0:0:0:
87,362,71421,1,0,0:0:0:0:
81,345,71504,1,0,0:0:0:0:
80,327,71588,1,0,0:0:0:0:
83,310,71671,1,0,0:0:0:0:
89,294,71754,1,0,0:0:0:0:
99,280,71838,1,0,0:0:0:0:
105,264,71921,1,0,0:0:0:0:
108,247,72004,1,0,0:0:0:0:
105,230,72088,1,0,0:0:0:0:
101,213,72171,1,0,0:0:0:0:
94,197,72254,1,0,0:0:0:0:
84,182,72338,5,0,0:0:0:0:
71,218,72421,1,0,0:0:0:0:
59,254,72504,1,0,0:0:0:0:
46,290,72588,1,0,0:0:0:0:
17,360,72671,5,0,0:0:0:0:
67,358,72754,1,0,0:0:0:0:
118,356,72838,1,0,0:0:0:0:
168,355,72921,1,0,0:0:0:0:
259,367,73004,6,0,L|319:366,3,42.5
465,292,73338,1,0,0:0:0:0:
401,138,73504,1,0,0:0:0:0:
402,120,73588,1,0,0:0:0:0:
404,103,73671,1,0,0:0:0:0:
406,86,73754,1,0,0:0:0:0:
408,69,73838,1,0,0:0:0:0:
409,52,73921,1,0,0:0:0:0:
436,62,74004,5,0,0:0:0:0:
408,74,74088,1,0,0:0:0:0:
378,79,74171,1,0,0:0:0:0:
348,74,74254,1,0,0:0:0:0:
319,65,74338,5,0,0:0:0:0:
288,79,74421,1,0,0:0:0:0:
254,81,74504,1,0,0:0:0:0:
219,78,74588,1,0,0:0:0:0:
186,69,74671,1,0,0:0:0:0:
218,59,74754,1,0,0:0:0:0:
250,49,74838,1,0,0:0:0:0:
282,40,74921,1,0,0:0:0:0:
314,30,75004,1,0,0:0:0:0:
318,42,75088,1,0,0:0:0:0:
322,53,75171,1,0,0:0:0:0:
326,64,75254,1,0,0:0:0:0:
337,135,75338,6,0,L|324:236,1,85
506,46,75588,1,0,0:0:0:0:
506,46,75671,2,0,L|513:96,1,42.5
497,253,75838,5,0,0:0:0:0:
484,251,75921,1,0,0:0:0:0:
471,250,76004,1,0,0:0:0:0:
458,251,76088,1,0,0:0:0:0:
446,256,76171,1,0,0:0:0:0:
435,263,76254,1,0,0:0:0:0:
424,270,76338,5,0,0:0:0:0:
401,281,76421,1,0,0:0:0:0:
376,287,76504,1,0,0:0:0:0:
350,288,76588,1,0,0:0:0:0:
324,284,76671,1,0,0:0:0:0:
298,285,76754,1,0,0:0:0:0:
273,293,76838,1,0,0:0:0:0:
251,306,76921,1,0,0:0:0:0:
231,321,77004,5,0,0:0:0:0:
197,301,77088,1,0,0:0:0:0:
179,267,77171,1,0,0:0:0:0:
181,228,77254,1,0,0:0:0:0:
198,193,77338,1,0,0:0:0:0:
208,156,77421,1,0,0:0:0:0:
198,119,77504,1,0,0:0:0:0:
175,87,77588,1,0,0:0:0:0:
200,33,77671,5,0,0:0:0:0:
246,36,77754,1,0,0:0:0:0:
293,40,77838,1,0,0:0:0:0:
339,44,77921,1,0,0:0:0:0:
295,84,78004,1,0,0:0:0:0:
298,143,78088,1,0,0:0:0:0:
350,169,78171,1,0,0:0:0:0:
402,142,78254,1,0,0:0:0:0:
407,82,78338,5,0,0:0:0:0:
415,82,78421,1,0,0:0:0:0:
423,82,78504,1,0,0:0:0:0:
431,82,78588,1,0,0:0:0:0:
453,69,78671,5,0,0:0:0:0:
461,69,78754,1,0,0:0:0:0:
469,69,78837,1,0,0:0:0:0:
477,69,78921,1,0,0:0:0:0:
475,90,79004,1,0,0:0:0:0:
472,111,79088,1,0,0:0:0:0:
470,132,79171,1,0,0:0:0:0:
468,153,79254,1,0,0:0:0:0:
438,158,79338,5,0,0:0:0:0:
408,162,79421,1,0,0:0:0:0:
378,167,79504,1,0,0:0:0:0:
348,172,79588,1,0,0:0:0:0:
318,177,79671,5,0,0:0:0:0:
309,218,79754,1,0,0:0:0:0:
313,260,79838,1,0,0:0:0:0:
332,297,79921,1,0,0:0:0:0:
366,321,80004,1,0,0:0:0:0:
408,327,80088,1,0,0:0:0:0:
449,317,80171,1,0,0:0:0:0:
478,286,80254,1,0,0:0:0:0:
488,244,80338,1,0,0:0:0:0:
481,202,80421,1,0,0:0:0:0:
455,167,80504,1,0,0:0:0:0:
455,124,80588,1,0,0:0:0:0:
484,93,80671,5,0,0:0:0:0:
433,124,80754,1,0,0:0:0:0:
375,142,80838,1,0,0:0:0:0:
315,145,80921,1,0,0:0:0:0:
257,132,81004,2,0,L|94:135,1,127.5
5,138,81338,1,0,0:0:0:0:
53,361,81504,2,0,L|75:191,1,170
77,56,81921,5,0,0:0:0:0:
63,35,82004,2,0,L|19:42,3,42.5
166,8,82338,1,0,0:0:0:0:
167,24,82421,1,0,0:0:0:0:
169,40,82504,1,0,0:0:0:0:
171,57,82588,1,0,0:0:0:0:
154,61,82671,5,0,0:0:0:0:
155,77,82754,1,0,0:0:0:0:
157,93,82837,1,0,0:0:0:0:
159,110,82921,1,0,0:0:0:0:
144,117,83004,5,0,0:0:0:0:
145,133,83087,1,0,0:0:0:0:
147,149,83170,1,0,0:0:0:0:
149,166,83254,1,0,0:0:0:0:
152,182,83338,5,0,0:0:0:0:
130,150,83421,1,0,0:0:0:0:
107,118,83504,1,0,0:0:0:0:
84,86,83588,1,0,0:0:0:0:
46,92,83671,2,0,L|43:242,1,127.5
43,219,84004,1,0,0:0:0:0:
185,20,84171,6,0,L|394:-2,1,170
445,181,84671,1,0,0:0:0:0:
471,20,84838,1,0,0:0:0:0:
474,57,84921,1,0,0:0:0:0:
477,94,85004,1,0,0:0:0:0:
257,99,85171,1,0,0:0:0:0:
496,42,85338,1,0,0:0:0:0:
250,69,85504,1,0,0:0:0:0:
452,5,85671,6,0,L|474:3,1,21.25
454,29,85754,1,0,0:0:0:0:
436,82,85838,1,0,0:0:0:0:
453,134,85921,1,0,0:0:0:0:
439,187,86004,1,0,0:0:0:0:
456,239,86088,1,0,0:0:0:0:
440,291,86171,1,0,0:0:0:0:
457,343,86254,1,0,0:0:0:0:
367,337,86338,6,0,L|271:326,1,85
165,368,86588,1,0,0:0:0:0:
165,368,86671,2,0,L|154:298,1,42.5
146,254,86838,2,0,L|135:184,1,42.5
121,86,87004,5,0,0:0:0:0:
148,74,87088,1,0,0:0:0:0:
175,62,87171,1,0,0:0:0:0:
202,50,87254,1,0,0:0:0:0:
279,15,87338,5,0,0:0:0:0:
307,23,87421,1,0,0:0:0:0:
335,31,87504,1,0,0:0:0:0:
363,39,87588,1,0,0:0:0:0:
441,66,87671,5,0,0:0:0:0:
438,112,87754,1,0,0:0:0:0:
435,159,87838,1,0,0:0:0:0:
432,205,87921,1,0,0:0:0:0:
387,173,88004,1,0,0:0:0:0:
365,169,88088,1,0,0:0:0:0:
344,165,88171,1,0,0:0:0:0:
323,161,88254,1,0,0:0:0:0:
252,113,88338,5,0,0:0:0:0:
249,159,88421,1,0,0:0:0:0:
246,206,88505,1,0,0:0:0:0:
243,252,88588,1,0,0:0:0:0:
198,220,88671,1,0,0:0:0:0:
176,216,88755,1,0,0:0:0:0:
155,212,88838,1,0,0:0:0:0:
134,208,88921,1,0,0:0:0:0:
48,279,89004,5,0,0:0:0:0:
69,275,89088,1,0,0:0:0:0:
90,275,89171,1,0,0:0:0:0:
110,280,89254,1,0,0:0:0:0:
129,287,89338,1,0,0:0:0:0:
149,301,89421,1,0,0:0:0:0:
170,315,89504,1,0,0:0:0:0:
193,326,89588,1,0,0:0:0:0:
217,333,89671,5,0,0:0:0:0:
250,335,89754,1,0,0:0:0:0:
282,325,89838,1,0,0:0:0:0:
309,304,89921,1,0,0:0:0:0:
327,275,90004,1,0,0:0:0:0:
352,240,90088,1,0,0:0:0:0:
388,219,90171,1,0,0:0:0:0:
430,222,90254,1,0,0:0:0:0:
483,293,90338,5,0,0:0:0:0:
437,270,90421,1,0,0:0:0:0:
386,272,90504,1,0,0:0:0:0:
341,297,90588,1,0,0:0:0:0:
304,332,90671,1,0,0:0:0:0:
263,362,90754,1,0,0:0:0:0:
211,357,90838,1,0,0:0:0:0:
172,323,90921,1,0,0:0:0:0:
152,266,91004,5,0,0:0:0:0:
164,207,91088,1,0,0:0:0:0:
211,171,91171,1,0,0:0:0:0:
270,168,91254,1,0,0:0:0:0:
330,200,91338,1,0,0:0:0:0:
394,178,91421,1,0,0:0:0:0:
428,119,91504,1,0,0:0:0:0:
417,51,91588,1,0,0:0:0:0:
356,21,91671,2,0,L|197:17,1,127.5
71,13,92004,5,0,0:0:0:0:
71,13,92088,1,0,0:0:0:0:
71,13,92171,1,0,0:0:0:0:
4,173,92338,1,0,0:0:0:0:
190,79,92504,1,0,0:0:0:0:
378,11,92671,5,0,0:0:0:0:
361,45,92754,1,0,0:0:0:0:
360,83,92838,1,0,0:0:0:0:
374,118,92921,1,0,0:0:0:0:
397,147,93004,1,0,0:0:0:0:
394,172,93088,1,0,0:0:0:0:
391,197,93171,1,0,0:0:0:0:
388,222,93254,1,0,0:0:0:0:
317,304,93338,5,0,0:0:0:0:
310,279,93421,1,0,0:0:0:0:
303,254,93504,1,0,0:0:0:0:
295,229,93588,1,0,0:0:0:0:
287,204,93671,5,0,0:0:0:0:
247,218,93754,1,0,0:0:0:0:
206,232,93838,1,0,0:0:0:0:
166,246,93921,1,0,0:0:0:0:
126,262,94004,5,0,0:0:0:0:
135,211,94088,1,0,0:0:0:0:
144,161,94171,1,0,0:0:0:0:
153,111,94254,1,0,0:0:0:0:
205,13,94338,5,0,0:0:0:0:
217,15,94421,1,0,0:0:0:0:
229,17,94504,1,0,0:0:0:0:
241,19,94588,1,0,0:0:0:0:
305,89,94671,5,0,0:0:0:0:
294,94,94754,1,0,0:0:0:0:
282,98,94837,1,0,0:0:0:0:
271,102,94921,1,0,0:0:0:0:
373,169,95004,6,0,L|366:243,1,42.5
359,307,95171,2,0,L|352:381,1,42.5
380,73,95338,5,0,0:0:0:0:
381,60,95421,1,0,0:0:0:0:
382,47,95504,1,0,0:0:0:0:
383,34,95588,1,0,0:0:0:0:
384,21,95671,5,0,0:0:0:0:
348,62,95754,1,0,0:0:0:0:
295,79,95838,1,0,0:0:0:0:
240,71,95921,1,0,0:0:0:0:
198,35,96004,1,0,0:0:0:0:
146,14,96088,1,0,0:0:0:0:
91,15,96171,1,0,0:0:0:0:
43,42,96254,1,0,0:0:0:0:
88,81,96338,5,0,0:0:0:0:
125,126,96421,1,0,0:0:0:0:
136,184,96504,1,0,0:0:0:0:
124,242,96588,1,0,0:0:0:0:
90,291,96671,1,0,0:0:0:0:
90,295,96754,1,0,0:0:0:0:
91,299,96838,1,0,0:0:0:0:
92,303,96921,1,0,0:0:0:0:
154,371,97004,6,0,L|281:369,1,127.5
281,368,97338,1,0,0:0:0:0:
248,133,97504,1,0,0:0:0:0:
92,13,97671,5,0,0:0:0:0:
92,38,97754,1,0,0:0:0:0:
91,63,97838,1,0,0:0:0:0:
90,88,97921,1,0,0:0:0:0:
90,113,98004,2,0,L|88:185,3,42.5
223,47,98338,5,0,0:0:0:0:
256,40,98421,1,0,0:0:0:0:
289,41,98504,1,0,0:0:0:0:
321,52,98588,1,0,0:0:0:0:
348,72,98671,1,0,0:0:0:0:
329,100,98754,1,0,0:0:0:0:
324,134,98838,1,0,0:0:0:0:
326,167,98921,1,0,0:0:0:0:
341,196,99004,6,0,L|388:255,3,42.5
494,208,99338,2,0,L|459:168,3,42.5
367,106,99671,5,0,0:0:0:0:
333,111,99754,1,0,0:0:0:0:
299,117,99838,1,0,0:0:0:0:
265,123,99921,1,0,0:0:0:0:
230,183,100004,1,0,0:0:0:0:
195,181,100088,1,0,0:0:0:0:
161,180,100171,1,0,0:0:0:0:
127,179,100254,1,0,0:0:0:0:
51,152,100338,6,0,L|65:195,3,42.5
98,283,100671,2,0,L|116:338,3,42.5
232,295,101004,5,0,0:0:0:0:
281,307,101088,1,0,0:0:0:0:
330,319,101171,1,0,0:0:0:0:
379,331,101254,1,0,0:0:0:0:
428,344,101338,1,0,0:0:0:0:
447,321,101421,1,0,0:0:0:0:
466,298,101504,1,0,0:0:0:0:
485,275,101588,1,0,0:0:0:0:
434,200,101671,5,0,0:0:0:0:
379,207,101754,1,0,0:0:0:0:
323,214,101838,1,0,0:0:0:0:
268,222,101921,1,0,0:0:0:0:
213,230,102004,1,0,0:0:0:0:
287,56,102171,1,0,0:0:0:0:
90,11,102338,5,0,0:0:0:0:
88,19,102421,1,0,0:0:0:0:
86,27,102504,1,0,0:0:0:0:
85,35,102588,1,0,0:0:0:0:
83,43,102671,1,0,0:0:0:0:
81,51,102754,1,0,0:0:0:0:
79,59,102838,1,0,0:0:0:0:
77,67,102921,1,0,0:0:0:0:
75,75,103004,1,0,0:0:0:0:
74,83,103088,1,0,0:0:0:0:
73,91,103171,1,0,0:0:0:0:
72,99,103254,1,0,0:0:0:0:
71,107,103338,1,0,0:0:0:0:
70,115,103421,1,0,0:0:0:0:
69,123,103504,1,0,0:0:0:0:
68,131,103588,1,0,0:0:0:0:
66,139,103671,5,0,0:0:0:0:
107,232,103838,1,0,0:0:0:0:
181,301,104004,1,0,0:0:0:0:
276,337,104171,1,0,0:0:0:0:
423,248,104338,5,0,0:0:0:0:
289,269,104504,1,0,0:0:0:0:
156,237,104671,1,0,0:0:0:0:
95,114,104838,1,0,0:0:0:0:
192,7,105004,5,0,0:0:0:0:
202,66,105088,1,0,0:0:0:0:
222,121,105171,1,0,0:0:0:0:
257,168,105254,1,0,0:0:0:0:
304,204,105338,1,0,0:0:0:0:
359,224,105421,1,0,0:0:0:0:
417,231,105504,1,0,0:0:0:0:
472,208,105588,1,0,0:0:0:0:
492,152,105671,6,0,L|445:139,5,28.3333333333333
441,102,106004,2,0,L|479:115,7,21.25
441,102,106338,5,0,0:0:0:0:
441,102,106671,5,0,0:0:0:0:
445,103,107005,5,0,0:0:0:0:
445,103,107338,6,0,L|510:105,1,63.75
392,337,107671,6,0,P|390:287|397:250,1,85
465,141,107921,1,0,0:0:0:0:
465,141,108004,2,0,L|468:51,1,85
286,49,108338,2,0,L|297:108,1,42.5
212,117,108504,2,0,L|242:158,1,42.5
171,207,108671,2,0,L|219:222,1,42.5
189,307,108838,2,0,L|249:295,1,42.5
384,191,109004,6,0,P|347:184|298:200,1,85
342,352,109255,1,0,0:0:0:0:
342,352,109338,2,0,L|345:249,1,85
204,47,109671,2,0,L|209:144,1,85
130,238,109921,1,0,0:0:0:0:
130,238,110004,2,0,L|135:335,1,85
32,119,110338,6,0,B|30:76|30:76|33:63|33:63|27:22,2,85
47,292,110838,2,0,L|49:347,1,42.5
164,224,111004,2,0,P|171:169|169:131,1,85
145,122,111254,1,0,0:0:0:0:
170,117,111337,1,0,0:0:0:0:
195,112,111420,1,0,0:0:0:0:
220,107,111503,1,0,0:0:0:0:
245,102,111587,1,0,0:0:0:0:
270,97,111671,6,0,L|361:102,1,85
413,254,112004,2,0,L|407:313,1,42.5
290,360,112171,2,0,L|284:308,1,42.5
388,133,112338,2,0,L|394:74,1,42.5
266,168,112504,2,0,L|272:220,1,42.5
290,42,112671,2,0,P|233:28|159:99,1,170
58,277,113171,5,0,0:0:0:0:
58,277,113254,1,0,0:0:0:0:
58,277,113338,2,0,L|157:262,1,85
232,339,113671,2,0,L|299:328,1,42.5
352,247,113838,1,0,0:0:0:0:
359,231,113921,1,0,0:0:0:0:
377,238,114004,1,0,0:0:0:0:
384,222,114087,1,0,0:0:0:0:
408,228,114171,1,0,0:0:0:0:
415,212,114254,1,0,0:0:0:0:
440,213,114338,6,0,P|452:229|459:264,1,42.5
329,113,114504,2,0,P|317:97|310:62,1,42.5
481,142,114671,2,0,L|471:277,1,127.5
386,337,115004,1,0,0:0:0:0:
347,319,115087,1,0,0:0:0:0:
305,318,115170,1,0,0:0:0:0:
267,336,115253,1,0,0:0:0:0:
239,367,115338,2,0,L|87:345,1,127.5
32,254,115671,6,0,L|23:158,3,85
168,45,116338,2,0,L|162:94,1,42.5
151,206,116504,1,0,0:0:0:0:
144,226,116587,1,0,0:0:0:0:
141,247,116670,1,0,0:0:0:0:
141,268,116753,1,0,0:0:0:0:
145,289,116837,1,0,0:0:0:0:
153,308,116920,1,0,0:0:0:0:
164,326,117004,6,0,L|216:317,1,42.5
298,206,117171,1,0,0:0:0:0:
298,206,117254,1,0,0:0:0:0:
298,206,117338,2,0,L|243:199,1,42.5
143,105,117504,2,0,L|201:96,1,42.5
319,0,117671,6,0,L|314:60,1,42.5
369,109,117838,2,0,L|364:169,1,42.5
417,220,118004,2,0,L|412:280,1,42.5
475,330,118171,2,0,L|470:390,1,42.5
502,232,118338,6,0,L|493:137,1,85
375,26,118588,1,0,0:0:0:0:
375,26,118671,2,0,P|373:63|367:121,1,85
155,162,119004,1,0,0:0:0:0:
136,136,119087,1,0,0:0:0:0:
129,105,119170,1,0,0:0:0:0:
136,74,119253,1,0,0:0:0:0:
154,49,119337,5,0,0:0:0:0:
182,33,119420,1,0,0:0:0:0:
213,31,119503,1,0,0:0:0:0:
243,41,119587,1,0,0:0:0:0:
266,63,119671,6,0,P|264:100|258:158,1,85
145,266,119921,1,0,0:0:0:0:
145,266,120004,2,0,L|57:253,1,85
305,349,120338,6,0,L|404:333,1,85
471,193,120588,1,0,0:0:0:0:
471,193,120671,2,0,P|482:150|476:97,1,85
365,33,121004,5,0,0:0:0:0:
343,149,121171,1,0,0:0:0:0:
253,37,121338,1,0,0:0:0:0:
236,114,121504,1,0,0:0:0:0:
178,62,121671,2,0,L|173:8,1,42.5
90,92,121838,1,0,0:0:0:0:
88,120,121921,1,0,0:0:0:0:
87,148,122004,1,0,0:0:0:0:
86,176,122087,1,0,0:0:0:0:
85,205,122171,1,0,0:0:0:0:
84,233,122254,1,0,0:0:0:0:
83,261,122338,6,0,P|71:316|111:392,1,127.5
215,358,122671,2,0,L|278:348,1,42.5
342,336,122838,2,0,L|405:326,1,42.5
407,215,123004,2,0,L|278:240,1,127.5
188,188,123338,2,0,L|197:56,1,127.5
292,18,123671,6,0,L|299:122,1,85
403,57,123921,1,0,0:0:0:0:
403,57,124004,2,0,L|398:157,1,85
313,331,124338,1,0,0:0:0:0:
296,303,124421,1,0,0:0:0:0:
289,272,124504,1,0,0:0:0:0:
290,241,124587,1,0,0:0:0:0:
301,211,124671,1,0,0:0:0:0:
269,212,124754,1,0,0:0:0:0:
238,203,124837,1,0,0:0:0:0:
213,185,124920,1,0,0:0:0:0:
195,158,125004,6,0,L|197:60,1,85
76,37,125254,1,0,0:0:0:0:
76,37,125338,2,0,L|80:133,1,85
218,227,125671,1,0,0:0:0:0:
238,223,125754,1,0,0:0:0:0:
259,219,125837,1,0,0:0:0:0:
280,215,125920,1,0,0:0:0:0:
301,211,126004,2,0,L|410:220,1,85
333,305,126338,5,0,0:0:0:0:
260,132,126504,1,0,0:0:0:0:
211,308,126671,1,0,0:0:0:0:
373,142,126838,1,0,0:0:0:0:
149,219,127004,5,0,0:0:0:0:
333,305,127171,1,0,0:0:0:0:
189,56,127338,1,0,0:0:0:0:
373,142,127505,1,0,0:0:0:0:
211,308,127671,5,0,0:0:0:0:
287,233,127838,1,0,0:0:0:0:
287,233,127921,1,0,0:0:0:0:
287,233,128004,1,0,0:0:0:0:
255,130,128171,1,0,0:0:0:0:
175,202,128338,1,0,0:0:0:0:
155,97,128504,1,0,0:0:0:0:
79,173,128671,1,0,0:0:0:0:
255,130,128838,1,0,0:0:0:0:
79,172,129004,6,0,B|54:193|54:193|47:282,1,114.749996498108
90,328,129338,2,0,L|95:232,1,85
212,323,129588,1,0,0:0:0:0:
246,349,129671,2,0,L|336:343,1,85
483,291,130004,2,0,L|372:297,1,85
252,166,130338,6,0,L|261:227,1,42.5
162,177,130504,2,0,L|170:246,1,42.5
68,182,130671,1,0,0:0:0:0:
68,182,130754,1,0,0:0:0:0:
68,182,130838,1,0,0:0:0:0:
179,28,131004,5,0,0:0:0:0:
238,33,131088,1,0,0:0:0:0:
297,38,131171,1,0,0:0:0:0:
356,43,131254,1,0,0:0:0:0:
415,49,131338,1,0,0:0:0:0:
70,183,131504,6,0,L|85:120,1,42.5
110,49,131671,1,0,0:0:0:0:
195,221,131838,1,0,0:0:0:0:
330,93,132004,1,0,0:0:0:0:
332,96,132088,1,0,0:0:0:0:
334,99,132171,1,0,0:0:0:0:
383,110,132254,1,0,0:0:0:0:
433,121,132338,1,0,0:0:0:0:
500,239,132504,5,0,0:0:0:0:
339,361,132671,1,0,0:0:0:0:
295,333,132754,1,0,0:0:0:0:
273,286,132838,1,0,0:0:0:0:
284,236,132921,1,0,0:0:0:0:
318,198,133004,5,0,0:0:0:0:
339,200,133088,1,0,0:0:0:0:
359,202,133171,1,0,0:0:0:0:
379,205,133254,1,0,0:0:0:0:
399,208,133338,2,0,B|401:258|401:258|419:288|419:288|419:353,1,127.5
101,296,133671,5,0,0:0:0:0:
108,267,133754,1,0,0:0:0:0:
115,237,133838,1,0,0:0:0:0:
122,208,133921,1,0,0:0:0:0:
192,162,134004,2,0,L|273:155,1,42.5
449,192,134171,2,0,L|376:196,1,42.5
292,298,134338,5,0,0:0:0:0:
282,326,134421,1,0,0:0:0:0:
263,348,134504,1,0,0:0:0:0:
234,358,134588,1,0,0:0:0:0:
204,359,134671,2,0,L|148:355,3,42.5
88,200,135004,5,0,0:0:0:0:
104,225,135088,1,0,0:0:0:0:
106,254,135171,1,0,0:0:0:0:
95,281,135254,1,0,0:0:0:0:
78,305,135338,2,0,L|30:325,3,42.5
2,128,135671,6,0,L|89:132,1,85
201,0,135921,1,0,0:0:0:0:
206,29,136004,2,0,L|218:102,1,42.5
192,225,136171,1,0,0:0:0:0:
203,184,136254,1,0,0:0:0:0:
215,143,136338,5,0,0:0:0:0:
236,163,136421,1,0,0:0:0:0:
261,177,136504,1,0,0:0:0:0:
290,184,136588,1,0,0:0:0:0:
319,179,136671,2,0,L|394:181,1,42.5
459,185,136838,2,0,L|512:186,1,42.5
330,13,137004,6,0,B|336:57|336:57|313:124,1,85
215,199,137254,1,0,0:0:0:0:
215,199,137338,2,0,L|200:269,1,42.5
495,249,137504,2,0,L|479:192,1,42.5
330,13,137671,6,0,B|336:57|336:57|313:124,1,85
215,199,137921,1,0,0:0:0:0:
215,199,138005,2,0,L|200:269,1,42.5
12,298,138171,2,0,L|29:222,1,42.5
106,117,138338,5,0,0:0:0:0:
159,104,138421,1,0,0:0:0:0:
207,130,138504,1,0,0:0:0:0:
258,108,138588,1,0,0:0:0:0:
307,147,138671,2,0,L|405:160,1,85
454,220,139004,5,0,0:0:0:0:
459,245,139088,1,0,0:0:0:0:
465,269,139171,1,0,0:0:0:0:
471,293,139254,1,0,0:0:0:0:
477,317,139338,5,0,0:0:0:0:
417,313,139421,1,0,0:0:0:0:
357,308,139504,1,0,0:0:0:0:
297,304,139588,1,0,0:0:0:0:
237,300,139671,2,0,L|132:292,1,85
18,279,139921,5,0,0:0:0:0:
23,288,140004,2,0,L|25:362,1,42.5
57,148,140171,1,0,0:0:0:0:
86,146,140254,1,0,0:0:0:0:
115,145,140338,2,0,L|178:142,1,42.5
233,55,140504,1,0,0:0:0:0:
270,61,140588,1,0,0:0:0:0:
307,67,140671,2,0,L|427:84,1,85
115,9,141004,6,0,B|90:46|90:46|112:131,1,127.5
70,204,141338,1,0,0:0:0:0:
61,223,141421,1,0,0:0:0:0:
56,243,141504,1,0,0:0:0:0:
59,264,141588,1,0,0:0:0:0:
66,283,141671,5,0,0:0:0:0:
103,263,141754,1,0,0:0:0:0:
144,251,141838,1,0,0:0:0:0:
186,249,141921,1,0,0:0:0:0:
227,258,142004,1,0,0:0:0:0:
267,296,142088,1,0,0:0:0:0:
312,327,142171,1,0,0:0:0:0:
365,339,142254,1,0,0:0:0:0:
419,328,142338,6,0,L|425:286,1,42.5
444,173,142504,1,0,0:0:0:0:
444,173,142588,1,0,0:0:0:0:
444,173,142671,2,0,L|385:173,1,42.5
237,313,142838,2,0,L|308:312,1,42.5
444,173,143004,6,0,L|358:172,1,85
469,358,143254,1,0,0:0:0:0:
469,358,143338,2,0,L|472:277,1,42.5
356,171,143504,2,0,L|357:98,1,42.5
505,51,143671,5,0,0:0:0:0:
488,94,143754,1,0,0:0:0:0:
497,140,143838,1,0,0:0:0:0:
475,181,143921,1,0,0:0:0:0:
492,224,144004,2,0,B|440:231|440:231|406:218|406:218|343:226,1,127.5
184,242,144338,5,0,0:0:0:0:
189,195,144421,1,0,0:0:0:0:
194,148,144504,1,0,0:0:0:0:
200,101,144588,1,0,0:0:0:0:
208,55,144671,2,0,L|285:39,1,42.5
119,0,144838,2,0,L|44:13,1,42.5
16,152,145004,5,0,0:0:0:0:
2,192,145088,1,0,0:0:0:0:
8,233,145171,1,0,0:0:0:0:
24,272,145254,1,0,0:0:0:0:
54,302,145338,1,0,0:0:0:0:
92,319,145421,1,0,0:0:0:0:
134,317,145504,1,0,0:0:0:0:
173,300,145588,1,0,0:0:0:0:
204,271,145671,1,0,0:0:0:0:
231,238,145754,1,0,0:0:0:0:
259,206,145838,1,0,0:0:0:0:
292,179,145921,1,0,0:0:0:0:
331,162,146004,1,0,0:0:0:0:
373,157,146088,1,0,0:0:0:0:
414,165,146171,1,0,0:0:0:0:
452,183,146254,1,0,0:0:0:0:
482,213,146338,5,0,0:0:0:0:
439,209,146421,1,0,0:0:0:0:
397,215,146504,1,0,0:0:0:0:
358,234,146588,1,0,0:0:0:0:
330,266,146671,1,0,0:0:0:0:
287,261,146754,1,0,0:0:0:0:
244,255,146838,1,0,0:0:0:0:
201,249,146921,1,0,0:0:0:0:
166,208,147004,5,0,0:0:0:0:
119,213,147088,1,0,0:0:0:0:
72,219,147171,1,0,0:0:0:0:
25,225,147254,1,0,0:0:0:0:
5,282,147338,1,0,0:0:0:0:
42,287,147421,1,0,0:0:0:0:
79,292,147504,1,0,0:0:0:0:
117,298,147588,1,0,0:0:0:0:
181,355,147671,5,0,0:0:0:0:
217,326,147754,1,0,0:0:0:0:
258,304,147838,1,0,0:0:0:0:
302,291,147921,1,0,0:0:0:0:
348,287,148004,1,0,0:0:0:0:
353,280,148088,1,0,0:0:0:0:
358,273,148171,1,0,0:0:0:0:
363,266,148254,1,0,0:0:0:0:
366,258,148338,5,0,0:0:0:0:
323,229,148421,1,0,0:0:0:0:
272,222,148504,1,0,0:0:0:0:
222,234,148588,1,0,0:0:0:0:
148,275,148671,5,0,0:0:0:0:
186,315,148754,1,0,0:0:0:0:
239,331,148838,1,0,0:0:0:0:
294,330,148921,1,0,0:0:0:0:
385,296,149004,6,0,L|275:306,3,63.7500024318696
219,317,149338,1,0,0:0:0:0:
219,317,149421,1,0,0:0:0:0:
219,317,149504,1,0,0:0:0:0:
52,249,149671,5,0,0:0:0:0:
77,190,149754,1,0,0:0:0:0:
108,133,149838,2,0,L|127:102,2,21.25
222,97,150004,5,0,0:0:0:0:
197,156,150087,1,0,0:0:0:0:
166,213,150171,2,0,L|149:246,3,21.25
256,192,150338,12,0,155171,0:0:0:0:
384,44,155338,6,0,B|390:118|390:118|412:162|412:162|418:249,1,191.250007295609
422,307,155671,5,0,0:0:0:0:
292,329,155838,1,0,0:0:0:0:
166,348,156004,1,0,0:0:0:0:
115,273,156171,5,0,0:0:0:0:
118,252,156254,1,0,0:0:0:0:
185,215,156338,5,0,0:0:0:0:
284,233,156504,1,0,0:0:0:0:
384,252,156671,1,0,0:0:0:0:
413,197,156838,5,0,0:0:0:0:
408,181,156921,1,0,0:0:0:0:
346,137,157004,5,0,0:0:0:0:
255,59,157171,1,0,0:0:0:0:
116,6,157338,1,0,0:0:0:0:
128,32,157421,1,0,0:0:0:0:
136,60,157504,1,0,0:0:0:0:
136,89,157588,1,0,0:0:0:0:
129,117,157671,5,0,0:0:0:0:
85,213,157838,1,0,0:0:0:0:
225,289,158004,1,0,0:0:0:0:
254,284,158088,1,0,0:0:0:0:
283,280,158171,1,0,0:0:0:0:
312,276,158254,1,0,0:0:0:0:
341,272,158338,5,0,0:0:0:0:
439,342,158504,1,0,0:0:0:0:
268,233,158671,5,0,0:0:0:0:
298,349,158837,1,0,0:0:0:0:
298,349,158921,1,0,0:0:0:0:
298,349,159004,1,0,0:0:0:0:
199,199,159171,5,0,0:0:0:0:
181,356,159338,1,0,0:0:0:0:
181,356,159421,1,0,0:0:0:0:
181,356,159504,1,0,0:0:0:0:
181,356,159588,1,0,0:0:0:0:
181,356,159671,6,0,L|248:349,1,42.5
305,310,159838,1,0,0:0:0:0:
388,203,160004,1,0,0:0:0:0:
370,67,160171,1,0,0:0:0:0:
439,18,160338,6,0,L|448:82,1,42.5
459,126,160504,2,0,L|463:153,3,21.25
439,226,160671,5,0,0:0:0:0:
448,262,160754,1,0,0:0:0:0:
457,299,160838,1,0,0:0:0:0:
341,133,161004,5,0,0:0:0:0:
316,125,161088,1,0,0:0:0:0:
291,119,161171,1,0,0:0:0:0:
265,119,161254,1,0,0:0:0:0:
240,125,161338,1,0,0:0:0:0:
219,139,161421,1,0,0:0:0:0:
196,150,161504,1,0,0:0:0:0:
170,155,161588,1,0,0:0:0:0:
144,157,161671,5,0,0:0:0:0:
144,169,161754,1,0,0:0:0:0:
144,181,161838,1,0,0:0:0:0:
144,193,161921,1,0,0:0:0:0:
110,223,162004,1,0,0:0:0:0:
109,235,162088,1,0,0:0:0:0:
108,247,162171,1,0,0:0:0:0:
108,259,162254,1,0,0:0:0:0:
71,299,162338,5,0,0:0:0:0:
60,266,162421,1,0,0:0:0:0:
50,233,162504,1,0,0:0:0:0:
40,200,162588,1,0,0:0:0:0:
11,133,162671,5,0,0:0:0:0:
51,144,162754,1,0,0:0:0:0:
92,155,162838,1,0,0:0:0:0:
132,167,162921,1,0,0:0:0:0:
193,226,163004,1,0,0:0:0:0:
239,221,163088,1,0,0:0:0:0:
285,217,163171,1,0,0:0:0:0:
331,213,163254,1,0,0:0:0:0:
383,273,163338,1,0,0:0:0:0:
339,289,163421,1,0,0:0:0:0:
295,305,163504,1,0,0:0:0:0:
251,322,163588,1,0,0:0:0:0:
175,366,163671,5,0,0:0:0:0:
191,327,163754,1,0,0:0:0:0:
195,284,163838,1,0,0:0:0:0:
183,243,163921,1,0,0:0:0:0:
155,211,164004,1,0,0:0:0:0:
116,192,164088,1,0,0:0:0:0:
77,173,164171,1,0,0:0:0:0:
52,138,164254,1,0,0:0:0:0:
53,95,164338,1,0,0:0:0:0:
69,56,164421,1,0,0:0:0:0:
105,35,164504,1,0,0:0:0:0:
147,30,164588,1,0,0:0:0:0:
188,36,164671,1,0,0:0:0:0:
194,56,164754,1,0,0:0:0:0:
205,74,164838,1,0,0:0:0:0:
220,87,164921,1,0,0:0:0:0:
238,96,165004,5,0,0:0:0:0:
203,134,165088,1,0,0:0:0:0:
176,177,165171,1,0,0:0:0:0:
162,226,165254,1,0,0:0:0:0:
168,277,165338,1,0,0:0:0:0:
191,321,165421,1,0,0:0:0:0:
234,347,165504,1,0,0:0:0:0:
283,361,165588,1,0,0:0:0:0:
365,313,165671,5,0,0:0:0:0:
314,307,165754,1,0,0:0:0:0:
262,301,165838,1,0,0:0:0:0:
211,295,165921,1,0,0:0:0:0:
152,226,166004,6,0,L|216:219,1,42.5
303,211,166171,1,0,0:0:0:0:
165,26,166338,5,0,0:0:0:0:
112,228,166504,1,0,0:0:0:0:
297,332,166671,5,0,0:0:0:0:
240,132,166838,1,0,0:0:0:0:
59,278,167004,5,0,0:0:0:0:
318,288,167171,1,0,0:0:0:0:
260,46,167338,1,0,0:0:0:0:
180,289,167504,1,0,0:0:0:0:
450,197,167671,5,0,0:0:0:0:
363,355,167838,1,0,0:0:0:0:
189,114,168004,1,0,0:0:0:0:
454,126,168171,1,0,0:0:0:0:
246,336,168338,5,0,0:0:0:0:
297,28,168504,1,0,0:0:0:0:
481,217,168671,1,0,0:0:0:0:
481,217,168838,1,0,0:0:0:0:
392,323,169004,5,0,0:0:0:0:
375,326,169088,1,0,0:0:0:0:
358,329,169171,1,0,0:0:0:0:
341,332,169254,1,0,0:0:0:0:
324,335,169338,1,0,0:0:0:0:
307,338,169421,1,0,0:0:0:0:
290,341,169504,1,0,0:0:0:0:
273,344,169588,1,0,0:0:0:0:
209,345,169671,6,0,L|204:306,1,21.25
151,317,169754,2,0,L|155:280,1,21.25
105,271,169838,2,0,L|117:235,1,21.25
87,209,169921,2,0,L|107:178,1,21.25
93,145,170004,2,0,L|126:124,1,21.25
120,86,170088,2,0,L|155:81,1,21.25
164,41,170171,2,0,L|188:51,1,21.25
226,29,170254,2,0,L|246:47,1,21.25
290,34,170338,5,0,0:0:0:0:
290,33,170671,5,0,0:0:0:0:
290,33,171004,5,0,0:0:0:0:
333,107,171088,2,0,L|199:86,1,127.5
20,186,171671,5,0,0:0:0:0:
67,168,171754,1,0,0:0:0:0:
118,167,171838,1,0,0:0:0:0:
167,178,171921,1,0,0:0:0:0:
211,203,172004,2,0,L|285:206,3,42.5
318,276,172338,5,0,0:0:0:0:
351,270,172421,1,0,0:0:0:0:
384,264,172504,1,0,0:0:0:0:
417,258,172588,1,0,0:0:0:0:
475,209,172671,5,0,0:0:0:0:
442,199,172754,1,0,0:0:0:0:
409,189,172838,1,0,0:0:0:0:
376,179,172921,1,0,0:0:0:0:
285,150,173004,2,0,L|275:82,2,42.5
217,17,173254,5,0,0:0:0:0:
204,86,173338,2,0,L|195:137,3,42.5
226,220,173671,5,0,0:0:0:0:
270,175,173754,1,0,0:0:0:0:
329,199,173838,1,0,0:0:0:0:
325,262,173921,1,0,0:0:0:0:
262,275,174004,2,0,L|279:337,1,42.5
98,367,174171,2,0,L|110:318,1,42.5
195,184,174338,5,0,0:0:0:0:
220,180,174421,1,0,0:0:0:0:
245,176,174504,2,0,L|304:166,1,42.5
439,303,174671,5,0,0:0:0:0:
414,307,174754,1,0,0:0:0:0:
389,311,174837,2,0,L|330:321,1,42.5
194,186,175004,5,0,0:0:0:0:
166,229,175088,1,0,0:0:0:0:
122,254,175171,1,0,0:0:0:0:
72,240,175254,1,0,0:0:0:0:
34,204,175338,1,0,0:0:0:0:
23,154,175421,1,0,0:0:0:0:
38,105,175504,1,0,0:0:0:0:
69,64,175588,1,0,0:0:0:0:
117,49,175671,5,0,0:0:0:0:
109,107,175754,1,0,0:0:0:0:
132,162,175838,1,0,0:0:0:0:
187,183,175921,1,0,0:0:0:0:
244,167,176004,1,0,0:0:0:0:
286,124,176088,1,0,0:0:0:0:
343,111,176171,1,0,0:0:0:0:
401,117,176254,1,0,0:0:0:0:
463,170,176338,5,0,0:0:0:0:
464,185,176421,1,0,0:0:0:0:
466,201,176504,1,0,0:0:0:0:
468,216,176588,1,0,0:0:0:0:
478,295,176671,5,0,0:0:0:0:
479,310,176754,1,0,0:0:0:0:
481,326,176837,1,0,0:0:0:0:
483,341,176921,1,0,0:0:0:0:
419,251,177004,5,0,0:0:0:0:
382,228,177088,1,0,0:0:0:0:
342,214,177171,1,0,0:0:0:0:
299,213,177254,1,0,0:0:0:0:
257,225,177338,2,0,P|232:232|202:253,3,42.5
144,352,177671,5,0,0:0:0:0:
122,315,177754,1,0,0:0:0:0:
117,272,177838,1,0,0:0:0:0:
120,229,177921,1,0,0:0:0:0:
142,193,178004,1,0,0:0:0:0:
101,178,178088,2,0,L|108:105,1,42.5
181,75,178254,5,0,0:0:0:0:
181,75,178338,2,0,L|252:74,2,42.5
212,180,178588,1,0,0:0:0:0:
212,180,178671,2,0,L|275:180,3,42.5
349,65,179004,5,0,0:0:0:0:
386,43,179088,1,0,0:0:0:0:
428,47,179171,1,0,0:0:0:0:
463,69,179254,1,0,0:0:0:0:
472,110,179338,1,0,0:0:0:0:
423,143,179421,1,0,0:0:0:0:
393,194,179504,1,0,0:0:0:0:
383,253,179588,1,0,0:0:0:0:
401,309,179671,6,0,L|334:308,3,42.5
288,357,180004,2,0,L|218:357,3,42.5
119,323,180338,5,0,0:0:0:0:
70,288,180421,1,0,0:0:0:0:
47,233,180504,1,0,0:0:0:0:
49,173,180588,1,0,0:0:0:0:
81,123,180671,1,0,0:0:0:0:
128,177,180754,1,0,0:0:0:0:
197,197,180838,1,0,0:0:0:0:
268,193,180921,1,0,0:0:0:0:
328,153,181004,6,0,L|401:155,1,42.5
440,262,181171,5,0,0:0:0:0:
440,262,181254,1,0,0:0:0:0:
413,285,181338,2,0,L|339:284,1,42.5
291,162,181504,5,0,0:0:0:0:
291,162,181588,1,0,0:0:0:0:
320,142,181672,2,0,L|394:143,2,42.5
466,258,181921,5,0,0:0:0:0:
462,265,182004,1,0,0:0:0:0:
458,272,182088,1,0,0:0:0:0:
454,279,182171,1,0,0:0:0:0:
450,286,182254,1,0,0:0:0:0:
446,293,182338,5,0,0:0:0:0:
409,281,182421,1,0,0:0:0:0:
371,274,182504,1,0,0:0:0:0:
332,279,182588,1,0,0:0:0:0:
298,296,182671,1,0,0:0:0:0:
270,322,182754,1,0,0:0:0:0:
239,346,182838,1,0,0:0:0:0:
203,359,182921,1,0,0:0:0:0:
164,359,183004,6,0,L|99:348,3,42.5
8,286,183338,2,0,L|84:275,3,42.5
171,151,183671,5,0,0:0:0:0:
164,192,183754,1,0,0:0:0:0:
177,232,183838,1,0,0:0:0:0:
219,236,183921,1,0,0:0:0:0:
257,218,184004,1,0,0:0:0:0:
299,217,184088,1,0,0:0:0:0:
339,230,184171,1,0,0:0:0:0:
369,259,184254,1,0,0:0:0:0:
325,324,184338,6,0,L|260:327,1,42.5
304,350,184504,2,0,L|239:353,1,42.5
162,356,184671,1,0,0:0:0:0:
157,353,184754,2,0,L|165:266,1,85
220,135,185004,5,0,0:0:0:0:
200,173,185088,1,0,0:0:0:0:
193,214,185171,1,0,0:0:0:0:
203,255,185254,1,0,0:0:0:0:
235,282,185338,1,0,0:0:0:0:
274,297,185421,1,0,0:0:0:0:
314,285,185504,1,0,0:0:0:0:
349,261,185588,1,0,0:0:0:0:
369,223,185671,5,0,0:0:0:0:
339,218,185754,1,0,0:0:0:0:
309,213,185838,1,0,0:0:0:0:
279,208,185921,1,0,0:0:0:0:
216,240,186004,1,0,0:0:0:0:
181,244,186088,1,0,0:0:0:0:
147,248,186171,1,0,0:0:0:0:
113,252,186254,1,0,0:0:0:0:
21,260,186338,5,0,0:0:0:0:
18,209,186421,1,0,0:0:0:0:
29,159,186504,1,0,0:0:0:0:
60,118,186588,1,0,0:0:0:0:
105,95,186671,2,0,L|182:96,1,42.5
265,48,186838,2,0,L|345:49,1,42.5
195,231,187004,5,0,0:0:0:0:
157,178,187088,1,0,0:0:0:0:
160,114,187171,1,0,0:0:0:0:
204,68,187254,1,0,0:0:0:0:
265,48,187338,2,0,L|345:51,1,42.5
434,16,187504,5,0,0:0:0:0:
439,27,187588,1,0,0:0:0:0:
433,64,187671,1,0,0:0:0:0:
426,101,187754,1,0,0:0:0:0:
427,139,187838,1,0,0:0:0:0:
434,176,187921,1,0,0:0:0:0:
447,211,188004,5,0,0:0:0:0:
397,225,188088,1,0,0:0:0:0:
356,255,188171,1,0,0:0:0:0:
350,305,188254,1,0,0:0:0:0:
371,351,188338,1,0,0:0:0:0:
416,372,188421,1,0,0:0:0:0:
466,369,188504,1,0,0:0:0:0:
506,337,188588,1,0,0:0:0:0:
508,286,188671,1,0,0:0:0:0:
483,241,188754,1,0,0:0:0:0:
440,211,188838,1,0,0:0:0:0:
389,206,188921,1,0,0:0:0:0:
328,262,189004,5,0,0:0:0:0:
272,266,189088,1,0,0:0:0:0:
219,281,189171,1,0,0:0:0:0:
176,315,189254,1,0,0:0:0:0:
120,320,189338,1,0,0:0:0:0:
68,300,189421,1,0,0:0:0:0:
26,264,189504,1,0,0:0:0:0:
3,212,189588,1,0,0:0:0:0:
13,157,189671,1,0,0:0:0:0:
40,125,189754,1,0,0:0:0:0:
80,109,189838,1,0,0:0:0:0:
121,103,189921,1,0,0:0:0:0:
163,108,190004,5,0,0:0:0:0:
196,103,190088,1,0,0:0:0:0:
229,98,190171,1,0,0:0:0:0:
262,94,190254,1,0,0:0:0:0:
334,42,190338,6,0,L|401:48,1,42.5
281,338,190504,5,0,0:0:0:0:
281,338,190588,1,0,0:0:0:0:
281,338,190671,2,0,L|345:330,1,42.5
189,49,190838,5,0,0:0:0:0:
189,49,190921,1,0,0:0:0:0:
189,49,191004,2,0,L|261:59,1,42.5
136,343,191171,5,0,0:0:0:0:
136,343,191255,1,0,0:0:0:0:
136,343,191338,2,0,L|200:335,1,42.5
9,156,191504,5,0,0:0:0:0:
37,148,191588,1,0,0:0:0:0:
65,140,191671,5,0,0:0:0:0:
75,167,191754,1,0,0:0:0:0:
85,194,191838,1,0,0:0:0:0:
95,221,191921,1,0,0:0:0:0:
104,249,192004,5,0,0:0:0:0:
131,216,192088,1,0,0:0:0:0:
158,183,192171,1,0,0:0:0:0:
185,151,192254,1,0,0:0:0:0:
208,115,192338,5,0,0:0:0:0:
260,132,192421,1,0,0:0:0:0:
312,149,192504,1,0,0:0:0:0:
364,166,192588,1,0,0:0:0:0:
415,185,192671,5,0,0:0:0:0:
338,208,192754,1,0,0:0:0:0:
260,232,192838,1,0,0:0:0:0:
183,255,192921,1,0,0:0:0:0:
106,279,193004,1,0,0:0:0:0:
256,192,193088,12,0,195338,0:0:0:0:
87,142,195671,6,0,L|200:124,1,85
306,42,195921,1,0,0:0:0:0:
306,42,196004,1,0,0:0:0:0:
461,111,196171,1,0,0:0:0:0:
311,255,196338,6,0,L|305:136,1,85
215,300,196671,1,0,0:0:0:0:
215,300,196754,1,0,0:0:0:0:
215,300,196838,1,0,0:0:0:0:
481,229,197004,2,0,L|386:228,1,85
308,351,197254,5,0,0:0:0:0:
308,351,197338,2,0,L|302:286,1,42.5
187,262,197504,2,0,L|181:208,1,42.5
287,42,197671,1,0,0:0:0:0:
287,42,197754,1,0,0:0:0:0:
287,42,197838,1,0,0:0:0:0:
26,49,198004,6,0,L|149:42,1,85
156,200,198254,1,0,0:0:0:0:
114,208,198338,2,0,P|86:167|115:106,1,85
257,108,198671,2,0,P|281:145|268:195,1,85
161,293,199004,1,0,0:0:0:0:
161,293,199088,1,0,0:0:0:0:
161,293,199171,1,0,0:0:0:0:
25,133,199338,5,0,0:0:0:0:
121,115,199421,2,0,L|133:209,1,85
84,348,199671,2,0,L|66:234,1,85
211,206,199921,1,0,0:0:0:0:
232,192,200004,2,0,L|290:193,1,42.5
390,199,200171,2,0,L|473:203,1,42.5
486,266,200338,5,0,0:0:0:0:
486,266,200421,1,0,0:0:0:0:
486,266,200504,1,0,0:0:0:0:
223,178,200671,2,0,L|281:179,1,42.5
381,185,200838,2,0,L|464:189,1,42.5
228,318,201004,5,0,0:0:0:0:
222,266,201088,1,0,0:0:0:0:
217,215,201171,1,0,0:0:0:0:
212,164,201254,1,0,0:0:0:0:
207,112,201338,2,0,L|275:91,1,42.5
450,228,201504,2,0,L|374:200,1,42.5
129,110,201671,5,0,0:0:0:0:
179,123,201755,1,0,0:0:0:0:
229,136,201838,1,0,0:0:0:0:
278,150,201921,1,0,0:0:0:0:
328,164,202005,2,0,L|323:235,1,42.5
133,349,202171,2,0,L|186:288,1,42.5
417,257,202338,6,0,L|430:320,1,42.5
276,171,202504,5,0,0:0:0:0:
295,123,202588,1,0,0:0:0:0:
315,76,202671,2,0,L|343:11,1,42.5
346,332,202838,5,0,0:0:0:0:
294,326,202922,1,0,0:0:0:0:
244,317,203005,2,0,L|174:305,1,42.5
28,198,203171,5,0,0:0:0:0:
50,152,203254,1,0,0:0:0:0:
73,106,203338,1,0,0:0:0:0:
152,119,203421,1,0,0:0:0:0:
231,132,203504,1,0,0:0:0:0:
311,142,203588,1,0,0:0:0:0:
390,153,203671,1,0,0:0:0:0:
256,192,203754,12,0,208504,0:0:0:0:
135,283,208671,6,0,L|254:275,1,85
293,241,208921,1,0,0:0:0:0:
293,241,209004,2,0,L|412:235,1,85
493,330,209338,1,0,0:0:0:0:
287,366,209504,1,0,0:0:0:0:
411,145,209671,2,0,B|411:210|411:210|368:264,1,127.5
317,146,210004,5,0,0:0:0:0:
317,146,210088,2,0,L|317:43,1,85
178,40,210338,2,0,L|61:49,1,85
155,148,210588,1,0,0:0:0:0:
158,154,210671,1,0,0:0:0:0:
397,84,210838,1,0,0:0:0:0:
310,323,211004,6,0,B|284:282|284:282|304:165,1,127.5
141,313,211338,1,0,0:0:0:0:
141,313,211421,1,0,0:0:0:0:
141,313,211504,1,0,0:0:0:0:
126,85,211671,5,0,0:0:0:0:
176,62,211754,1,0,0:0:0:0:
231,58,211838,1,0,0:0:0:0:
285,68,211921,1,0,0:0:0:0:
333,94,212004,1,0,0:0:0:0:
391,193,212171,1,0,0:0:0:0:
96,83,212338,5,0,0:0:0:0:
157,55,212421,1,0,0:0:0:0:
225,50,212505,1,0,0:0:0:0:
291,62,212588,1,0,0:0:0:0:
349,94,212671,1,0,0:0:0:0:
420,215,212838,1,0,0:0:0:0:
340,319,213004,6,0,L|339:254,1,42.5
185,73,213171,1,0,0:0:0:0:
185,73,213254,1,0,0:0:0:0:
185,73,213338,2,0,L|185:126,1,42.5
389,354,213504,1,0,0:0:0:0:
389,354,213588,1,0,0:0:0:0:
389,354,213671,2,0,L|388:289,1,42.5
137,36,213838,5,0,0:0:0:0:
137,36,213921,1,0,0:0:0:0:
137,36,214004,5,0,0:0:0:0:
136,108,214088,1,0,0:0:0:0:
136,179,214171,1,0,0:0:0:0:
136,250,214254,1,0,0:0:0:0:
136,322,214338,1,0,0:0:0:0:
256,192,214421,12,0,219671,0:0:0:0:
