osu file format v14

[General]
AudioFilename: audio.mp3
AudioLeadIn: 0
PreviewTime: 43674
Countdown: 0
SampleSet: Soft
StackLeniency: 0.7
Mode: 3
LetterboxInBreaks: 0
SpecialStyle: 0
WidescreenStoryboard: 1

[Editor]
Bookmarks: 86344
DistanceSpacing: 2
BeatDivisor: 4
GridSize: 8
TimelineZoom: 3.250003

[Metadata]
Title:AiAe
TitleUnicode:AiAe
Artist:Yuyoyuppe
ArtistUnicode:Yuyoyuppe
Creator:Amethyst507
Version:Fatal Decision
Source:
Tags:
BeatmapID:1186406
BeatmapSetID:561077

[Difficulty]
HPDrainRate:8.5
CircleSize:7
OverallDifficulty:8.5
ApproachRate:5
SliderMultiplier:1.4
SliderTickRate:1

[Events]
//Background and Video events
0,0,"background.jpg",0,0
//Break Periods
//Storyboard Layer 0 (Background)
//Storyboard Layer 1 (Fail)
//Storyboard Layer 2 (Pass)
//Storyboard Layer 3 (Foreground)
//Storyboard Sound Samples

[TimingPoints]
678,333.333,4,2,1,50,1,0
1011,333.333,4,2,1,50,1,0

[HitObjects]
475,192,678,5,0,0:0:0:0:
36,192,678,1,0,0:0:0:0:
329,192,761,1,0,0:0:0:0:
182,192,761,1,0,0:0:0:0:
475,192,844,1,0,0:0:0:0:
36,192,844,1,0,0:0:0:0:
329,192,927,1,0,0:0:0:0:
182,192,927,1,0,0:0:0:0:
475,192,1011,1,0,0:0:0:0:
402,192,1011,1,0,0:0:0:0:
256,192,1011,1,0,0:0:0:0:
36,192,1011,128,0,1344:0:0:0:0:
109,192,1094,1,0,0:0:0:0:
329,192,1177,128,0,1510:0:0:0:0:
182,192,1177,1,0,0:0:0:0:
256,192,1260,1,0,0:0:0:0:
182,192,1344,128,0,1677:0:0:0:0:
402,192,1344,1,0,0:0:0:0:
475,192,1344,1,0,0:0:0:0:
109,192,1427,1,0,0:0:0:0:
475,192,1510,128,0,1844:0:0:0:0:
402,192,1510,1,0,0:0:0:0:
109,192,1594,1,0,0:0:0:0:
36,192,1677,128,0,2010:0:0:0:0:
402,192,1677,1,0,0:0:0:0:
109,192,1760,1,0,0:0:0:0:
329,192,1844,128,0,2177:0:0:0:0:
402,192,1844,1,0,0:0:0:0:
182,192,1844,1,0,0:0:0:0:
182,192,2010,128,0,2344:0:0:0:0:
109,192,2010,1,0,0:0:0:0:
475,192,2010,1,0,0:0:0:0:
402,192,2094,1,0,0:0:0:0:
475,192,2177,128,0,2510:0:0:0:0:
256,192,2177,1,0,0:0:0:0:
109,192,2260,1,0,0:0:0:0:
109,192,2344,128,0,2677:0:0:0:0:
402,192,2344,1,0,0:0:0:0:
36,192,2344,1,0,0:0:0:0:
329,192,2344,1,0,0:0:0:0:
256,192,2427,1,0,0:0:0:0:
329,192,2510,128,0,2844:0:0:0:0:
36,192,2510,1,0,0:0:0:0:
256,192,2594,1,0,0:0:0:0:
182,192,2677,128,0,3010:0:0:0:0:
402,192,2677,1,0,0:0:0:0:
475,192,2677,1,0,0:0:0:0:
36,192,2760,1,0,0:0:0:0:
402,192,2844,128,0,3177:0:0:0:0:
475,192,2844,1,0,0:0:0:0:
36,192,2927,1,0,0:0:0:0:
109,192,3010,128,0,3344:0:0:0:0:
475,192,3010,1,0,0:0:0:0:
36,192,3094,1,0,0:0:0:0:
329,192,3177,128,0,3510:0:0:0:0:
256,192,3177,1,0,0:0:0:0:
182,192,3177,1,0,0:0:0:0:
475,192,3260,1,0,0:0:0:0:
182,192,3344,128,0,3677:0:0:0:0:
36,192,3344,1,0,0:0:0:0:
256,192,3427,1,0,0:0:0:0:
402,192,3510,128,0,3844:0:0:0:0:
475,192,3510,1,0,0:0:0:0:
109,192,3594,1,0,0:0:0:0:
256,192,3594,1,0,0:0:0:0:
36,192,3594,1,0,0:0:0:0:
36,192,3677,128,0,4010:0:0:0:0:
109,192,3677,1,0,0:0:0:0:
475,192,3760,1,0,0:0:0:0:
182,192,3844,128,0,4177:0:0:0:0:
109,192,3844,1,0,0:0:0:0:
256,192,3927,1,0,0:0:0:0:
329,192,4010,128,0,4344:0:0:0:0:
475,192,4010,1,0,0:0:0:0:
402,192,4010,1,0,0:0:0:0:
109,192,4094,1,0,0:0:0:0:
475,192,4177,128,0,4510:0:0:0:0:
402,192,4177,1,0,0:0:0:0:
109,192,4260,1,0,0:0:0:0:
36,192,4344,128,0,4677:0:0:0:0:
402,192,4344,1,0,0:0:0:0:
109,192,4427,1,0,0:0:0:0:
182,192,4510,128,0,4844:0:0:0:0:
256,192,4510,1,0,0:0:0:0:
402,192,4510,1,0,0:0:0:0:
109,192,4594,1,0,0:0:0:0:
329,192,4677,128,0,5010:0:0:0:0:
402,192,4677,1,0,0:0:0:0:
475,192,4677,1,0,0:0:0:0:
256,192,4677,1,0,0:0:0:0:
36,192,4760,1,0,0:0:0:0:
475,192,4844,128,0,5177:0:0:0:0:
256,192,4844,1,0,0:0:0:0:
402,192,4927,1,0,0:0:0:0:
36,192,5010,128,0,5344:0:0:0:0:
109,192,5010,1,0,0:0:0:0:
256,192,5094,1,0,0:0:0:0:
109,192,5177,128,0,5510:0:0:0:0:
182,192,5177,1,0,0:0:0:0:
402,192,5260,1,0,0:0:0:0:
475,192,5260,1,0,0:0:0:0:
182,192,5344,128,0,5677:0:0:0:0:
256,192,5344,1,0,0:0:0:0:
329,192,5344,1,0,0:0:0:0:
256,192,5510,128,0,5844:0:0:0:0:
329,192,5510,1,0,0:0:0:0:
475,192,5510,1,0,0:0:0:0:
36,192,5594,1,0,0:0:0:0:
329,192,5677,128,0,6010:0:0:0:0:
402,192,5677,1,0,0:0:0:0:
109,192,5760,1,0,0:0:0:0:
402,192,5844,128,0,6010:0:0:0:0:
475,192,5844,1,0,0:0:0:0:
36,192,5844,1,0,0:0:0:0:
182,192,5927,1,0,0:0:0:0:
256,192,6010,1,0,0:0:0:0:
36,192,6010,1,0,0:0:0:0:
475,192,6010,128,0,6177:0:0:0:0:
109,192,6094,1,0,0:0:0:0:
329,192,6177,1,0,0:0:0:0:
402,192,6177,1,0,0:0:0:0:
182,192,6177,1,0,0:0:0:0:
402,192,6260,1,0,0:0:0:0:
329,192,6260,1,0,0:0:0:0:
36,192,6344,1,0,0:0:0:0:
256,192,6344,1,0,0:0:0:0:
475,192,6344,128,0,6677:0:0:0:0:
182,192,6344,1,0,0:0:0:0:
109,192,6344,1,0,0:0:0:0:
402,192,6427,1,0,0:0:0:0:
182,192,6510,128,0,6844:0:0:0:0:
329,192,6510,1,0,0:0:0:0:
256,192,6594,1,0,0:0:0:0:
329,192,6677,128,0,7010:0:0:0:0:
109,192,6677,1,0,0:0:0:0:
36,192,6677,1,0,0:0:0:0:
256,192,6760,1,0,0:0:0:0:
36,192,6844,128,0,7177:0:0:0:0:
402,192,6844,1,0,0:0:0:0:
109,192,6927,1,0,0:0:0:0:
475,192,7010,128,0,7344:0:0:0:0:
402,192,7010,1,0,0:0:0:0:
109,192,7094,1,0,0:0:0:0:
182,192,7177,128,0,7510:0:0:0:0:
402,192,7177,1,0,0:0:0:0:
329,192,7177,1,0,0:0:0:0:
256,192,7260,1,0,0:0:0:0:
329,192,7344,128,0,7677:0:0:0:0:
109,192,7344,1,0,0:0:0:0:
36,192,7344,1,0,0:0:0:0:
402,192,7427,1,0,0:0:0:0:
36,192,7510,128,0,7844:0:0:0:0:
256,192,7510,1,0,0:0:0:0:
182,192,7594,1,0,0:0:0:0:
402,192,7677,128,0,8010:0:0:0:0:
475,192,7677,1,0,0:0:0:0:
109,192,7677,1,0,0:0:0:0:
256,192,7760,1,0,0:0:0:0:
182,192,7844,128,0,8177:0:0:0:0:
475,192,7844,1,0,0:0:0:0:
329,192,7844,1,0,0:0:0:0:
109,192,7927,1,0,0:0:0:0:
329,192,8010,128,0,8344:0:0:0:0:
36,192,8010,1,0,0:0:0:0:
256,192,8010,1,0,0:0:0:0:
475,192,8094,1,0,0:0:0:0:
109,192,8177,128,0,8510:0:0:0:0:
36,192,8177,1,0,0:0:0:0:
475,192,8260,1,0,0:0:0:0:
402,192,8344,128,0,8677:0:0:0:0:
36,192,8344,1,0,0:0:0:0:
475,192,8427,1,0,0:0:0:0:
182,192,8510,128,0,8844:0:0:0:0:
36,192,8510,1,0,0:0:0:0:
329,192,8510,1,0,0:0:0:0:
256,192,8594,1,0,0:0:0:0:
329,192,8677,128,0,9010:0:0:0:0:
475,192,8677,1,0,0:0:0:0:
36,192,8677,1,0,0:0:0:0:
256,192,8760,1,0,0:0:0:0:
109,192,8844,128,0,9177:0:0:0:0:
36,192,8844,1,0,0:0:0:0:
402,192,8927,1,0,0:0:0:0:
475,192,8927,1,0,0:0:0:0:
182,192,8927,1,0,0:0:0:0:
475,192,9010,128,0,9344:0:0:0:0:
36,192,9010,1,0,0:0:0:0:
402,192,9010,1,0,0:0:0:0:
256,192,9010,1,0,0:0:0:0:
182,192,9094,1,0,0:0:0:0:
329,192,9177,128,0,9510:0:0:0:0:
256,192,9177,1,0,0:0:0:0:
402,192,9260,1,0,0:0:0:0:
182,192,9344,128,0,9677:0:0:0:0:
36,192,9344,1,0,0:0:0:0:
109,192,9344,1,0,0:0:0:0:
256,192,9427,1,0,0:0:0:0:
36,192,9510,128,0,9844:0:0:0:0:
402,192,9510,1,0,0:0:0:0:
109,192,9594,1,0,0:0:0:0:
475,192,9677,128,0,10010:0:0:0:0:
402,192,9677,1,0,0:0:0:0:
109,192,9760,1,0,0:0:0:0:
329,192,9844,128,0,10177:0:0:0:0:
402,192,9844,1,0,0:0:0:0:
256,192,9844,1,0,0:0:0:0:
109,192,9927,1,0,0:0:0:0:
182,192,10010,128,0,10344:0:0:0:0:
256,192,10010,1,0,0:0:0:0:
36,192,10010,1,0,0:0:0:0:
402,192,10094,1,0,0:0:0:0:
36,192,10177,128,0,10510:0:0:0:0:
475,192,10177,1,0,0:0:0:0:
256,192,10260,1,0,0:0:0:0:
475,192,10344,128,0,10677:0:0:0:0:
109,192,10344,1,0,0:0:0:0:
402,192,10344,1,0,0:0:0:0:
256,192,10427,1,0,0:0:0:0:
402,192,10510,128,0,10844:0:0:0:0:
182,192,10510,1,0,0:0:0:0:
109,192,10594,1,0,0:0:0:0:
329,192,10677,128,0,11010:0:0:0:0:
36,192,10677,1,0,0:0:0:0:
256,192,10677,1,0,0:0:0:0:
182,192,10760,1,0,0:0:0:0:
36,192,10844,128,0,11177:0:0:0:0:
475,192,10844,1,0,0:0:0:0:
109,192,10844,1,0,0:0:0:0:
182,192,10927,1,0,0:0:0:0:
182,192,11010,128,0,11344:0:0:0:0:
475,192,11010,1,0,0:0:0:0:
256,192,11010,1,0,0:0:0:0:
109,192,11094,1,0,0:0:0:0:
329,192,11177,128,0,11510:0:0:0:0:
402,192,11177,1,0,0:0:0:0:
475,192,11177,1,0,0:0:0:0:
256,192,11260,1,0,0:0:0:0:
475,192,11344,128,0,11677:0:0:0:0:
109,192,11344,1,0,0:0:0:0:
36,192,11344,1,0,0:0:0:0:
109,192,11427,1,0,0:0:0:0:
36,192,11427,1,0,0:0:0:0:
36,192,11510,1,0,0:0:0:0:
109,192,11510,1,0,0:0:0:0:
256,192,11510,128,0,11844:0:0:0:0:
109,192,11594,1,0,0:0:0:0:
36,192,11594,1,0,0:0:0:0:
402,192,11677,128,0,12010:0:0:0:0:
182,192,11677,1,0,0:0:0:0:
329,192,11677,1,0,0:0:0:0:
36,192,11760,1,0,0:0:0:0:
329,192,11844,128,0,12177:0:0:0:0:
109,192,11844,1,0,0:0:0:0:
182,192,11927,1,0,0:0:0:0:
256,192,12010,128,0,12344:0:0:0:0:
475,192,12010,1,0,0:0:0:0:
36,192,12010,1,0,0:0:0:0:
109,192,12094,1,0,0:0:0:0:
182,192,12177,128,0,12510:0:0:0:0:
475,192,12177,1,0,0:0:0:0:
109,192,12260,1,0,0:0:0:0:
402,192,12344,128,0,12677:0:0:0:0:
475,192,12344,1,0,0:0:0:0:
36,192,12427,1,0,0:0:0:0:
109,192,12427,1,0,0:0:0:0:
329,192,12510,128,0,12844:0:0:0:0:
256,192,12510,1,0,0:0:0:0:
475,192,12594,1,0,0:0:0:0:
182,192,12677,128,0,13010:0:0:0:0:
109,192,12677,1,0,0:0:0:0:
36,192,12677,1,0,0:0:0:0:
256,192,12760,1,0,0:0:0:0:
109,192,12844,128,0,13177:0:0:0:0:
475,192,12844,1,0,0:0:0:0:
402,192,12927,1,0,0:0:0:0:
475,192,13010,128,0,13344:0:0:0:0:
36,192,13010,1,0,0:0:0:0:
256,192,13010,1,0,0:0:0:0:
329,192,13094,1,0,0:0:0:0:
402,192,13177,128,0,13510:0:0:0:0:
182,192,13177,1,0,0:0:0:0:
256,192,13260,1,0,0:0:0:0:
109,192,13344,128,0,13677:0:0:0:0:
329,192,13344,1,0,0:0:0:0:
36,192,13344,1,0,0:0:0:0:
182,192,13427,1,0,0:0:0:0:
36,192,13510,128,0,13844:0:0:0:0:
329,192,13510,1,0,0:0:0:0:
182,192,13594,1,0,0:0:0:0:
475,192,13677,128,0,14010:0:0:0:0:
329,192,13677,1,0,0:0:0:0:
182,192,13760,1,0,0:0:0:0:
402,192,13844,128,0,14177:0:0:0:0:
329,192,13844,1,0,0:0:0:0:
256,192,13844,1,0,0:0:0:0:
182,192,13927,1,0,0:0:0:0:
109,192,14010,128,0,14344:0:0:0:0:
36,192,14010,1,0,0:0:0:0:
256,192,14010,1,0,0:0:0:0:
329,192,14094,1,0,0:0:0:0:
182,192,14177,128,0,14510:0:0:0:0:
475,192,14177,1,0,0:0:0:0:
256,192,14260,1,0,0:0:0:0:
329,192,14344,128,0,14677:0:0:0:0:
36,192,14344,1,0,0:0:0:0:
475,192,14344,1,0,0:0:0:0:
402,192,14427,1,0,0:0:0:0:
475,192,14510,128,0,14844:0:0:0:0:
256,192,14510,1,0,0:0:0:0:
109,192,14594,1,0,0:0:0:0:
36,192,14677,128,0,15010:0:0:0:0:
402,192,14677,1,0,0:0:0:0:
256,192,14677,1,0,0:0:0:0:
109,192,14760,1,0,0:0:0:0:
182,192,14844,128,0,15177:0:0:0:0:
329,192,14844,1,0,0:0:0:0:
109,192,14927,1,0,0:0:0:0:
475,192,15010,128,0,15344:0:0:0:0:
329,192,15010,1,0,0:0:0:0:
109,192,15094,1,0,0:0:0:0:
329,192,15177,128,0,15510:0:0:0:0:
256,192,15177,1,0,0:0:0:0:
402,192,15177,1,0,0:0:0:0:
109,192,15260,1,0,0:0:0:0:
182,192,15344,128,0,15677:0:0:0:0:
36,192,15344,1,0,0:0:0:0:
256,192,15344,1,0,0:0:0:0:
475,192,15427,1,0,0:0:0:0:
36,192,15510,128,0,15844:0:0:0:0:
402,192,15510,1,0,0:0:0:0:
256,192,15594,1,0,0:0:0:0:
475,192,15677,128,0,16010:0:0:0:0:
109,192,15677,1,0,0:0:0:0:
402,192,15677,1,0,0:0:0:0:
256,192,15760,1,0,0:0:0:0:
329,192,15844,128,0,16177:0:0:0:0:
402,192,15844,1,0,0:0:0:0:
109,192,15927,1,0,0:0:0:0:
182,192,16010,128,0,16344:0:0:0:0:
256,192,16010,1,0,0:0:0:0:
402,192,16010,1,0,0:0:0:0:
109,192,16094,1,0,0:0:0:0:
36,192,16177,128,0,16510:0:0:0:0:
402,192,16177,1,0,0:0:0:0:
475,192,16177,1,0,0:0:0:0:
109,192,16260,1,0,0:0:0:0:
475,192,16344,128,0,16677:0:0:0:0:
256,192,16344,1,0,0:0:0:0:
109,192,16427,1,0,0:0:0:0:
256,192,16510,128,0,17010:0:0:0:0:
329,192,16510,1,0,0:0:0:0:
182,192,16594,1,0,0:0:0:0:
36,192,16677,128,0,17010:0:0:0:0:
402,192,16677,1,0,0:0:0:0:
329,192,16677,1,0,0:0:0:0:
182,192,16760,1,0,0:0:0:0:
109,192,16760,1,0,0:0:0:0:
329,192,16844,1,0,0:0:0:0:
402,192,16844,1,0,0:0:0:0:
182,192,16927,1,0,0:0:0:0:
109,192,16927,1,0,0:0:0:0:
402,192,17010,1,0,0:0:0:0:
329,192,17010,1,0,0:0:0:0:
475,192,17010,128,0,17344:0:0:0:0:
109,192,17094,1,0,0:0:0:0:
36,192,17177,128,0,17510:0:0:0:0:
256,192,17177,1,0,0:0:0:0:
402,192,17260,1,0,0:0:0:0:
329,192,17344,128,0,17677:0:0:0:0:
182,192,17344,1,0,0:0:0:0:
256,192,17344,1,0,0:0:0:0:
402,192,17427,1,0,0:0:0:0:
182,192,17510,128,0,17844:0:0:0:0:
256,192,17510,1,0,0:0:0:0:
402,192,17594,1,0,0:0:0:0:
475,192,17677,128,0,18010:0:0:0:0:
109,192,17677,1,0,0:0:0:0:
256,192,17677,1,0,0:0:0:0:
402,192,17760,1,0,0:0:0:0:
36,192,17844,128,0,18177:0:0:0:0:
329,192,17844,1,0,0:0:0:0:
109,192,17844,1,0,0:0:0:0:
256,192,17927,1,0,0:0:0:0:
329,192,18010,128,0,18344:0:0:0:0:
109,192,18010,1,0,0:0:0:0:
182,192,18010,1,0,0:0:0:0:
402,192,18094,1,0,0:0:0:0:
182,192,18177,128,0,18510:0:0:0:0:
256,192,18177,1,0,0:0:0:0:
402,192,18260,1,0,0:0:0:0:
475,192,18344,128,0,18677:0:0:0:0:
109,192,18344,1,0,0:0:0:0:
36,192,18344,1,0,0:0:0:0:
256,192,18427,1,0,0:0:0:0:
329,192,18510,128,0,18844:0:0:0:0:
402,192,18510,1,0,0:0:0:0:
109,192,18594,1,0,0:0:0:0:
36,192,18677,128,0,19010:0:0:0:0:
256,192,18677,1,0,0:0:0:0:
402,192,18677,1,0,0:0:0:0:
109,192,18760,1,0,0:0:0:0:
182,192,18844,128,0,19177:0:0:0:0:
256,192,18844,1,0,0:0:0:0:
109,192,18927,1,0,0:0:0:0:
475,192,19010,128,0,19344:0:0:0:0:
256,192,19010,1,0,0:0:0:0:
402,192,19094,1,0,0:0:0:0:
256,192,19177,1,0,0:0:0:0:
329,192,19177,128,0,19510:0:0:0:0:
36,192,19177,1,0,0:0:0:0:
109,192,19260,1,0,0:0:0:0:
256,192,19344,128,0,19677:0:0:0:0:
402,192,19344,1,0,0:0:0:0:
182,192,19344,1,0,0:0:0:0:
36,192,19344,1,0,0:0:0:0:
475,192,19427,1,0,0:0:0:0:
182,192,19510,128,0,19677:0:0:0:0:
402,192,19510,1,0,0:0:0:0:
475,192,19594,1,0,0:0:0:0:
36,192,19677,128,0,20344:0:0:0:0:
109,192,19677,1,0,0:0:0:0:
402,192,19677,1,0,0:0:0:0:
329,192,19677,1,0,0:0:0:0:
475,192,19760,1,0,0:0:0:0:
109,192,19844,128,0,20260:0:0:0:0:
182,192,19844,1,0,0:0:0:0:
402,192,19927,1,0,0:0:0:0:
182,192,20010,128,0,20260:0:0:0:0:
256,192,20010,1,0,0:0:0:0:
329,192,20010,1,0,0:0:0:0:
475,192,20094,1,0,0:0:0:0:
256,192,20177,128,0,20344:0:0:0:0:
402,192,20177,1,0,0:0:0:0:
329,192,20260,1,0,0:0:0:0:
182,192,20344,1,0,0:0:0:0:
475,192,20344,128,0,20927:0:0:0:0:
109,192,20344,1,0,0:0:0:0:
402,192,20344,1,0,0:0:0:0:
36,192,20427,1,0,0:0:0:0:
402,192,20510,128,0,20927:0:0:0:0:
329,192,20510,1,0,0:0:0:0:
109,192,20594,1,0,0:0:0:0:
329,192,20677,128,0,21010:0:0:0:0:
256,192,20677,1,0,0:0:0:0:
182,192,20677,1,0,0:0:0:0:
36,192,20760,1,0,0:0:0:0:
256,192,20844,128,0,21010:0:0:0:0:
109,192,20844,1,0,0:0:0:0:
182,192,20927,1,0,0:0:0:0:
36,192,21010,1,0,0:0:0:0:
402,192,21010,1,0,0:0:0:0:
475,192,21010,1,0,0:0:0:0:
109,192,21010,1,0,0:0:0:0:
329,192,21094,1,0,0:0:0:0:
256,192,21177,1,0,0:0:0:0:
182,192,21177,1,0,0:0:0:0:
402,192,21260,1,0,0:0:0:0:
329,192,21260,1,0,0:0:0:0:
109,192,21344,1,0,0:0:0:0:
36,192,21344,1,0,0:0:0:0:
256,192,21427,1,0,0:0:0:0:
475,192,21510,1,0,0:0:0:0:
109,192,21594,1,0,0:0:0:0:
182,192,21594,1,0,0:0:0:0:
329,192,21677,1,0,0:0:0:0:
402,192,21677,1,0,0:0:0:0:
256,192,21760,1,0,0:0:0:0:
475,192,21844,1,0,0:0:0:0:
109,192,21844,1,0,0:0:0:0:
182,192,21844,1,0,0:0:0:0:
329,192,21927,1,0,0:0:0:0:
256,192,21927,1,0,0:0:0:0:
475,192,22010,1,0,0:0:0:0:
36,192,22010,1,0,0:0:0:0:
402,192,22031,1,0,0:0:0:0:
329,192,22052,1,0,0:0:0:0:
256,192,22073,1,0,0:0:0:0:
109,192,22094,1,0,0:0:0:0:
182,192,22094,1,0,0:0:0:0:
475,192,22177,1,0,0:0:0:0:
402,192,22177,1,0,0:0:0:0:
256,192,22260,1,0,0:0:0:0:
182,192,22260,1,0,0:0:0:0:
402,192,22344,1,0,0:0:0:0:
475,192,22344,1,0,0:0:0:0:
329,192,22344,1,0,0:0:0:0:
36,192,22344,128,0,22844:0:0:0:0:
182,192,23010,128,0,23510:0:0:0:0:
329,192,23677,128,0,24177:0:0:0:0:
475,192,24344,128,0,24844:0:0:0:0:
109,192,25010,128,0,25510:0:0:0:0:
256,192,25677,128,0,26177:0:0:0:0:
402,192,26344,128,0,26844:0:0:0:0:
36,192,27010,128,0,27510:0:0:0:0:
475,192,27344,128,0,27510:0:0:0:0:
109,192,27510,1,0,0:0:0:0:
182,192,27510,1,0,0:0:0:0:
182,192,27677,128,0,28177:0:0:0:0:
329,192,27677,1,0,0:0:0:0:
402,192,27677,1,0,0:0:0:0:
109,192,27677,1,0,0:0:0:0:
329,192,28344,128,0,28844:0:0:0:0:
475,192,29010,128,0,29510:0:0:0:0:
36,192,29677,128,0,30177:0:0:0:0:
475,192,30010,128,0,30177:0:0:0:0:
402,192,30177,1,0,0:0:0:0:
329,192,30177,1,0,0:0:0:0:
109,192,30344,1,0,0:0:0:0:
402,192,30344,1,0,0:0:0:0:
329,192,30344,1,0,0:0:0:0:
182,192,30344,128,0,30844:0:0:0:0:
36,192,31010,128,0,31510:0:0:0:0:
475,192,31677,128,0,32177:0:0:0:0:
256,192,31677,1,0,0:0:0:0:
329,192,31677,1,0,0:0:0:0:
402,192,31677,1,0,0:0:0:0:
256,192,32177,128,0,32344:0:0:0:0:
402,192,32344,128,0,32677:0:0:0:0:
182,192,32510,1,0,0:0:0:0:
109,192,32510,1,0,0:0:0:0:
109,192,32594,1,0,0:0:0:0:
182,192,32594,1,0,0:0:0:0:
36,192,32677,1,0,0:0:0:0:
256,192,32677,1,0,0:0:0:0:
329,192,32677,1,0,0:0:0:0:
475,192,32677,1,0,0:0:0:0:
182,192,33010,1,0,0:0:0:0:
109,192,33010,1,0,0:0:0:0:
36,192,33010,1,0,0:0:0:0:
475,192,33010,128,0,33510:0:0:0:0:
182,192,33344,1,0,0:0:0:0:
109,192,33344,1,0,0:0:0:0:
36,192,33344,1,0,0:0:0:0:
182,192,33677,128,0,34177:0:0:0:0:
402,192,33677,1,0,0:0:0:0:
475,192,33677,1,0,0:0:0:0:
475,192,34010,1,0,0:0:0:0:
329,192,34010,1,0,0:0:0:0:
402,192,34010,1,0,0:0:0:0:
329,192,34344,128,0,34844:0:0:0:0:
109,192,34344,1,0,0:0:0:0:
402,192,34344,1,0,0:0:0:0:
182,192,34344,1,0,0:0:0:0:
182,192,34677,1,0,0:0:0:0:
109,192,34677,1,0,0:0:0:0:
36,192,34677,1,0,0:0:0:0:
36,192,35010,128,0,35510:0:0:0:0:
402,192,35010,1,0,0:0:0:0:
329,192,35010,1,0,0:0:0:0:
182,192,35344,1,0,0:0:0:0:
329,192,35344,1,0,0:0:0:0:
402,192,35344,1,0,0:0:0:0:
182,192,35677,128,0,36177:0:0:0:0:
36,192,35677,1,0,0:0:0:0:
475,192,35677,1,0,0:0:0:0:
256,192,35677,1,0,0:0:0:0:
329,192,36010,1,0,0:0:0:0:
402,192,36010,1,0,0:0:0:0:
109,192,36010,1,0,0:0:0:0:
256,192,36344,1,0,0:0:0:0:
36,192,36344,1,0,0:0:0:0:
475,192,36344,1,0,0:0:0:0:
402,192,36344,128,0,36844:0:0:0:0:
36,192,36677,1,0,0:0:0:0:
109,192,36677,1,0,0:0:0:0:
182,192,36677,1,0,0:0:0:0:
109,192,37010,128,0,37510:0:0:0:0:
182,192,37010,1,0,0:0:0:0:
475,192,37010,1,0,0:0:0:0:
329,192,37010,1,0,0:0:0:0:
256,192,37344,1,0,0:0:0:0:
329,192,37344,1,0,0:0:0:0:
475,192,37344,1,0,0:0:0:0:
402,192,37510,128,0,37677:0:0:0:0:
256,192,37677,128,0,38177:0:0:0:0:
36,192,37677,1,0,0:0:0:0:
182,192,37677,1,0,0:0:0:0:
475,192,37677,1,0,0:0:0:0:
109,192,38010,1,0,0:0:0:0:
36,192,38010,1,0,0:0:0:0:
402,192,38010,1,0,0:0:0:0:
182,192,38177,1,0,0:0:0:0:
329,192,38260,1,0,0:0:0:0:
36,192,38344,1,0,0:0:0:0:
475,192,38344,128,0,38844:0:0:0:0:
402,192,38344,1,0,0:0:0:0:
256,192,38344,1,0,0:0:0:0:
36,192,38510,1,0,0:0:0:0:
182,192,38510,1,0,0:0:0:0:
329,192,38510,1,0,0:0:0:0:
36,192,38677,1,0,0:0:0:0:
109,192,38677,1,0,0:0:0:0:
402,192,38677,1,0,0:0:0:0:
36,192,38844,1,0,0:0:0:0:
329,192,38844,1,0,0:0:0:0:
182,192,38844,1,0,0:0:0:0:
256,192,39010,128,0,39510:0:0:0:0:
475,192,39010,1,0,0:0:0:0:
109,192,39010,1,0,0:0:0:0:
402,192,39010,1,0,0:0:0:0:
475,192,39177,1,0,0:0:0:0:
182,192,39177,1,0,0:0:0:0:
329,192,39177,1,0,0:0:0:0:
475,192,39344,1,0,0:0:0:0:
36,192,39344,1,0,0:0:0:0:
109,192,39344,1,0,0:0:0:0:
475,192,39510,1,0,0:0:0:0:
329,192,39510,1,0,0:0:0:0:
182,192,39510,1,0,0:0:0:0:
475,192,39677,128,0,40177:0:0:0:0:
402,192,39677,1,0,0:0:0:0:
36,192,39677,1,0,0:0:0:0:
256,192,39677,1,0,0:0:0:0:
182,192,39844,1,0,0:0:0:0:
36,192,39844,1,0,0:0:0:0:
329,192,39844,1,0,0:0:0:0:
109,192,40010,1,0,0:0:0:0:
36,192,40010,1,0,0:0:0:0:
402,192,40010,1,0,0:0:0:0:
36,192,40177,1,0,0:0:0:0:
329,192,40177,1,0,0:0:0:0:
182,192,40177,1,0,0:0:0:0:
256,192,40344,1,0,0:0:0:0:
36,192,40344,128,0,40844:0:0:0:0:
475,192,40344,1,0,0:0:0:0:
109,192,40344,1,0,0:0:0:0:
475,192,40510,1,0,0:0:0:0:
329,192,40510,1,0,0:0:0:0:
182,192,40510,1,0,0:0:0:0:
475,192,40677,1,0,0:0:0:0:
402,192,40677,1,0,0:0:0:0:
256,192,40677,1,0,0:0:0:0:
475,192,40844,1,0,0:0:0:0:
182,192,40844,1,0,0:0:0:0:
329,192,40844,1,0,0:0:0:0:
109,192,41010,1,0,0:0:0:0:
36,192,41010,1,0,0:0:0:0:
475,192,41010,128,0,42344:0:0:0:0:
329,192,41094,1,0,0:0:0:0:
402,192,41094,1,0,0:0:0:0:
109,192,41177,1,0,0:0:0:0:
36,192,41177,1,0,0:0:0:0:
329,192,41260,1,0,0:0:0:0:
402,192,41260,1,0,0:0:0:0:
36,192,41344,128,0,42344:0:0:0:0:
182,192,41344,1,0,0:0:0:0:
256,192,41344,1,0,0:0:0:0:
402,192,41427,1,0,0:0:0:0:
329,192,41427,1,0,0:0:0:0:
182,192,41510,1,0,0:0:0:0:
256,192,41510,1,0,0:0:0:0:
329,192,41594,1,0,0:0:0:0:
402,192,41594,1,0,0:0:0:0:
256,192,41677,128,0,42344:0:0:0:0:
182,192,41677,1,0,0:0:0:0:
109,192,41677,1,0,0:0:0:0:
329,192,41719,1,0,0:0:0:0:
402,192,41719,1,0,0:0:0:0:
182,192,41760,1,0,0:0:0:0:
109,192,41760,1,0,0:0:0:0:
329,192,41802,1,0,0:0:0:0:
402,192,41802,1,0,0:0:0:0:
182,192,41844,1,0,0:0:0:0:
109,192,41844,1,0,0:0:0:0:
329,192,41885,1,0,0:0:0:0:
402,192,41885,1,0,0:0:0:0:
109,192,41927,1,0,0:0:0:0:
182,192,41927,1,0,0:0:0:0:
402,192,41969,1,0,0:0:0:0:
329,192,41969,1,0,0:0:0:0:
182,192,42010,1,0,0:0:0:0:
109,192,42010,1,0,0:0:0:0:
402,192,42052,1,0,0:0:0:0:
329,192,42052,1,0,0:0:0:0:
109,192,42094,1,0,0:0:0:0:
182,192,42094,1,0,0:0:0:0:
402,192,42135,1,0,0:0:0:0:
329,192,42135,1,0,0:0:0:0:
182,192,42177,1,0,0:0:0:0:
109,192,42177,1,0,0:0:0:0:
402,192,42219,1,0,0:0:0:0:
329,192,42219,1,0,0:0:0:0:
109,192,42260,1,0,0:0:0:0:
182,192,42260,1,0,0:0:0:0:
402,192,42302,1,0,0:0:0:0:
329,192,42302,1,0,0:0:0:0:
182,192,42344,1,0,0:0:0:0:
109,192,42344,128,0,43344:0:0:0:0:
475,192,43344,1,0,0:0:0:0:
402,192,43365,1,0,0:0:0:0:
329,192,43385,1,0,0:0:0:0:
256,192,43406,1,0,0:0:0:0:
182,192,43427,1,0,0:0:0:0:
109,192,43448,1,0,0:0:0:0:
402,192,43469,1,0,0:0:0:0:
329,192,43490,1,0,0:0:0:0:
256,192,43510,1,0,0:0:0:0:
182,192,43531,1,0,0:0:0:0:
109,192,43552,1,0,0:0:0:0:
36,192,43573,1,0,0:0:0:0:
329,192,43594,1,0,0:0:0:0:
256,192,43615,1,0,0:0:0:0:
182,192,43635,1,0,0:0:0:0:
109,192,43656,1,0,0:0:0:0:
36,192,43677,1,0,0:0:0:0:
402,192,43677,1,0,0:0:0:0:
475,192,43677,1,0,0:0:0:0:
329,192,43677,1,0,0:0:0:0:
256,192,43760,1,0,0:0:0:0:
182,192,43844,1,0,0:0:0:0:
329,192,43844,1,0,0:0:0:0:
36,192,43844,1,0,0:0:0:0:
109,192,43927,1,0,0:0:0:0:
402,192,43927,1,0,0:0:0:0:
329,192,44010,1,0,0:0:0:0:
475,192,44010,1,0,0:0:0:0:
256,192,44010,1,0,0:0:0:0:
36,192,44010,1,0,0:0:0:0:
182,192,44094,1,0,0:0:0:0:
475,192,44177,1,0,0:0:0:0:
109,192,44177,1,0,0:0:0:0:
256,192,44177,1,0,0:0:0:0:
402,192,44260,1,0,0:0:0:0:
36,192,44260,1,0,0:0:0:0:
329,192,44260,1,0,0:0:0:0:
256,192,44344,1,0,0:0:0:0:
182,192,44344,1,0,0:0:0:0:
109,192,44344,1,0,0:0:0:0:
475,192,44344,1,0,0:0:0:0:
402,192,44427,1,0,0:0:0:0:
36,192,44427,1,0,0:0:0:0:
329,192,44427,1,0,0:0:0:0:
256,192,44510,1,0,0:0:0:0:
475,192,44510,1,0,0:0:0:0:
109,192,44510,1,0,0:0:0:0:
182,192,44594,1,0,0:0:0:0:
329,192,44594,1,0,0:0:0:0:
402,192,44677,1,0,0:0:0:0:
475,192,44677,1,0,0:0:0:0:
36,192,44677,1,0,0:0:0:0:
109,192,44677,1,0,0:0:0:0:
182,192,44760,1,0,0:0:0:0:
256,192,44844,1,0,0:0:0:0:
36,192,44844,1,0,0:0:0:0:
402,192,44844,1,0,0:0:0:0:
329,192,44927,1,0,0:0:0:0:
182,192,44927,1,0,0:0:0:0:
402,192,45010,1,0,0:0:0:0:
475,192,45010,1,0,0:0:0:0:
36,192,45010,1,0,0:0:0:0:
109,192,45010,1,0,0:0:0:0:
329,192,45094,1,0,0:0:0:0:
256,192,45177,1,0,0:0:0:0:
475,192,45177,1,0,0:0:0:0:
109,192,45177,1,0,0:0:0:0:
182,192,45260,1,0,0:0:0:0:
329,192,45260,1,0,0:0:0:0:
109,192,45344,1,0,0:0:0:0:
36,192,45344,1,0,0:0:0:0:
475,192,45344,1,0,0:0:0:0:
402,192,45344,1,0,0:0:0:0:
329,192,45427,1,0,0:0:0:0:
256,192,45510,1,0,0:0:0:0:
109,192,45510,1,0,0:0:0:0:
182,192,45594,1,0,0:0:0:0:
329,192,45594,1,0,0:0:0:0:
109,192,45677,1,0,0:0:0:0:
36,192,45677,1,0,0:0:0:0:
475,192,45677,1,0,0:0:0:0:
402,192,45677,1,0,0:0:0:0:
182,192,45760,1,0,0:0:0:0:
329,192,45760,1,0,0:0:0:0:
256,192,45844,1,0,0:0:0:0:
109,192,45844,1,0,0:0:0:0:
329,192,45927,1,0,0:0:0:0:
402,192,46010,1,0,0:0:0:0:
36,192,46010,1,0,0:0:0:0:
256,192,46010,1,0,0:0:0:0:
475,192,46010,1,0,0:0:0:0:
109,192,46094,1,0,0:0:0:0:
475,192,46177,1,0,0:0:0:0:
182,192,46177,1,0,0:0:0:0:
402,192,46260,1,0,0:0:0:0:
329,192,46260,1,0,0:0:0:0:
109,192,46344,1,0,0:0:0:0:
256,192,46344,1,0,0:0:0:0:
36,192,46344,1,0,0:0:0:0:
475,192,46344,1,0,0:0:0:0:
182,192,46427,1,0,0:0:0:0:
329,192,46427,1,0,0:0:0:0:
109,192,46510,1,0,0:0:0:0:
402,192,46510,1,0,0:0:0:0:
475,192,46510,1,0,0:0:0:0:
182,192,46594,1,0,0:0:0:0:
475,192,46677,1,0,0:0:0:0:
256,192,46677,1,0,0:0:0:0:
402,192,46677,1,0,0:0:0:0:
36,192,46677,1,0,0:0:0:0:
329,192,46760,1,0,0:0:0:0:
36,192,46844,1,0,0:0:0:0:
256,192,46844,1,0,0:0:0:0:
182,192,46927,1,0,0:0:0:0:
329,192,46927,1,0,0:0:0:0:
36,192,47010,1,0,0:0:0:0:
402,192,47010,1,0,0:0:0:0:
475,192,47010,1,0,0:0:0:0:
109,192,47010,1,0,0:0:0:0:
329,192,47094,1,0,0:0:0:0:
182,192,47094,1,0,0:0:0:0:
475,192,47177,1,0,0:0:0:0:
256,192,47177,1,0,0:0:0:0:
182,192,47260,1,0,0:0:0:0:
36,192,47344,1,0,0:0:0:0:
329,192,47344,1,0,0:0:0:0:
109,192,47344,1,0,0:0:0:0:
402,192,47344,1,0,0:0:0:0:
182,192,47427,1,0,0:0:0:0:
475,192,47510,1,0,0:0:0:0:
256,192,47510,1,0,0:0:0:0:
329,192,47510,1,0,0:0:0:0:
402,192,47594,1,0,0:0:0:0:
36,192,47594,1,0,0:0:0:0:
475,192,47677,1,0,0:0:0:0:
109,192,47677,1,0,0:0:0:0:
256,192,47677,1,0,0:0:0:0:
329,192,47677,1,0,0:0:0:0:
182,192,47760,1,0,0:0:0:0:
36,192,47844,1,0,0:0:0:0:
256,192,47844,1,0,0:0:0:0:
475,192,47844,1,0,0:0:0:0:
109,192,47927,1,0,0:0:0:0:
329,192,47927,1,0,0:0:0:0:
182,192,48010,1,0,0:0:0:0:
36,192,48010,1,0,0:0:0:0:
402,192,48010,1,0,0:0:0:0:
475,192,48010,1,0,0:0:0:0:
256,192,48094,1,0,0:0:0:0:
329,192,48177,1,0,0:0:0:0:
402,192,48177,1,0,0:0:0:0:
182,192,48260,1,0,0:0:0:0:
256,192,48260,1,0,0:0:0:0:
36,192,48344,1,0,0:0:0:0:
109,192,48344,1,0,0:0:0:0:
329,192,48344,1,0,0:0:0:0:
475,192,48344,1,0,0:0:0:0:
182,192,48427,1,0,0:0:0:0:
329,192,48510,1,0,0:0:0:0:
256,192,48510,1,0,0:0:0:0:
36,192,48510,1,0,0:0:0:0:
402,192,48594,1,0,0:0:0:0:
36,192,48677,1,0,0:0:0:0:
475,192,48677,1,0,0:0:0:0:
182,192,48677,1,0,0:0:0:0:
109,192,48677,1,0,0:0:0:0:
256,192,48760,1,0,0:0:0:0:
36,192,48844,1,0,0:0:0:0:
329,192,48844,1,0,0:0:0:0:
402,192,48844,1,0,0:0:0:0:
182,192,48927,1,0,0:0:0:0:
109,192,48927,1,0,0:0:0:0:
475,192,49010,1,0,0:0:0:0:
402,192,49010,1,0,0:0:0:0:
329,192,49010,1,0,0:0:0:0:
36,192,49010,1,0,0:0:0:0:
256,192,49094,1,0,0:0:0:0:
182,192,49177,1,0,0:0:0:0:
475,192,49177,1,0,0:0:0:0:
402,192,49177,1,0,0:0:0:0:
329,192,49260,1,0,0:0:0:0:
109,192,49260,1,0,0:0:0:0:
256,192,49344,1,0,0:0:0:0:
36,192,49344,1,0,0:0:0:0:
182,192,49344,1,0,0:0:0:0:
475,192,49344,1,0,0:0:0:0:
402,192,49427,1,0,0:0:0:0:
329,192,49510,1,0,0:0:0:0:
109,192,49510,1,0,0:0:0:0:
36,192,49510,1,0,0:0:0:0:
182,192,49594,1,0,0:0:0:0:
402,192,49594,1,0,0:0:0:0:
256,192,49677,1,0,0:0:0:0:
36,192,49677,1,0,0:0:0:0:
475,192,49677,1,0,0:0:0:0:
329,192,49677,1,0,0:0:0:0:
109,192,49760,1,0,0:0:0:0:
182,192,49844,1,0,0:0:0:0:
402,192,49844,1,0,0:0:0:0:
329,192,49844,1,0,0:0:0:0:
256,192,49927,1,0,0:0:0:0:
36,192,50010,1,0,0:0:0:0:
109,192,50010,1,0,0:0:0:0:
475,192,50010,1,0,0:0:0:0:
402,192,50010,1,0,0:0:0:0:
182,192,50094,1,0,0:0:0:0:
329,192,50177,1,0,0:0:0:0:
256,192,50177,1,0,0:0:0:0:
475,192,50177,1,0,0:0:0:0:
182,192,50260,1,0,0:0:0:0:
402,192,50260,1,0,0:0:0:0:
256,192,50344,1,0,0:0:0:0:
36,192,50344,1,0,0:0:0:0:
109,192,50344,1,0,0:0:0:0:
329,192,50344,1,0,0:0:0:0:
402,192,50427,1,0,0:0:0:0:
256,192,50510,1,0,0:0:0:0:
475,192,50510,1,0,0:0:0:0:
182,192,50510,1,0,0:0:0:0:
329,192,50594,1,0,0:0:0:0:
36,192,50677,1,0,0:0:0:0:
475,192,50677,1,0,0:0:0:0:
402,192,50677,1,0,0:0:0:0:
109,192,50677,1,0,0:0:0:0:
182,192,50760,1,0,0:0:0:0:
402,192,50844,1,0,0:0:0:0:
36,192,50844,1,0,0:0:0:0:
475,192,50844,1,0,0:0:0:0:
182,192,50927,1,0,0:0:0:0:
329,192,50927,1,0,0:0:0:0:
475,192,51010,1,0,0:0:0:0:
402,192,51010,1,0,0:0:0:0:
256,192,51010,1,0,0:0:0:0:
36,192,51010,1,0,0:0:0:0:
109,192,51010,1,0,0:0:0:0:
182,192,51094,1,0,0:0:0:0:
329,192,51094,1,0,0:0:0:0:
109,192,51177,1,0,0:0:0:0:
402,192,51177,1,0,0:0:0:0:
256,192,51177,1,0,0:0:0:0:
329,192,51260,1,0,0:0:0:0:
182,192,51260,1,0,0:0:0:0:
402,192,51344,1,0,0:0:0:0:
475,192,51344,1,0,0:0:0:0:
109,192,51344,1,0,0:0:0:0:
36,192,51344,1,0,0:0:0:0:
256,192,51344,1,0,0:0:0:0:
329,192,51427,1,0,0:0:0:0:
402,192,51510,1,0,0:0:0:0:
182,192,51510,1,0,0:0:0:0:
475,192,51594,1,0,0:0:0:0:
256,192,51594,1,0,0:0:0:0:
36,192,51677,1,0,0:0:0:0:
109,192,51677,1,0,0:0:0:0:
329,192,51677,1,0,0:0:0:0:
402,192,51677,1,0,0:0:0:0:
256,192,51760,1,0,0:0:0:0:
475,192,51844,1,0,0:0:0:0:
329,192,51844,1,0,0:0:0:0:
109,192,51844,1,0,0:0:0:0:
182,192,51927,1,0,0:0:0:0:
256,192,52010,1,0,0:0:0:0:
329,192,52010,1,0,0:0:0:0:
36,192,52010,1,0,0:0:0:0:
402,192,52010,1,0,0:0:0:0:
109,192,52094,1,0,0:0:0:0:
182,192,52177,1,0,0:0:0:0:
256,192,52177,1,0,0:0:0:0:
475,192,52177,1,0,0:0:0:0:
402,192,52260,1,0,0:0:0:0:
329,192,52260,1,0,0:0:0:0:
36,192,52344,1,0,0:0:0:0:
182,192,52344,1,0,0:0:0:0:
256,192,52344,1,0,0:0:0:0:
475,192,52344,1,0,0:0:0:0:
109,192,52427,1,0,0:0:0:0:
475,192,52510,1,0,0:0:0:0:
402,192,52510,1,0,0:0:0:0:
182,192,52510,1,0,0:0:0:0:
329,192,52594,1,0,0:0:0:0:
256,192,52594,1,0,0:0:0:0:
109,192,52677,1,0,0:0:0:0:
36,192,52677,1,0,0:0:0:0:
182,192,52677,1,0,0:0:0:0:
402,192,52677,1,0,0:0:0:0:
475,192,52760,1,0,0:0:0:0:
256,192,52760,1,0,0:0:0:0:
36,192,52844,1,0,0:0:0:0:
329,192,52844,1,0,0:0:0:0:
256,192,52927,1,0,0:0:0:0:
109,192,53010,1,0,0:0:0:0:
402,192,53010,1,0,0:0:0:0:
475,192,53010,1,0,0:0:0:0:
182,192,53010,1,0,0:0:0:0:
329,192,53094,1,0,0:0:0:0:
256,192,53177,1,0,0:0:0:0:
182,192,53260,1,0,0:0:0:0:
109,192,53344,1,0,0:0:0:0:
36,192,53344,1,0,0:0:0:0:
475,192,53344,1,0,0:0:0:0:
402,192,53344,1,0,0:0:0:0:
329,192,53427,1,0,0:0:0:0:
256,192,53510,1,0,0:0:0:0:
182,192,53594,1,0,0:0:0:0:
109,192,53594,1,0,0:0:0:0:
475,192,53677,1,0,0:0:0:0:
402,192,53677,1,0,0:0:0:0:
36,192,53677,1,0,0:0:0:0:
256,192,53677,1,0,0:0:0:0:
329,192,53760,1,0,0:0:0:0:
256,192,53844,1,0,0:0:0:0:
182,192,53927,1,0,0:0:0:0:
109,192,54010,1,0,0:0:0:0:
36,192,54010,1,0,0:0:0:0:
402,192,54010,1,0,0:0:0:0:
475,192,54010,1,0,0:0:0:0:
109,192,54094,1,0,0:0:0:0:
36,192,54094,1,0,0:0:0:0:
402,192,54094,1,0,0:0:0:0:
475,192,54094,1,0,0:0:0:0:
475,192,54177,1,0,0:0:0:0:
402,192,54177,1,0,0:0:0:0:
109,192,54177,1,0,0:0:0:0:
36,192,54177,1,0,0:0:0:0:
36,192,54260,1,0,0:0:0:0:
109,192,54260,1,0,0:0:0:0:
475,192,54260,1,0,0:0:0:0:
402,192,54260,1,0,0:0:0:0:
475,192,54344,1,0,0:0:0:0:
402,192,54344,1,0,0:0:0:0:
36,192,54344,1,0,0:0:0:0:
109,192,54344,1,0,0:0:0:0:
182,192,54427,1,0,0:0:0:0:
329,192,54510,1,0,0:0:0:0:
475,192,54510,1,0,0:0:0:0:
256,192,54510,1,0,0:0:0:0:
182,192,54594,1,0,0:0:0:0:
402,192,54677,1,0,0:0:0:0:
109,192,54677,1,0,0:0:0:0:
329,192,54677,1,0,0:0:0:0:
182,192,54760,1,0,0:0:0:0:
36,192,54844,1,0,0:0:0:0:
402,192,54844,1,0,0:0:0:0:
256,192,54844,1,0,0:0:0:0:
475,192,54927,1,0,0:0:0:0:
109,192,54927,1,0,0:0:0:0:
329,192,54927,1,0,0:0:0:0:
36,192,55010,1,0,0:0:0:0:
182,192,55010,1,0,0:0:0:0:
402,192,55010,1,0,0:0:0:0:
256,192,55010,1,0,0:0:0:0:
109,192,55094,1,0,0:0:0:0:
475,192,55094,1,0,0:0:0:0:
182,192,55177,1,0,0:0:0:0:
402,192,55177,1,0,0:0:0:0:
256,192,55260,1,0,0:0:0:0:
329,192,55260,1,0,0:0:0:0:
475,192,55344,1,0,0:0:0:0:
36,192,55344,1,0,0:0:0:0:
109,192,55344,1,0,0:0:0:0:
402,192,55344,1,0,0:0:0:0:
182,192,55427,1,0,0:0:0:0:
256,192,55510,1,0,0:0:0:0:
402,192,55510,1,0,0:0:0:0:
36,192,55510,1,0,0:0:0:0:
329,192,55594,1,0,0:0:0:0:
36,192,55677,1,0,0:0:0:0:
402,192,55677,1,0,0:0:0:0:
475,192,55677,1,0,0:0:0:0:
109,192,55677,1,0,0:0:0:0:
182,192,55760,1,0,0:0:0:0:
256,192,55760,1,0,0:0:0:0:
329,192,55844,1,0,0:0:0:0:
109,192,55844,1,0,0:0:0:0:
475,192,55844,1,0,0:0:0:0:
182,192,55927,1,0,0:0:0:0:
256,192,56010,1,0,0:0:0:0:
475,192,56010,1,0,0:0:0:0:
402,192,56010,1,0,0:0:0:0:
36,192,56010,1,0,0:0:0:0:
109,192,56094,1,0,0:0:0:0:
182,192,56177,1,0,0:0:0:0:
256,192,56177,1,0,0:0:0:0:
402,192,56260,1,0,0:0:0:0:
329,192,56260,1,0,0:0:0:0:
475,192,56344,1,0,0:0:0:0:
109,192,56344,1,0,0:0:0:0:
36,192,56344,1,0,0:0:0:0:
182,192,56344,1,0,0:0:0:0:
256,192,56427,1,0,0:0:0:0:
329,192,56427,1,0,0:0:0:0:
402,192,56510,1,0,0:0:0:0:
475,192,56510,1,0,0:0:0:0:
36,192,56510,1,0,0:0:0:0:
109,192,56594,1,0,0:0:0:0:
182,192,56594,1,0,0:0:0:0:
256,192,56677,1,0,0:0:0:0:
475,192,56677,1,0,0:0:0:0:
36,192,56677,1,0,0:0:0:0:
329,192,56677,1,0,0:0:0:0:
402,192,56760,1,0,0:0:0:0:
329,192,56844,1,0,0:0:0:0:
36,192,56844,1,0,0:0:0:0:
256,192,56927,1,0,0:0:0:0:
109,192,56927,1,0,0:0:0:0:
475,192,57010,1,0,0:0:0:0:
402,192,57010,1,0,0:0:0:0:
36,192,57010,1,0,0:0:0:0:
182,192,57010,1,0,0:0:0:0:
329,192,57094,1,0,0:0:0:0:
256,192,57177,1,0,0:0:0:0:
36,192,57177,1,0,0:0:0:0:
402,192,57177,1,0,0:0:0:0:
182,192,57260,1,0,0:0:0:0:
109,192,57344,1,0,0:0:0:0:
36,192,57344,1,0,0:0:0:0:
475,192,57344,1,0,0:0:0:0:
329,192,57344,1,0,0:0:0:0:
256,192,57427,1,0,0:0:0:0:
182,192,57510,1,0,0:0:0:0:
109,192,57510,1,0,0:0:0:0:
329,192,57594,1,0,0:0:0:0:
402,192,57594,1,0,0:0:0:0:
182,192,57677,1,0,0:0:0:0:
475,192,57677,1,0,0:0:0:0:
256,192,57677,1,0,0:0:0:0:
36,192,57677,1,0,0:0:0:0:
402,192,57760,1,0,0:0:0:0:
109,192,57760,1,0,0:0:0:0:
329,192,57844,1,0,0:0:0:0:
182,192,57844,1,0,0:0:0:0:
36,192,57844,1,0,0:0:0:0:
256,192,57927,1,0,0:0:0:0:
402,192,57927,1,0,0:0:0:0:
182,192,58010,1,0,0:0:0:0:
109,192,58010,1,0,0:0:0:0:
36,192,58010,1,0,0:0:0:0:
475,192,58010,1,0,0:0:0:0:
329,192,58094,1,0,0:0:0:0:
402,192,58177,1,0,0:0:0:0:
109,192,58177,1,0,0:0:0:0:
329,192,58260,1,0,0:0:0:0:
256,192,58260,1,0,0:0:0:0:
182,192,58344,1,0,0:0:0:0:
109,192,58344,1,0,0:0:0:0:
475,192,58344,1,0,0:0:0:0:
402,192,58344,1,0,0:0:0:0:
329,192,58427,1,0,0:0:0:0:
256,192,58510,1,0,0:0:0:0:
475,192,58510,1,0,0:0:0:0:
36,192,58510,1,0,0:0:0:0:
182,192,58594,1,0,0:0:0:0:
109,192,58677,1,0,0:0:0:0:
36,192,58677,1,0,0:0:0:0:
402,192,58677,1,0,0:0:0:0:
475,192,58677,1,0,0:0:0:0:
329,192,58760,1,0,0:0:0:0:
256,192,58844,1,0,0:0:0:0:
182,192,58844,1,0,0:0:0:0:
109,192,58927,1,0,0:0:0:0:
36,192,58927,1,0,0:0:0:0:
475,192,59010,1,0,0:0:0:0:
402,192,59010,1,0,0:0:0:0:
329,192,59010,1,0,0:0:0:0:
256,192,59010,1,0,0:0:0:0:
182,192,59094,1,0,0:0:0:0:
109,192,59094,1,0,0:0:0:0:
402,192,59177,1,0,0:0:0:0:
329,192,59177,1,0,0:0:0:0:
256,192,59260,1,0,0:0:0:0:
182,192,59260,1,0,0:0:0:0:
475,192,59344,1,0,0:0:0:0:
109,192,59344,1,0,0:0:0:0:
36,192,59344,1,0,0:0:0:0:
329,192,59344,1,0,0:0:0:0:
182,192,59427,1,0,0:0:0:0:
256,192,59510,1,0,0:0:0:0:
329,192,59594,1,0,0:0:0:0:
402,192,59677,1,0,0:0:0:0:
475,192,59677,1,0,0:0:0:0:
182,192,59677,1,0,0:0:0:0:
36,192,59677,1,0,0:0:0:0:
109,192,59760,1,0,0:0:0:0:
182,192,59844,1,0,0:0:0:0:
256,192,59844,1,0,0:0:0:0:
329,192,59927,1,0,0:0:0:0:
402,192,60010,1,0,0:0:0:0:
475,192,60010,1,0,0:0:0:0:
109,192,60010,1,0,0:0:0:0:
36,192,60010,1,0,0:0:0:0:
182,192,60094,1,0,0:0:0:0:
256,192,60177,1,0,0:0:0:0:
475,192,60177,1,0,0:0:0:0:
36,192,60177,1,0,0:0:0:0:
329,192,60260,1,0,0:0:0:0:
402,192,60260,1,0,0:0:0:0:
475,192,60344,1,0,0:0:0:0:
256,192,60344,1,0,0:0:0:0:
182,192,60344,1,0,0:0:0:0:
36,192,60344,1,0,0:0:0:0:
329,192,60427,1,0,0:0:0:0:
109,192,60427,1,0,0:0:0:0:
256,192,60510,1,0,0:0:0:0:
182,192,60510,1,0,0:0:0:0:
402,192,60594,1,0,0:0:0:0:
329,192,60594,1,0,0:0:0:0:
256,192,60677,1,0,0:0:0:0:
475,192,60677,1,0,0:0:0:0:
109,192,60677,1,0,0:0:0:0:
36,192,60677,1,0,0:0:0:0:
182,192,60760,1,0,0:0:0:0:
109,192,60844,1,0,0:0:0:0:
402,192,60844,1,0,0:0:0:0:
329,192,60844,1,0,0:0:0:0:
256,192,60927,1,0,0:0:0:0:
182,192,60927,1,0,0:0:0:0:
36,192,61010,1,0,0:0:0:0:
109,192,61010,1,0,0:0:0:0:
475,192,61010,1,0,0:0:0:0:
402,192,61010,1,0,0:0:0:0:
329,192,61094,1,0,0:0:0:0:
182,192,61177,1,0,0:0:0:0:
256,192,61177,1,0,0:0:0:0:
475,192,61177,1,0,0:0:0:0:
329,192,61260,1,0,0:0:0:0:
36,192,61344,1,0,0:0:0:0:
109,192,61344,1,0,0:0:0:0:
475,192,61344,1,0,0:0:0:0:
402,192,61344,1,0,0:0:0:0:
182,192,61427,1,0,0:0:0:0:
256,192,61510,1,0,0:0:0:0:
329,192,61510,1,0,0:0:0:0:
182,192,61594,1,0,0:0:0:0:
109,192,61594,1,0,0:0:0:0:
36,192,61677,1,0,0:0:0:0:
475,192,61677,1,0,0:0:0:0:
402,192,61677,1,0,0:0:0:0:
256,192,61677,1,0,0:0:0:0:
329,192,61760,1,0,0:0:0:0:
182,192,61760,1,0,0:0:0:0:
109,192,61844,1,0,0:0:0:0:
36,192,61844,1,0,0:0:0:0:
475,192,61844,1,0,0:0:0:0:
402,192,61927,1,0,0:0:0:0:
182,192,61927,1,0,0:0:0:0:
256,192,62010,1,0,0:0:0:0:
329,192,62010,1,0,0:0:0:0:
36,192,62010,1,0,0:0:0:0:
109,192,62010,1,0,0:0:0:0:
402,192,62094,1,0,0:0:0:0:
329,192,62177,1,0,0:0:0:0:
256,192,62177,1,0,0:0:0:0:
182,192,62260,1,0,0:0:0:0:
109,192,62260,1,0,0:0:0:0:
36,192,62344,1,0,0:0:0:0:
475,192,62344,1,0,0:0:0:0:
402,192,62344,1,0,0:0:0:0:
329,192,62344,1,0,0:0:0:0:
256,192,62427,1,0,0:0:0:0:
182,192,62510,1,0,0:0:0:0:
329,192,62510,1,0,0:0:0:0:
475,192,62510,1,0,0:0:0:0:
109,192,62594,1,0,0:0:0:0:
36,192,62677,1,0,0:0:0:0:
475,192,62677,1,0,0:0:0:0:
402,192,62677,1,0,0:0:0:0:
256,192,62677,1,0,0:0:0:0:
329,192,62760,1,0,0:0:0:0:
256,192,62844,1,0,0:0:0:0:
109,192,62844,1,0,0:0:0:0:
36,192,62844,1,0,0:0:0:0:
182,192,62927,1,0,0:0:0:0:
329,192,62927,1,0,0:0:0:0:
109,192,63010,1,0,0:0:0:0:
36,192,63010,1,0,0:0:0:0:
402,192,63010,1,0,0:0:0:0:
475,192,63010,1,0,0:0:0:0:
182,192,63094,1,0,0:0:0:0:
256,192,63177,1,0,0:0:0:0:
36,192,63177,1,0,0:0:0:0:
329,192,63260,1,0,0:0:0:0:
402,192,63344,1,0,0:0:0:0:
475,192,63344,1,0,0:0:0:0:
182,192,63344,1,0,0:0:0:0:
109,192,63344,1,0,0:0:0:0:
256,192,63427,1,0,0:0:0:0:
329,192,63510,1,0,0:0:0:0:
36,192,63510,1,0,0:0:0:0:
109,192,63594,1,0,0:0:0:0:
182,192,63677,1,0,0:0:0:0:
256,192,63677,1,0,0:0:0:0:
475,192,63677,1,0,0:0:0:0:
329,192,63760,1,0,0:0:0:0:
109,192,63844,1,0,0:0:0:0:
402,192,63844,1,0,0:0:0:0:
36,192,63844,1,0,0:0:0:0:
182,192,63927,1,0,0:0:0:0:
256,192,63927,1,0,0:0:0:0:
475,192,63927,1,0,0:0:0:0:
402,192,64010,1,0,0:0:0:0:
329,192,64010,1,0,0:0:0:0:
109,192,64010,1,0,0:0:0:0:
36,192,64010,1,0,0:0:0:0:
182,192,64094,1,0,0:0:0:0:
329,192,64177,1,0,0:0:0:0:
475,192,64177,1,0,0:0:0:0:
256,192,64177,1,0,0:0:0:0:
182,192,64260,1,0,0:0:0:0:
109,192,64260,1,0,0:0:0:0:
36,192,64344,1,0,0:0:0:0:
256,192,64344,1,0,0:0:0:0:
329,192,64344,1,0,0:0:0:0:
402,192,64344,1,0,0:0:0:0:
475,192,64427,1,0,0:0:0:0:
182,192,64510,1,0,0:0:0:0:
109,192,64510,1,0,0:0:0:0:
256,192,64594,1,0,0:0:0:0:
329,192,64594,1,0,0:0:0:0:
109,192,64677,1,0,0:0:0:0:
36,192,64677,1,0,0:0:0:0:
402,192,64677,1,0,0:0:0:0:
475,192,64677,1,0,0:0:0:0:
36,192,64760,1,0,0:0:0:0:
109,192,64760,1,0,0:0:0:0:
402,192,64760,1,0,0:0:0:0:
475,192,64760,1,0,0:0:0:0:
402,192,64844,1,0,0:0:0:0:
475,192,64844,1,0,0:0:0:0:
36,192,64844,1,0,0:0:0:0:
109,192,64844,1,0,0:0:0:0:
475,192,64927,1,0,0:0:0:0:
402,192,64927,1,0,0:0:0:0:
109,192,64927,1,0,0:0:0:0:
36,192,64927,1,0,0:0:0:0:
36,192,65010,1,0,0:0:0:0:
109,192,65010,1,0,0:0:0:0:
402,192,65010,1,0,0:0:0:0:
475,192,65010,128,0,65344:0:0:0:0:
182,192,65094,1,0,0:0:0:0:
329,192,65177,1,0,0:0:0:0:
182,192,65260,1,0,0:0:0:0:
329,192,65344,1,0,0:0:0:0:
36,192,65344,1,0,0:0:0:0:
256,192,65344,1,0,0:0:0:0:
182,192,65427,1,0,0:0:0:0:
329,192,65510,128,0,65844:0:0:0:0:
36,192,65510,1,0,0:0:0:0:
256,192,65510,1,0,0:0:0:0:
109,192,65510,1,0,0:0:0:0:
402,192,65594,1,0,0:0:0:0:
182,192,65677,1,0,0:0:0:0:
402,192,65760,1,0,0:0:0:0:
36,192,65844,1,0,0:0:0:0:
109,192,65844,1,0,0:0:0:0:
182,192,65844,1,0,0:0:0:0:
402,192,65927,1,0,0:0:0:0:
475,192,66010,128,0,66094:0:0:0:0:
256,192,66010,1,0,0:0:0:0:
109,192,66010,1,0,0:0:0:0:
182,192,66010,1,0,0:0:0:0:
402,192,66094,128,0,66177:0:0:0:0:
36,192,66094,1,0,0:0:0:0:
329,192,66177,128,0,66260:0:0:0:0:
182,192,66177,1,0,0:0:0:0:
475,192,66260,128,0,66344:0:0:0:0:
36,192,66260,1,0,0:0:0:0:
256,192,66344,128,0,66677:0:0:0:0:
109,192,66344,1,0,0:0:0:0:
182,192,66344,1,0,0:0:0:0:
402,192,66427,1,0,0:0:0:0:
475,192,66510,128,0,66677:0:0:0:0:
109,192,66510,1,0,0:0:0:0:
182,192,66510,1,0,0:0:0:0:
402,192,66594,1,0,0:0:0:0:
329,192,66677,128,0,66844:0:0:0:0:
36,192,66677,1,0,0:0:0:0:
109,192,66677,1,0,0:0:0:0:
182,192,66760,1,0,0:0:0:0:
402,192,66844,128,0,67010:0:0:0:0:
109,192,66844,1,0,0:0:0:0:
36,192,66844,1,0,0:0:0:0:
256,192,66927,1,0,0:0:0:0:
475,192,67010,128,0,67677:0:0:0:0:
109,192,67010,1,0,0:0:0:0:
182,192,67010,1,0,0:0:0:0:
36,192,67094,1,0,0:0:0:0:
256,192,67177,1,0,0:0:0:0:
329,192,67177,1,0,0:0:0:0:
182,192,67260,1,0,0:0:0:0:
109,192,67344,1,0,0:0:0:0:
402,192,67344,1,0,0:0:0:0:
36,192,67344,1,0,0:0:0:0:
109,192,67427,1,0,0:0:0:0:
36,192,67427,1,0,0:0:0:0:
256,192,67427,1,0,0:0:0:0:
402,192,67510,1,0,0:0:0:0:
109,192,67510,1,0,0:0:0:0:
36,192,67510,1,0,0:0:0:0:
109,192,67594,1,0,0:0:0:0:
36,192,67594,1,0,0:0:0:0:
256,192,67594,1,0,0:0:0:0:
109,192,67677,128,0,67844:0:0:0:0:
36,192,67677,128,0,68177:0:0:0:0:
402,192,67677,1,0,0:0:0:0:
329,192,67677,1,0,0:0:0:0:
475,192,67760,1,0,0:0:0:0:
182,192,67844,128,0,68010:0:0:0:0:
256,192,67844,1,0,0:0:0:0:
329,192,67844,1,0,0:0:0:0:
475,192,67927,1,0,0:0:0:0:
256,192,68010,128,0,68177:0:0:0:0:
402,192,68010,1,0,0:0:0:0:
329,192,68010,1,0,0:0:0:0:
475,192,68094,1,0,0:0:0:0:
109,192,68177,128,0,68344:0:0:0:0:
402,192,68177,1,0,0:0:0:0:
329,192,68177,1,0,0:0:0:0:
475,192,68260,1,0,0:0:0:0:
182,192,68344,128,0,68510:0:0:0:0:
256,192,68344,1,0,0:0:0:0:
475,192,68427,1,0,0:0:0:0:
36,192,68510,128,0,68677:0:0:0:0:
329,192,68510,1,0,0:0:0:0:
256,192,68510,1,0,0:0:0:0:
475,192,68594,1,0,0:0:0:0:
256,192,68677,128,0,68844:0:0:0:0:
109,192,68677,1,0,0:0:0:0:
329,192,68677,1,0,0:0:0:0:
182,192,68677,1,0,0:0:0:0:
475,192,68760,1,0,0:0:0:0:
182,192,68844,128,0,69010:0:0:0:0:
329,192,68844,1,0,0:0:0:0:
402,192,68844,1,0,0:0:0:0:
475,192,68927,1,0,0:0:0:0:
109,192,69010,128,0,69344:0:0:0:0:
36,192,69010,128,0,70344:0:0:0:0:
256,192,69010,1,0,0:0:0:0:
329,192,69010,1,0,0:0:0:0:
402,192,69094,1,0,0:0:0:0:
182,192,69177,1,0,0:0:0:0:
402,192,69260,1,0,0:0:0:0:
256,192,69344,128,0,69677:0:0:0:0:
182,192,69344,1,0,0:0:0:0:
329,192,69344,1,0,0:0:0:0:
402,192,69427,1,0,0:0:0:0:
109,192,69510,1,0,0:0:0:0:
182,192,69510,1,0,0:0:0:0:
402,192,69594,1,0,0:0:0:0:
475,192,69677,128,0,70344:0:0:0:0:
182,192,69677,1,0,0:0:0:0:
109,192,69677,1,0,0:0:0:0:
402,192,69760,1,0,0:0:0:0:
256,192,69844,1,0,0:0:0:0:
329,192,69844,1,0,0:0:0:0:
182,192,69927,1,0,0:0:0:0:
329,192,70010,1,0,0:0:0:0:
402,192,70010,1,0,0:0:0:0:
109,192,70010,1,0,0:0:0:0:
402,192,70094,1,0,0:0:0:0:
329,192,70094,1,0,0:0:0:0:
256,192,70094,1,0,0:0:0:0:
109,192,70177,1,0,0:0:0:0:
329,192,70177,1,0,0:0:0:0:
402,192,70177,1,0,0:0:0:0:
402,192,70260,1,0,0:0:0:0:
329,192,70260,1,0,0:0:0:0:
256,192,70260,1,0,0:0:0:0:
109,192,70344,1,0,0:0:0:0:
329,192,70344,1,0,0:0:0:0:
402,192,70344,128,0,70677:0:0:0:0:
475,192,70427,1,0,0:0:0:0:
182,192,70510,1,0,0:0:0:0:
256,192,70510,1,0,0:0:0:0:
475,192,70594,1,0,0:0:0:0:
109,192,70677,1,0,0:0:0:0:
36,192,70677,1,0,0:0:0:0:
182,192,70677,1,0,0:0:0:0:
475,192,70760,1,0,0:0:0:0:
109,192,70844,1,0,0:0:0:0:
36,192,70844,1,0,0:0:0:0:
256,192,70844,128,0,71177:0:0:0:0:
329,192,70844,1,0,0:0:0:0:
182,192,70927,1,0,0:0:0:0:
329,192,71010,1,0,0:0:0:0:
402,192,71010,1,0,0:0:0:0:
182,192,71094,1,0,0:0:0:0:
402,192,71177,1,0,0:0:0:0:
36,192,71177,1,0,0:0:0:0:
475,192,71177,1,0,0:0:0:0:
182,192,71260,1,0,0:0:0:0:
329,192,71344,1,0,0:0:0:0:
256,192,71344,1,0,0:0:0:0:
475,192,71344,128,0,71510:0:0:0:0:
109,192,71344,1,0,0:0:0:0:
402,192,71427,1,0,0:0:0:0:
36,192,71510,128,0,71677:0:0:0:0:
109,192,71510,1,0,0:0:0:0:
256,192,71510,1,0,0:0:0:0:
402,192,71594,1,0,0:0:0:0:
109,192,71677,1,0,0:0:0:0:
182,192,71677,1,0,0:0:0:0:
329,192,71677,128,0,72010:0:0:0:0:
475,192,71760,1,0,0:0:0:0:
36,192,71844,1,0,0:0:0:0:
256,192,71844,1,0,0:0:0:0:
475,192,71927,1,0,0:0:0:0:
36,192,72010,1,0,0:0:0:0:
182,192,72010,1,0,0:0:0:0:
256,192,72010,1,0,0:0:0:0:
475,192,72094,1,0,0:0:0:0:
109,192,72177,1,0,0:0:0:0:
182,192,72177,1,0,0:0:0:0:
402,192,72177,1,0,0:0:0:0:
329,192,72260,1,0,0:0:0:0:
475,192,72344,1,0,0:0:0:0:
36,192,72344,128,0,72510:0:0:0:0:
109,192,72427,128,0,72594:0:0:0:0:
329,192,72427,1,0,0:0:0:0:
475,192,72510,1,0,0:0:0:0:
182,192,72510,128,0,72677:0:0:0:0:
402,192,72510,1,0,0:0:0:0:
256,192,72594,128,0,72760:0:0:0:0:
329,192,72594,1,0,0:0:0:0:
475,192,72677,1,0,0:0:0:0:
36,192,72677,128,0,73010:0:0:0:0:
402,192,72677,1,0,0:0:0:0:
109,192,72760,128,0,73010:0:0:0:0:
475,192,72760,1,0,0:0:0:0:
402,192,72760,1,0,0:0:0:0:
182,192,72844,128,0,73010:0:0:0:0:
475,192,72844,1,0,0:0:0:0:
402,192,72844,1,0,0:0:0:0:
256,192,72927,128,0,73010:0:0:0:0:
475,192,72927,1,0,0:0:0:0:
402,192,72927,1,0,0:0:0:0:
402,192,73010,1,0,0:0:0:0:
329,192,73010,128,0,73177:0:0:0:0:
475,192,73010,1,0,0:0:0:0:
36,192,73094,1,0,0:0:0:0:
475,192,73177,128,0,73344:0:0:0:0:
256,192,73177,1,0,0:0:0:0:
182,192,73177,1,0,0:0:0:0:
36,192,73260,1,0,0:0:0:0:
256,192,73344,1,0,0:0:0:0:
182,192,73344,1,0,0:0:0:0:
109,192,73344,1,0,0:0:0:0:
402,192,73344,128,0,73510:0:0:0:0:
36,192,73427,1,0,0:0:0:0:
329,192,73510,128,0,73677:0:0:0:0:
256,192,73510,1,0,0:0:0:0:
182,192,73510,1,0,0:0:0:0:
36,192,73594,1,0,0:0:0:0:
475,192,73677,128,0,73844:0:0:0:0:
256,192,73677,1,0,0:0:0:0:
109,192,73677,1,0,0:0:0:0:
36,192,73760,1,0,0:0:0:0:
329,192,73844,128,0,74010:0:0:0:0:
182,192,73844,1,0,0:0:0:0:
109,192,73844,1,0,0:0:0:0:
256,192,73927,1,0,0:0:0:0:
36,192,74010,128,0,74094:0:0:0:0:
402,192,74010,1,0,0:0:0:0:
475,192,74010,1,0,0:0:0:0:
109,192,74094,128,0,74177:0:0:0:0:
256,192,74094,1,0,0:0:0:0:
182,192,74177,128,0,74260:0:0:0:0:
36,192,74177,1,0,0:0:0:0:
329,192,74177,1,0,0:0:0:0:
256,192,74260,128,0,74344:0:0:0:0:
109,192,74260,1,0,0:0:0:0:
402,192,74260,1,0,0:0:0:0:
182,192,74344,1,0,0:0:0:0:
329,192,74344,1,0,0:0:0:0:
36,192,74344,1,0,0:0:0:0:
475,192,74344,128,0,75010:0:0:0:0:
402,192,74427,1,0,0:0:0:0:
109,192,74510,1,0,0:0:0:0:
256,192,74510,1,0,0:0:0:0:
402,192,74594,1,0,0:0:0:0:
256,192,74677,128,0,75344:0:0:0:0:
109,192,74677,1,0,0:0:0:0:
36,192,74677,1,0,0:0:0:0:
402,192,74760,1,0,0:0:0:0:
109,192,74844,1,0,0:0:0:0:
182,192,74844,1,0,0:0:0:0:
402,192,74927,1,0,0:0:0:0:
36,192,75010,128,0,75677:0:0:0:0:
182,192,75010,1,0,0:0:0:0:
329,192,75094,1,0,0:0:0:0:
475,192,75177,1,0,0:0:0:0:
182,192,75177,1,0,0:0:0:0:
402,192,75177,1,0,0:0:0:0:
329,192,75260,1,0,0:0:0:0:
475,192,75344,128,0,75677:0:0:0:0:
182,192,75344,1,0,0:0:0:0:
109,192,75344,1,0,0:0:0:0:
402,192,75344,1,0,0:0:0:0:
182,192,75427,1,0,0:0:0:0:
109,192,75427,1,0,0:0:0:0:
402,192,75427,1,0,0:0:0:0:
329,192,75510,1,0,0:0:0:0:
256,192,75510,1,0,0:0:0:0:
329,192,75594,1,0,0:0:0:0:
256,192,75594,1,0,0:0:0:0:
109,192,75677,1,0,0:0:0:0:
402,192,75677,1,0,0:0:0:0:
182,192,75677,128,0,76010:0:0:0:0:
475,192,75760,1,0,0:0:0:0:
402,192,75844,1,0,0:0:0:0:
329,192,75844,1,0,0:0:0:0:
475,192,75927,1,0,0:0:0:0:
109,192,76010,1,0,0:0:0:0:
36,192,76010,1,0,0:0:0:0:
329,192,76010,1,0,0:0:0:0:
475,192,76094,1,0,0:0:0:0:
36,192,76177,128,0,76510:0:0:0:0:
329,192,76177,1,0,0:0:0:0:
256,192,76177,1,0,0:0:0:0:
475,192,76260,1,0,0:0:0:0:
329,192,76344,1,0,0:0:0:0:
475,192,76427,1,0,0:0:0:0:
182,192,76510,1,0,0:0:0:0:
329,192,76510,1,0,0:0:0:0:
475,192,76594,1,0,0:0:0:0:
109,192,76677,1,0,0:0:0:0:
36,192,76677,1,0,0:0:0:0:
329,192,76677,128,0,76760:0:0:0:0:
402,192,76677,1,0,0:0:0:0:
475,192,76760,128,0,76844:0:0:0:0:
256,192,76760,1,0,0:0:0:0:
402,192,76844,128,0,76927:0:0:0:0:
109,192,76844,1,0,0:0:0:0:
182,192,76844,1,0,0:0:0:0:
329,192,76927,128,0,77010:0:0:0:0:
256,192,76927,1,0,0:0:0:0:
182,192,77010,128,0,77177:0:0:0:0:
109,192,77010,1,0,0:0:0:0:
36,192,77010,1,0,0:0:0:0:
475,192,77094,1,0,0:0:0:0:
36,192,77177,128,0,77344:0:0:0:0:
256,192,77177,1,0,0:0:0:0:
329,192,77177,1,0,0:0:0:0:
475,192,77260,1,0,0:0:0:0:
109,192,77344,128,0,77510:0:0:0:0:
329,192,77344,1,0,0:0:0:0:
402,192,77344,1,0,0:0:0:0:
256,192,77427,1,0,0:0:0:0:
182,192,77510,128,0,77677:0:0:0:0:
475,192,77510,1,0,0:0:0:0:
402,192,77510,1,0,0:0:0:0:
256,192,77594,1,0,0:0:0:0:
36,192,77677,128,0,78344:0:0:0:0:
402,192,77677,1,0,0:0:0:0:
475,192,77677,1,0,0:0:0:0:
256,192,77760,1,0,0:0:0:0:
475,192,77844,1,0,0:0:0:0:
329,192,77844,1,0,0:0:0:0:
256,192,77927,1,0,0:0:0:0:
402,192,78010,1,0,0:0:0:0:
329,192,78010,1,0,0:0:0:0:
109,192,78010,1,0,0:0:0:0:
329,192,78094,1,0,0:0:0:0:
402,192,78094,1,0,0:0:0:0:
182,192,78094,1,0,0:0:0:0:
329,192,78177,1,0,0:0:0:0:
402,192,78177,1,0,0:0:0:0:
109,192,78177,1,0,0:0:0:0:
329,192,78260,1,0,0:0:0:0:
402,192,78260,1,0,0:0:0:0:
182,192,78260,1,0,0:0:0:0:
475,192,78344,128,0,78844:0:0:0:0:
402,192,78344,1,0,0:0:0:0:
329,192,78344,1,0,0:0:0:0:
109,192,78344,1,0,0:0:0:0:
256,192,78344,1,0,0:0:0:0:
402,192,78510,128,0,78677:0:0:0:0:
182,192,78510,1,0,0:0:0:0:
109,192,78510,1,0,0:0:0:0:
36,192,78594,1,0,0:0:0:0:
329,192,78677,128,0,78844:0:0:0:0:
256,192,78677,1,0,0:0:0:0:
182,192,78677,1,0,0:0:0:0:
109,192,78677,1,0,0:0:0:0:
36,192,78760,1,0,0:0:0:0:
402,192,78844,128,0,79010:0:0:0:0:
256,192,78844,1,0,0:0:0:0:
182,192,78844,1,0,0:0:0:0:
36,192,78927,1,0,0:0:0:0:
329,192,79010,128,0,79177:0:0:0:0:
256,192,79010,1,0,0:0:0:0:
36,192,79094,1,0,0:0:0:0:
256,192,79177,128,0,79510:0:0:0:0:
182,192,79177,1,0,0:0:0:0:
109,192,79177,1,0,0:0:0:0:
36,192,79260,1,0,0:0:0:0:
475,192,79344,128,0,79510:0:0:0:0:
329,192,79344,1,0,0:0:0:0:
402,192,79344,1,0,0:0:0:0:
36,192,79427,1,0,0:0:0:0:
402,192,79510,128,0,79677:0:0:0:0:
182,192,79510,1,0,0:0:0:0:
109,192,79510,1,0,0:0:0:0:
36,192,79594,1,0,0:0:0:0:
329,192,79677,128,0,80010:0:0:0:0:
256,192,79677,1,0,0:0:0:0:
475,192,79677,1,0,0:0:0:0:
182,192,79677,1,0,0:0:0:0:
109,192,79760,1,0,0:0:0:0:
475,192,79844,1,0,0:0:0:0:
256,192,79844,1,0,0:0:0:0:
109,192,79927,1,0,0:0:0:0:
402,192,80010,1,0,0:0:0:0:
475,192,80010,1,0,0:0:0:0:
36,192,80010,128,0,80344:0:0:0:0:
256,192,80010,128,0,80344:0:0:0:0:
109,192,80094,1,0,0:0:0:0:
475,192,80177,1,0,0:0:0:0:
402,192,80177,1,0,0:0:0:0:
109,192,80260,1,0,0:0:0:0:
475,192,80344,128,0,80677:0:0:0:0:
402,192,80344,1,0,0:0:0:0:
109,192,80427,1,0,0:0:0:0:
256,192,80510,1,0,0:0:0:0:
182,192,80510,1,0,0:0:0:0:
329,192,80594,1,0,0:0:0:0:
109,192,80677,1,0,0:0:0:0:
182,192,80677,1,0,0:0:0:0:
36,192,80677,128,0,81010:0:0:0:0:
402,192,80677,128,0,81010:0:0:0:0:
256,192,80677,1,0,0:0:0:0:
182,192,80760,1,0,0:0:0:0:
109,192,80760,1,0,0:0:0:0:
329,192,80760,1,0,0:0:0:0:
182,192,80844,1,0,0:0:0:0:
109,192,80844,1,0,0:0:0:0:
475,192,80844,1,0,0:0:0:0:
182,192,80927,1,0,0:0:0:0:
109,192,80927,1,0,0:0:0:0:
329,192,80927,1,0,0:0:0:0:
109,192,81010,1,0,0:0:0:0:
182,192,81010,1,0,0:0:0:0:
475,192,81010,1,0,0:0:0:0:
256,192,81010,128,0,81344:0:0:0:0:
329,192,81094,1,0,0:0:0:0:
36,192,81177,1,0,0:0:0:0:
329,192,81260,1,0,0:0:0:0:
36,192,81344,1,0,0:0:0:0:
109,192,81344,1,0,0:0:0:0:
182,192,81344,1,0,0:0:0:0:
329,192,81427,1,0,0:0:0:0:
475,192,81510,128,0,82010:0:0:0:0:
36,192,81510,1,0,0:0:0:0:
402,192,81510,1,0,0:0:0:0:
182,192,81510,1,0,0:0:0:0:
256,192,81594,1,0,0:0:0:0:
109,192,81677,1,0,0:0:0:0:
329,192,81677,1,0,0:0:0:0:
256,192,81760,1,0,0:0:0:0:
109,192,81844,1,0,0:0:0:0:
36,192,81844,1,0,0:0:0:0:
402,192,81844,1,0,0:0:0:0:
256,192,81927,1,0,0:0:0:0:
109,192,82010,1,0,0:0:0:0:
402,192,82010,1,0,0:0:0:0:
329,192,82010,128,0,82177:0:0:0:0:
36,192,82010,1,0,0:0:0:0:
182,192,82094,1,0,0:0:0:0:
475,192,82177,1,0,0:0:0:0:
256,192,82177,128,0,82344:0:0:0:0:
402,192,82177,1,0,0:0:0:0:
182,192,82260,1,0,0:0:0:0:
36,192,82344,128,0,82677:0:0:0:0:
475,192,82344,1,0,0:0:0:0:
402,192,82344,1,0,0:0:0:0:
329,192,82344,1,0,0:0:0:0:
182,192,82427,1,0,0:0:0:0:
475,192,82510,1,0,0:0:0:0:
256,192,82510,1,0,0:0:0:0:
182,192,82594,1,0,0:0:0:0:
109,192,82677,1,0,0:0:0:0:
256,192,82677,1,0,0:0:0:0:
329,192,82677,1,0,0:0:0:0:
475,192,82760,1,0,0:0:0:0:
402,192,82844,1,0,0:0:0:0:
329,192,82844,1,0,0:0:0:0:
36,192,82844,1,0,0:0:0:0:
256,192,82927,1,0,0:0:0:0:
475,192,83010,128,0,83177:0:0:0:0:
109,192,83010,1,0,0:0:0:0:
182,192,83010,1,0,0:0:0:0:
256,192,83094,1,0,0:0:0:0:
402,192,83094,128,0,83260:0:0:0:0:
329,192,83177,128,0,83344:0:0:0:0:
109,192,83177,1,0,0:0:0:0:
36,192,83177,1,0,0:0:0:0:
256,192,83260,128,0,83427:0:0:0:0:
182,192,83260,1,0,0:0:0:0:
475,192,83344,128,0,83677:0:0:0:0:
36,192,83344,1,0,0:0:0:0:
109,192,83344,1,0,0:0:0:0:
402,192,83427,128,0,83677:0:0:0:0:
109,192,83427,1,0,0:0:0:0:
36,192,83427,1,0,0:0:0:0:
329,192,83510,128,0,83677:0:0:0:0:
109,192,83510,1,0,0:0:0:0:
36,192,83510,1,0,0:0:0:0:
256,192,83594,128,0,83677:0:0:0:0:
36,192,83594,1,0,0:0:0:0:
109,192,83594,1,0,0:0:0:0:
109,192,83677,1,0,0:0:0:0:
36,192,83677,1,0,0:0:0:0:
182,192,83677,128,0,83844:0:0:0:0:
475,192,83760,1,0,0:0:0:0:
109,192,83844,128,0,84010:0:0:0:0:
256,192,83844,1,0,0:0:0:0:
329,192,83844,1,0,0:0:0:0:
475,192,83927,1,0,0:0:0:0:
36,192,84010,128,0,84177:0:0:0:0:
256,192,84010,1,0,0:0:0:0:
182,192,84010,1,0,0:0:0:0:
402,192,84010,1,0,0:0:0:0:
475,192,84094,1,0,0:0:0:0:
329,192,84177,128,0,84344:0:0:0:0:
256,192,84177,1,0,0:0:0:0:
109,192,84177,1,0,0:0:0:0:
475,192,84260,1,0,0:0:0:0:
182,192,84344,128,0,84510:0:0:0:0:
256,192,84344,1,0,0:0:0:0:
475,192,84427,1,0,0:0:0:0:
36,192,84510,128,0,84677:0:0:0:0:
256,192,84510,1,0,0:0:0:0:
329,192,84510,1,0,0:0:0:0:
109,192,84594,1,0,0:0:0:0:
402,192,84677,128,0,84760:0:0:0:0:
475,192,84677,128,0,85677:0:0:0:0:
256,192,84677,1,0,0:0:0:0:
182,192,84677,1,0,0:0:0:0:
329,192,84760,128,0,84844:0:0:0:0:
109,192,84760,1,0,0:0:0:0:
182,192,84844,128,0,84927:0:0:0:0:
256,192,84844,1,0,0:0:0:0:
36,192,84844,1,0,0:0:0:0:
109,192,84927,128,0,85010:0:0:0:0:
402,192,84927,1,0,0:0:0:0:
329,192,84927,1,0,0:0:0:0:
36,192,85010,128,0,85344:0:0:0:0:
402,192,85010,1,0,0:0:0:0:
329,192,85010,1,0,0:0:0:0:
182,192,85094,1,0,0:0:0:0:
402,192,85177,1,0,0:0:0:0:
329,192,85177,1,0,0:0:0:0:
182,192,85260,1,0,0:0:0:0:
256,192,85344,128,0,86344:0:0:0:0:
402,192,85344,1,0,0:0:0:0:
329,192,85344,1,0,0:0:0:0:
109,192,85427,1,0,0:0:0:0:
329,192,85510,1,0,0:0:0:0:
402,192,85510,1,0,0:0:0:0:
109,192,85594,1,0,0:0:0:0:
182,192,85594,1,0,0:0:0:0:
36,192,85677,128,0,86344:0:0:0:0:
182,192,85677,1,0,0:0:0:0:
109,192,85677,1,0,0:0:0:0:
329,192,85677,1,0,0:0:0:0:
475,192,85698,1,0,0:0:0:0:
402,192,85719,1,0,0:0:0:0:
329,192,85740,1,0,0:0:0:0:
109,192,85760,1,0,0:0:0:0:
182,192,85781,1,0,0:0:0:0:
475,192,85802,1,0,0:0:0:0:
402,192,85823,1,0,0:0:0:0:
329,192,85844,1,0,0:0:0:0:
182,192,85844,1,0,0:0:0:0:
109,192,85844,1,0,0:0:0:0:
402,192,85927,1,0,0:0:0:0:
475,192,85927,1,0,0:0:0:0:
475,192,86010,128,0,86344:0:0:0:0:
182,192,86010,1,0,0:0:0:0:
109,192,86010,1,0,0:0:0:0:
329,192,86010,1,0,0:0:0:0:
182,192,86094,1,0,0:0:0:0:
109,192,86094,1,0,0:0:0:0:
402,192,86094,1,0,0:0:0:0:
182,192,86177,1,0,0:0:0:0:
109,192,86177,1,0,0:0:0:0:
329,192,86177,1,0,0:0:0:0:
182,192,86260,1,0,0:0:0:0:
109,192,86260,1,0,0:0:0:0:
402,192,86260,1,0,0:0:0:0:
182,192,86344,1,0,0:0:0:0:
109,192,86344,1,0,0:0:0:0:
329,192,86344,1,0,0:0:0:0:
402,192,86344,1,0,0:0:0:0:
36,192,86427,1,0,0:0:0:0:
109,192,86510,1,0,0:0:0:0:
182,192,86510,1,0,0:0:0:0:
329,192,86510,1,0,0:0:0:0:
256,192,86594,1,0,0:0:0:0:
36,192,86677,1,0,0:0:0:0:
182,192,86677,1,0,0:0:0:0:
402,192,86677,1,0,0:0:0:0:
475,192,86677,1,0,0:0:0:0:
256,192,86760,1,0,0:0:0:0:
329,192,86844,1,0,0:0:0:0:
402,192,86844,1,0,0:0:0:0:
109,192,86844,1,0,0:0:0:0:
256,192,86927,1,0,0:0:0:0:
182,192,86927,1,0,0:0:0:0:
36,192,87010,1,0,0:0:0:0:
329,192,87010,1,0,0:0:0:0:
475,192,87010,1,0,0:0:0:0:
402,192,87010,1,0,0:0:0:0:
182,192,87094,1,0,0:0:0:0:
256,192,87094,1,0,0:0:0:0:
36,192,87177,1,0,0:0:0:0:
402,192,87177,1,0,0:0:0:0:
475,192,87177,1,0,0:0:0:0:
109,192,87260,1,0,0:0:0:0:
329,192,87260,1,0,0:0:0:0:
475,192,87344,1,0,0:0:0:0:
256,192,87344,1,0,0:0:0:0:
182,192,87344,1,0,0:0:0:0:
36,192,87344,1,0,0:0:0:0:
402,192,87427,1,0,0:0:0:0:
329,192,87510,1,0,0:0:0:0:
256,192,87510,1,0,0:0:0:0:
182,192,87510,1,0,0:0:0:0:
109,192,87594,1,0,0:0:0:0:
402,192,87594,1,0,0:0:0:0:
256,192,87677,1,0,0:0:0:0:
329,192,87677,1,0,0:0:0:0:
36,192,87677,1,0,0:0:0:0:
475,192,87677,1,0,0:0:0:0:
182,192,87760,1,0,0:0:0:0:
109,192,87844,1,0,0:0:0:0:
36,192,87844,1,0,0:0:0:0:
329,192,87844,1,0,0:0:0:0:
256,192,87927,1,0,0:0:0:0:
402,192,88010,1,0,0:0:0:0:
475,192,88010,1,0,0:0:0:0:
329,192,88010,1,0,0:0:0:0:
182,192,88010,1,0,0:0:0:0:
109,192,88094,1,0,0:0:0:0:
475,192,88177,1,0,0:0:0:0:
36,192,88177,1,0,0:0:0:0:
256,192,88177,1,0,0:0:0:0:
182,192,88260,1,0,0:0:0:0:
329,192,88260,1,0,0:0:0:0:
475,192,88344,1,0,0:0:0:0:
36,192,88344,1,0,0:0:0:0:
109,192,88344,1,0,0:0:0:0:
402,192,88344,1,0,0:0:0:0:
182,192,88427,1,0,0:0:0:0:
329,192,88427,1,0,0:0:0:0:
256,192,88510,1,0,0:0:0:0:
402,192,88510,1,0,0:0:0:0:
182,192,88594,1,0,0:0:0:0:
475,192,88594,1,0,0:0:0:0:
109,192,88677,1,0,0:0:0:0:
329,192,88677,1,0,0:0:0:0:
36,192,88677,1,0,0:0:0:0:
402,192,88677,1,0,0:0:0:0:
256,192,88760,1,0,0:0:0:0:
402,192,88844,1,0,0:0:0:0:
329,192,88844,1,0,0:0:0:0:
182,192,88844,1,0,0:0:0:0:
475,192,88927,1,0,0:0:0:0:
109,192,88927,1,0,0:0:0:0:
329,192,89010,1,0,0:0:0:0:
36,192,89010,1,0,0:0:0:0:
256,192,89010,1,0,0:0:0:0:
402,192,89094,1,0,0:0:0:0:
109,192,89177,1,0,0:0:0:0:
475,192,89177,1,0,0:0:0:0:
182,192,89177,1,0,0:0:0:0:
256,192,89260,1,0,0:0:0:0:
329,192,89260,1,0,0:0:0:0:
402,192,89344,1,0,0:0:0:0:
109,192,89344,1,0,0:0:0:0:
36,192,89344,1,0,0:0:0:0:
475,192,89344,1,0,0:0:0:0:
182,192,89427,1,0,0:0:0:0:
256,192,89510,1,0,0:0:0:0:
329,192,89510,1,0,0:0:0:0:
36,192,89510,1,0,0:0:0:0:
475,192,89594,1,0,0:0:0:0:
109,192,89594,1,0,0:0:0:0:
402,192,89677,1,0,0:0:0:0:
329,192,89677,1,0,0:0:0:0:
182,192,89677,1,0,0:0:0:0:
36,192,89677,1,0,0:0:0:0:
256,192,89760,1,0,0:0:0:0:
475,192,89760,1,0,0:0:0:0:
402,192,89844,1,0,0:0:0:0:
36,192,89844,1,0,0:0:0:0:
329,192,89844,1,0,0:0:0:0:
475,192,89927,1,0,0:0:0:0:
182,192,89927,1,0,0:0:0:0:
256,192,90010,1,0,0:0:0:0:
402,192,90010,1,0,0:0:0:0:
36,192,90010,1,0,0:0:0:0:
109,192,90010,1,0,0:0:0:0:
329,192,90094,1,0,0:0:0:0:
256,192,90177,1,0,0:0:0:0:
182,192,90177,1,0,0:0:0:0:
36,192,90177,1,0,0:0:0:0:
475,192,90260,1,0,0:0:0:0:
109,192,90260,1,0,0:0:0:0:
182,192,90344,1,0,0:0:0:0:
256,192,90344,1,0,0:0:0:0:
402,192,90344,1,0,0:0:0:0:
36,192,90427,1,0,0:0:0:0:
109,192,90510,1,0,0:0:0:0:
182,192,90510,1,0,0:0:0:0:
329,192,90510,1,0,0:0:0:0:
256,192,90594,1,0,0:0:0:0:
475,192,90594,1,0,0:0:0:0:
402,192,90677,1,0,0:0:0:0:
109,192,90677,1,0,0:0:0:0:
36,192,90677,1,0,0:0:0:0:
329,192,90677,1,0,0:0:0:0:
182,192,90760,1,0,0:0:0:0:
329,192,90844,1,0,0:0:0:0:
256,192,90844,1,0,0:0:0:0:
36,192,90844,1,0,0:0:0:0:
475,192,90927,1,0,0:0:0:0:
182,192,90927,1,0,0:0:0:0:
329,192,91010,1,0,0:0:0:0:
256,192,91010,1,0,0:0:0:0:
402,192,91010,1,0,0:0:0:0:
109,192,91010,1,0,0:0:0:0:
475,192,91094,1,0,0:0:0:0:
402,192,91177,1,0,0:0:0:0:
256,192,91177,1,0,0:0:0:0:
182,192,91177,1,0,0:0:0:0:
329,192,91260,1,0,0:0:0:0:
109,192,91260,1,0,0:0:0:0:
475,192,91344,1,0,0:0:0:0:
402,192,91344,1,0,0:0:0:0:
36,192,91344,1,0,0:0:0:0:
182,192,91427,1,0,0:0:0:0:
109,192,91427,1,0,0:0:0:0:
475,192,91510,1,0,0:0:0:0:
329,192,91510,1,0,0:0:0:0:
402,192,91510,1,0,0:0:0:0:
36,192,91510,1,0,0:0:0:0:
182,192,91594,1,0,0:0:0:0:
109,192,91594,1,0,0:0:0:0:
402,192,91677,1,0,0:0:0:0:
329,192,91677,1,0,0:0:0:0:
256,192,91677,1,0,0:0:0:0:
36,192,91677,1,0,0:0:0:0:
475,192,91677,1,0,0:0:0:0:
109,192,91760,1,0,0:0:0:0:
182,192,91844,1,0,0:0:0:0:
256,192,91844,1,0,0:0:0:0:
475,192,91844,1,0,0:0:0:0:
402,192,91927,1,0,0:0:0:0:
256,192,92010,1,0,0:0:0:0:
329,192,92010,1,0,0:0:0:0:
109,192,92010,1,0,0:0:0:0:
36,192,92010,1,0,0:0:0:0:
182,192,92094,1,0,0:0:0:0:
402,192,92177,1,0,0:0:0:0:
475,192,92177,1,0,0:0:0:0:
256,192,92177,1,0,0:0:0:0:
182,192,92260,1,0,0:0:0:0:
329,192,92260,1,0,0:0:0:0:
109,192,92344,1,0,0:0:0:0:
36,192,92344,1,0,0:0:0:0:
402,192,92344,1,0,0:0:0:0:
475,192,92344,1,0,0:0:0:0:
182,192,92427,1,0,0:0:0:0:
329,192,92427,1,0,0:0:0:0:
36,192,92510,1,0,0:0:0:0:
256,192,92510,1,0,0:0:0:0:
475,192,92510,1,0,0:0:0:0:
109,192,92594,1,0,0:0:0:0:
329,192,92594,1,0,0:0:0:0:
36,192,92677,1,0,0:0:0:0:
475,192,92677,1,0,0:0:0:0:
182,192,92677,1,0,0:0:0:0:
402,192,92677,1,0,0:0:0:0:
256,192,92760,1,0,0:0:0:0:
402,192,92844,1,0,0:0:0:0:
329,192,92844,1,0,0:0:0:0:
182,192,92927,1,0,0:0:0:0:
109,192,92927,1,0,0:0:0:0:
329,192,93010,1,0,0:0:0:0:
36,192,93010,1,0,0:0:0:0:
475,192,93010,1,0,0:0:0:0:
256,192,93010,1,0,0:0:0:0:
402,192,93094,1,0,0:0:0:0:
36,192,93177,1,0,0:0:0:0:
329,192,93177,1,0,0:0:0:0:
109,192,93177,1,0,0:0:0:0:
402,192,93260,1,0,0:0:0:0:
182,192,93260,1,0,0:0:0:0:
256,192,93260,1,0,0:0:0:0:
36,192,93344,1,0,0:0:0:0:
475,192,93344,1,0,0:0:0:0:
109,192,93344,1,0,0:0:0:0:
402,192,93427,1,0,0:0:0:0:
329,192,93510,1,0,0:0:0:0:
256,192,93510,1,0,0:0:0:0:
182,192,93594,1,0,0:0:0:0:
109,192,93594,1,0,0:0:0:0:
36,192,93677,1,0,0:0:0:0:
475,192,93677,1,0,0:0:0:0:
256,192,93677,1,0,0:0:0:0:
402,192,93677,1,0,0:0:0:0:
329,192,93760,1,0,0:0:0:0:
182,192,93760,1,0,0:0:0:0:
475,192,93844,1,0,0:0:0:0:
402,192,93844,1,0,0:0:0:0:
109,192,93844,1,0,0:0:0:0:
36,192,93927,1,0,0:0:0:0:
329,192,93927,1,0,0:0:0:0:
109,192,94010,1,0,0:0:0:0:
256,192,94010,1,0,0:0:0:0:
475,192,94010,1,0,0:0:0:0:
182,192,94010,1,0,0:0:0:0:
36,192,94094,1,0,0:0:0:0:
402,192,94094,1,0,0:0:0:0:
182,192,94177,1,0,0:0:0:0:
329,192,94177,1,0,0:0:0:0:
475,192,94177,1,0,0:0:0:0:
109,192,94260,1,0,0:0:0:0:
256,192,94260,1,0,0:0:0:0:
402,192,94344,1,0,0:0:0:0:
36,192,94344,1,0,0:0:0:0:
182,192,94344,1,0,0:0:0:0:
475,192,94344,1,0,0:0:0:0:
329,192,94427,1,0,0:0:0:0:
475,192,94510,1,0,0:0:0:0:
256,192,94510,1,0,0:0:0:0:
36,192,94510,1,0,0:0:0:0:
182,192,94594,1,0,0:0:0:0:
256,192,94677,1,0,0:0:0:0:
36,192,94677,1,0,0:0:0:0:
329,192,94677,1,0,0:0:0:0:
402,192,94677,1,0,0:0:0:0:
109,192,94677,1,0,0:0:0:0:
182,192,94760,1,0,0:0:0:0:
256,192,94844,1,0,0:0:0:0:
402,192,94844,1,0,0:0:0:0:
109,192,94844,1,0,0:0:0:0:
475,192,94844,1,0,0:0:0:0:
329,192,94927,1,0,0:0:0:0:
182,192,94927,1,0,0:0:0:0:
402,192,95010,1,0,0:0:0:0:
109,192,95010,1,0,0:0:0:0:
256,192,95010,1,0,0:0:0:0:
36,192,95010,1,0,0:0:0:0:
182,192,95094,1,0,0:0:0:0:
475,192,95094,1,0,0:0:0:0:
109,192,95177,1,0,0:0:0:0:
402,192,95177,1,0,0:0:0:0:
36,192,95177,1,0,0:0:0:0:
329,192,95260,1,0,0:0:0:0:
182,192,95260,1,0,0:0:0:0:
36,192,95344,1,0,0:0:0:0:
402,192,95344,1,0,0:0:0:0:
475,192,95344,1,0,0:0:0:0:
256,192,95344,1,0,0:0:0:0:
182,192,95427,1,0,0:0:0:0:
109,192,95510,1,0,0:0:0:0:
329,192,95510,1,0,0:0:0:0:
402,192,95510,1,0,0:0:0:0:
36,192,95594,1,0,0:0:0:0:
256,192,95594,1,0,0:0:0:0:
182,192,95677,1,0,0:0:0:0:
402,192,95677,1,0,0:0:0:0:
109,192,95677,1,0,0:0:0:0:
475,192,95677,1,0,0:0:0:0:
256,192,95760,1,0,0:0:0:0:
329,192,95844,1,0,0:0:0:0:
475,192,95844,1,0,0:0:0:0:
109,192,95844,1,0,0:0:0:0:
402,192,95927,1,0,0:0:0:0:
182,192,95927,1,0,0:0:0:0:
329,192,96010,1,0,0:0:0:0:
256,192,96010,1,0,0:0:0:0:
36,192,96010,1,0,0:0:0:0:
475,192,96010,1,0,0:0:0:0:
109,192,96094,1,0,0:0:0:0:
402,192,96177,1,0,0:0:0:0:
182,192,96177,1,0,0:0:0:0:
329,192,96260,1,0,0:0:0:0:
109,192,96260,1,0,0:0:0:0:
475,192,96344,1,0,0:0:0:0:
36,192,96344,1,0,0:0:0:0:
256,192,96344,1,0,0:0:0:0:
182,192,96344,1,0,0:0:0:0:
402,192,96427,1,0,0:0:0:0:
329,192,96427,1,0,0:0:0:0:
256,192,96510,1,0,0:0:0:0:
475,192,96510,1,0,0:0:0:0:
36,192,96510,1,0,0:0:0:0:
109,192,96510,1,0,0:0:0:0:
182,192,96594,1,0,0:0:0:0:
329,192,96594,1,0,0:0:0:0:
475,192,96677,1,0,0:0:0:0:
402,192,96677,1,0,0:0:0:0:
36,192,96677,1,0,0:0:0:0:
256,192,96677,1,0,0:0:0:0:
475,192,96760,1,0,0:0:0:0:
402,192,96760,1,0,0:0:0:0:
36,192,96760,1,0,0:0:0:0:
256,192,96760,1,0,0:0:0:0:
109,192,96844,1,0,0:0:0:0:
182,192,96844,1,0,0:0:0:0:
329,192,96844,1,0,0:0:0:0:
109,192,96927,1,0,0:0:0:0:
182,192,96927,1,0,0:0:0:0:
329,192,96927,1,0,0:0:0:0:
475,192,97010,1,0,0:0:0:0:
402,192,97010,1,0,0:0:0:0:
36,192,97010,1,0,0:0:0:0:
329,192,97010,1,0,0:0:0:0:
109,192,97094,1,0,0:0:0:0:
256,192,97177,1,0,0:0:0:0:
182,192,97177,1,0,0:0:0:0:
475,192,97177,1,0,0:0:0:0:
402,192,97260,1,0,0:0:0:0:
109,192,97260,1,0,0:0:0:0:
329,192,97344,1,0,0:0:0:0:
36,192,97344,1,0,0:0:0:0:
256,192,97344,1,0,0:0:0:0:
475,192,97344,1,0,0:0:0:0:
182,192,97427,1,0,0:0:0:0:
402,192,97510,1,0,0:0:0:0:
329,192,97510,1,0,0:0:0:0:
36,192,97510,1,0,0:0:0:0:
256,192,97594,1,0,0:0:0:0:
109,192,97594,1,0,0:0:0:0:
475,192,97677,1,0,0:0:0:0:
402,192,97677,1,0,0:0:0:0:
182,192,97677,1,0,0:0:0:0:
36,192,97677,1,0,0:0:0:0:
329,192,97760,1,0,0:0:0:0:
256,192,97760,1,0,0:0:0:0:
182,192,97844,1,0,0:0:0:0:
109,192,97844,1,0,0:0:0:0:
475,192,97844,1,0,0:0:0:0:
402,192,97927,1,0,0:0:0:0:
36,192,97927,1,0,0:0:0:0:
475,192,98010,1,0,0:0:0:0:
182,192,98010,1,0,0:0:0:0:
256,192,98010,1,0,0:0:0:0:
329,192,98010,1,0,0:0:0:0:
109,192,98094,1,0,0:0:0:0:
36,192,98177,1,0,0:0:0:0:
182,192,98177,1,0,0:0:0:0:
475,192,98177,1,0,0:0:0:0:
402,192,98260,1,0,0:0:0:0:
256,192,98260,1,0,0:0:0:0:
329,192,98344,1,0,0:0:0:0:
475,192,98344,1,0,0:0:0:0:
109,192,98344,1,0,0:0:0:0:
36,192,98344,1,0,0:0:0:0:
256,192,98427,1,0,0:0:0:0:
182,192,98510,1,0,0:0:0:0:
109,192,98510,1,0,0:0:0:0:
402,192,98510,1,0,0:0:0:0:
329,192,98594,1,0,0:0:0:0:
475,192,98677,1,0,0:0:0:0:
402,192,98677,1,0,0:0:0:0:
256,192,98677,1,0,0:0:0:0:
36,192,98677,1,0,0:0:0:0:
182,192,98760,1,0,0:0:0:0:
329,192,98844,1,0,0:0:0:0:
109,192,98844,1,0,0:0:0:0:
402,192,98927,1,0,0:0:0:0:
256,192,98927,1,0,0:0:0:0:
36,192,98927,1,0,0:0:0:0:
329,192,99010,1,0,0:0:0:0:
475,192,99010,1,0,0:0:0:0:
182,192,99010,1,0,0:0:0:0:
109,192,99010,1,0,0:0:0:0:
402,192,99094,1,0,0:0:0:0:
36,192,99094,1,0,0:0:0:0:
329,192,99177,1,0,0:0:0:0:
256,192,99177,1,0,0:0:0:0:
475,192,99177,1,0,0:0:0:0:
182,192,99260,1,0,0:0:0:0:
109,192,99260,1,0,0:0:0:0:
36,192,99344,1,0,0:0:0:0:
475,192,99344,1,0,0:0:0:0:
402,192,99344,1,0,0:0:0:0:
329,192,99344,1,0,0:0:0:0:
256,192,99427,1,0,0:0:0:0:
182,192,99510,1,0,0:0:0:0:
109,192,99510,1,0,0:0:0:0:
402,192,99510,1,0,0:0:0:0:
475,192,99594,1,0,0:0:0:0:
36,192,99594,1,0,0:0:0:0:
109,192,99677,1,0,0:0:0:0:
329,192,99677,1,0,0:0:0:0:
402,192,99677,1,0,0:0:0:0:
256,192,99677,1,0,0:0:0:0:
182,192,99760,1,0,0:0:0:0:
256,192,99844,1,0,0:0:0:0:
402,192,99844,1,0,0:0:0:0:
36,192,99844,1,0,0:0:0:0:
329,192,99927,1,0,0:0:0:0:
402,192,100010,1,0,0:0:0:0:
475,192,100010,1,0,0:0:0:0:
182,192,100010,1,0,0:0:0:0:
109,192,100010,1,0,0:0:0:0:
256,192,100094,1,0,0:0:0:0:
329,192,100177,1,0,0:0:0:0:
109,192,100177,1,0,0:0:0:0:
36,192,100177,1,0,0:0:0:0:
402,192,100260,1,0,0:0:0:0:
329,192,100344,1,0,0:0:0:0:
182,192,100344,1,0,0:0:0:0:
475,192,100344,1,0,0:0:0:0:
36,192,100344,1,0,0:0:0:0:
256,192,100427,1,0,0:0:0:0:
402,192,100427,1,0,0:0:0:0:
329,192,100510,1,0,0:0:0:0:
109,192,100510,1,0,0:0:0:0:
36,192,100510,1,0,0:0:0:0:
402,192,100594,1,0,0:0:0:0:
182,192,100594,1,0,0:0:0:0:
475,192,100677,1,0,0:0:0:0:
329,192,100677,1,0,0:0:0:0:
256,192,100677,1,0,0:0:0:0:
109,192,100677,1,0,0:0:0:0:
36,192,100760,1,0,0:0:0:0:
402,192,100844,1,0,0:0:0:0:
475,192,100844,1,0,0:0:0:0:
109,192,100844,1,0,0:0:0:0:
329,192,100927,1,0,0:0:0:0:
182,192,100927,1,0,0:0:0:0:
36,192,101010,1,0,0:0:0:0:
475,192,101010,1,0,0:0:0:0:
109,192,101010,1,0,0:0:0:0:
256,192,101010,1,0,0:0:0:0:
402,192,101094,1,0,0:0:0:0:
329,192,101177,1,0,0:0:0:0:
475,192,101177,1,0,0:0:0:0:
182,192,101177,1,0,0:0:0:0:
109,192,101260,1,0,0:0:0:0:
256,192,101344,1,0,0:0:0:0:
402,192,101344,1,0,0:0:0:0:
475,192,101344,1,0,0:0:0:0:
36,192,101344,1,0,0:0:0:0:
182,192,101427,1,0,0:0:0:0:
256,192,101510,1,0,0:0:0:0:
109,192,101510,1,0,0:0:0:0:
36,192,101510,1,0,0:0:0:0:
329,192,101594,1,0,0:0:0:0:
402,192,101677,1,0,0:0:0:0:
475,192,101677,1,0,0:0:0:0:
182,192,101677,1,0,0:0:0:0:
256,192,101677,1,0,0:0:0:0:
109,192,101760,1,0,0:0:0:0:
329,192,101760,1,0,0:0:0:0:
182,192,101844,1,0,0:0:0:0:
402,192,101844,1,0,0:0:0:0:
475,192,101844,1,0,0:0:0:0:
36,192,101927,1,0,0:0:0:0:
256,192,101927,1,0,0:0:0:0:
182,192,102010,1,0,0:0:0:0:
109,192,102010,1,0,0:0:0:0:
475,192,102010,1,0,0:0:0:0:
402,192,102094,1,0,0:0:0:0:
329,192,102094,1,0,0:0:0:0:
475,192,102177,1,0,0:0:0:0:
256,192,102177,1,0,0:0:0:0:
182,192,102177,1,0,0:0:0:0:
109,192,102177,1,0,0:0:0:0:
329,192,102260,1,0,0:0:0:0:
402,192,102260,1,0,0:0:0:0:
475,192,102344,1,0,0:0:0:0:
256,192,102344,1,0,0:0:0:0:
182,192,102344,1,0,0:0:0:0:
109,192,102344,1,0,0:0:0:0:
36,192,102344,1,0,0:0:0:0:
402,192,102427,1,0,0:0:0:0:
329,192,102510,1,0,0:0:0:0:
182,192,102510,1,0,0:0:0:0:
36,192,102510,1,0,0:0:0:0:
256,192,102594,1,0,0:0:0:0:
182,192,102677,1,0,0:0:0:0:
109,192,102677,1,0,0:0:0:0:
475,192,102677,1,0,0:0:0:0:
402,192,102677,1,0,0:0:0:0:
329,192,102760,1,0,0:0:0:0:
256,192,102844,1,0,0:0:0:0:
36,192,102844,1,0,0:0:0:0:
109,192,102927,1,0,0:0:0:0:
329,192,102927,1,0,0:0:0:0:
182,192,103010,1,0,0:0:0:0:
402,192,103010,1,0,0:0:0:0:
475,192,103010,1,0,0:0:0:0:
256,192,103094,1,0,0:0:0:0:
36,192,103094,1,0,0:0:0:0:
402,192,103177,1,0,0:0:0:0:
329,192,103177,1,0,0:0:0:0:
109,192,103177,1,0,0:0:0:0:
182,192,103260,1,0,0:0:0:0:
256,192,103344,1,0,0:0:0:0:
475,192,103344,1,0,0:0:0:0:
402,192,103344,1,0,0:0:0:0:
36,192,103344,1,0,0:0:0:0:
109,192,103427,1,0,0:0:0:0:
182,192,103510,1,0,0:0:0:0:
402,192,103510,1,0,0:0:0:0:
256,192,103510,1,0,0:0:0:0:
329,192,103594,1,0,0:0:0:0:
475,192,103677,1,0,0:0:0:0:
402,192,103677,1,0,0:0:0:0:
109,192,103677,1,0,0:0:0:0:
36,192,103677,1,0,0:0:0:0:
182,192,103760,1,0,0:0:0:0:
109,192,103844,1,0,0:0:0:0:
36,192,103844,1,0,0:0:0:0:
475,192,103844,1,0,0:0:0:0:
402,192,103844,1,0,0:0:0:0:
182,192,103927,1,0,0:0:0:0:
109,192,104010,1,0,0:0:0:0:
36,192,104010,1,0,0:0:0:0:
402,192,104010,1,0,0:0:0:0:
329,192,104010,1,0,0:0:0:0:
182,192,104094,1,0,0:0:0:0:
109,192,104177,1,0,0:0:0:0:
36,192,104177,1,0,0:0:0:0:
329,192,104177,1,0,0:0:0:0:
256,192,104177,1,0,0:0:0:0:
182,192,104260,1,0,0:0:0:0:
36,192,104344,1,0,0:0:0:0:
475,192,104344,1,0,0:0:0:0:
256,192,104344,1,0,0:0:0:0:
109,192,104344,1,0,0:0:0:0:
402,192,104344,1,0,0:0:0:0:
329,192,104427,1,0,0:0:0:0:
182,192,104510,1,0,0:0:0:0:
475,192,104510,1,0,0:0:0:0:
402,192,104510,1,0,0:0:0:0:
256,192,104510,1,0,0:0:0:0:
329,192,104594,1,0,0:0:0:0:
402,192,104677,1,0,0:0:0:0:
475,192,104677,1,0,0:0:0:0:
182,192,104677,1,0,0:0:0:0:
109,192,104677,1,0,0:0:0:0:
329,192,104760,1,0,0:0:0:0:
109,192,104844,1,0,0:0:0:0:
475,192,104844,1,0,0:0:0:0:
402,192,104844,1,0,0:0:0:0:
36,192,104844,1,0,0:0:0:0:
256,192,104927,1,0,0:0:0:0:
109,192,105010,1,0,0:0:0:0:
475,192,105010,1,0,0:0:0:0:
329,192,105010,1,0,0:0:0:0:
402,192,105010,1,0,0:0:0:0:
36,192,105010,1,0,0:0:0:0:
256,192,105094,1,0,0:0:0:0:
182,192,105094,1,0,0:0:0:0:
109,192,105177,1,0,0:0:0:0:
36,192,105177,1,0,0:0:0:0:
475,192,105177,1,0,0:0:0:0:
402,192,105177,1,0,0:0:0:0:
329,192,105260,1,0,0:0:0:0:
256,192,105260,1,0,0:0:0:0:
182,192,105344,1,0,0:0:0:0:
475,192,105344,1,0,0:0:0:0:
109,192,105344,1,0,0:0:0:0:
36,192,105344,1,0,0:0:0:0:
329,192,105427,1,0,0:0:0:0:
256,192,105427,1,0,0:0:0:0:
109,192,105510,1,0,0:0:0:0:
475,192,105510,1,0,0:0:0:0:
36,192,105510,1,0,0:0:0:0:
402,192,105510,1,0,0:0:0:0:
256,192,105594,1,0,0:0:0:0:
182,192,105594,1,0,0:0:0:0:
402,192,105677,1,0,0:0:0:0:
475,192,105677,1,0,0:0:0:0:
109,192,105719,1,0,0:0:0:0:
36,192,105719,1,0,0:0:0:0:
402,192,105760,1,0,0:0:0:0:
475,192,105760,1,0,0:0:0:0:
109,192,105802,1,0,0:0:0:0:
36,192,105802,1,0,0:0:0:0:
402,192,105844,1,0,0:0:0:0:
475,192,105844,1,0,0:0:0:0:
109,192,105885,1,0,0:0:0:0:
36,192,105885,1,0,0:0:0:0:
402,192,105927,1,0,0:0:0:0:
475,192,105927,1,0,0:0:0:0:
109,192,105969,1,0,0:0:0:0:
36,192,105969,1,0,0:0:0:0:
475,192,106010,1,0,0:0:0:0:
402,192,106010,1,0,0:0:0:0:
329,192,106031,1,0,0:0:0:0:
256,192,106052,1,0,0:0:0:0:
182,192,106073,1,0,0:0:0:0:
109,192,106094,1,0,0:0:0:0:
36,192,106115,1,0,0:0:0:0:
402,192,106135,1,0,0:0:0:0:
329,192,106156,1,0,0:0:0:0:
256,192,106177,1,0,0:0:0:0:
182,192,106198,1,0,0:0:0:0:
109,192,106219,1,0,0:0:0:0:
475,192,106240,1,0,0:0:0:0:
402,192,106260,1,0,0:0:0:0:
329,192,106281,1,0,0:0:0:0:
256,192,106302,1,0,0:0:0:0:
182,192,106323,1,0,0:0:0:0:
109,192,106344,1,0,0:0:0:0:
36,192,106344,1,0,0:0:0:0:
475,192,106344,1,0,0:0:0:0:
402,192,106344,1,0,0:0:0:0:
329,192,106677,1,0,0:0:0:0:
182,192,107010,1,0,0:0:0:0:
475,192,107344,128,0,107677:0:0:0:0:
36,192,107677,1,0,0:0:0:0:
329,192,107677,1,0,0:0:0:0:
402,192,107677,1,0,0:0:0:0:
109,192,107677,1,0,0:0:0:0:
182,192,107677,1,0,0:0:0:0:
