osu file format v14

[General]
AudioFilename: audio.mp3
AudioLeadIn: 0
PreviewTime: 308
Countdown: 0
SampleSet: Soft
StackLeniency: 0.7
Mode: 0
LetterboxInBreaks: 0
WidescreenStoryboard: 1

[Editor]
Bookmarks: 11202,21307,31412,41518,46570,51623,61728,69307,74360,84465,94570,99623,104676,114781,122360,128760,135160,147960,160760,173560,186160,191211
DistanceSpacing: 0.8
BeatDivisor: 4
GridSize: 8
TimelineZoom: 1

[Metadata]
Title:ALONE
TitleUnicode:ALONE
Artist:Yuyoyuppe
ArtistUnicode:ゆよゆっぺ
Creator:Shirahane Suou
Version:NORMAL
Source:
Tags:osu! featured artist fa japanese rock metal vocaloid for a sick boy story of hope draw the emotional 巡音ルカ megurine luka vocaleamo
BeatmapID:2879029
BeatmapSetID:1394799

[Difficulty]
HPDrainRate:3
CircleSize:3
OverallDifficulty:4
ApproachRate:5.5
SliderMultiplier:0.999999999999999
SliderTickRate:1

[Events]
//Background and Video events
0,0,"80882883_p2.jpg",0,0
//Break Periods
2,69507,72445
2,84665,89814
2,122560,126635
2,186360,189455
//Storyboard Layer 0 (Background)
//Storyboard Layer 1 (Fail)
//Storyboard Layer 2 (Pass)
//Storyboard Layer 3 (Foreground)
//Storyboard Layer 4 (Overlay)
//Storyboard Sound Samples

[TimingPoints]
466,315.78947368421,4,2,1,50,1,0
1255,315.78947368421,4,2,1,50,1,0
11202,-100,4,2,1,60,0,0
21307,-100,4,2,1,50,0,0
41991,-100,4,2,1,70,0,1
46570,-100,4,2,1,60,0,0
51623,-100,4,2,1,70,0,1
61728,-100,4,2,1,50,0,0
69307,-100,4,2,1,40,0,0
74360,-100,4,2,1,50,0,0
84465,-100,4,2,1,40,0,0
90939,-100,4,2,1,50,0,0
95044,-100,4,2,1,70,0,1
99623,-100,4,2,1,60,0,0
104676,-100,4,2,1,70,0,1
114781,-100,4,2,1,50,0,0
122360,400,4,2,1,40,1,0
128760,-100,4,2,1,50,0,0
135160,-100,4,2,1,60,0,0
160760,-100,4,2,1,70,0,1
186160,315.789473684211,4,2,1,60,1,0
186317,315.789473684211,4,2,1,50,1,0
191211,-100,4,2,1,60,0,0

[Colours]
Combo1 : 212,212,212
Combo2 : 190,1,1
Combo3 : 217,74,74
Combo4 : 157,157,157

[HitObjects]
224,285,466,38,0,L|235:224,1,50,0|8,3:2|0:2,0:0:0:0:
241,186,781,1,0,3:2:0:0:
233,83,1097,6,0,P|292:41|363:59,1,150,6|10,3:2|0:2,0:0:0:0:
509,195,2202,1,8,0:2:0:0:
363,332,2833,2,0,B|286:323|286:323|253:344|253:344|166:334,1,200,10|8,0:2|0:2,0:0:0:0:
130,304,3623,38,0,B|100:219|100:219|143:162,1,150,6|10,3:2|0:2,0:0:0:0:
293,46,4728,1,8,0:2:0:0:
293,46,4886,2,0,B|325:15|365:26|365:26|381:66|434:79,1,150,6|10,3:2|0:2,0:0:0:0:
494,134,5676,2,0,L|476:239,1,99.9999999999999,6|8,3:2|0:2,0:0:0:0:
446,272,6149,6,0,B|385:230|385:230|308:258,1,150,6|10,3:2|0:2,0:0:0:0:
219,79,7254,1,8,0:2:0:0:
38,164,7886,2,0,P|7:209|47:340,1,200,10|8,0:2|0:2,0:0:0:0:
90,361,8676,38,0,L|254:335,1,150,6|10,3:2|0:2,0:0:0:0:
327,158,9781,1,8,0:2:0:0:
327,158,9939,2,0,P|289:179|218:160,1,99.9999999999999,6|2,3:2|3:2,0:0:0:0:
202,133,10412,2,0,L|140:146,2,50,10|2|10,0:2|3:2|0:2,0:0:0:0:
224,88,10886,1,0,3:2:0:0:
302,25,11202,6,0,L|406:41,1,99.9999999999999,6|0,3:2|3:2,0:0:0:0:
448,57,11676,1,10,0:2:0:0:
499,142,11991,2,0,B|479:189|479:189|506:237,1,99.9999999999999,2|8,3:2|0:2,0:0:0:0:
510,281,12465,2,0,L|400:285,1,99.9999999999999,6|0,3:2|3:2,0:0:0:0:
367,312,12939,1,10,0:2:0:0:
289,249,13254,2,0,L|239:255,2,50,2|2|8,3:2|3:2|0:2,0:0:0:0:
317,207,13728,38,0,P|335:161|316:117,1,99.9999999999999,6|0,3:2|3:2,0:0:0:0:
286,76,14202,1,10,0:2:0:0:
195,118,14518,2,0,L|78:122,1,99.9999999999999,2|8,3:2|0:2,0:0:0:0:
49,100,14991,2,0,B|28:145|28:145|45:207,1,99.9999999999999,6|2,3:2|3:2,0:0:0:0:
70,234,15465,1,10,0:2:0:0:
170,233,15781,2,0,L|227:242,1,50,10|2,0:2|3:2,0:0:0:0:
259,280,16097,1,8,0:2:0:0:
259,280,16254,6,0,L|368:261,1,99.9999999999999,6|0,3:2|3:2,0:0:0:0:
396,231,16728,1,10,0:2:0:0:
333,152,17044,2,0,L|350:46,1,99.9999999999999,2|8,3:2|0:2,0:0:0:0:
318,12,17518,2,0,B|275:41|275:41|205:31,1,99.9999999999999,6|0,3:2|3:2,0:0:0:0:
181,13,17991,1,10,0:2:0:0:
106,80,18307,2,0,L|54:71,2,50,2|2|8,3:2|3:2|0:2,0:0:0:0:
133,121,18781,38,0,L|115:227,1,99.9999999999999,6|0,3:2|3:2,0:0:0:0:
96,265,19254,1,10,0:2:0:0:
171,330,19570,2,0,P|216:338|260:298,1,99.9999999999999,2|8,3:2|0:2,0:0:0:0:
295,274,20044,2,0,L|276:158,1,99.9999999999999,6|2,3:2|3:2,0:0:0:0:
292,126,20518,2,0,B|244:110|244:110|183:147,1,99.9999999999999,10|2,0:2|3:2,0:0:0:0:
136,212,21149,1,8,0:2:0:0:
136,212,21307,6,0,L|30:201,1,99.9999999999999,6|2,3:2|3:2,0:0:0:0:
18,100,21939,2,0,L|30:43,1,50,2|10,3:2|0:2,0:0:0:0:
44,3,22254,1,2,3:2:0:0:
136,41,22570,2,0,L|242:30,1,99.9999999999999,6|2,3:2|3:2,0:0:0:0:
329,80,23202,1,2,3:2:0:0:
329,80,23360,2,0,L|320:136,1,50,10|2,0:2|3:2,0:0:0:0:
298,176,23676,1,8,0:2:0:0:
298,176,23833,38,0,L|322:289,1,99.9999999999999,6|2,3:2|3:2,0:0:0:0:
375,356,24465,2,0,L|437:339,1,50,2|10,3:2|0:2,0:0:0:0:
473,337,24781,1,2,3:2:0:0:
504,241,25097,2,0,B|476:199|476:199|486:146,1,99.9999999999999,6|2,3:2|3:2,0:0:0:0:
498,102,25570,2,0,L|430:87,1,50,0|2,0:0|3:2,0:0:0:0:
399,83,25886,1,10,0:2:0:0:
399,83,26044,1,2,3:2:0:0:
320,144,26360,6,0,L|344:261,1,99.9999999999999,6|2,3:2|3:2,0:0:0:0:
298,333,26991,2,0,L|230:317,1,50,2|10,3:2|0:2,0:0:0:0:
203,299,27307,1,2,3:2:0:0:
121,357,27623,2,0,B|79:331|79:331|25:343,1,99.9999999999999,6|2,3:2|3:2,0:0:0:0:
4,250,28254,1,2,3:2:0:0:
4,250,28412,2,0,L|10:183,1,50,10|2,0:2|3:2,0:0:0:0:
20,151,28728,1,8,0:2:0:0:
20,151,28886,38,0,L|124:130,1,99.9999999999999,6|2,3:2|3:2,0:0:0:0:
206,83,29518,2,0,L|260:97,1,50,2|10,3:2|0:2,0:0:0:0:
298,119,29833,1,2,3:2:0:0:
240,200,30149,2,0,L|267:316,1,99.9999999999999,6|2,3:2|3:2,0:0:0:0:
361,333,30781,1,2,3:2:0:0:
361,333,30939,2,0,L|354:393,2,50,14|10|8,0:2|0:2|0:2,0:0:0:0:
397,298,31412,5,4,3:2:0:0:
371,201,31728,1,4,3:2:0:0:
230,32,33307,2,0,L|218:82,1,50,0|8,3:2|0:2,0:0:0:0:
203,128,33623,1,0,3:2:0:0:
134,200,33939,37,4,3:2:0:0:
198,276,34254,1,4,3:2:0:0:
368,170,34886,2,0,L|378:103,1,50,0|8,3:2|0:2,0:0:0:0:
383,70,35202,2,0,B|334:62|334:62|295:94,1,99.9999999999999,4|0,3:2|3:2,0:0:0:0:
253,122,35676,1,8,0:2:0:0:
170,65,35991,2,0,L|165:6,2,50,8|8|8,0:2|0:2|0:2,0:0:0:0:
137,103,36465,5,4,3:2:0:0:
161,205,36781,1,4,3:2:0:0:
161,205,36939,1,4,0:2:0:0:
336,300,37570,1,4,0:2:0:0:
431,125,38202,1,4,0:2:0:0:
431,125,38360,2,0,L|376:114,1,50,0|8,3:2|0:2,0:0:0:0:
335,96,38676,1,0,3:2:0:0:
249,147,38991,37,4,3:2:0:0:
193,63,39307,1,4,3:2:0:0:
24,171,39939,2,0,L|73:180,1,50,0|8,3:2|0:2,0:0:0:0:
115,207,40254,2,0,L|103:311,1,99.9999999999999,4|0,3:2|3:2,0:0:0:0:
125,351,40728,1,8,0:2:0:0:
215,308,41044,2,0,P|250:300|305:331,1,99.9999999999999,8|12,0:2|0:2,0:0:0:0:
343,360,41518,2,0,L|444:339,1,99.9999999999999,4|0,3:2|3:2,0:0:0:0:
488,324,41991,21,10,0:2:0:0:
486,223,42307,1,2,3:2:0:0:
399,173,42623,1,10,0:2:0:0:
314,226,42939,2,0,L|262:228,1,50,2|2,3:2|3:2,0:0:0:0:
215,216,43254,1,10,0:2:0:0:
158,133,43570,1,2,3:2:0:0:
230,64,43886,1,10,0:2:0:0:
230,64,44044,6,0,L|346:57,1,99.9999999999999,6|2,3:2|3:2,0:0:0:0:
379,63,44518,1,10,0:2:0:0:
447,135,44833,2,0,L|447:198,1,50,2|2,3:2|3:2,0:0:0:0:
444,237,45149,1,10,0:2:0:0:
444,237,45307,2,0,P|407:230|342:255,1,99.9999999999999,6|2,3:2|3:2,0:0:0:0:
310,281,45781,1,8,0:2:0:0:
230,220,46097,2,0,L|231:161,1,50,10|0,0:2|3:2,0:0:0:0:
228,120,46412,1,8,0:2:0:0:
228,120,46570,6,0,B|188:117|157:93|157:93|129:122|91:121,1,150,4|10,3:2|0:2,0:0:0:0:
17,188,47360,1,2,3:2:0:0:
17,188,47518,1,2,3:2:0:0:
99,244,47833,2,0,L|213:242,1,99.9999999999999,2|2,0:2|3:2,0:0:0:0:
242,216,48307,2,0,L|312:212,1,50,8|2,0:2|0:2,0:0:0:0:
339,230,48623,1,2,3:2:0:0:
422,172,48939,1,10,0:2:0:0:
422,172,49097,6,0,B|445:82|445:82|391:37,1,150,6|10,3:2|0:2,0:0:0:0:
310,2,49886,2,0,L|205:31,1,99.9999999999999,2|10,3:2|0:2,0:0:0:0:
171,56,50360,2,0,P|151:93|175:157,1,99.9999999999999,6|2,3:2|3:2,0:0:0:0:
202,179,50833,1,8,0:2:0:0:
150,265,51149,1,8,0:2:0:0:
150,265,51307,1,2,3:2:0:0:
238,312,51623,6,0,L|345:292,1,99.9999999999999,6|0,3:2|3:2,0:0:0:0:
377,264,52097,1,8,0:2:0:0:
314,186,52412,2,0,L|326:125,1,50,0|0,3:2|3:2,0:0:0:0:
311,88,52728,1,10,0:2:0:0:
311,88,52886,2,0,B|350:57|350:57|410:71,1,99.9999999999999,6|0,3:2|3:2,0:0:0:0:
446,53,53360,2,0,L|453:161,1,99.9999999999999,8|0,0:2|3:2,0:0:0:0:
464,256,53991,1,10,0:2:0:0:
464,256,54149,6,0,B|413:245|413:245|362:279,1,99.9999999999999,6|0,3:2|3:2,0:0:0:0:
344,313,54623,1,8,0:2:0:0:
246,334,54939,2,0,L|179:325,1,50,0|2,3:2|3:2,0:0:0:0:
152,317,55254,1,10,0:2:0:0:
152,317,55412,2,0,L|171:212,1,99.9999999999999,6|2,3:2|3:2,0:0:0:0:
186,171,55886,1,8,0:2:0:0:
103,114,56202,2,0,L|38:127,1,50,8|2,0:2|3:2,0:0:0:0:
7,130,56518,1,8,0:2:0:0:
7,130,56676,38,0,L|16:239,1,99.9999999999999,6|0,3:2|3:2,0:0:0:0:
3,278,57149,1,8,0:2:0:0:
72,349,57465,2,0,L|129:335,1,50,0|0,3:2|3:2,0:0:0:0:
164,310,57781,1,10,0:2:0:0:
164,310,57939,2,0,B|211:295|211:295|269:327,1,99.9999999999999,6|0,3:2|3:2,0:0:0:0:
300,341,58412,1,8,0:2:0:0:
374,274,58728,2,0,L|365:224,1,50,0|2,3:2|3:2,0:0:0:0:
330,200,59043,1,8,0:2:0:0:
330,200,59202,6,0,L|341:97,1,99.9999999999999,6|0,3:2|3:2,0:0:0:0:
344,50,59676,1,8,0:2:0:0:
429,3,59991,1,0,3:2:0:0:
508,63,60307,1,10,0:2:0:0:
495,162,60623,1,2,3:2:0:0:
403,202,60939,2,0,L|341:203,1,50,10|2,0:2|3:2,0:0:0:0:
307,224,61254,2,0,B|260:246|260:246|211:227,1,99.9999999999999,8|8,0:2|0:2,0:0:0:0:
178,193,61728,6,0,L|181:78,1,99.9999999999999,6|0,3:2|3:2,0:0:0:0:
252,22,62360,1,0,3:2:0:0:
252,22,62518,2,0,P|296:49|356:36,1,99.9999999999999,10|0,0:2|0:0,0:0:0:0:
392,42,62991,2,0,L|382:149,1,99.9999999999999,6|2,3:2|3:2,0:0:0:0:
305,270,63781,2,0,L|318:333,2,50,10|8|10,0:2|0:2|0:2,0:0:0:0:
278,227,64254,6,0,P|245:218|180:258,1,99.9999999999999,6|0,3:2|3:2,0:0:0:0:
154,342,64886,1,0,3:2:0:0:
154,342,65044,2,0,L|43:324,1,99.9999999999999,10|0,0:2|0:0,0:0:0:0:
17,292,65518,2,0,B|42:250|42:250|34:178,1,99.9999999999999,6|2,3:2|3:2,0:0:0:0:
13,106,66149,1,0,3:2:0:0:
13,106,66307,2,0,L|72:94,1,50,10|0,0:2|3:2,0:0:0:0:
113,117,66623,1,10,0:2:0:0:
113,117,66781,38,0,P|149:124|215:94,1,99.9999999999999,6|0,3:2|3:2,0:0:0:0:
333,22,67570,2,0,L|394:38,1,50,8|0,0:2|3:2,0:0:0:0:
422,63,67886,1,10,0:2:0:0:
422,63,68044,2,0,L|408:173,1,99.9999999999999,4|0,3:2|3:2,0:0:0:0:
397,211,68518,1,8,0:2:0:0:
309,254,68833,1,10,0:2:0:0:
309,254,68991,1,0,3:2:0:0:
242,179,69307,5,6,3:2:0:0:
288,172,73570,38,0,L|352:160,1,50,2|2,3:2|3:2,0:0:0:0:
390,157,73886,1,10,0:2:0:0:
390,157,74044,1,10,0:2:0:0:
344,67,74360,6,0,P|314:44|251:52,1,99.9999999999999,6|2,3:2|3:2,0:0:0:0:
162,88,74991,2,0,L|106:76,1,50,2|10,3:2|0:2,0:0:0:0:
64,63,75307,1,2,3:2:0:0:
3,142,75623,2,0,L|24:245,1,99.9999999999999,6|2,3:2|3:2,0:0:0:0:
116,289,76254,1,2,3:2:0:0:
116,289,76412,2,0,L|174:274,1,50,10|2,0:2|3:2,0:0:0:0:
204,245,76728,1,8,0:2:0:0:
204,245,76886,38,0,P|254:237|300:279,1,99.9999999999999,6|2,3:2|3:2,0:0:0:0:
357,340,77518,2,0,L|420:325,1,50,2|10,3:2|0:2,0:0:0:0:
453,314,77833,1,2,3:2:0:0:
412,222,78149,2,0,L|434:115,1,99.9999999999999,6|2,3:2|3:2,0:0:0:0:
430,73,78623,2,0,L|372:61,1,50,0|2,0:0|3:2,0:0:0:0:
332,49,78939,1,10,0:2:0:0:
332,49,79097,1,2,3:2:0:0:
249,104,79412,6,0,L|272:211,1,99.9999999999999,6|2,3:2|3:2,0:0:0:0:
323,286,80044,2,0,L|314:341,1,50,2|10,3:2|0:2,0:0:0:0:
306,384,80360,1,2,3:2:0:0:
212,348,80676,2,0,P|163:334|112:357,1,99.9999999999999,6|2,3:2|3:2,0:0:0:0:
26,380,81307,1,2,3:2:0:0:
26,380,81465,2,0,L|14:308,1,50,10|2,0:2|3:2,0:0:0:0:
37,284,81781,1,8,0:2:0:0:
37,284,81939,38,0,L|16:164,1,99.9999999999999,6|2,3:2|3:2,0:0:0:0:
57,92,82570,2,0,L|117:83,1,50,2|10,3:2|0:2,0:0:0:0:
156,85,82886,1,2,3:2:0:0:
228,154,83202,2,0,L|209:258,1,99.9999999999999,6|2,3:2|3:2,0:0:0:0:
139,322,83833,1,2,3:2:0:0:
139,322,83991,2,0,L|84:309,2,50,14|10|8,0:2|0:2|0:2,0:0:0:0:
178,353,84465,5,4,3:2:0:0:
99,280,90939,38,0,B|219:244|187:348|325:287|325:287|304:212,1,300,8|8,0:3|0:3,0:0:0:0:
273,190,92044,6,0,L|289:81,1,99.9999999999999,4|0,3:2|3:2,0:0:0:0:
308,45,92518,1,8,0:2:0:0:
401,10,92833,2,0,B|432:48|432:48|422:110,1,99.9999999999999,8|8,0:2|0:2,0:0:0:0:
393,138,93307,2,0,L|424:245,1,99.9999999999999,4|0,3:2|3:2,0:0:0:0:
452,273,93781,1,8,0:2:0:0:
384,346,94097,2,0,L|325:338,1,50,8|0,0:2|3:2,0:0:0:0:
297,305,94412,1,8,0:2:0:0:
297,305,94570,2,0,L|184:328,1,99.9999999999999,4|0,3:2|3:2,0:0:0:0:
157,353,95044,5,10,0:2:0:0:
80,288,95360,1,2,3:2:0:0:
96,189,95676,1,10,0:2:0:0:
188,151,95991,1,2,3:2:0:0:
261,218,96307,2,0,P|302:231|362:205,1,99.9999999999999,10|2,0:2|3:2,0:0:0:0:
431,148,96939,1,10,0:2:0:0:
431,148,97097,6,0,L|409:47,1,99.9999999999999,6|2,3:2|3:2,0:0:0:0:
374,15,97570,1,10,0:2:0:0:
294,75,97886,1,2,3:2:0:0:
215,12,98202,1,10,0:2:0:0:
215,12,98360,2,0,B|183:49|183:49|194:115,1,99.9999999999999,6|2,3:2|3:2,0:0:0:0:
204,147,98833,1,10,0:2:0:0:
267,224,99149,2,0,L|322:212,2,50,10|10|8,0:2|0:2|0:2,0:0:0:0:
240,267,99623,6,0,L|88:246,1,150,4|10,3:2|0:2,0:0:0:0:
17,187,100412,1,2,3:2:0:0:
17,187,100570,1,2,3:2:0:0:
72,103,100886,2,0,P|117:77|175:96,1,99.9999999999999,2|2,0:2|3:2,0:0:0:0:
207,108,101360,2,0,L|263:109,1,50,8|2,0:2|0:2,0:0:0:0:
296,77,101676,1,2,3:2:0:0:
375,146,101991,1,10,0:2:0:0:
375,146,102149,6,0,L|357:301,1,150,6|10,3:2|0:2,0:0:0:0:
268,340,102939,2,0,P|232:349|178:312,1,99.9999999999999,2|10,3:2|0:2,0:0:0:0:
153,276,103412,2,0,L|170:161,1,99.9999999999999,6|2,3:2|3:2,0:0:0:0:
180,128,103886,1,8,0:2:0:0:
267,78,104202,2,0,B|317:91|317:91|373:66,1,99.9999999999999,8|8,0:2|0:2,0:0:0:0:
407,51,104676,6,0,L|423:160,1,99.9999999999999,6|0,3:2|3:2,0:0:0:0:
442,195,105149,1,8,0:2:0:0:
376,270,105465,2,0,L|322:259,1,50,0|0,3:2|3:2,0:0:0:0:
285,243,105781,1,10,0:2:0:0:
285,243,105939,2,0,B|306:198|306:198|283:136,1,99.9999999999999,6|0,3:2|3:2,0:0:0:0:
283,101,106412,2,0,L|173:96,1,99.9999999999999,8|0,0:2|3:2,0:0:0:0:
89,78,107044,1,10,0:2:0:0:
89,78,107202,6,0,B|62:119|62:119|74:169,1,99.9999999999999,6|0,3:2|3:2,0:0:0:0:
98,212,107676,1,8,0:2:0:0:
187,255,107991,2,0,L|256:236,1,50,0|2,3:2|3:2,0:0:0:0:
271,206,108307,1,10,0:2:0:0:
271,206,108465,2,0,P|304:196|367:222,1,99.9999999999999,6|2,3:2|3:2,0:0:0:0:
406,243,108939,1,8,0:2:0:0:
388,341,109254,2,0,L|323:353,1,50,8|2,0:2|3:2,0:0:0:0:
295,336,109570,1,8,0:2:0:0:
295,336,109728,38,0,P|254:357|195:338,1,99.9999999999999,6|0,3:2|3:2,0:0:0:0:
159,321,110202,1,8,0:2:0:0:
201,230,110518,2,0,L|197:164,1,50,0|0,3:2|3:2,0:0:0:0:
170,138,110833,1,10,0:2:0:0:
170,138,110991,2,0,P|124:116|67:134,1,99.9999999999999,6|0,3:2|3:2,0:0:0:0:
33,150,111465,1,8,0:2:0:0:
70,242,111781,2,0,L|60:290,1,50,0|2,3:2|3:2,0:0:0:0:
45,341,112096,1,8,0:2:0:0:
45,341,112254,6,0,P|84:327|144:357,1,99.9999999999999,6|0,3:2|3:2,0:0:0:0:
176,377,112728,1,8,0:2:0:0:
242,301,113044,1,0,3:2:0:0:
328,350,113360,1,10,0:2:0:0:
401,282,113676,1,2,3:2:0:0:
352,194,113991,2,0,L|347:136,1,50,10|2,0:2|3:2,0:0:0:0:
334,95,114307,2,0,B|283:83|283:83|235:111,1,99.9999999999999,8|8,0:2|0:2,0:0:0:0:
192,115,114781,6,0,L|204:219,1,99.9999999999999,6|0,3:2|3:2,0:0:0:0:
232,310,115412,1,0,3:2:0:0:
232,310,115570,2,0,B|281:322|281:322|333:301,1,99.9999999999999,10|0,0:2|0:0,0:0:0:0:
373,285,116044,2,0,L|358:175,1,99.9999999999999,6|2,3:2|3:2,0:0:0:0:
418,47,116833,2,0,L|480:47,2,50,10|8|10,0:2|0:2|0:2,0:0:0:0:
370,30,117307,6,0,B|321:20|321:20|275:49,1,99.9999999999999,6|0,3:2|3:2,0:0:0:0:
202,110,117939,1,0,3:2:0:0:
202,110,118097,2,0,L|225:227,1,99.9999999999999,10|0,0:2|0:0,0:0:0:0:
217,258,118570,2,0,P|171:243|110:269,1,99.9999999999999,6|2,3:2|3:2,0:0:0:0:
33,298,119202,1,0,3:2:0:0:
33,298,119360,2,0,L|21:238,1,50,10|0,0:2|3:2,0:0:0:0:
41,204,119676,1,10,0:2:0:0:
41,204,119833,38,0,L|22:92,1,99.9999999999999,6|0,3:2|3:2,0:0:0:0:
133,2,120623,2,0,L|184:15,1,50,8|0,0:2|3:2,0:0:0:0:
209,56,120939,1,10,0:2:0:0:
209,56,121097,2,0,P|253:66|314:25,1,99.9999999999999,4|0,3:2|3:2,0:0:0:0:
342,14,121570,1,8,0:2:0:0:
430,71,121886,1,10,0:2:0:0:
430,71,122044,1,0,3:2:0:0:
373,154,122360,5,6,3:2:0:0:
398,115,127760,53,0,3:2:0:0:
398,115,127960,2,0,L|415:175,1,50,12|0,0:2|3:2,0:0:0:0:
445,199,128360,2,0,L|428:259,1,50,12|4,0:2|3:2,0:0:0:0:
390,276,128760,38,0,L|280:280,1,99.9999999999999,4|0,3:2|0:0,0:0:0:0:
207,222,129560,2,0,B|222:189|222:189|202:131,2,74.9999999999999,12|8|0,0:2|0:2|3:2,0:0:0:0:
177,262,130360,1,4,3:2:0:0:
49,182,130960,1,0,3:2:0:0:
49,182,131160,2,0,L|47:66,1,99.9999999999999,12|0,0:2|3:2,0:0:0:0:
132,29,131960,6,0,P|190:51|237:20,1,99.9999999999999,4|0,3:2|0:0,0:0:0:0:
305,91,132760,2,0,L|386:72,2,74.9999999999999,12|8|0,0:2|0:2|3:2,0:0:0:0:
274,130,133560,1,4,3:2:0:0:
338,206,133960,2,0,L|336:266,1,50,8|0,0:2|3:2,0:0:0:0:
339,310,134360,1,8,0:2:0:0:
339,310,134560,1,8,0:2:0:0:
195,353,135160,37,6,3:2:0:0:
195,353,135360,2,0,B|213:304|213:304|187:255,1,99.9999999999999,2|2,3:2|3:2,0:0:0:0:
152,229,135960,2,0,L|68:233,2,74.9999999999999,10|2|2,0:2|3:2|3:2,0:0:0:0:
194,138,136960,1,2,3:2:0:0:
142,59,137360,1,2,3:2:0:0:
142,59,137560,2,0,L|89:69,1,50,10|0,0:2|3:2,0:0:0:0:
44,76,137960,1,10,0:2:0:0:
8,172,138360,5,6,3:2:0:0:
8,172,138560,2,0,L|29:291,1,99.9999999999999,2|2,3:2|3:2,0:0:0:0:
57,308,139160,2,0,L|40:402,2,74.9999999999999,10|2|2,0:2|3:2|3:2,0:0:0:0:
127,237,140160,1,2,3:2:0:0:
203,310,140560,1,2,3:2:0:0:
203,310,140760,2,0,L|189:385,2,74.9999999999999,10|2|2,0:2|3:2|3:2,0:0:0:0:
242,278,141560,37,6,3:2:0:0:
242,278,141760,2,0,L|232:170,1,99.9999999999999,2|2,3:2|3:2,0:0:0:0:
242,129,142360,2,0,L|322:142,2,74.9999999999999,10|2|2,0:2|3:2|3:2,0:0:0:0:
161,70,143360,1,2,3:2:0:0:
115,161,143760,1,2,3:2:0:0:
115,161,143960,2,0,L|124:227,1,50,10|0,0:2|3:2,0:0:0:0:
130,259,144360,1,10,0:2:0:0:
201,336,144760,5,6,3:2:0:0:
201,336,144960,2,0,L|319:323,1,99.9999999999999,2|2,3:2|3:2,0:0:0:0:
344,300,145560,2,0,P|386:293|418:316,2,74.9999999999999,10|2|2,0:2|3:2|3:2,0:0:0:0:
269,233,146560,1,2,3:2:0:0:
344,166,146960,1,2,3:2:0:0:
344,166,147160,2,0,L|327:89,2,74.9999999999999,10|2|2,0:2|3:2|3:2,0:0:0:0:
390,185,147960,38,0,L|405:250,1,50,6|2,3:2|3:2,0:0:0:0:
442,262,148360,2,0,L|428:328,1,50,2|0,3:2|0:0,0:0:0:0:
395,345,148760,2,0,L|317:334,1,74.9999999999999,10|2,0:2|3:2,0:0:0:0:
255,279,149360,2,0,L|241:170,1,99.9999999999999,2|2,3:2|3:2,0:0:0:0:
226,85,150160,1,2,3:2:0:0:
226,85,150360,2,0,L|163:101,1,50,10|0,0:2|3:2,0:0:0:0:
128,104,150760,1,10,0:2:0:0:
52,169,151160,6,0,L|65:233,1,50,6|2,3:2|3:2,0:0:0:0:
105,243,151560,2,0,L|118:307,1,50,2|0,3:2|0:0,0:0:0:0:
101,340,151960,2,0,P|129:362|178:355,1,74.9999999999999,10|2,0:2|3:2,0:0:0:0:
248,330,152560,2,0,L|255:215,1,99.9999999999999,2|2,3:2|3:2,0:0:0:0:
240,135,153360,1,2,3:2:0:0:
240,135,153560,2,0,B|267:109|267:109|307:111,2,74.9999999999999,10|2|2,0:2|3:2|3:2,0:0:0:0:
193,153,154360,38,0,L|129:147,1,50,6|2,3:2|3:2,0:0:0:0:
110,186,154760,2,0,L|46:180,1,50,2|0,3:2|0:0,0:0:0:0:
21,148,155160,2,0,L|34:70,1,74.9999999999999,10|2,0:2|3:2,0:0:0:0:
86,4,155760,2,0,P|118:21|193:3,1,99.9999999999999,2|2,3:2|3:2,0:0:0:0:
267,71,156560,1,2,3:2:0:0:
267,71,156760,2,0,L|250:140,1,50,10|0,0:2|3:2,0:0:0:0:
241,167,157160,1,10,0:2:0:0:
175,242,157560,6,0,L|190:302,1,50,6|2,3:2|3:2,0:0:0:0:
218,329,157960,2,0,L|266:316,1,50,2|0,3:2|0:0,0:0:0:0:
306,287,158360,2,0,L|385:304,1,74.9999999999999,10|2,0:2|3:2,0:0:0:0:
469,323,158960,2,0,P|486:294|473:229,1,99.9999999999999,2|2,3:2|3:2,0:0:0:0:
401,172,159760,1,2,3:2:0:0:
401,172,159960,2,0,L|351:179,1,50,10|0,0:2|3:2,0:0:0:0:
280,46,160760,6,0,L|390:30,1,99.9999999999999,6|0,3:2|3:2,0:0:0:0:
425,9,161360,1,0,3:2:0:0:
425,9,161560,2,0,B|459:45|459:45|451:117,1,99.9999999999999,8|0,0:2|3:2,0:0:0:0:
400,180,162360,2,0,L|415:290,1,99.9999999999999,6|0,3:2|3:2,0:0:0:0:
426,332,162960,1,0,3:2:0:0:
426,332,163160,1,8,0:2:0:0:
333,369,163560,2,0,L|276:355,1,50,8|8,0:2|0:2,0:0:0:0:
250,320,163960,6,0,L|149:340,1,99.9999999999999,6|0,3:2|3:2,0:0:0:0:
108,358,164560,1,0,3:2:0:0:
108,358,164760,1,8,0:2:0:0:
34,290,165160,1,0,3:2:0:0:
86,205,165560,2,0,L|81:94,1,99.9999999999999,6|0,3:2|3:2,0:0:0:0:
81,59,166160,1,0,3:2:0:0:
81,59,166360,1,12,0:2:0:0:
168,9,166760,1,12,0:2:0:0:
234,83,167160,38,0,P|273:93|329:64,1,99.9999999999999,6|0,3:2|3:2,0:0:0:0:
357,29,167760,1,0,3:2:0:0:
357,29,167960,2,0,L|469:45,1,99.9999999999999,8|0,0:2|3:2,0:0:0:0:
496,134,168760,2,0,P|472:167|400:160,1,99.9999999999999,4|0,3:2|3:2,0:0:0:0:
368,155,169360,1,0,3:2:0:0:
368,155,169560,1,8,0:2:0:0:
287,214,169960,2,0,L|280:272,1,50,8|8,0:2|0:2,0:0:0:0:
265,311,170360,6,0,P|307:301|360:332,1,99.9999999999999,4|0,3:2|3:2,0:0:0:0:
402,342,170960,1,0,3:2:0:0:
402,342,171160,2,0,B|425:298|425:298|409:236,1,99.9999999999999,8|0,0:2|3:2,0:0:0:0:
371,158,171960,2,0,L|260:148,1,99.9999999999999,4|0,3:2|3:2,0:0:0:0:
229,171,172560,1,0,3:2:0:0:
229,171,172760,1,12,0:2:0:0:
159,99,173160,1,14,0:2:0:0:
94,175,173560,38,0,L|106:280,1,99.9999999999999,6|0,3:2|0:0,0:0:0:0:
120,327,174160,1,2,3:2:0:0:
120,327,174360,2,0,L|196:347,1,74.9999999999999,8|8,0:2|0:2,0:0:0:0:
273,303,174960,1,2,3:2:0:0:
273,303,175160,2,0,L|256:189,1,99.9999999999999,0|0,3:2|0:0,0:0:0:0:
228,171,175760,1,2,3:2:0:0:
228,171,175960,1,8,0:2:0:0:
265,78,176360,1,8,0:2:0:0:
345,138,176760,6,0,L|449:139,1,99.9999999999999,2|0,3:2|0:0,0:0:0:0:
490,158,177360,1,2,3:2:0:0:
490,158,177560,2,0,L|474:237,1,74.9999999999999,8|8,0:2|0:2,0:0:0:0:
439,313,178160,1,2,3:2:0:0:
439,313,178360,2,0,P|404:323|338:295,1,99.9999999999999,0|0,3:2|0:0,0:0:0:0:
260,250,179160,2,0,L|154:252,1,99.9999999999999,8|8,0:2|0:2,0:0:0:0:
114,230,179760,1,8,0:2:0:0:
114,230,179960,38,0,L|114:114,1,99.9999999999999,6|0,3:2|0:0,0:0:0:0:
124,81,180560,1,0,3:2:0:0:
124,81,180760,2,0,P|94:66|51:70,1,74.9999999999999,8|8,0:2|0:2,0:0:0:0:
0,137,181360,1,0,3:2:0:0:
0,137,181560,2,0,L|0:250,1,99.9999999999999,0|0,3:2|0:0,0:0:0:0:
28,284,182160,1,0,3:2:0:0:
28,284,182360,1,10,0:2:0:0:
114,230,182760,1,8,0:2:0:0:
185,299,183160,6,0,P|216:314|285:287,1,99.9999999999999,2|0,3:2|0:0,0:0:0:0:
313,262,183760,1,0,3:2:0:0:
313,262,183960,2,0,L|312:175,1,74.9999999999999,8|8,0:2|0:2,0:0:0:0:
247,124,184560,1,0,3:2:0:0:
247,124,184760,38,0,L|244:56,1,50,2|0,3:2|0:0,0:0:0:0:
247,23,185160,1,8,0:2:0:0:
345,3,185560,1,10,0:2:0:0:
415,73,185960,1,8,0:2:0:0:
415,73,186160,5,6,3:2:0:0:
213,228,190580,22,0,L|223:169,1,50,0|10,3:2|0:2,0:0:0:0:
231,129,190895,1,10,0:2:0:0:
159,59,191211,38,0,L|48:85,1,99.9999999999999,6|0,3:2|3:2,0:0:0:0:
25,116,191685,1,10,0:2:0:0:
80,199,192001,2,0,L|55:309,1,99.9999999999999,2|8,3:2|0:2,0:0:0:0:
59,346,192474,2,0,P|85:358|154:327,1,99.9999999999999,6|0,3:2|3:2,0:0:0:0:
173,291,192948,1,10,0:2:0:0:
263,333,193264,2,0,L|265:392,2,50,2|2|8,3:2|3:2|0:2,0:0:0:0:
293,293,193738,6,0,P|308:247|278:197,1,99.9999999999999,6|0,3:2|3:2,0:0:0:0:
241,180,194211,1,10,0:2:0:0:
275,86,194527,2,0,B|322:69|322:69|375:87,1,99.9999999999999,2|8,3:2|0:2,0:0:0:0:
419,88,195001,2,0,L|426:209,1,99.9999999999999,6|0,3:2|3:2,0:0:0:0:
445,233,195474,1,10,0:2:0:0:
368,297,195790,2,0,L|301:291,1,50,10|2,0:2|3:2,0:0:0:0:
276,275,196106,1,10,0:2:0:0:
276,275,196264,38,0,L|187:299,1,74.9999999999999,6|0,3:2|0:0,0:0:0:0:
