osu file format v14

[General]
AudioFilename: audio.mp3
AudioLeadIn: 0
PreviewTime: 308
Countdown: 0
SampleSet: Soft
StackLeniency: 0.5
Mode: 0
LetterboxInBreaks: 0
WidescreenStoryboard: 1

[Editor]
Bookmarks: 11202,21307,31412,41518,46570,51623,61728,69307,74360,84465,94570,99623,104676,122360,128760,135160,147960,160760,173560,186160,191211
DistanceSpacing: 0.8
BeatDivisor: 4
GridSize: 8
TimelineZoom: 1

[Metadata]
Title:ALONE
TitleUnicode:ALONE
Artist:Yuyoyuppe
ArtistUnicode:ゆよゆっぺ
Creator:Shirahane Suou
Version:EXPERT
Source:
Tags:osu! featured artist fa japanese rock metal vocaloid for a sick boy story of hope draw the emotional 巡音ルカ megurine luka vocaleamo
BeatmapID:2879026
BeatmapSetID:1394799

[Difficulty]
HPDrainRate:5.5
CircleSize:4.5
OverallDifficulty:9
ApproachRate:9.2
SliderMultiplier:2
SliderTickRate:1

[Events]
//Background and Video events
0,0,"80882883_p2.jpg",0,0
//Break Periods
//Storyboard Layer 0 (Background)
//Storyboard Layer 1 (Fail)
//Storyboard Layer 2 (Pass)
//Storyboard Layer 3 (Foreground)
//Storyboard Layer 4 (Overlay)
//Storyboard Sound Samples

[TimingPoints]
466,315.78947368421,4,2,1,50,1,0
1097,-133.333333333333,4,2,1,50,0,0
1255,315.78947368421,4,2,1,50,1,0
1255,-133.333333333333,4,2,1,50,0,0
11202,-111.111111111111,4,2,1,60,0,0
21307,-250,4,2,1,50,0,0
22570,-111.111111111111,4,2,1,50,0,0
23833,-250,4,2,1,50,0,0
25097,-111.111111111111,4,2,1,50,0,0
26360,-249.999999999999,4,2,1,50,0,0
27623,-111.111111111111,4,2,1,50,0,0
28886,-249.999999999999,4,2,1,50,0,0
30149,-111.111111111111,4,2,1,50,0,0
31412,-111.111111111111,4,2,1,50,0,0
31649,-111.111111111111,4,2,1,5,0,0
31728,-111.111111111111,4,2,1,50,0,0
31807,-111.111111111111,4,2,1,5,0,0
33307,-111.111111111111,4,2,1,50,0,0
34176,-111.111111111111,4,2,1,5,0,0
34254,-111.111111111111,4,2,1,50,0,0
34333,-111.111111111111,4,2,1,5,0,0
34886,-111.111111111111,4,2,1,50,0,0
36702,-111.111111111111,4,2,1,5,0,0
36781,-111.111111111111,4,2,1,50,0,0
36860,-111.111111111111,4,2,1,5,0,0
36939,-111.111111111111,4,2,1,50,0,0
39228,-111.111111111111,4,2,1,5,0,0
39307,-111.111111111111,4,2,1,50,0,0
39386,-111.111111111111,4,2,1,5,0,0
39465,-111.111111111111,4,2,1,50,0,0
41991,-90.909090909091,4,2,1,70,0,1
42623,-166.666666666667,4,2,1,70,0,1
44044,-90.909090909091,4,2,1,70,0,1
44360,-166.666666666667,4,2,1,70,0,1
45307,-90.9090909090909,4,2,1,70,0,1
46570,-111.111111111111,4,2,1,60,0,0
51623,-90.9090909090908,4,2,1,70,0,1
59676,-200,4,2,1,70,0,1
61728,-133.333333333333,4,2,1,50,0,0
69307,-133.333333333333,4,2,1,40,0,0
74360,-250,4,2,1,50,0,0
75623,-111.111111111111,4,2,1,50,0,0
76886,-250,4,2,1,50,0,0
78149,-111.111111111111,4,2,1,50,0,0
79412,-249.999999999999,4,2,1,50,0,0
80676,-111.111111111111,4,2,1,50,0,0
81939,-249.999999999999,4,2,1,50,0,0
83202,-111.111111111111,4,2,1,50,0,0
84465,-666.666666666667,4,2,1,40,0,0
88254,-222.222222222222,4,2,1,40,0,0
89518,-666.666666666667,4,2,1,40,0,0
90939,-111.111111111111,4,2,1,50,0,0
95044,-166.666666666667,4,2,1,70,0,1
97097,-90.909090909091,4,2,1,70,0,1
97412,-166.666666666667,4,2,1,70,0,1
98360,-90.909090909091,4,2,1,70,0,1
99623,-111.111111111111,4,2,1,60,0,0
104676,-90.9090909090908,4,2,1,70,0,1
112728,-200,4,2,1,70,0,1
114781,-133.333333333333,4,2,1,50,0,0
122360,400,4,2,1,40,1,0
122360,-250,4,2,1,40,0,0
128760,-166.666666666667,4,2,1,50,0,0
135160,-100,4,2,1,60,0,0
136560,-250,4,2,1,60,0,0
137560,-100,4,2,1,60,0,0
137960,-250,4,2,1,60,0,0
138360,-100,4,2,1,60,0,0
139760,-250,4,2,1,60,0,0
140760,-100,4,2,1,60,0,0
142960,-250,4,2,1,60,0,0
143960,-100,4,2,1,60,0,0
144360,-250,4,2,1,60,0,0
144760,-100,4,2,1,60,0,0
146160,-250,4,2,1,60,0,0
147160,-100,4,2,1,60,0,0
149360,-250,4,2,1,60,0,0
150360,-100,4,2,1,60,0,0
150760,-250,4,2,1,60,0,0
151160,-100,4,2,1,60,0,0
152560,-250,4,2,1,60,0,0
153560,-100,4,2,1,60,0,0
153860,-250,4,2,1,60,0,0
154360,-100,4,2,1,60,0,0
155760,-250,4,2,1,60,0,0
156760,-100,4,2,1,60,0,0
157160,-250,4,2,1,60,0,0
157560,-100,4,2,1,60,0,0
158960,-250,4,2,1,60,0,0
159960,-83.3333333333333,4,2,1,60,0,0
160160,-133.333333333333,4,2,1,60,0,0
160760,-83.3333333333333,4,2,1,70,0,1
186160,315.789473684211,4,2,1,60,1,0
186160,-153.846153846153,4,2,1,60,0,0
186317,315.789473684211,4,2,1,50,1,0
186317,-153.846153846153,4,2,1,50,0,0
191211,-111.111111111111,4,2,1,60,0,0
196501,-111.111111111111,4,2,1,5,0,0

[Colours]
Combo1 : 212,212,212
Combo2 : 190,1,1
Combo3 : 217,74,74
Combo4 : 157,157,157

[HitObjects]
390,320,466,38,0,L|398:254,1,50,0|0,3:2|3:2,0:0:0:0:
407,189,623,1,8,0:2:0:0:
279,293,781,2,0,B|305:327|305:327|319:209,1,150,0|0,3:2|0:0,0:0:0:0:
323,179,1097,6,0,B|233:165|266:218|182:209,1,150.000005722046,6|0,3:2|3:2,0:0:0:0:
122,118,1570,2,0,L|211:131,1,75.0000028610231,10|0,0:2|0:0,0:0:0:0:
287,17,1886,2,0,L|276:91,1,75.0000028610231,2|0,0:2|0:0,0:0:0:0:
201,40,2202,1,8,0:2:0:0:
323,179,2360,38,0,P|368:136|458:152,1,150.000005722046,2|0,0:2|0:0,0:0:0:0:
413,297,2833,2,0,L|399:207,1,75.0000028610231,10|0,0:2|0:0,0:0:0:0:
494,235,3149,2,0,L|505:309,1,75.0000028610231,2|0,0:2|0:0,0:0:0:0:
446,380,3465,1,8,0:2:0:0:
319,283,3623,6,0,B|261:297|261:297|244:324|244:324|174:340,1,150.000005722046,6|0,3:2|3:2,0:0:0:0:
112,231,4097,2,0,L|192:246,1,75.0000028610231,10|0,0:2|0:0,0:0:0:0:
107,311,4412,2,0,L|33:297,1,75.0000028610231,2|0,0:2|0:0,0:0:0:0:
172,160,4728,1,8,0:2:0:0:
4,67,4886,38,0,L|33:237,1,150.000005722046,6|2,3:2|3:2,0:0:0:0:
155,77,5360,2,0,P|121:61|84:65,1,75.0000028610231,10|2,0:2|0:2,0:0:0:0:
139,251,5676,2,0,P|175:255|209:239,1,75.0000028610231,6|0,3:2|0:0,0:0:0:0:
336,153,5991,1,8,0:2:0:0:
236,11,6149,6,0,L|252:172,1,150.000005722046,6|0,3:2|3:2,0:0:0:0:
367,250,6623,2,0,P|333:234|296:238,1,75.0000028610231,10|0,0:2|0:0,0:0:0:0:
280,322,6939,2,0,P|313:337|350:333,1,75.0000028610231,2|0,0:2|0:0,0:0:0:0:
438,200,7254,1,8,0:2:0:0:
512,384,7412,38,0,B|472:341|472:341|500:247,1,150.000005722046,2|0,0:2|0:0,0:0:0:0:
419,127,7886,2,0,L|441:210,1,75.0000028610231,10|0,0:2|0:0,0:0:0:0:
509,136,8202,2,0,L|489:63,1,75.0000028610231,2|0,0:2|0:0,0:0:0:0:
381,11,8518,1,8,0:2:0:0:
289,141,8676,6,0,B|199:127|232:180|144:166,1,150.000005722046,6|0,3:2|3:2,0:0:0:0:
154,15,9149,2,0,L|170:91,1,75.0000028610231,10|0,0:2|0:0,0:0:0:0:
60,183,9465,2,0,L|75:109,1,75.0000028610231,2|0,0:2|0:0,0:0:0:0:
119,252,9781,1,8,0:2:0:0:
0,335,9939,38,0,L|92:349,1,75.0000028610231,6|0,3:2|0:0,0:0:0:0:
253,365,10254,1,2,3:2:0:0:
239,367,10332,1,0,3:2:0:0:
224,370,10411,1,10,0:2:0:0:
205,345,10490,1,8,0:2:0:0:
201,315,10569,1,2,3:2:0:0:
211,286,10648,1,0,3:2:0:0:
234,265,10727,5,10,0:2:0:0:
74,346,10886,1,0,3:2:0:0:
74,346,11202,38,0,B|115:305|115:305|75:168,1,179.999994506836,6|0,3:2|3:2,0:0:0:0:
208,19,11676,2,0,L|194:120,1,89.9999972534181,10|0,0:2|0:0,0:0:0:0:
313,287,11991,1,2,3:2:0:0:
340,101,12149,1,2,3:2:0:0:
449,305,12307,1,8,0:2:0:0:
512,120,12465,6,0,B|492:10|492:10|456:-6|427:13,1,179.999994506836,6|0,3:2|3:2,0:0:0:0:
283,181,12939,2,0,L|382:198,1,89.9999972534181,10|0,0:2|0:0,0:0:0:0:
216,90,13254,1,2,3:2:0:0:
219,281,13412,1,2,3:2:0:0:
340,101,13570,1,8,0:2:0:0:
147,196,13728,38,0,B|81:228|30:169|30:169|68:162|76:154,1,179.999994506836,6|0,3:2|3:2,0:0:0:0:
219,281,14202,2,0,L|205:386,1,89.9999972534181,10|0,0:2|0:0,0:0:0:0:
283,181,14518,1,2,3:2:0:0:
119,316,14676,1,2,3:2:0:0:
170,113,14833,1,8,0:2:0:0:
323,284,14991,6,0,B|437:265|437:265|450:234|433:203,1,179.999994506836,6|2,3:2|3:2,0:0:0:0:
251,98,15465,1,10,0:2:0:0:
216,311,15623,1,2,3:2:0:0:
211,340,15701,1,0,3:2:0:0:
207,370,15780,1,10,0:2:0:0:
301,190,15939,1,2,3:2:0:0:
119,316,16097,1,8,0:2:0:0:
330,361,16254,38,0,B|399:350|399:350|434:371|434:371|511:359,1,179.999994506836,6|0,3:2|3:2,0:0:0:0:
501,167,16728,2,0,L|400:149,1,89.9999972534181,10|0,0:2|0:0,0:0:0:0:
222,37,17044,1,2,3:2:0:0:
201,236,17202,1,2,3:2:0:0:
322,82,17360,1,8,0:2:0:0:
451,285,17518,6,0,B|406:244|406:244|261:277,1,179.999994506836,6|0,3:2|3:2,0:0:0:0:
127,384,17991,2,0,L|142:287,1,89.9999972534181,10|0,0:2|0:0,0:0:0:0:
22,116,18307,1,2,3:2:0:0:
14,311,18465,1,2,3:2:0:0:
152,146,18623,1,8,0:2:0:0:
242,358,18781,38,0,L|443:328,1,179.999994506836,6|0,3:2|3:2,0:0:0:0:
509,156,19254,2,0,P|452:159|413:128,1,89.9999972534181,10|0,0:2|0:0,0:0:0:0:
280,16,19570,1,2,3:2:0:0:
347,221,19728,1,2,3:2:0:0:
491,72,19886,1,8,0:2:0:0:
281,131,20044,6,0,B|169:113|211:184|110:163,1,179.999994506836,6|2,3:2|3:2,0:0:0:0:
0,349,20518,1,10,0:2:0:0:
25,312,20596,1,8,0:2:0:0:
65,292,20675,1,2,3:2:0:0:
109,294,20754,1,0,3:2:0:0:
147,317,20834,1,2,3:2:0:0:
167,336,20912,1,0,3:2:0:0:
193,346,20991,1,0,3:2:0:0:
221,347,21070,1,0,3:2:0:0:
247,337,21149,1,8,0:2:0:0:
213,179,21307,38,0,L|203:261,1,80,6|2,3:2|3:2,0:0:0:0:
201,270,21939,1,2,3:2:0:0:
201,270,22018,1,0,3:2:0:0:
201,270,22097,1,10,0:2:0:0:
338,52,22254,1,2,3:2:0:0:
338,52,22570,6,0,B|300:87|300:87|186:68,1,134.999995880127,6|0,3:2|0:0,0:0:0:0:
189,45,22886,2,0,L|71:77,1,89.9999972534181,2|0,3:2|0:0,0:0:0:0:
17,235,23202,1,2,3:2:0:0:
17,235,23281,1,0,3:2:0:0:
17,235,23360,1,10,0:2:0:0:
160,164,23518,1,2,3:2:0:0:
6,103,23676,1,8,0:2:0:0:
116,264,23833,38,0,L|106:344,1,80,6|2,3:2|3:2,0:0:0:0:
106,361,24465,1,2,3:2:0:0:
106,361,24544,1,0,3:2:0:0:
106,361,24623,1,10,0:2:0:0:
305,194,24781,1,2,3:2:0:0:
305,194,25097,6,0,P|262:189|255:283,1,134.999995880127,6|0,3:2|0:0,0:0:0:0:
258,302,25412,2,0,L|362:281,1,89.9999972534181,2|0,3:2|0:0,0:0:0:0:
458,122,25728,1,2,3:2:0:0:
458,122,25807,1,0,3:2:0:0:
458,122,25886,1,10,0:2:0:0:
305,194,26044,1,2,3:2:0:0:
479,243,26202,1,0,0:0:0:0:
309,94,26360,38,0,L|227:113,1,80,6|2,3:2|3:2,0:0:0:0:
234,128,26991,1,2,3:2:0:0:
234,128,27070,1,0,3:2:0:0:
234,128,27149,1,10,0:2:0:0:
389,320,27307,1,2,3:2:0:0:
389,320,27623,6,0,P|334:308|273:373,1,134.999995880127,6|0,3:2|0:0,0:0:0:0:
244,380,27939,2,0,L|235:274,1,89.9999972534181,2|0,3:2|0:0,0:0:0:0:
342,97,28254,1,2,3:2:0:0:
342,97,28333,1,0,3:2:0:0:
342,97,28412,1,10,0:2:0:0:
167,175,28570,1,2,3:2:0:0:
347,229,28728,1,8,0:2:0:0:
226,80,28886,38,0,L|235:-5,1,80,6|2,3:2|3:2,0:0:0:0:
245,16,29518,1,2,3:2:0:0:
245,16,29597,1,0,3:2:0:0:
245,16,29676,1,10,0:2:0:0:
5,109,29833,1,2,3:2:0:0:
5,109,30149,6,0,B|37:141|37:141|20:238,1,134.999995880127,6|0,3:2|0:0,0:0:0:0:
18,260,30465,1,2,3:2:0:0:
134,92,30623,1,0,0:0:0:0:
206,292,30781,1,2,3:2:0:0:
206,292,30860,1,0,3:2:0:0:
206,292,30939,37,14,0:2:0:0:
245,183,31097,1,10,0:2:0:0:
284,74,31254,1,8,0:2:0:0:
153,222,31412,6,0,B|95:215|95:215|69:223|69:223|-13:210,1,134.999995880127,4|0,3:2|0:0,0:0:0:0:
2,136,31728,2,0,L|51:143,1,44.999998626709,4|0,3:2|0:0,0:0:0:0:
46,142,33307,1,0,3:2:0:0:
51,171,33385,1,0,3:2:0:0:
55,201,33464,1,8,0:2:0:0:
176,133,33623,2,0,B|207:83|168:30|168:30|163:56,1,134.999995880127,0|0,3:2|0:0,0:0:0:0:
168,147,33939,38,0,L|324:169,1,134.999995880127,4|0,3:2|0:0,0:0:0:0:
380,190,34254,2,0,L|363:262,1,44.999998626709,4|0,3:2|0:0,0:0:0:0:
370,234,34886,1,0,3:2:0:0:
375,263,34964,1,0,3:2:0:0:
379,293,35043,1,8,0:2:0:0:
494,178,35202,6,0,L|467:-8,1,179.999994506836,4|0,3:2|3:2,0:0:0:0:
302,165,35676,1,8,0:2:0:0:
496,278,35833,1,0,3:2:0:0:
369,58,35991,37,8,0:2:0:0:
249,43,36149,1,8,0:2:0:0:
129,28,36307,1,8,0:2:0:0:
167,230,36465,6,0,B|197:192|197:192|164:85,1,134.999995880127,4|0,3:2|0:0,0:0:0:0:
92,126,36781,2,0,L|111:182,1,44.999998626709,4|0,3:2|0:0,0:0:0:0:
172,315,36939,1,4,0:2:0:0:
172,315,37570,1,4,0:2:0:0:
172,315,38202,1,4,0:2:0:0:
84,274,38360,1,0,3:2:0:0:
79,303,38438,1,0,3:2:0:0:
75,333,38517,1,8,0:2:0:0:
163,205,38676,2,0,P|114:161|49:172,1,134.999995880127,0|0,3:2|0:0,0:0:0:0:
165,222,38991,38,0,L|313:206,1,134.999995880127,4|0,3:2|0:0,0:0:0:0:
340,137,39307,2,0,L|279:122,1,44.999998626709,4|0,3:2|0:0,0:0:0:0:
126,84,39465,1,4,0:2:0:0:
126,84,39940,1,0,3:2:0:0:
131,113,40018,1,0,3:2:0:0:
135,143,40097,1,8,0:2:0:0:
248,59,40254,6,0,B|201:41|201:41|232:189,1,179.999994506836,4|0,3:2|3:2,0:0:0:0:
281,384,40728,1,8,0:2:0:0:
380,255,40886,1,0,3:2:0:0:
375,284,40965,1,0,3:2:0:0:
371,314,41045,1,8,0:2:0:0:
340,281,41123,1,0,3:2:0:0:
298,266,41202,1,0,3:2:0:0:
253,269,41281,1,0,3:2:0:0:
215,291,41360,1,12,0:2:0:0:
66,159,41518,38,0,B|107:211|107:211|72:330,1,179.999994506836,4|0,3:2|3:2,0:0:0:0:
251,130,41991,22,0,B|199:104|199:104|143:123,1,110.000003356934,10|0,0:2|3:2,0:0:0:0:
167,373,42307,2,0,B|216:389|216:389|268:363,1,110.000003356934,2|0,3:2|3:2,0:0:0:0:
389,275,42623,2,0,L|349:268,1,29.9999990844727,10|0,0:2|0:0,0:0:0:0:
275,249,42781,2,0,L|237:242,1,29.9999990844727,2|0,0:2|0:0,0:0:0:0:
161,219,42939,2,0,L|125:212,1,29.9999990844727,2|0,3:2|0:0,0:0:0:0:
49,198,43097,2,0,P|25:155|48:105,1,89.9999972534181,2|0,3:2|0:0,0:0:0:0:
111,61,43412,6,0,L|150:69,1,29.9999990844727,2|0,3:2|0:0,0:0:0:0:
216,9,43570,2,0,L|253:16,1,29.9999990844727,2|0,3:2|0:0,0:0:0:0:
301,89,43728,2,0,L|337:96,1,29.9999990844727,2|0,3:2|0:0,0:0:0:0:
396,19,43886,2,0,L|434:28,1,29.9999990844727,10|0,0:2|0:0,0:0:0:0:
510,135,44044,38,0,B|475:92|423:110|423:110|418:159|344:183,1,165.000005035401,6|0,3:2|0:0,0:0:0:0:
167,137,44360,6,0,L|207:146,1,29.9999990844727,2|0,3:2|0:0,0:0:0:0:
293,187,44518,2,0,P|318:218|311:266,1,89.9999972534181,10|0,0:2|0:2,0:0:0:0:
441,307,44833,2,0,L|421:276,1,29.9999990844727,2|0,3:2|0:0,0:0:0:0:
359,369,44991,2,0,L|357:332,1,29.9999990844727,2|0,3:2|0:0,0:0:0:0:
258,383,45149,2,0,L|274:350,1,29.9999990844727,10|0,0:2|0:0,0:0:0:0:
197,291,45307,38,0,B|231:246|231:246|183:105,1,165.000005035401,6|0,3:2|0:0,0:0:0:0:
181,110,45623,1,2,3:2:0:0:
0,208,45781,1,8,0:2:0:0:
31,213,45859,1,8,0:2:0:0:
63,219,45938,1,2,3:2:0:0:
95,225,46017,1,0,3:2:0:0:
127,231,46096,1,10,0:2:0:0:
253,44,46254,1,0,3:2:0:0:
61,119,46412,1,8,0:2:0:0:
254,218,46570,22,0,B|320:205|320:205|355:219|355:219|447:201,1,179.999994506836,4|0,3:2|3:2,0:0:0:0:
320,384,47044,2,0,L|303:283,1,89.9999972534181,10|0,0:2|0:0,0:0:0:0:
376,126,47360,1,2,3:2:0:0:
485,279,47518,2,0,P|443:301|386:287,1,89.9999972534181,2|8,3:2|0:2,0:0:0:0:
259,122,47833,6,0,B|213:47|283:-1|283:-1|291:34,1,179.999994506836,2|2,0:2|3:2,0:0:0:0:
354,219,48307,1,8,0:2:0:0:
186,167,48465,1,2,0:2:0:0:
179,354,48623,2,0,L|303:328,1,89.9999972534181,2|0,3:2|3:2,0:0:0:0:
124,248,48939,1,10,0:2:0:0:
0,384,49097,38,0,B|44:342|44:342|22:213,1,179.999994506836,6|0,3:2|3:2,0:0:0:0:
141,42,49570,1,10,0:2:0:0:
0,99,49728,1,2,0:2:0:0:
186,161,49886,2,0,L|290:144,1,89.9999972534181,2|0,3:2|3:2,0:0:0:0:
402,3,50202,1,10,0:2:0:0:
486,212,50360,6,0,P|433:221|445:128,1,179.999994506836,6|2,3:2|3:2,0:0:0:0:
498,320,50833,1,8,0:2:0:0:
466,331,50911,1,8,0:2:0:0:
432,333,50990,1,2,3:2:0:0:
400,324,51069,1,0,3:2:0:0:
372,305,51148,1,8,0:2:0:0:
484,46,51307,1,2,3:2:0:0:
484,46,51623,6,0,B|385:18|418:79|324:50,1,165.000005035401,6|0,3:2|0:0,0:0:0:0:
290,27,51939,1,0,3:2:0:0:
58,157,52097,2,0,L|168:194,1,110.000003356934,8|0,0:2|0:0,0:0:0:0:
279,358,52412,1,0,3:2:0:0:
249,113,52570,1,0,3:2:0:0:
130,299,52728,1,10,0:2:0:0:
393,384,52886,6,0,L|363:215,1,165.000005035401,6|0,3:2|0:0,0:0:0:0:
358,189,53202,1,0,3:2:0:0:
487,15,53360,2,0,P|442:52|375:30,1,110.000003356934,8|0,0:2|0:0,0:0:0:0:
155,21,53676,1,0,3:2:0:0:
231,231,53833,1,0,3:2:0:0:
299,0,53991,1,10,0:2:0:0:
97,158,54149,38,0,L|129:345,1,165.000005035401,6|0,3:2|0:0,0:0:0:0:
134,364,54465,1,0,3:2:0:0:
359,237,54623,2,0,L|333:379,1,110.000003356934,8|0,0:2|0:0,0:0:0:0:
253,103,54939,1,0,3:2:0:0:
486,232,55097,1,2,3:2:0:0:
391,9,55254,1,10,0:2:0:0:
219,216,55412,6,0,L|43:193,1,165.000005035401,6|0,3:2|0:0,0:0:0:0:
15,192,55728,1,2,3:2:0:0:
181,13,55886,1,8,0:2:0:0:
323,187,56044,1,2,3:2:0:0:
318,223,56122,1,0,3:2:0:0:
313,259,56201,1,8,0:2:0:0:
162,110,56360,1,2,3:2:0:0:
128,345,56518,1,8,0:2:0:0:
267,102,56676,38,0,P|343:87|421:169,1,165.000005035401,6|0,3:2|0:0,0:0:0:0:
418,172,56991,1,0,3:2:0:0:
192,267,57149,2,0,L|62:252,1,110.000003356934,8|0,0:2|0:0,0:0:0:0:
197,24,57465,1,0,3:2:0:0:
318,223,57623,1,0,3:2:0:0:
119,127,57781,1,10,0:2:0:0:
317,12,57939,6,0,L|493:41,1,165.000005035401,6|0,3:2|0:0,0:0:0:0:
512,52,58254,1,0,3:2:0:0:
442,271,58412,2,0,P|412:225|417:171,1,110.000003356934,8|0,0:2|0:0,0:0:0:0:
512,365,58728,1,0,3:2:0:0:
301,266,58886,1,2,3:2:0:0:
512,199,59044,1,8,0:2:0:0:
364,384,59202,38,0,L|171:353,1,165.000005035401,6|0,3:2|0:0,0:0:0:0:
174,335,59518,1,0,3:2:0:0:
100,22,59676,6,0,L|155:31,1,50,8|0,0:2|0:0,0:0:0:0:
412,22,59991,2,0,L|357:31,1,50,0|0,3:2|0:0,0:0:0:0:
100,241,60307,2,0,L|155:250,1,50,10|0,0:2|0:0,0:0:0:0:
412,241,60623,2,0,L|357:250,1,50,2|0,3:2|0:0,0:0:0:0:
88,141,60939,37,10,0:2:0:0:
187,332,61097,1,2,3:2:0:0:
324,151,61254,1,8,0:2:0:0:
285,130,61332,1,0,3:2:0:0:
242,127,61411,1,2,3:2:0:0:
202,142,61490,1,0,3:2:0:0:
172,174,61569,1,8,0:2:0:0:
270,290,61728,22,0,L|258:208,1,75.0000028610231,6|0,3:2|0:0,0:0:0:0:
187,332,62044,2,0,L|175:250,1,75.0000028610231,0|0,3:2|0:0,0:0:0:0:
0,93,62360,1,0,3:2:0:0:
3,117,62438,1,0,3:2:0:0:
7,142,62518,2,0,P|92:150|116:89,1,150.000005722046,10|0,0:2|0:0,0:0:0:0:
306,139,62991,6,0,P|234:125|177:170,1,150.000005722046,6|2,3:2|3:2,0:0:0:0:
259,216,63465,1,2,0:2:0:0:
439,31,63623,1,0,3:2:0:0:
436,55,63702,1,0,3:2:0:0:
432,80,63781,37,10,0:2:0:0:
413,197,63939,1,8,0:2:0:0:
394,314,64096,1,10,0:2:0:0:
259,216,64254,6,0,L|341:204,1,75.0000028610231,6|0,3:2|0:0,0:0:0:0:
227,306,64570,2,0,L|309:294,1,75.0000028610231,0|0,3:2|0:0,0:0:0:0:
184,120,64886,1,0,3:2:0:0:
181,144,64965,1,0,3:2:0:0:
177,169,65044,2,0,P|127:226|52:217,1,150.000005722046,10|0,0:2|0:0,0:0:0:0:
156,25,65518,38,0,B|240:10|214:67|299:45,1,150.000005722046,6|2,3:2|3:2,0:0:0:0:
448,152,65991,1,0,0:0:0:0:
378,56,66149,1,0,3:2:0:0:
375,80,66228,1,0,3:2:0:0:
371,105,66307,1,10,0:2:0:0:
462,5,66465,1,0,3:2:0:0:
465,29,66544,1,0,3:2:0:0:
469,54,66623,1,10,0:2:0:0:
282,129,66781,6,0,L|192:117,1,75.0000028610231,6|0,3:2|0:0,0:0:0:0:
71,59,67097,2,0,L|83:149,1,75.0000028610231,0|0,3:2|0:0,0:0:0:0:
182,330,67412,1,0,3:2:0:0:
186,305,67491,1,0,3:2:0:0:
189,281,67570,1,8,0:2:0:0:
40,218,67728,1,0,3:2:0:0:
84,362,67886,1,10,0:2:0:0:
144,209,68044,38,0,P|184:196|272:262,1,150.000005722046,4|0,3:2|3:2,0:0:0:0:
413,355,68518,1,8,0:2:0:0:
382,334,68596,1,0,3:2:0:0:
364,301,68675,1,0,3:2:0:0:
364,264,68754,1,0,3:2:0:0:
382,231,68833,1,10,0:2:0:0:
182,330,68991,1,0,3:2:0:0:
336,81,69307,5,6,3:2:0:0:
336,81,69623,1,0,0:0:0:0:
196,22,69781,1,2,0:2:0:0:
196,22,70412,1,2,0:2:0:0:
196,22,71044,1,2,0:2:0:0:
196,22,71676,1,2,0:2:0:0:
196,22,72307,1,2,0:2:0:0:
196,22,72939,1,2,0:2:0:0:
196,22,73412,1,2,3:2:0:0:
200,47,73491,1,0,3:2:0:0:
202,72,73570,38,0,L|221:102,2,25.0000009536744,10|0|0,0:2|3:2|3:2,0:0:0:0:
143,130,73728,2,0,L|144:165,2,25.0000009536744,2|0|0,3:2|3:2|3:2,0:0:0:0:
76,82,73886,5,10,0:2:0:0:
345,158,74044,1,10,0:2:0:0:
345,158,74360,38,0,L|333:244,1,80,6|2,3:2|3:2,0:0:0:0:
341,249,74991,1,2,3:2:0:0:
341,249,75070,1,0,3:2:0:0:
341,249,75149,1,10,0:2:0:0:
114,354,75307,1,2,3:2:0:0:
114,354,75623,6,0,B|149:316|149:316|114:212,1,134.999995880127,6|0,3:2|0:0,0:0:0:0:
115,199,75939,2,0,L|24:226,1,89.9999972534181,2|0,3:2|0:0,0:0:0:0:
226,264,76254,1,2,3:2:0:0:
226,264,76333,1,0,3:2:0:0:
226,264,76412,1,10,0:2:0:0:
122,106,76570,1,2,3:2:0:0:
53,308,76728,1,8,0:2:0:0:
217,166,76886,38,0,L|307:176,1,80,6|2,3:2|3:2,0:0:0:0:
310,187,77518,1,2,3:2:0:0:
310,187,77597,1,0,3:2:0:0:
310,187,77676,1,10,0:2:0:0:
463,9,77833,1,2,3:2:0:0:
463,9,78149,6,0,P|428:53|342:36,1,134.999995880127,6|0,3:2|0:0,0:0:0:0:
326,16,78465,2,0,L|312:112,1,89.9999972534181,2|0,3:2|0:0,0:0:0:0:
291,316,78781,1,2,3:2:0:0:
291,316,78860,1,0,3:2:0:0:
291,316,78939,1,10,0:2:0:0:
214,114,79097,1,2,3:2:0:0:
371,242,79254,1,0,0:0:0:0:
191,217,79412,38,0,L|283:197,1,80,6|2,3:2|3:2,0:0:0:0:
286,213,80044,1,2,3:2:0:0:
286,213,80123,1,0,3:2:0:0:
286,213,80202,1,10,0:2:0:0:
64,350,80360,1,2,3:2:0:0:
64,350,80676,6,0,B|95:316|95:316|68:216,1,134.999995880127,6|0,3:2|0:0,0:0:0:0:
50,202,80991,2,0,L|65:98,1,89.9999972534181,2|0,3:2|0:0,0:0:0:0:
224,22,81307,1,2,3:2:0:0:
224,22,81386,1,0,3:2:0:0:
224,22,81465,1,10,0:2:0:0:
143,188,81623,1,2,3:2:0:0:
61,16,81781,1,8,0:2:0:0:
257,127,81939,38,0,L|272:212,1,80,6|2,3:2|3:2,0:0:0:0:
272,221,82570,1,2,3:2:0:0:
272,221,82649,1,0,3:2:0:0:
272,221,82728,1,10,0:2:0:0:
27,331,82886,1,2,3:2:0:0:
27,331,83202,6,0,P|61:362|176:315,1,179.999994506836,6|2,3:2|3:2,0:0:0:0:
339,275,83676,1,0,0:0:0:0:
270,369,83833,1,2,3:2:0:0:
270,369,83912,1,0,3:2:0:0:
270,369,83991,37,14,0:2:0:0:
234,256,84149,1,10,0:2:0:0:
199,143,84307,1,8,0:2:0:0:
360,31,84465,6,0,B|384:61|424:60|424:60|336:141|375:227|424:245|457:229|462:178|441:150|415:171,1,344.999989471436,4|0,3:2|0:0,0:0:0:0:
340,272,88254,38,0,B|238:251|276:323|169:298,1,179.999994506836,0|0,3:2|0:0,0:0:0:0:
48,192,89044,1,4,3:2:0:0:
207,210,89202,1,8,0:2:0:0:
66,308,89360,1,8,0:2:0:0:
140,138,89518,6,0,L|121:16,1,119.999996337891,4|0,3:2|0:0,0:0:0:0:
228,119,90939,37,8,0:3:0:0:
285,47,91176,5,8,0:3:0:0:
358,55,91412,37,8,0:3:0:0:
390,90,91649,5,8,0:3:0:0:
391,114,91886,37,8,0:3:0:0:
259,242,92044,2,0,B|369:216|369:216|381:253|409:268,1,179.999994506836,4|0,3:2|3:2,0:0:0:0:
228,119,92518,1,8,0:2:0:0:
75,302,92676,1,0,3:2:0:0:
97,306,92754,1,0,3:2:0:0:
119,311,92834,1,8,0:2:0:0:
152,280,92912,1,0,3:2:0:0:
164,237,92991,1,0,3:2:0:0:
151,195,93070,1,0,3:2:0:0:
118,165,93149,1,8,0:2:0:0:
235,342,93307,6,0,B|275:380|275:380|402:350,1,179.999994506836,4|0,3:2|3:2,0:0:0:0:
511,154,93781,1,8,0:2:0:0:
302,280,93939,1,0,3:2:0:0:
407,71,94097,1,8,0:2:0:0:
512,269,94254,1,0,3:2:0:0:
507,298,94332,1,0,3:2:0:0:
503,328,94411,1,8,0:2:0:0:
292,178,94570,38,0,L|319:-5,1,179.999994506836,4|0,3:2|3:2,0:0:0:0:
178,0,95044,22,0,L|186:33,1,29.9999990844727,10|0,0:2|0:0,0:0:0:0:
120,93,95202,2,0,L|130:130,1,29.9999990844727,2|0,3:2|0:0,0:0:0:0:
72,183,95360,2,0,L|81:216,1,29.9999990844727,2|0,3:2|0:0,0:0:0:0:
180,227,95518,2,0,L|171:258,1,29.9999990844727,2|0,3:2|0:0,0:0:0:0:
262,261,95676,2,0,L|252:295,1,29.9999990844727,10|0,0:2|0:0,0:0:0:0:
346,293,95833,2,0,L|336:330,1,29.9999990844727,2|0,0:2|0:0,0:0:0:0:
437,290,95991,6,0,L|426:247,1,29.9999990844727,2|0,3:2|0:0,0:0:0:0:
478,190,96149,2,0,L|444:170,1,29.9999990844727,2|0,3:2|0:0,0:0:0:0:
447,85,96307,2,0,L|412:94,1,29.9999990844727,10|0,0:2|0:0,0:0:0:0:
343,32,96465,2,0,L|325:62,1,29.9999990844727,2|0,3:2|0:0,0:0:0:0:
338,146,96623,2,0,L|317:183,1,29.9999990844727,2|0,3:2|0:0,0:0:0:0:
237,185,96781,2,0,L|218:220,1,29.9999990844727,2|0,3:2|0:0,0:0:0:0:
254,290,96939,2,0,L|228:336,1,29.9999990844727,10|0,0:2|0:0,0:0:0:0:
93,336,97097,38,0,B|133:291|133:291|98:161,1,165.000005035401,6|0,3:2|0:0,0:0:0:0:
0,163,97412,6,0,L|46:150,1,29.9999990844727,2|0,3:2|0:0,0:0:0:0:
97,96,97570,2,0,L|135:106,1,29.9999990844727,10|0,0:2|0:0,0:0:0:0:
186,40,97728,2,0,L|217:71,1,29.9999990844727,2|0,3:2|0:0,0:0:0:0:
292,22,97886,2,0,L|303:59,1,29.9999990844727,2|0,3:2|0:3,0:3:0:0:
394,46,98044,2,0,L|384:86,1,29.9999990844727,2|0,3:2|0:0,0:0:0:0:
474,122,98202,2,0,L|446:149,1,29.9999990844727,10|0,0:2|0:0,0:0:0:0:
358,322,98360,38,0,B|394:269|394:269|349:150,1,165.000005035401,6|0,3:2|0:0,0:0:0:0:
343,139,98676,1,2,3:2:0:0:
269,358,98833,1,10,0:2:0:0:
476,261,98991,1,2,3:2:0:0:
261,153,99149,5,10,0:2:0:0:
131,195,99307,1,10,0:2:0:0:
1,237,99465,1,8,0:2:0:0:
82,59,99623,6,0,B|177:23|152:107|253:56,1,179.999994506836,4|0,3:2|3:2,0:0:0:0:
427,128,100097,2,0,P|372:123|331:153,1,89.9999972534181,10|0,0:2|0:0,0:0:0:0:
285,311,100412,1,2,3:2:0:0:
136,213,100570,2,0,L|247:200,1,89.9999972534181,2|8,3:2|0:2,0:0:0:0:
432,300,100886,6,0,B|481:329|481:329|463:197,1,179.999994506836,2|2,0:2|3:2,0:0:0:0:
367,15,101360,1,8,0:2:0:0:
512,64,101518,1,2,0:2:0:0:
364,120,101676,2,0,L|263:107,1,89.9999972534181,2|0,3:2|3:2,0:0:0:0:
115,15,101991,1,10,0:2:0:0:
161,238,102149,38,0,L|195:30,1,179.999994506836,6|0,3:2|3:2,0:0:0:0:
83,219,102623,1,10,0:2:0:0:
238,271,102781,1,2,0:2:0:0:
94,134,102939,2,0,L|4:145,1,89.9999972534181,2|0,3:2|3:2,0:0:0:0:
119,305,103254,1,10,0:2:0:0:
245,136,103412,6,0,B|337:110|314:181|418:144,1,179.999994506836,6|2,3:2|3:2,0:0:0:0:
225,27,103886,1,8,0:2:0:0:
283,229,104044,1,2,3:2:0:0:
372,59,104202,1,8,0:2:0:0:
407,47,104280,1,8,0:2:0:0:
444,49,104359,1,10,0:2:0:0:
477,66,104438,1,8,0:2:0:0:
501,95,104517,1,8,0:2:0:0:
512,131,104596,1,8,0:2:0:0:
508,168,104676,6,0,B|464:212|464:212|497:334,1,165.000005035401,6|0,3:2|0:0,0:0:0:0:
504,347,104992,1,0,3:2:0:0:
358,171,105149,2,0,P|293:156|243:178,1,110.000003356934,8|0,0:2|0:0,0:0:0:0:
63,301,105465,1,0,3:2:0:0:
147,88,105623,1,0,3:2:0:0:
250,306,105781,1,10,0:2:0:0:
9,199,105939,6,0,L|36:37,1,165.000005035401,6|0,3:2|0:0,0:0:0:0:
51,0,106254,1,0,3:2:0:0:
254,170,106412,2,0,L|134:190,1,110.000003356934,8|0,0:2|0:0,0:0:0:0:
331,56,106728,1,0,3:2:0:0:
232,283,106886,1,0,3:2:0:0:
177,47,107044,1,10,0:2:0:0:
383,187,107202,38,0,P|451:203|514:127,1,165.000005035401,6|0,3:2|0:0,0:0:0:0:
511,104,107518,1,0,3:2:0:0:
340,303,107676,2,0,L|223:281,1,110.000003356934,8|0,0:2|0:0,0:0:0:0:
24,171,107991,1,0,3:2:0:0:
252,140,108149,1,2,3:2:0:0:
79,322,108307,1,10,0:2:0:0:
0,68,108465,6,0,P|79:63|127:127,1,165.000005035401,6|0,3:2|0:0,0:0:0:0:
119,163,108781,1,2,3:2:0:0:
304,0,108939,1,8,0:2:0:0:
378,244,109097,1,2,3:2:0:0:
373,280,109175,1,0,3:2:0:0:
368,316,109254,1,8,0:2:0:0:
252,140,109412,1,2,3:2:0:0:
500,221,109570,1,8,0:2:0:0:
251,342,109728,38,0,B|154:320|185:385|91:354,1,165.000005035401,6|0,3:2|0:0,0:0:0:0:
62,333,110044,1,0,3:2:0:0:
252,140,110202,2,0,P|285:186|269:250,1,110.000003356934,8|0,0:2|0:0,0:0:0:0:
64,89,110518,1,0,3:2:0:0:
276,30,110676,1,0,3:2:0:0:
135,218,110833,1,10,0:2:0:0:
322,312,110991,6,0,L|497:295,1,165.000005035401,6|0,3:2|0:0,0:0:0:0:
512,270,111307,1,0,3:2:0:0:
349,78,111465,2,0,L|332:207,1,110.000003356934,8|0,0:2|0:0,0:0:0:0:
427,384,111781,1,0,3:2:0:0:
465,136,111939,1,2,3:2:0:0:
322,312,112097,1,8,0:2:0:0:
178,70,112254,38,0,B|226:44|226:44|212:158,1,165.000005035401,6|0,3:2|0:0,0:0:0:0:
204,187,112570,1,0,3:2:0:0:
34,34,112728,6,0,L|47:90,1,50,8|0,0:2|0:0,0:0:0:0:
34,350,113044,2,0,L|47:294,1,50,0|0,3:2|0:0,0:0:0:0:
306,350,113361,2,0,L|293:294,1,50,10|0,0:2|0:0,0:0:0:0:
306,34,113676,2,0,L|293:90,1,50,2|0,3:2|0:0,0:0:0:0:
182,341,113991,37,10,0:2:0:0:
352,210,114149,1,2,3:2:0:0:
205,17,114307,1,8,0:2:0:0:
184,56,114385,1,0,3:2:0:0:
181,99,114464,1,2,3:2:0:0:
196,139,114543,1,0,3:2:0:0:
228,169,114622,1,8,0:2:0:0:
404,35,114781,22,0,L|482:47,1,75.0000028610231,6|0,3:2|0:0,0:0:0:0:
369,122,115097,2,0,L|447:134,1,75.0000028610231,0|0,3:2|0:0,0:0:0:0:
497,361,115412,1,0,3:2:0:0:
501,336,115491,1,0,3:2:0:0:
504,312,115570,2,0,P|447:265|375:278,1,150.000005722046,10|0,0:2|0:0,0:0:0:0:
215,366,116044,6,0,B|249:326|249:326|213:221,1,150.000005722046,6|2,3:2|3:2,0:0:0:0:
163,308,116518,1,2,0:2:0:0:
263,101,116676,1,0,3:2:0:0:
268,124,116755,1,0,3:2:0:0:
275,148,116834,37,10,0:2:0:0:
308,259,116992,1,8,0:2:0:0:
341,370,117149,1,10,0:2:0:0:
218,234,117307,6,0,P|178:220|129:235,1,75.0000028610231,6|0,3:2|0:0,0:0:0:0:
50,300,117623,2,0,P|63:260|48:211,1,75.0000028610231,0|0,3:2|0:0,0:0:0:0:
191,63,117939,1,0,3:2:0:0:
193,86,118018,1,0,3:2:0:0:
198,110,118097,2,0,P|152:137|58:95,1,150.000005722046,10|0,0:2|0:0,0:0:0:0:
271,14,118570,38,0,B|324:25|324:25|344:51|344:51|416:68,1,150.000005722046,6|2,3:2|3:2,0:0:0:0:
279,100,119044,1,0,0:0:0:0:
418,282,119202,1,0,3:2:0:0:
415,305,119281,1,0,3:2:0:0:
410,330,119360,1,10,0:2:0:0:
252,219,119518,1,0,3:2:0:0:
255,242,119597,1,0,3:2:0:0:
260,267,119676,1,10,0:2:0:0:
461,190,119833,6,0,L|377:176,1,75.0000028610231,6|0,3:2|0:0,0:0:0:0:
279,100,120149,2,0,L|363:86,1,75.0000028610231,0|0,3:2|0:0,0:0:0:0:
161,13,120465,1,0,3:2:0:0:
158,36,120544,1,0,3:2:0:0:
153,61,120623,1,8,0:2:0:0:
8,238,120781,1,0,3:2:0:0:
30,39,120939,1,10,0:2:0:0:
156,207,121097,38,0,B|215:195|215:195|243:212|243:212|300:201,1,150.000005722046,4|0,3:2|3:2,0:0:0:0:
293,0,121570,1,8,0:2:0:0:
261,20,121648,1,0,3:2:0:0:
244,52,121727,1,0,3:2:0:0:
243,90,121806,1,0,3:2:0:0:
260,122,121885,5,10,0:2:0:0:
468,0,122044,1,0,3:2:0:0:
400,241,122360,38,0,B|426:154|357:176|389:87,3,160,6|4|4|4,3:2|0:2|0:2|0:2,0:0:0:0:
112,241,125560,2,0,B|86:154|155:176|122:87,2,160,4|4|4,0:2|0:2|0:2,0:0:0:0:
280,224,127760,5,0,3:2:0:0:
266,221,127826,1,0,3:2:0:0:
254,218,127893,1,0,3:2:0:0:
241,217,127960,1,12,0:2:0:0:
329,120,128160,37,0,3:2:0:0:
315,122,128226,1,0,3:2:0:0:
302,125,128293,1,0,3:2:0:0:
289,127,128360,1,12,0:2:0:0:
129,68,128560,1,4,3:2:0:0:
222,0,128760,6,0,P|211:59|202:118,1,119.999996337891,4|0,3:2|0:0,0:0:0:0:
66,225,129360,1,0,3:2:0:0:
225,229,129560,2,0,P|186:219|152:232,1,59.9999981689454,12|0,0:2|0:0,0:0:0:0:
135,287,129860,2,0,P|163:258|168:222,1,59.9999981689454,8|0,0:2|0:0,0:0:0:0:
129,159,130160,1,0,3:2:0:0:
333,177,130360,38,0,P|322:236|313:295,1,119.999996337891,4|0,3:2|0:0,0:0:0:0:
414,227,130960,1,0,3:2:0:0:
409,370,131160,2,0,P|402:340|394:311,1,59.9999981689454,12|0,0:2|0:0,0:0:0:0:
506,213,131560,2,0,P|498:242|491:271,1,59.9999981689454,0|0,3:2|0:0,0:0:0:0:
322,380,131960,6,0,P|262:369|203:360,1,119.999996337891,4|0,3:2|0:0,0:0:0:0:
112,288,132560,1,0,3:2:0:0:
223,234,132760,2,0,P|233:200|223:172,1,59.9999981689454,12|0,0:2|0:0,0:0:0:0:
216,108,133060,2,0,P|206:142|216:170,1,59.9999981689454,8|0,0:2|0:0,0:0:0:0:
218,248,133360,1,0,3:2:0:0:
360,150,133560,38,0,L|290:138,1,59.9999981689454,4|0,3:2|0:0,0:0:0:0:
204,2,133960,1,8,0:2:0:0:
125,175,134160,5,0,3:2:0:0:
128,189,134226,1,0,3:2:0:0:
131,201,134293,1,0,3:2:0:0:
133,214,134360,37,8,0:2:0:0:
322,35,134560,1,8,0:2:0:0:
322,35,135160,5,6,3:2:0:0:
240,205,135360,2,0,P|280:165|375:189,1,150,2|0,3:2|0:0,0:0:0:0:
375,336,135760,1,2,3:2:0:0:
350,332,135860,1,2,3:2:0:0:
325,329,135960,2,0,B|296:286|296:286|316:222,1,100,10|0,0:2|0:0,0:0:0:0:
427,117,136260,2,0,B|455:159|455:159|435:223,1,100,2|0,3:2|0:0,0:0:0:0:
326,85,136560,38,0,L|333:23,1,60,2|0,3:2|0:0,0:0:0:0:
313,89,136960,2,0,L|320:27,1,60,2|0,3:2|0:0,0:0:0:0:
128,92,137360,1,2,3:2:0:0:
132,67,137460,1,2,3:2:0:0:
135,42,137560,6,0,B|181:30|181:30|233:67,1,100,10|0,0:2|3:2,0:0:0:0:
441,206,137960,38,0,L|371:215,1,60,10|0,0:2|0:0,0:0:0:0:
302,221,138360,5,6,3:2:0:0:
471,312,138560,2,0,L|288:335,1,150,2|0,3:2|0:0,0:0:0:0:
175,355,138960,1,2,3:2:0:0:
198,364,139060,1,2,3:2:0:0:
221,373,139160,2,0,B|243:327|243:327|222:263,1,100,10|0,0:2|0:0,0:0:0:0:
127,189,139460,2,0,B|173:211|173:211|237:190,1,100,2|0,3:2|0:0,0:0:0:0:
189,62,139760,38,0,L|180:133,1,60,2|0,3:2|0:0,0:0:0:0:
197,54,140160,2,0,L|188:125,1,60,2|0,3:2|0:0,0:0:0:0:
45,254,140560,1,2,3:2:0:0:
40,229,140660,1,2,3:2:0:0:
35,205,140760,6,0,B|78:179|78:179|132:190,1,100,10|0,0:2|0:0,0:0:0:0:
233,188,141060,2,0,B|190:214|190:214|136:203,1,100,2|0,3:2|0:0,0:0:0:0:
281,107,141360,2,0,L|353:121,1,50,2|0,3:2|0:0,0:0:0:0:
423,140,141560,37,6,3:2:0:0:
329,296,141760,2,0,P|326:235|374:272,1,150,2|0,3:2|0:0,0:0:0:0:
259,349,142160,1,2,3:2:0:0:
234,344,142260,1,2,3:2:0:0:
209,340,142360,2,0,L|97:321,1,100,10|0,0:2|0:0,0:0:0:0:
12,333,142660,2,0,B|60:337|60:337|104:310,1,100,2|0,3:2|0:0,0:0:0:0:
52,192,142960,6,0,L|46:259,1,60,2|0,3:2|0:0,0:0:0:0:
62,186,143360,2,0,L|56:253,1,60,2|0,3:2|0:0,0:0:0:0:
143,163,143760,1,2,3:2:0:0:
132,139,143860,1,2,3:2:0:0:
122,116,143960,38,0,B|81:93|81:93|21:104,1,100,10|0,0:2|3:2,0:0:0:0:
230,271,144360,6,0,L|300:257,1,60,10|0,0:2|0:0,0:0:0:0:
379,248,144760,37,6,3:2:0:0:
339,91,144960,2,0,B|299:77|299:77|327:183,1,150,2|0,3:2|0:0,0:0:0:0:
488,206,145360,1,2,3:2:0:0:
488,181,145460,1,2,3:2:0:0:
489,156,145560,2,0,B|446:131|446:131|396:154,1,100,10|0,0:2|0:0,0:0:0:0:
343,2,145860,2,0,B|318:45|318:45|341:95,1,100,2|0,3:2|0:0,0:0:0:0:
270,175,146160,6,0,P|292:185|336:176,1,60,2|0,3:2|0:0,0:0:0:0:
267,184,146560,2,0,P|289:194|333:185,1,60,2|0,3:2|0:0,0:0:0:0:
245,89,146960,1,2,3:2:0:0:
221,96,147060,1,2,3:2:0:0:
197,104,147160,38,0,B|157:116|157:116|151:124|151:124|98:135,1,100,10|0,0:2|0:0,0:0:0:0:
2,113,147460,2,0,B|50:102|50:102|104:128,1,100,2|0,3:2|0:0,0:0:0:0:
48,239,147760,2,0,L|37:184,1,50,2|0,3:2|0:0,0:0:0:0:
207,145,147960,5,6,3:2:0:0:
196,193,148060,1,2,3:2:0:0:
132,240,148160,1,2,3:2:0:0:
122,289,148260,1,2,3:2:0:0:
173,344,148360,2,0,P|122:366|48:300,1,150,2|0,3:2|0:0,0:0:0:0:
198,272,148760,2,0,L|317:290,1,100,10|0,0:2|0:0,0:0:0:0:
403,286,149060,2,0,L|304:300,1,100,2|0,3:2|0:0,0:0:0:0:
219,190,149360,38,0,L|278:199,1,60,2|0,3:2|0:0,0:0:0:0:
212,179,149760,2,0,L|271:188,1,60,2|0,3:2|0:0,0:0:0:0:
395,78,150160,1,2,3:2:0:0:
365,65,150260,1,2,3:2:0:0:
336,80,150360,6,0,L|351:153,1,50,10|0,0:2|0:0,0:0:0:0:
364,213,150560,1,0,3:2:0:0:
491,65,150760,38,0,L|476:138,1,60,10|0,0:2|0:0,0:0:0:0:
446,202,151160,5,6,3:2:0:0:
457,250,151260,1,2,3:2:0:0:
512,297,151360,1,2,3:2:0:0:
501,345,151460,1,2,3:2:0:0:
431,380,151560,2,0,B|396:376|366:348|366:348|334:375|265:375,1,150,2|0,3:2|0:0,0:0:0:0:
301,212,151960,2,0,B|320:205|320:205|301:283,1,100,10|0,0:2|0:0,0:0:0:0:
207,360,152260,2,0,B|188:367|188:367|207:289,1,100,2|0,3:2|0:0,0:0:0:0:
143,189,152560,38,0,L|211:199,1,60,2|0,3:2|0:0,0:0:0:0:
139,181,152960,2,0,L|207:191,1,60,2|0,3:2|0:0,0:0:0:0:
65,164,153360,1,2,3:2:0:0:
71,139,153460,1,2,3:2:0:0:
77,115,153560,6,0,B|119:91|119:91|182:105,1,100,10|0,0:2|0:0,0:0:0:0:
289,26,153860,38,0,P|297:53|287:81,1,40,2|0,3:2|0:0,0:0:0:0:
291,79,154160,2,0,L|314:79,1,20,2|0,3:2|0:0,0:0:0:0:
220,12,154360,5,6,3:2:0:0:
172,1,154460,1,2,3:2:0:0:
110,49,154560,1,2,3:2:0:0:
62,38,154660,1,2,3:2:0:0:
1,0,154760,2,0,B|32:49|32:49|-4:144,1,150,2|0,3:2|0:0,0:0:0:0:
139,223,155160,2,0,B|91:240|91:240|27:220,1,100,10|0,0:2|0:0,0:0:0:0:
95,146,155460,2,0,B|143:129|143:129|207:149,1,100,2|0,3:2|0:0,0:0:0:0:
227,280,155760,38,0,L|227:210,1,60,2|0,3:2|0:0,0:0:0:0:
233,284,156160,2,0,L|233:214,1,60,2|0,3:2|0:0,0:0:0:0:
323,67,156560,1,2,3:2:0:0:
323,97,156660,1,2,3:2:0:0:
323,127,156760,2,0,L|269:135,1,50,10|0,0:2|0:0,0:0:0:0:
190,144,156960,1,0,3:2:0:0:
350,223,157160,6,0,L|409:214,1,60,10|0,0:2|0:0,0:0:0:0:
342,317,157560,37,6,3:2:0:0:
294,328,157660,1,2,3:2:0:0:
242,269,157760,1,2,3:2:0:0:
194,280,157860,1,2,3:2:0:0:
143,340,157960,2,0,B|108:300|108:300|141:176,1,150,2|0,3:2|0:0,0:0:0:0:
213,105,158360,2,0,B|171:133|171:133|120:122,1,100,10|0,0:2|0:0,0:0:0:0:
111,22,158660,2,0,B|139:64|139:64|128:115,1,100,2|0,3:2|0:0,0:0:0:0:
0,92,158960,6,0,L|61:84,1,60,2|0,3:2|0:0,0:0:0:0:
0,101,159360,2,0,L|61:93,1,60,2|0,3:2|0:0,0:0:0:0:
147,258,159760,1,2,3:2:0:0:
162,229,159860,1,2,3:2:0:0:
149,199,159960,38,0,L|73:204,1,59.9999981689454,10|0,0:2|0:0,0:0:0:0:
119,343,160160,6,0,B|157:352|189:337|189:337|225:354|225:354|264:336|307:351,1,187.500007152558,0|0,3:2|0:0,0:0:0:0:
330,370,160760,6,0,P|341:312|356:254,1,119.999996337891,6|0,3:2|3:2,0:0:0:0:
217,85,161160,2,0,P|232:142|243:201,1,119.999996337891,0|0,3:2|3:2,0:0:0:0:
314,17,161560,1,8,0:2:0:0:
141,152,161760,2,0,P|80:162|35:110,2,119.999996337891,0|0|0,3:2|3:2|3:2,0:0:0:0:
356,253,162360,5,6,3:2:0:0:
176,383,162560,2,0,P|191:326|207:268,1,119.999996337891,0|0,3:2|3:2,0:0:0:0:
357,104,162960,1,0,3:2:0:0:
161,60,163160,1,8,0:2:0:0:
234,165,163360,1,0,3:2:0:0:
403,0,163560,1,8,0:2:0:0:
485,223,163760,1,8,0:2:0:0:
280,44,163960,38,0,P|220:49|161:59,1,119.999996337891,6|0,3:2|3:2,0:0:0:0:
0,255,164360,2,0,P|59:260|118:270,1,119.999996337891,0|0,3:2|3:2,0:0:0:0:
351,134,164760,1,8,0:2:0:0:
287,335,164960,2,0,P|251:275|274:214,2,119.999996337891,0|0|0,3:2|3:2|3:2,0:0:0:0:
484,164,165560,5,6,3:2:0:0:
251,101,165760,2,0,P|310:144|361:127,1,119.999996337891,0|0,3:2|3:2,0:0:0:0:
164,53,166160,37,0,3:2:0:0:
160,72,166226,1,0,3:2:0:0:
157,92,166293,1,0,3:2:0:0:
154,112,166359,1,12,0:2:0:0:
16,0,166560,1,0,3:0:0:0:
0,240,166760,2,0,P|56:260|119:230,1,119.999996337891,12|0,0:2|0:0,0:0:0:0:
243,377,167160,6,0,P|183:370|123:364,1,119.999996337891,6|0,3:2|3:2,0:0:0:0:
338,259,167560,2,0,P|372:306|368:364,1,119.999996337891,0|0,3:2|3:2,0:0:0:0:
216,204,167960,1,8,0:2:0:0:
424,123,168160,2,0,B|378:114|378:114|357:122|357:122|296:111,2,119.999996337891,0|0|0,3:2|3:2|3:2,0:0:0:0:
224,346,168760,37,4,3:2:0:0:
110,156,168960,2,0,P|122:97|139:39,1,119.999996337891,0|0,3:2|3:2,0:0:0:0:
309,230,169360,1,0,3:2:0:0:
113,278,169560,1,8,0:2:0:0:
224,346,169760,1,0,3:2:0:0:
110,156,169960,1,8,0:2:0:0:
10,378,170160,1,8,0:2:0:0:
229,186,170360,6,0,P|222:126|214:67,1,119.999996337891,4|0,3:2|3:2,0:0:0:0:
6,129,170760,2,0,P|67:121|114:164,1,119.999996337891,0|0,3:2|3:2,0:0:0:0:
285,300,171160,1,8,0:2:0:0:
318,90,171360,2,0,B|283:92|258:104|258:104|237:78|213:67,2,119.999996337891,0|0|0,3:2|3:2|3:2,0:0:0:0:
167,266,171960,37,4,3:2:0:0:
407,348,172160,2,0,L|391:214,1,119.999996337891,0|0,3:2|3:2,0:0:0:0:
214,67,172560,5,0,3:2:0:0:
211,81,172626,1,0,3:2:0:0:
208,93,172693,1,0,3:2:0:0:
207,106,172760,1,12,0:2:0:0:
85,333,172960,1,0,3:2:0:0:
19,100,173160,38,0,B|40:88|54:68|54:68|76:100|60:127|60:127|42:156|62:206,1,179.999994506836,14|0,0:2|0:0,0:0:0:0:
123,245,173560,6,0,B|194:235|194:235|221:253|221:253|297:243,1,179.999994506836,6|0,3:2|0:0,0:0:0:0:
337,236,173960,1,0,0:0:0:0:
164,104,174160,1,2,3:2:0:0:
347,11,174360,2,0,L|315:152,1,119.999996337891,8|2,0:2|0:2,0:0:0:0:
442,139,174660,2,0,B|390:108|390:108|331:120,1,119.999996337891,8|0,0:2|0:0,0:0:0:0:
236,161,174960,1,2,3:2:0:0:
395,344,175160,38,0,B|435:307|435:307|381:257|303:301,1,179.999994506836,0|0,3:2|0:0,0:0:0:0:
298,319,175560,1,0,0:0:0:0:
126,157,175760,1,2,3:2:0:0:
169,360,175960,1,8,0:2:0:0:
327,125,176160,1,2,3:2:0:0:
334,153,176260,1,0,3:2:0:0:
342,182,176360,1,8,0:2:0:0:
169,18,176560,1,2,3:2:0:0:
13,266,176760,6,0,B|61:221|61:221|24:100,1,179.999994506836,2|0,3:2|0:0,0:0:0:0:
0,76,177160,1,0,0:0:0:0:
121,296,177360,1,2,3:2:0:0:
258,83,177560,2,0,P|248:142|238:201,1,119.999996337891,8|2,0:2|0:2,0:0:0:0:
355,184,177860,2,0,P|291:178|244:231,1,119.999996337891,8|0,0:2|0:0,0:0:0:0:
328,291,178160,1,2,3:2:0:0:
461,119,178360,38,0,L|426:323,1,179.999994506836,0|0,3:2|0:0,0:0:0:0:
428,334,178760,1,0,0:0:0:0:
193,224,178960,2,0,L|275:207,1,59.9999981689454,2|0,3:2|3:2,0:0:0:0:
333,141,179160,5,8,0:2:0:0:
319,126,179226,1,0,3:2:0:0:
302,116,179293,1,0,3:2:0:0:
282,110,179359,1,2,3:2:0:0:
262,110,179426,1,0,3:2:0:0:
243,114,179493,1,0,3:2:0:0:
226,124,179560,38,0,L|162:111,1,59.9999981689454,8|8,0:2|0:2,0:0:0:0:
0,0,179760,2,0,L|13:64,1,59.9999981689454,8|8,0:2|0:2,0:0:0:0:
114,189,179960,6,0,B|68:154|68:154|97:24,1,179.999994506836,6|0,3:2|0:0,0:0:0:0:
115,0,180360,1,0,0:0:0:0:
259,207,180560,1,0,3:2:0:0:
31,321,180760,2,0,P|95:301|154:345,1,119.999996337891,8|0,0:2|0:0,0:0:0:0:
275,384,181060,2,0,P|225:338|234:265,1,119.999996337891,8|0,0:2|0:0,0:0:0:0:
313,303,181360,1,0,3:2:0:0:
196,107,181560,38,0,P|260:87|336:162,1,179.999994506836,0|0,3:2|0:0,0:0:0:0:
353,194,181960,1,0,0:0:0:0:
432,0,182160,1,0,3:2:0:0:
247,181,182360,1,10,0:2:0:0:
485,112,182560,1,0,3:2:0:0:
481,140,182660,1,0,3:2:0:0:
477,170,182760,1,8,0:2:0:0:
321,5,182960,1,0,3:2:0:0:
190,277,183160,6,0,P|277:290|348:200,1,179.999994506836,2|0,3:2|0:0,0:0:0:0:
353,194,183560,1,0,0:0:0:0:
108,134,183760,1,0,3:2:0:0:
277,0,183960,2,0,L|252:130,1,119.999996337891,8|0,0:2|0:0,0:0:0:0:
262,238,184260,2,0,B|281:180|281:180|247:125,1,119.999996337891,8|0,0:2|0:0,0:0:0:0:
181,195,184560,1,0,3:2:0:0:
315,357,184760,38,0,B|366:375|366:375|438:342|438:342|372:318,1,179.999994506836,2|0,3:2|0:0,0:0:0:0:
372,302,185160,1,8,0:2:0:0:
502,105,185360,1,0,3:2:0:0:
506,133,185460,1,0,3:2:0:0:
510,163,185560,1,10,0:2:0:0:
314,30,185760,1,0,3:2:0:0:
310,58,185860,1,0,3:2:0:0:
306,88,185960,1,8,0:2:0:0:
96,219,186160,38,0,B|138:193|138:193|224:224,1,129.999994049073,6|0,3:2|0:0,0:0:0:0:
162,351,186632,2,0,L|152:278,1,64.9999970245363,2|0,0:2|0:0,0:0:0:0:
257,369,186948,2,0,L|247:296,2,64.9999970245363,2|0|0,0:2|0:0|0:0,0:0:0:0:
304,226,187422,38,0,P|338:260|422:247,1,129.999994049073,2|0,0:2|0:0,0:0:0:0:
432,168,187895,2,0,P|393:166|364:192,1,64.9999970245363,2|0,0:2|0:0,0:0:0:0:
305,79,188211,2,0,P|288:106|292:138,2,64.9999970245363,2|0|0,0:2|0:0|0:0,0:0:0:0:
169,185,188685,6,0,B|196:148|196:148|155:56,1,129.999994049073,2|0,0:2|0:0,0:0:0:0:
35,129,189159,2,0,L|118:140,1,64.9999970245363,2|0,0:2|0:0,0:0:0:0:
18,44,189474,2,0,L|101:55,2,64.9999970245363,2|0|0,0:2|0:0|0:0,0:0:0:0:
52,214,189948,38,0,L|192:232,1,129.999994049073,2|0,0:2|0:0,0:0:0:0:
388,129,190422,1,2,0:2:0:0:
195,44,190580,1,0,3:2:0:0:
190,73,190658,1,0,3:2:0:0:
186,103,190737,5,10,0:2:0:0:
438,36,190895,1,10,0:2:0:0:
438,36,191211,38,0,P|406:80|274:64,1,179.999994506836,6|0,3:2|3:2,0:0:0:0:
107,212,191685,2,0,L|225:228,1,89.9999972534181,10|0,0:2|0:0,0:0:0:0:
366,384,192001,1,2,3:2:0:0:
290,181,192159,1,2,3:2:0:0:
219,358,192317,1,8,0:2:0:0:
419,254,192474,6,0,B|440:144|440:144|416:116|379:126,1,179.999994506836,6|0,3:2|3:2,0:0:0:0:
197,6,192948,2,0,P|171:63|185:93,1,89.9999972534181,10|0,0:2|0:0,0:0:0:0:
43,254,193264,1,2,3:2:0:0:
36,44,193422,1,2,3:2:0:0:
195,205,193580,1,8,0:2:0:0:
0,362,193738,38,0,L|183:336,1,179.999994506836,6|0,3:2|3:2,0:0:0:0:
341,190,194211,2,0,P|313:238|328:288,1,89.9999972534181,10|0,0:2|0:0,0:0:0:0:
487,120,194527,1,2,3:2:0:0:
430,300,194685,1,2,3:2:0:0:
341,82,194843,1,8,0:2:0:0:
188,244,195001,6,0,B|233:200|233:200|195:80,1,179.999994506836,6|0,3:2|3:2,0:0:0:0:
318,270,195474,1,10,0:2:0:0:
121,168,195632,1,2,3:2:0:0:
121,168,195711,1,0,3:2:0:0:
121,168,195790,1,10,0:2:0:0:
89,156,195868,1,0,3:2:0:0:
56,155,195947,1,2,3:2:0:0:
24,167,196026,1,0,3:2:0:0:
0,189,196105,1,10,0:2:0:0:
202,11,196264,38,0,B|236:54|213:112|213:112|198:88,1,134.999995880127,6|0,3:2|0:0,0:0:0:0:
