osu file format v14

[General]
AudioFilename: audio.mp3
AudioLeadIn: 0
PreviewTime: 93017
Countdown: 0
SampleSet: Soft
StackLeniency: 0.7
Mode: 0
LetterboxInBreaks: 0
WidescreenStoryboard: 0

[Editor]
Bookmarks: 9692,30021,48687,64686,74684,93350,109349,125349,141349,157349,173349,189349,199347
DistanceSpacing: 1
BeatDivisor: 4
GridSize: 32
TimelineZoom: 1.8

[Metadata]
Title:7/8
TitleUnicode:7/8
Artist:Yuyoyuppe
ArtistUnicode:ゆよゆっぺ
Creator:Seto Kousuke
Version:Kowari's Normal
Source:
Tags:Draw the Emotional meola 巡音ルカ Megurine Luka vocaloid for a sick boy Story of Hope ggf gottagof4st gottagofast trynna Kowari
BeatmapID:1824018
BeatmapSetID:872314

[Difficulty]
HPDrainRate:3
CircleSize:3
OverallDifficulty:4
ApproachRate:5
SliderMultiplier:1.19
SliderTickRate:1

[Events]
//Background and Video events
0,0,"my innerself.jpg",0,0
//Break Periods
2,64876,73474
2,93540,100139
2,125539,140139
2,189539,197486
//Storyboard Layer 0 (Background)
//Storyboard Layer 1 (Fail)
//Storyboard Layer 2 (Pass)
//Storyboard Layer 3 (Foreground)
//Storyboard Sound Samples

[TimingPoints]
17,333.333333333333,7,2,2,50,1,0
17,-100,7,2,2,50,0,0
2350,333.333333333333,8,2,2,50,1,0
2350,-100,8,2,2,50,0,0
5016,333.333333333333,7,2,2,50,1,0
5016,-100,7,2,2,50,0,0
7349,333.333333333333,8,2,2,50,1,0
7349,-100,8,2,2,50,0,0
9682,-100,8,2,1,80,0,0
10015,333.333333333333,7,2,1,80,1,0
12348,333.333333333333,8,2,1,80,1,0
15014,333.333333333333,7,2,1,80,1,0
17347,333.333333333333,8,2,1,80,1,0
20013,333.333333333333,7,2,1,80,1,0
22346,333.333333333333,8,2,1,80,1,0
25012,333.333333333333,7,2,1,80,1,0
27345,333.333333333333,8,2,1,80,1,0
30011,333.333333333333,7,2,1,65,1,0
30011,-100,7,2,1,65,0,0
48677,333.333333333333,3,2,1,80,1,0
64676,333.333333333333,7,2,1,80,1,0
64676,-100,7,2,1,80,0,0
64759,-100,7,2,2,50,0,0
67009,333.333333333333,8,2,2,50,1,0
67009,-100,8,2,2,50,0,0
69675,333.333333333333,7,2,2,50,1,0
69675,-100,7,2,2,50,0,0
72008,333.333333333333,8,2,2,50,1,0
72008,-100,8,2,2,50,0,0
74174,-100,8,2,1,65,0,0
74674,333.333333333333,7,2,1,65,1,0
74674,-100,7,2,1,65,0,0
91007,-100,7,2,1,65,0,0
91090,-100,7,2,2,50,0,0
93340,333.333333333333,3,2,1,80,1,0
93340,-100,3,2,1,80,0,0
93423,-100,3,2,1,50,0,0
94256,-100,3,2,2,50,0,0
101006,-100,3,2,1,80,0,0
101339,-100,3,2,1,80,0,0
108339,-100,3,2,2,50,0,0
109339,-100,3,2,1,80,0,0
125339,-100,3,2,1,80,0,0
125423,-100,3,2,1,50,0,0
141006,-100,3,2,1,65,0,0
141339,-100,3,2,1,65,0,0
157339,-100,3,2,1,80,0,0
189339,333.333333333333,7,2,1,80,1,0
191672,333.333333333333,8,2,1,70,1,0
194338,333.333333333333,7,2,1,5,1,0
196671,333.333333333333,8,2,1,70,1,0
198686,333.333333333333,8,2,1,80,1,0
198686,-100,8,2,1,80,0,0
199352,333.333333333333,7,2,1,90,1,1
201685,333.333333333333,8,2,1,90,1,1
204351,333.333333333333,7,2,1,90,1,1
206684,333.333333333333,8,2,1,90,1,1
209350,333.333333333333,7,2,1,90,1,1
211683,333.333333333333,8,2,1,90,1,1
214349,333.333333333333,7,2,1,90,1,1
216682,333.333333333333,8,2,1,90,1,1
219348,333.333333333333,7,2,1,90,1,0
219431,-100,7,2,1,50,0,0
221009,-100,7,2,1,42,0,0
222348,-100,7,2,1,32,0,0
223348,-100,7,2,1,21,0,0
223931,-100,7,2,1,5,0,0

[Colours]
Combo1 : 241,137,128
Combo2 : 255,190,205
Combo3 : 222,211,96
Combo4 : 145,204,248

[HitObjects]
35,117,10015,6,0,P|94:97|158:120,1,119,4|8,3:1|0:2,0:0:0:0:
174,227,10681,1,8,1:2:0:0:
207,341,11014,2,0,P|272:353|331:338,1,119,0|8,3:0|0:2,0:0:0:0:
350,288,11514,1,0,3:0:0:0:
350,288,11681,2,0,L|352:208,1,59.5,0|0,1:0|1:0,0:0:0:0:
394,187,12014,1,0,3:0:0:0:
377,68,12348,6,0,B|323:55|323:55|255:65,1,119,4|0,3:1|0:0,0:0:0:0:
163,133,13014,1,8,0:2:0:0:
46,110,13347,2,0,L|48:186,1,59.5,0|0,3:0|1:0,0:0:0:0:
104,274,13847,1,0,3:0:0:0:
104,274,14014,2,0,L|172:268,1,59.5,0|0,1:0|3:0,0:0:0:0:
211,303,14347,1,8,0:2:0:0:
298,383,14681,2,0,L|371:382,1,59.5,0|0,3:0|3:0,0:0:0:0:
399,340,15014,6,0,P|416:291|390:219,1,119,4|8,3:1|0:2,0:0:0:0:
306,151,15680,1,8,1:2:0:0:
194,192,16013,2,0,L|60:188,1,119,0|8,3:0|0:2,0:0:0:0:
31,147,16514,1,0,3:0:0:0:
31,147,16680,2,0,L|29:78,1,59.5,0|0,1:0|1:0,0:0:0:0:
65,39,17013,1,0,3:0:0:0:
180,7,17347,6,0,B|237:18|237:18|309:8,1,119,4|0,3:1|0:0,0:0:0:0:
388,86,18013,1,8,1:2:0:0:
438,193,18347,2,0,P|454:253|438:315,1,119,0|8,3:0|0:2,0:0:0:0:
385,325,18847,1,0,3:0:0:0:
385,325,19013,2,0,L|316:319,1,59.5,0|0,1:0|3:0,0:0:0:0:
276,353,19346,1,8,0:2:0:0:
157,368,19680,2,0,L|161:297,1,59.5,0|0,3:0|3:0,0:0:0:0:
114,270,20013,6,0,P|97:218|118:155,1,119,4|8,3:1|0:2,0:0:0:0:
204,79,20679,1,8,1:2:0:0:
291,160,21013,2,0,B|354:170|354:170|430:156,1,119,0|8,3:0|0:2,0:0:0:0:
464,139,21513,1,0,3:0:0:0:
464,139,21679,2,0,L|466:214,1,59.5,0|0,1:0|1:0,0:0:0:0:
436,250,22012,1,8,0:2:0:0:
414,367,22346,6,0,P|357:379|286:361,1,119,4|0,3:1|1:0,0:0:0:0:
201,297,23012,1,8,0:2:0:0:
90,342,23346,2,0,B|90:257,1,59.5,0|0,3:0|1:0,0:0:0:0:
25,182,23846,1,0,3:0:0:0:
25,182,24012,2,0,L|23:121,1,59.5,0|0,1:0|3:0,0:0:0:0:
55,72,24345,1,8,0:2:0:0:
187,98,24679,2,0,P|219:105|254:97,1,59.5,0|0,3:0|3:0,0:0:0:0:
285,57,25012,6,0,L|413:60,1,119,4|8,3:1|0:2,0:0:0:0:
453,168,25678,1,8,1:2:0:0:
367,251,26012,2,0,L|239:248,1,119,0|8,3:0|0:2,0:0:0:0:
201,211,26512,1,0,3:0:0:0:
201,211,26678,2,0,L|128:215,1,59.5,0|0,1:0|1:0,0:0:0:0:
91,246,27011,1,8,0:2:0:0:
75,364,27345,6,0,P|127:383|205:361,1,119,4|8,3:1|0:2,0:0:0:0:
265,281,28011,1,8,3:2:0:0:
368,340,28345,2,0,L|363:210,1,119,0|8,3:0|0:2,0:0:0:0:
424,119,29011,1,0,1:0:0:0:
329,46,29344,1,8,0:2:0:0:
217,89,29678,2,0,L|143:88,1,59.5,0|0,3:0|3:0,0:0:0:0:
102,111,30011,6,0,P|83:166|106:232,1,119,4|2,3:1|1:1,0:0:0:0:
154,244,30511,1,2,3:0:0:0:
332,244,31011,2,0,L|465:242,1,119,0|2,3:0|1:1,0:0:0:0:
485,193,31511,1,0,3:0:0:0:
401,35,32010,2,0,L|320:37,1,59.5,0|0,3:0|1:0,0:0:0:0:
299,78,32344,2,0,P|241:93|179:73,1,119,0|2,3:0|1:1,0:0:0:0:
152,27,32844,1,2,3:0:0:0:
16,142,33344,2,0,L|15:269,1,119,0|2,3:0|1:1,0:0:0:0:
64,293,33844,1,0,3:0:0:0:
236,248,34344,2,0,L|317:248,1,59.5,0|0,3:0|1:0,0:0:0:0:
342,284,34677,6,0,P|403:297|466:278,1,119,4|2,3:1|1:1,0:0:0:0:
485,230,35177,1,2,3:0:0:0:
324,151,35677,2,0,B|236:142|236:142|143:160,1,178.5,0|0,3:0|3:0,0:0:0:0:
93,184,36344,1,8,0:2:0:0:
45,75,36677,2,0,L|111:76,1,59.5,0|0,3:0|1:0,0:0:0:0:
148,35,37010,2,0,P|194:23|279:38,1,119,0|2,3:0|1:1,0:0:0:0:
304,75,37510,2,0,P|362:84|420:71,1,119,2|0,3:0|1:0,0:0:0:0:
464,32,38010,1,0,3:0:0:0:
452,210,38510,2,0,L|452:286,2,59.5,0|8|0,3:0|0:2|1:0,0:0:0:0:
404,174,39010,2,0,P|373:168|330:183,1,59.5,0|0,3:0|1:0,0:0:0:0:
298,209,39344,6,0,L|299:350,1,119,4|2,3:1|1:1,0:0:0:0:
261,374,39844,1,2,3:0:0:0:
83,351,40344,2,0,L|82:218,1,119,0|2,3:0|1:1,0:0:0:0:
50,181,40844,1,0,3:0:0:0:
89,7,41344,2,0,L|162:10,1,59.5,0|0,3:0|1:0,0:0:0:0:
194,48,41677,2,0,P|249:63|313:42,1,119,0|2,3:0|1:1,0:0:0:0:
349,4,42177,1,2,3:0:0:0:
479,125,42677,2,0,L|481:270,1,119,0|2,3:0|1:1,0:0:0:0:
436,283,43177,2,0,L|441:362,2,59.5,0|8|0,3:0|0:2|1:0,0:0:0:0:
379,263,43677,1,0,3:0:0:0:
264,230,44010,6,0,P|211:218|144:235,1,119,4|2,3:1|1:1,0:0:0:0:
115,281,44510,1,2,3:0:0:0:
45,116,45010,2,0,L|170:112,1,119,0|2,3:0|1:1,0:0:0:0:
264,48,45677,2,0,P|318:37|400:62,2,119,8|0|0,0:2|3:0|3:0,0:0:0:0:
102,124,46844,1,2,3:0:0:0:
102,124,47010,2,0,L|108:187,1,59.5,8|0,0:2|1:0,0:0:0:0:
150,225,47344,2,0,P|169:273|152:341,1,119,0|2,3:0|1:1,0:0:0:0:
113,379,47844,2,0,L|239:384,1,119,0|0,3:0|0:0,0:0:0:0:
272,339,48344,1,0,3:0:0:0:
363,285,48677,6,0,L|367:34,1,238,4|2,3:1|1:2,0:0:0:0:
250,18,49677,2,0,L|246:255,1,238,10|10,0:2|0:2,0:0:0:0:
132,292,50677,2,0,L|135:54,1,238,2|2,3:2|0:2,0:0:0:0:
20,24,51677,1,10,0:2:0:0:
34,142,52010,1,8,0:2:0:0:
48,260,52343,1,8,1:2:0:0:
71,376,52676,6,0,L|328:365,1,238,4|2,3:1|1:2,0:0:0:0:
368,262,53676,2,0,L|111:273,1,238,10|10,0:2|0:2,0:0:0:0:
77,165,54676,2,0,L|334:154,1,238,2|2,3:2|0:2,0:0:0:0:
390,62,55676,1,10,0:2:0:0:
271,51,56010,1,8,0:2:0:0:
152,43,56343,1,0,3:0:0:0:
54,111,56676,6,0,P|37:162|60:238,1,119,4|2,3:1|1:2,0:0:0:0:
106,246,57176,1,0,3:0:0:0:
106,246,57343,1,2,1:2:0:0:
195,324,57676,2,0,L|330:325,1,119,10|2,0:2|3:2,0:0:0:0:
365,217,58343,2,0,L|362:147,1,59.5,10|0,0:2|0:0,0:0:0:0:
362,97,58676,6,0,P|323:82|234:107,1,119,2|2,3:2|0:2,0:0:0:0:
179,192,59343,2,0,L|118:191,1,59.5,2|0,0:2|1:0,0:0:0:0:
67,220,59676,2,0,P|52:261|70:344,1,119,10|8,0:2|0:2,0:0:0:0:
170,280,60343,1,8,1:2:0:0:
280,323,60676,6,0,B|431:294|379:384|516:343,1,238,4|2,3:1|1:2,0:0:0:0:
452,240,61676,1,10,0:2:0:0:
491,127,62010,1,2,3:2:0:0:
435,21,62343,1,10,0:2:0:0:
358,111,62676,6,0,P|299:121|217:99,1,119,2|2,3:2|0:2,0:0:0:0:
139,48,63343,1,2,0:2:0:0:
139,48,63510,1,0,1:0:0:0:
139,48,63676,2,0,P|120:99|140:180,1,119,10|8,0:2|0:2,0:0:0:0:
196,260,64343,1,0,3:0:0:0:
196,260,64510,1,0,3:0:0:0:
196,260,64676,5,4,3:1:0:0:
45,59,74674,6,0,L|181:58,1,119,4|0,3:1|3:0,0:0:0:0:
213,90,75174,2,0,L|216:150,1,59.5,0|8,1:0|0:2,0:0:0:0:
268,259,75674,2,0,P|312:274|387:252,1,119,0|0,3:0|3:0,0:0:0:0:
399,200,76174,1,0,1:0:0:0:
502,345,76674,2,0,L|434:349,1,59.5,8|0,1:2|1:0,0:0:0:0:
384,363,77007,2,0,P|327:379|259:364,1,119,4|0,3:1|3:0,0:0:0:0:
221,335,77507,1,8,0:2:0:0:
48,378,78007,2,0,L|46:250,1,119,8|0,0:2|3:0,0:0:0:0:
73,205,78507,1,0,1:0:0:0:
39,91,78840,1,0,1:0:0:0:
64,37,79007,2,0,L|146:34,1,59.5,8|8,0:2|0:2,0:0:0:0:
178,57,79340,6,0,P|236:71|295:52,1,119,4|0,3:1|3:0,0:0:0:0:
335,13,79840,2,0,P|391:-3|448:10,1,119,0|0,1:0|1:0,0:0:0:0:
460,68,80340,1,0,3:0:0:0:
384,160,80674,1,0,3:0:0:0:
382,292,81007,2,0,B|444:283|444:283|516:289,2,119,0|8|4,3:0|1:2|3:1,0:0:0:0:
276,347,82007,2,0,L|203:353,1,59.5,0|8,3:0|0:2,0:0:0:0:
179,305,82340,2,0,L|119:300,1,59.5,0|0,3:0|1:0,0:0:0:0:
64,321,82673,1,8,0:2:0:0:
69,201,83007,1,0,3:0:0:0:
19,93,83340,1,8,0:2:0:0:
118,27,83673,2,0,L|197:30,1,59.5,0|0,3:0|3:0,0:0:0:0:
222,69,84007,6,0,P|264:88|334:64,1,119,4|0,3:1|0:0,0:0:0:0:
376,28,84507,2,0,P|430:6|484:26,1,119,2|8,1:0|0:2,0:0:0:0:
481,85,85007,2,0,L|476:221,1,119,2|0,3:0|3:0,0:0:0:0:
421,227,85507,2,0,B|357:237|357:237|280:220,1,119,8|0,1:2|1:0,0:0:0:0:
263,181,86007,1,8,1:2:0:0:
84,181,86507,2,0,L|77:302,1,119,0|8,1:0|1:2,0:0:0:0:
120,341,87007,2,0,P|169:356|243:335,1,119,2|2,3:0|3:0,0:0:0:0:
265,290,87507,2,0,P|321:274|378:290,1,119,0|8,1:0|1:2,0:0:0:0:
429,321,88007,2,0,L|433:198,1,119,0|0,3:0|3:0,0:0:0:0:
464,151,88507,1,0,3:0:0:0:
332,30,89007,6,0,B|274:21|274:21|200:30,1,119,0|2,3:0|3:0,0:0:0:0:
178,75,89507,2,0,B|118:82|118:82|60:73,1,119,8|8,1:2|1:2,0:0:0:0:
9,42,90007,2,0,L|14:172,1,119,0|0,3:0|3:0,0:0:0:0:
60,197,90507,1,0,3:0:0:0:
208,295,91007,2,0,L|204:152,1,119,4|0,3:1|0:0,0:0:0:0:
240,128,91507,1,2,0:0:0:0:
372,52,92007,2,0,L|438:58,1,59.5,2|0,0:0|0:0,0:0:0:0:
465,106,92340,2,0,P|478:138|461:232,1,119,0|2,0:0|0:0,0:0:0:0:
352,192,93007,1,2,0:0:0:0:
303,300,93340,5,4,3:1:0:0:
235,53,101339,6,0,L|95:52,1,119,4|0,3:1|1:0,0:0:0:0:
35,139,102006,1,8,0:2:0:0:
104,235,102339,2,0,L|244:236,1,119,0|0,3:0|3:0,0:0:0:0:
304,323,103006,1,8,0:2:0:0:
392,243,103339,6,0,P|407:189|376:119,1,119,0|2,3:0|1:0,0:0:0:0:
333,105,103839,2,0,L|205:109,1,119,0|8,3:0|1:2,0:0:0:0:
156,92,104339,2,0,P|108:79|28:109,1,119,0|0,3:0|3:0,0:0:0:0:
21,214,105006,1,8,1:2:0:0:
95,306,105339,6,0,L|342:292,1,238,4|8,3:1|0:2,0:0:0:0:
374,181,106339,1,0,3:0:0:0:
332,69,106673,1,0,3:0:0:0:
225,121,107006,1,8,0:2:0:0:
117,70,107339,2,0,L|121:262,1,178.5,0|0,3:0|3:0,0:0:0:0:
159,294,108006,1,8,1:2:0:0:
96,374,108339,1,2,0:0:0:0:
416,340,109339,6,0,L|401:95,1,238,4|2,3:1|1:2,0:0:0:0:
291,56,110339,2,0,L|306:301,1,238,10|10,0:2|0:2,0:0:0:0:
195,340,111339,2,0,L|180:95,1,238,2|2,3:2|0:2,0:0:0:0:
281,166,112339,2,0,P|327:179|401:162,2,119,10|8|8,0:2|0:2|1:2,0:0:0:0:
257,221,113173,1,0,1:0:0:0:
233,275,113339,6,0,B|118:298|118:298|-9:274,1,238,4|2,3:1|1:2,0:0:0:0:
5,156,114339,2,0,L|265:157,1,238,10|10,0:2|0:2,0:0:0:0:
243,37,115339,2,0,B|128:14|128:14|9:37,1,238,2|2,3:2|0:2,0:0:0:0:
65,142,116339,2,0,P|82:202|56:267,2,119,10|8|0,0:2|0:2|3:0,0:0:0:0:
102,95,117173,1,0,3:0:0:0:
143,53,117339,6,0,L|261:53,1,119,4|2,3:1|1:2,0:0:0:0:
301,165,118006,1,2,1:2:0:0:
301,165,118173,1,0,1:0:0:0:
301,165,118339,2,0,P|252:187|181:170,1,119,10|2,0:2|3:2,0:0:0:0:
87,236,119006,1,10,0:2:0:0:
83,354,119339,2,0,P|136:376|193:363,1,119,2|2,3:2|0:2,0:0:0:0:
285,286,120006,1,2,0:2:0:0:
285,286,120173,1,0,1:0:0:0:
285,286,120339,6,0,B|350:275|328:323|425:304,1,119,10|8,0:2|0:2,0:0:0:0:
497,240,121006,1,8,1:2:0:0:
429,145,121339,2,0,B|317:119|317:119|198:152,1,238,4|2,3:1|1:2,0:0:0:0:
90,101,122339,1,10,0:2:0:0:
12,191,122673,1,2,3:2:0:0:
90,280,123006,1,10,0:2:0:0:
203,245,123339,6,0,L|346:246,1,119,2|2,3:2|0:2,0:0:0:0:
425,305,124006,1,2,0:2:0:0:
327,372,124339,2,0,L|184:373,1,119,10|8,0:2|0:2,0:0:0:0:
124,287,125006,1,0,3:0:0:0:
124,287,125173,1,0,3:0:0:0:
124,287,125339,5,4,3:1:0:0:
400,53,141339,5,2,3:2:0:0:
43,45,142339,2,0,L|53:171,1,119,4|2,0:3|0:2,0:0:0:0:
20,278,143006,1,2,3:2:0:0:
114,350,143339,1,2,3:2:0:0:
436,196,144339,1,4,0:3:0:0:
104,64,145339,5,2,3:2:0:0:
72,326,146339,2,0,L|193:316,1,119,4|2,0:3|0:2,0:0:0:0:
286,245,147006,1,2,3:2:0:0:
394,292,147339,2,0,P|412:245|384:175,1,119,2|2,3:2|0:2,0:0:0:0:
281,134,148006,1,2,0:2:0:0:
347,35,148339,1,4,0:3:0:0:
109,51,149006,1,6,3:3:0:0:
27,137,149339,6,0,P|12:176|41:250,1,119,2|2,3:2|0:2,0:0:0:0:
138,183,150006,1,2,0:2:0:0:
236,116,150339,2,0,L|363:123,1,119,4|2,0:3|0:2,0:0:0:0:
430,214,151006,1,2,3:2:0:0:
355,306,151339,1,2,3:2:0:0:
146,190,152006,5,2,0:2:0:0:
222,98,152339,1,4,0:3:0:0:
400,256,153006,1,2,3:2:0:0:
488,176,153339,2,0,L|496:301,1,119,2|2,3:2|0:2,0:0:0:0:
384,338,154006,1,2,0:2:0:0:
274,291,154339,2,0,L|266:166,1,119,4|2,0:3|0:2,0:0:0:0:
156,126,155006,1,2,3:2:0:0:
62,199,155339,5,2,3:2:0:0:
74,322,155673,1,2,3:2:0:0:
192,322,156006,2,0,L|190:250,1,59.5,8|0,0:0|3:2,0:0:0:0:
179,203,156339,2,0,L|105:202,1,59.5,8|0,0:0|3:0,0:0:0:0:
62,199,156673,2,0,P|31:179|19:95,1,119,0|0,3:0|3:0,0:0:0:0:
82,16,157339,6,0,B|203:2|203:2|329:22,1,238,4|2,3:1|0:2,0:0:0:0:
300,138,158339,2,0,L|58:134,1,238,4|2,3:1|0:2,0:0:0:0:
49,252,159339,2,0,B|163:270|163:270|284:256,1,238,4|8,3:1|0:0,0:0:0:0:
369,188,160339,1,8,3:2:0:0:
202,41,161006,2,0,L|271:40,1,59.5,8|8,0:0|0:0,0:0:0:0:
307,78,161339,6,0,P|350:91|443:71,1,119,4|2,3:1|1:2,0:0:0:0:
369,188,162006,1,2,1:2:0:0:
418,296,162339,2,0,P|375:283|282:303,1,119,10|2,0:2|3:2,0:0:0:0:
203,359,163006,1,10,0:2:0:0:
94,311,163339,2,0,P|78:268|92:193,1,119,2|2,3:2|0:2,0:0:0:0:
196,250,164006,1,2,0:2:0:0:
302,197,164339,6,0,P|318:240|304:315,2,119,10|8|0,0:2|0:2|3:0,0:0:0:0:
221,108,165339,2,0,L|93:113,1,119,4|2,3:1|1:2,0:0:0:0:
54,77,165839,1,0,3:0:0:0:
54,77,166006,1,2,1:2:0:0:
152,10,166339,2,0,L|276:6,1,119,10|2,0:2|3:2,0:0:0:0:
337,104,167006,1,10,0:2:0:0:
271,203,167339,6,0,P|250:249|278:318,1,119,2|2,3:2|0:2,0:0:0:0:
308,357,167839,2,0,L|184:353,1,119,0|0,3:0|1:0,0:0:0:0:
142,315,168339,2,0,P|102:299|7:325,1,119,10|8,0:2|0:2,0:0:0:0:
2,193,169006,1,8,1:2:0:0:
100,127,169339,6,0,B|232:86|213:177|341:135,1,238,4|2,3:1|1:2,0:0:0:0:
421,60,170339,1,10,0:2:0:0:
496,152,170673,1,2,3:2:0:0:
429,250,171006,1,10,0:2:0:0:
485,354,171339,2,0,L|342:345,1,119,2|2,3:2|0:2,0:0:0:0:
281,263,172006,1,2,0:2:0:0:
181,328,172339,2,0,B|163:266|163:266|178:197,1,119,10|8,0:2|0:2,0:0:0:0:
137,99,173006,1,0,3:0:0:0:
137,99,173173,1,0,3:0:0:0:
137,99,173339,6,0,P|80:172|94:329,1,238,4|2,3:1|1:2,0:0:0:0:
197,350,174339,2,0,L|250:115,1,238,10|10,0:2|0:2,0:0:0:0:
363,151,175339,2,0,P|375:266|310:363,1,238,2|2,3:2|0:2,0:0:0:0:
251,380,176173,1,0,1:0:0:0:
251,380,176339,1,10,0:2:0:0:
241,261,176673,1,8,0:2:0:0:
157,176,177006,1,8,1:2:0:0:
207,68,177339,6,0,L|461:69,1,238,4|2,3:1|1:2,0:0:0:0:
505,171,178339,2,0,L|251:170,1,238,10|10,0:2|0:2,0:0:0:0:
198,267,179339,2,0,L|452:268,1,238,2|2,3:2|0:2,0:0:0:0:
470,316,180173,1,0,1:0:0:0:
470,316,180339,1,10,0:2:0:0:
364,371,180673,1,8,0:2:0:0:
247,347,181006,1,0,3:0:0:0:
129,322,181339,6,0,P|105:267|124:202,1,119,4|2,3:1|1:2,0:0:0:0:
168,177,181839,1,0,3:0:0:0:
168,177,182006,1,2,1:2:0:0:
139,61,182339,2,0,L|268:62,1,119,10|2,0:2|3:2,0:0:0:0:
324,160,183006,2,0,L|318:232,1,59.5,10|0,0:2|0:0,0:0:0:0:
344,273,183339,6,0,P|410:286|478:253,1,119,2|2,3:2|0:2,0:0:0:0:
486,153,184006,2,0,L|481:93,1,59.5,2|0,0:2|1:0,0:0:0:0:
434,56,184339,2,0,P|394:44|316:59,1,119,10|8,0:2|0:2,0:0:0:0:
241,147,185006,1,8,1:2:0:0:
141,81,185339,6,0,B|103:146|103:146|103:315,1,238,4|2,3:1|1:2,0:0:0:0:
202,242,186339,1,10,0:2:0:0:
289,322,186673,1,2,3:2:0:0:
384,251,187006,1,10,0:2:0:0:
487,308,187339,2,0,L|488:166,1,119,2|2,3:2|0:2,0:0:0:0:
422,89,188006,1,2,0:2:0:0:
324,157,188339,2,0,P|264:170|196:152,1,119,10|8,0:2|0:2,0:0:0:0:
103,102,189006,1,0,3:0:0:0:
103,102,189173,1,0,3:0:0:0:
103,102,189339,5,4,3:1:0:0:
372,81,198686,5,2,0:0:0:0:
407,194,199019,1,2,0:0:0:0:
334,287,199352,6,0,P|279:305|207:286,1,119,4|0,3:1|0:0,0:0:0:0:
181,247,199852,2,0,L|111:247,1,59.5,8|0,3:2|3:1,0:0:0:0:
15,301,200352,2,0,L|11:173,1,119,8|8,3:2|3:2,0:0:0:0:
41,130,200852,1,8,3:2:0:0:
41,130,201018,2,0,L|117:125,1,59.5,8|8,3:2|3:2,0:0:0:0:
143,84,201352,1,2,3:1:0:0:
246,25,201685,6,0,P|293:15|366:34,1,119,6|8,3:1|3:2,0:0:0:0:
406,69,202185,2,0,L|404:138,1,59.5,0|2,3:2|3:1,0:0:0:0:
341,229,202685,2,0,L|337:361,1,119,8|8,3:2|3:2,0:0:0:0:
279,361,203185,1,8,3:2:0:0:
279,361,203351,2,0,P|246:368|203:359,1,59.5,8|8,3:2|3:2,0:0:0:0:
184,317,203685,1,8,3:2:0:0:
65,312,204018,2,0,L|68:227,1,59.5,8|8,3:2|3:2,0:0:0:0:
43,201,204351,6,0,L|42:74,1,119,6|2,3:1|3:1,0:0:0:0:
88,44,204851,2,0,L|156:45,1,59.5,8|0,3:2|3:1,0:0:0:0:
242,116,205351,2,0,P|300:129|371:110,1,119,8|8,3:2|3:2,0:0:0:0:
392,68,205851,1,0,3:0:0:0:
392,68,206017,2,0,L|461:70,1,59.5,8|8,3:2|3:2,0:0:0:0:
492,113,206351,1,2,3:1:0:0:
486,231,206684,6,0,L|345:230,1,119,6|8,3:1|3:2,0:0:0:0:
322,269,207184,2,0,L|254:262,1,59.5,0|8,3:2|3:2,0:0:0:0:
193,166,207684,2,0,L|127:172,1,59.5,0|8,3:0|3:2,0:0:0:0:
95,217,208017,2,0,L|35:211,1,59.5,8|8,3:2|3:2,0:0:0:0:
4,261,208350,1,2,3:1:0:0:
79,353,208684,1,8,3:2:0:0:
188,307,209017,2,0,L|247:310,1,59.5,8|8,3:2|3:2,0:0:0:0:
290,351,209350,6,0,P|335:363|408:340,1,119,6|2,3:1|3:1,0:0:0:0:
429,290,209850,2,0,L|430:223,1,59.5,8|2,3:2|3:1,0:0:0:0:
410,112,210350,1,8,3:2:0:0:
410,112,210516,2,0,P|364:95|283:117,1,119,0|8,3:1|3:2,0:0:0:0:
265,158,211016,1,8,3:2:0:0:
148,130,211350,2,0,L|64:131,1,59.5,8|8,3:2|3:2,0:0:0:0:
55,180,211683,5,6,3:1:0:0:
84,295,212016,1,2,3:1:0:0:
176,219,212349,2,0,P|236:206|298:228,1,119,2|8,3:1|3:2,0:0:0:0:
323,271,212849,1,0,3:0:0:0:
323,271,213016,1,2,3:1:0:0:
421,204,213349,2,0,L|416:71,1,119,2|8,3:1|3:2,0:0:0:0:
307,36,214016,1,8,3:2:0:0:
215,112,214349,6,0,P|167:130|90:108,1,119,6|8,3:1|3:2,0:0:0:0:
63,71,214849,2,0,L|1:74,1,59.5,0|2,3:0|3:1,0:0:0:0:
2,193,215349,2,0,L|1:320,1,119,8|8,3:2|3:2,0:0:0:0:
108,362,216015,1,8,3:2:0:0:
187,273,216349,2,0,L|251:267,1,59.5,8|8,3:2|3:2,0:0:0:0:
299,293,216682,6,0,P|358:307|418:280,1,119,6|8,3:1|3:2,0:0:0:0:
350,183,217348,1,8,3:2:0:0:
421,87,217682,1,8,3:2:0:0:
314,33,218015,2,0,P|257:23|189:38,1,119,8|8,3:2|3:2,0:0:0:0:
154,76,218515,1,2,3:1:0:0:
154,76,218682,1,8,3:2:0:0:
64,154,219015,2,0,L|2:156,2,59.5,8|8|6,3:2|3:2|3:1,0:0:0:0:
