osu file format v14

[General]
AudioFilename: audio.mp3
AudioLeadIn: 0
PreviewTime: 77295
Countdown: 0
SampleSet: Soft
StackLeniency: 0.5
Mode: 0
LetterboxInBreaks: 0
EpilepsyWarning: 1
WidescreenStoryboard: 1

[Editor]
Bookmarks: 1032,17137,32295,47453,55032,77769,108085,138401,153558,180085,185769,216085,223664,231243
DistanceSpacing: 1.2
BeatDivisor: 4
GridSize: 4
TimelineZoom: 1

[Metadata]
Title:-ELIS-
TitleUnicode:-ELIS-
Artist:Yuyoyuppe
ArtistUnicode:ゆよゆっぺ
Creator:Seto Kousuke
Version:Senhor's Hard
Source:
Tags:Draw the Emotional meola feat. 巡音ルカ Megurine Luka Solitude Freak Ruuya Novelty Japanese Vocaloid Shirahane_Suou Shirahane Suou SrSkyPlayer Senhor Enerugii -Mikan Mikan
BeatmapID:1942389
BeatmapSetID:930062

[Difficulty]
HPDrainRate:4
CircleSize:4
OverallDifficulty:6.5
ApproachRate:8
SliderMultiplier:1.5
SliderTickRate:1

[Events]
//Background and Video events
0,0,"belladonna_by_ruuya_d5svnth.jpg",0,0
//Break Periods
2,180284,184703
//Storyboard Layer 0 (Background)
//Storyboard Layer 1 (Fail)
//Storyboard Layer 2 (Pass)
//Storyboard Layer 3 (Foreground)
//Storyboard Sound Samples

[TimingPoints]
1032,315.789473684211,6,2,2,30,1,0
1032,-166.666666666667,6,2,2,30,0,0
1980,315.789473684211,6,2,2,30,1,0
1980,-200,6,2,2,30,0,0
15243,-200,6,2,1,40,0,0
17137,-166.666666666667,6,2,1,40,0,0
30401,-166.666666666667,6,2,1,50,0,0
32295,-166.666666666667,6,2,1,60,0,0
32453,-125,6,2,1,60,0,0
47453,-166.666666666667,6,2,1,60,0,0
47532,-166.666666666667,6,2,2,40,0,0
54085,-166.666666666667,6,2,1,50,0,0
55032,-142.857142857143,6,2,1,50,0,0
70190,-142.857142857143,6,2,1,60,0,0
75874,-200,6,2,1,60,0,0
76190,-200,6,2,1,40,0,0
77295,-200,6,2,1,60,0,0
77769,-100,6,2,1,70,0,1
108085,-125,6,2,1,60,0,0
138401,-500,6,2,1,60,0,0
138558,-500,6,2,2,40,0,0
152611,-222.222222222222,6,2,1,60,0,0
153558,-142.857142857143,6,2,1,60,0,0
180085,327.868852459016,6,2,1,60,1,0
180164,-142.857142857143,6,2,2,40,0,0
185453,315.789473684211,6,2,1,70,1,0
185453,-142.857142857143,6,2,1,70,0,0
185768,315.789473684211,6,2,1,70,1,1
185769,-100,6,2,1,70,0,1
200927,-100,6,2,1,80,0,1
216083,-100,6,2,1,90,0,0
231322,-100,6,2,1,70,0,0
231874,-100,6,2,1,60,0,0
232506,-100,6,2,1,50,0,0
233137,-100,6,2,1,40,0,0
233769,-100,6,2,1,30,0,0
234401,-100,6,2,1,20,0,0
236295,-100,6,2,1,10,0,0

[Colours]
Combo1 : 255,23,23
Combo2 : 187,165,178
Combo3 : 234,181,196
Combo4 : 158,97,139
Combo5 : 128,99,101
Combo6 : 228,69,81

[HitObjects]
216,44,1032,6,0,B|157:68|157:68|130:109|130:109|68:137,1,179.999994506836,2|2,0:0|0:0,0:0:0:0:
188,272,1980,6,0,L|192:352,1,75,2|0,0:0|0:0,0:0:0:0:
284,368,2611,1,0,0:0:0:0:
324,288,2927,1,2,0:0:0:0:
264,220,3243,2,0,L|260:140,1,75,2|2,0:0|0:0,0:0:0:0:
320,80,3874,6,0,P|352:68|408:72,1,75,2|0,0:0|0:0,0:0:0:0:
368,156,4506,1,0,0:0:0:0:
368,156,4822,2,0,P|405:155|440:168,1,75,2|2,0:0|0:0,0:0:0:0:
484,248,5453,1,2,0:0:0:0:
424,316,5769,6,0,L|344:320,1,75,2|0,0:0|0:0,0:0:0:0:
272,368,6401,1,0,0:0:0:0:
264,280,6716,1,2,0:0:0:0:
188,332,7032,2,0,L|108:336,1,75,2|2,0:0|0:0,0:0:0:0:
32,292,7664,38,0,P|25:258|37:203,1,75,2|0,0:0|0:0,0:0:0:0:
21,128,8295,1,0,0:0:0:0:
21,128,8611,2,0,P|57:133|90:151,1,75,2|2,0:0|0:0,0:0:0:0:
120,236,9243,1,0,0:0:0:0:
184,172,9558,6,0,L|258:168,1,75,2|0,0:0|0:0,0:0:0:0:
292,84,10190,1,0,0:0:0:0:
216,32,10506,1,2,0:0:0:0:
148,92,10822,2,0,L|73:95,1,75,2|2,0:0|0:0,0:0:0:0:
12,164,11453,6,0,P|3:200|7:237,1,75,2|0,0:0|0:0,0:0:0:0:
86,280,12085,1,0,0:0:0:0:
86,280,12401,2,0,P|94:243|89:206,1,75,2|2,0:0|0:0,0:0:0:0:
176,176,13032,1,2,0:0:0:0:
244,236,13348,6,0,L|318:232,1,75,2|0,0:0|0:0,0:0:0:0:
384,296,13980,1,0,0:0:0:0:
464,256,14295,1,2,0:0:0:0:
440,168,14611,2,0,L|443:93,1,75,2|2,0:0|0:0,0:0:0:0:
388,20,15243,38,0,P|351:14|314:21,1,75,0|0,1:0|1:0,0:0:0:0:
356,104,15874,1,0,1:0:0:0:
356,104,16190,2,0,P|319:110|286:128,1,75,2|2,0:3|0:2,0:0:0:0:
232,200,16822,1,8,0:3:0:0:
232,200,16980,1,8,0:3:0:0:
232,200,17137,6,0,L|228:304,1,89.9999972534181,2|0,3:2|1:0,0:0:0:0:
144,324,17611,2,0,L|147:234,1,89.9999972534181,4|0,3:3|3:2,0:0:0:0:
92,160,18085,2,0,P|56:152|32:152,1,44.999998626709,8|0,0:3|3:2,0:0:0:0:
56,240,18401,2,0,P|19:245|-2:254,1,44.999998626709,0|0,1:0|3:2,0:0:0:0:
112,160,18716,2,0,P|94:145|75:133,1,44.999998626709,0|0,1:0|3:2,0:0:0:0:
96,44,19032,6,0,P|136:53|188:43,1,89.9999972534181,0|0,3:2|1:0,0:0:0:0:
232,120,19506,2,0,P|276:122|316:142,1,89.9999972534181,8|0,0:3|3:2,0:0:0:0:
388,88,19980,1,8,0:3:0:0:
388,88,20137,1,8,0:3:0:0:
388,88,20295,2,0,P|410:85|432:79,1,44.999998626709,0|4,1:0|3:3,0:0:0:0:
468,164,20611,2,0,P|490:166|512:172,1,44.999998626709,0|0,3:2|3:2,0:0:0:0:
472,256,20927,6,0,L|468:345,1,89.9999972534181,2|0,3:2|1:0,0:0:0:0:
380,372,21401,2,0,L|384:283,1,89.9999972534181,4|0,3:3|3:2,0:0:0:0:
312,228,21874,2,0,L|248:216,1,44.999998626709,8|0,0:3|3:2,0:0:0:0:
228,300,22190,2,0,L|183:308,1,44.999998626709,4|0,3:3|3:2,0:0:0:0:
248,196,22506,2,0,L|184:184,1,44.999998626709,8|8,0:3|0:3,0:0:0:0:
128,236,22822,38,0,L|16:264,1,89.9999972534181,0|0,3:2|1:0,0:0:0:0:
12,172,23295,2,0,P|3:132|13:80,1,89.9999972534181,8|0,0:3|3:2,0:0:0:0:
88,36,23769,2,0,P|110:39|132:45,1,44.999998626709,8|0,0:3|3:2,0:0:0:0:
216,12,24085,1,8,0:3:0:0:
216,12,24243,1,8,0:3:0:0:
216,12,24401,2,0,P|238:8|259:3,1,44.999998626709,2|0,1:2|1:0,0:0:0:0:
288,88,24716,6,0,P|332:90|372:110,1,89.9999972534181,2|0,3:2|1:0,0:0:0:0:
310,176,25190,2,0,P|320:218|312:262,1,89.9999972534181,4|0,3:3|3:2,0:0:0:0:
231,221,25664,2,0,P|209:226|187:229,1,44.999998626709,8|0,0:3|3:2,0:0:0:0:
192,139,25980,2,0,P|169:135|148:130,1,44.999998626709,0|0,1:0|3:2,0:0:0:0:
196,248,26295,2,0,P|173:251|152:256,1,44.999998626709,0|0,1:0|3:2,0:0:0:0:
72,212,26611,6,0,P|61:254|69:298,1,89.9999972534181,0|0,3:2|1:0,0:0:0:0:
148,348,27085,2,0,L|236:328,1,89.9999972534181,8|0,0:3|3:2,0:0:0:0:
320,364,27558,1,8,0:3:0:0:
320,364,27716,1,8,0:3:0:0:
320,364,27874,2,0,L|380:376,1,44.999998626709,0|4,1:0|3:3,0:0:0:0:
404,292,28190,1,0,3:2:0:0:
404,292,28348,1,0,3:2:0:0:
404,292,28506,6,0,L|492:272,1,89.9999972534181,2|0,3:2|1:0,0:0:0:0:
496,180,28980,2,0,L|408:200,1,89.9999972534181,4|0,3:3|3:2,0:0:0:0:
336,144,29453,2,0,L|291:135,1,44.999998626709,8|0,0:3|3:2,0:0:0:0:
252,216,29769,2,0,L|207:224,1,44.999998626709,4|0,3:3|3:2,0:0:0:0:
264,112,30085,2,0,L|219:103,1,44.999998626709,8|8,0:3|0:3,0:0:0:0:
144,56,30401,38,0,P|133:99|140:143,1,89.9999972534181,2|2,3:0|1:3,0:0:0:0:
140,143,30874,1,0,3:0:0:0:
88,216,31032,2,0,P|91:237|90:260,1,44.999998626709,10|0,0:3|3:0,0:0:0:0:
164,312,31348,2,0,L|166:334,3,22.4999993133545,8|8|0|0,0:3|0:3|3:0|3:0,0:0:0:0:
208,304,31664,2,0,L|205:281,3,22.4999993133545,0|0|0|0,3:0|3:0|3:0|3:0,0:0:0:0:
248,296,31980,1,8,0:3:0:0:
386,279,32295,5,4,3:1:0:0:
386,279,32453,2,0,P|400:228|370:153,2,120,0|0|0,3:0|3:0|3:0,0:0:0:0:
444,212,33243,2,0,P|476:208|512:213,1,60,10|0,0:3|0:0,0:0:0:0:
476,296,33558,2,0,P|498:319|516:351,1,60,2|0,3:0|0:0,0:0:0:0:
424,200,33874,2,0,P|452:185|489:177,1,60,2|0,3:0|0:0,0:0:0:0:
432,66,34190,5,4,3:1:0:0:
432,66,34348,2,0,P|375:82|318:66,2,120,0|0|0,3:0|3:0|3:0,0:0:0:0:
375,136,35137,2,0,P|318:127|282:138,1,90,10|0,0:3|0:0,0:0:0:0:
256,168,35453,2,0,L|247:225,3,30,2|0|0|0,3:0|0:0|0:0|0:0,0:0:0:0:
206,206,35769,2,0,L|197:263,3,30,0|0|0|0,3:0|3:0|3:0|3:0,0:0:0:0:
161,257,36085,5,4,3:1:0:0:
103,326,36243,2,0,B|59:342|59:342|43:362|43:362|-1:378,2,120,0|0|0,3:0|3:0|3:0,0:0:0:0:
191,341,37032,2,0,L|259:361,1,60,10|0,0:3|0:0,0:0:0:0:
271,270,37348,2,0,L|328:253,1,60,2|0,3:0|0:0,0:0:0:0:
290,368,37664,2,0,L|347:384,1,60,2|0,3:0|0:0,0:0:0:0:
444,311,37980,37,4,3:1:0:0:
444,311,38137,2,0,P|460:253|444:196,2,120,0|0|0,3:0|3:0|3:0,0:0:0:0:
360,345,38927,2,0,L|364:374,3,30,10|8|0|0,0:3|0:3|3:0|3:0,0:0:0:0:
317,327,39243,2,0,L|312:297,3,30,2|0|0|0,3:0|3:0|3:0|3:0,0:0:0:0:
281,354,39558,2,0,L|285:383,3,30,8|8|8|8,0:3|0:3|0:3|0:3,0:0:0:0:
238,343,39874,5,4,3:1:0:0:
152,315,40032,2,0,B|108:299|108:299|92:279|92:279|48:263,2,120,0|0|0,3:0|3:0|3:0,0:0:0:0:
199,237,40822,2,0,L|219:173,1,60,10|0,0:3|0:0,0:0:0:0:
156,112,41137,2,0,L|136:48,1,60,2|0,3:0|0:0,0:0:0:0:
240,152,41453,2,0,L|260:88,1,60,2|0,3:0|0:0,0:0:0:0:
360,28,41769,5,4,3:1:0:0:
360,28,41927,2,0,P|417:12|474:28,2,120,0|0|0,3:0|3:0|3:0,0:0:0:0:
292,88,42716,2,0,P|283:145|294:181,1,90,10|0,0:3|0:0,0:0:0:0:
332,194,43032,2,0,L|380:204,3,30,2|0|0|0,3:0|0:0|0:0|0:0,0:0:0:0:
393,235,43348,2,0,L|441:245,3,30,0|0|0|0,3:0|3:0|3:0|3:0,0:0:0:0:
449,279,43664,5,4,3:1:0:0:
403,356,43822,2,0,B|448:343|448:343|465:325|465:325|511:313,2,120,0|0|0,3:0|3:0|3:0,0:0:0:0:
332,303,44611,2,0,P|300:308|264:304,1,60,10|0,0:3|0:0,0:0:0:0:
298,220,44927,2,0,P|270:206|242:182,1,60,2|0,3:0|0:0,0:0:0:0:
344,319,45243,2,0,P|316:335|280:343,1,60,2|0,3:0|0:0,0:0:0:0:
198,263,45558,37,4,3:1:0:0:
198,263,45716,2,0,P|141:279|84:263,2,120,0|0|0,3:0|3:0|3:0,0:0:0:0:
248,188,46506,2,0,P|250:158|245:128,1,60,10|0,0:3|3:0,0:0:0:0:
327,89,46822,2,0,P|322:59|324:29,1,60,10|0,0:3|3:0,0:0:0:0:
412,60,47137,2,0,L|452:76,3,30,8|8|8|8,0:3|0:3|0:3|0:3,0:0:0:0:
472,56,47453,6,0,B|482:112|482:112|474:134|474:134|482:188,1,134.999995880127,4|0,3:1|0:0,0:0:0:0:
427,259,48085,2,0,L|437:314,1,44.999998626709,0|0,0:0|0:0,0:0:0:0:
480,380,48401,2,0,P|436:344|342:344,1,134.999995880127,2|0,0:0|0:0,0:0:0:0:
288,284,49032,2,0,P|264:280|236:268,1,44.999998626709,0|0,0:0|0:0,0:0:0:0:
188,340,49348,6,0,P|121:342|68:382,1,134.999995880127,2|0,0:0|0:0,0:0:0:0:
12,312,49980,2,0,L|3:267,1,44.999998626709,0|0,0:0|0:0,0:0:0:0:
88,236,50295,2,0,L|104:96,1,134.999995880127,2|0,0:0|0:0,0:0:0:0:
24,56,50927,2,0,L|15:11,1,44.999998626709,0|0,0:0|0:0,0:0:0:0:
108,8,51243,6,0,B|162:16|162:16|184:8|184:8|240:18,1,134.999995880127,2|0,0:0|0:0,0:0:0:0:
264,104,51874,2,0,L|308:112,1,44.999998626709,0|0,0:0|0:0,0:0:0:0:
392,152,52190,2,0,P|325:154|272:194,1,134.999995880127,2|0,0:0|0:0,0:0:0:0:
180,196,52822,2,0,P|184:220|196:248,1,44.999998626709,0|0,0:0|0:0,0:0:0:0:
268,288,53137,38,0,B|344:292|320:332|392:332,1,134.999995880127,2|0,0:0|0:0,0:0:0:0:
388,240,53769,2,0,P|410:236|431:228,1,44.999998626709,0|0,0:0|0:0,0:0:0:0:
484,152,54085,2,0,P|492:108|472:48,1,89.9999972534181,2|2,0:3|0:2,0:0:0:0:
408,12,54558,1,0,1:3:0:0:
408,12,54716,2,0,P|396:31|389:52,1,44.999998626709,8|4,0:3|3:3,0:0:0:0:
292,96,55032,6,0,P|248:84|176:108,1,104.999996795654,4|0,3:1|1:3,0:0:0:0:
124,32,55506,1,0,3:0:0:0:
124,32,55664,2,0,P|101:28|64:20,1,52.4999983978272,0|0,1:3|3:0,0:0:0:0:
12,96,55980,2,0,B|20:139|20:139|17:155|17:155|24:200,1,104.999996795654,8|0,1:3|1:0,0:0:0:0:
44,212,56611,2,0,L|28:280,1,52.4999983978272,2|0,3:1|0:0,0:0:0:0:
72,360,56927,6,0,P|122:346|172:358,1,104.999996795654,0|0,3:3|1:3,0:0:0:0:
256,316,57401,1,0,3:0:0:0:
256,316,57558,2,0,L|268:264,1,52.4999983978272,0|0,1:3|3:0,0:0:0:0:
200,196,57874,2,0,L|180:96,1,78.7499975967408,8|0,1:3|1:3,0:0:0:0:
152,83,58190,2,0,L|212:69,1,52.4999983978272,0|0,3:1|1:3,0:0:0:0:
288,28,58506,2,0,L|338:40,1,52.4999983978272,2|0,3:1|1:3,0:0:0:0:
388,136,58822,6,0,L|492:114,1,104.999996795654,2|0,3:2|1:3,0:0:0:0:
488,208,59295,1,0,3:0:0:0:
488,208,59453,2,0,P|496:236|497:259,1,52.4999983978272,0|0,1:3|3:0,0:0:0:0:
436,332,59769,2,0,P|386:346|335:335,1,104.999996795654,8|0,1:3|1:1,0:0:0:0:
328,356,60401,2,0,P|301:358|276:365,1,52.4999983978272,2|0,3:1|0:0,0:0:0:0:
220,276,60716,38,0,P|170:290|119:279,1,104.999996795654,0|0,3:0|1:3,0:0:0:0:
42,222,61190,1,0,3:0:0:0:
42,222,61348,2,0,P|34:194|33:171,1,52.4999983978272,0|0,1:3|3:0,0:0:0:0:
128,184,61664,2,0,P|140:148|136:84,1,78.7499975967408,8|0,1:3|0:0,0:0:0:0:
185,90,61980,2,0,L|252:79,1,52.4999983978272,0|0,3:0|1:3,0:0:0:0:
244,176,62295,2,0,L|295:184,1,52.4999983978272,0|0,3:0|1:3,0:0:0:0:
340,88,62611,6,0,B|382:77|382:77|398:78|398:78|441:66,1,104.999996795654,4|0,3:1|1:3,0:0:0:0:
460,164,63085,1,0,3:0:0:0:
460,164,63243,2,0,L|511:172,1,52.4999983978272,0|0,1:3|3:0,0:0:0:0:
472,260,63558,2,0,L|491:375,1,104.999996795654,8|0,1:3|1:3,0:0:0:0:
472,376,64190,2,0,P|445:377|420:384,1,52.4999983978272,2|0,3:1|0:0,0:0:0:0:
352,304,64506,6,0,P|300:310|251:292,1,104.999996795654,0|0,3:0|1:3,0:0:0:0:
200,212,64980,1,0,3:0:0:0:
200,212,65137,2,0,P|196:185|199:159,1,52.4999983978272,0|0,1:3|3:0,0:0:0:0:
132,92,65453,2,0,P|137:53|131:14,1,78.7499975967408,8|0,1:3|0:0,0:0:0:0:
84,1,65769,2,0,P|58:-3|31:0,1,52.4999983978272,0|0,3:0|1:3,0:0:0:0:
1,89,66085,2,0,P|-3:114|0:141,1,52.4999983978272,2|0,3:1|1:3,0:0:0:0:
4,246,66401,6,0,P|54:232|105:244,1,104.999996795654,2|0,3:2|1:3,0:0:0:0:
166,315,66874,1,0,3:0:0:0:
166,315,67032,2,0,P|169:340|166:367,1,52.4999983978272,0|0,1:3|3:0,0:0:0:0:
256,332,67348,2,0,P|306:343|356:330,1,104.999996795654,8|0,1:3|1:3,0:0:0:0:
372,344,67980,2,0,P|369:317|372:291,1,52.4999983978272,2|0,3:1|0:0,0:0:0:0:
452,220,68295,38,0,P|463:169|450:119,1,104.999996795654,0|0,3:0|1:3,0:0:0:0:
468,24,68769,1,0,3:0:0:0:
468,24,68927,2,0,P|441:23|416:28,1,52.4999983978272,0|0,1:3|3:0,0:0:0:0:
356,104,69243,2,0,L|260:124,1,78.7499975967408,8|0,1:3|0:0,0:0:0:0:
248,156,69558,2,0,L|190:144,1,52.4999983978272,0|0,3:0|1:3,0:0:0:0:
120,202,69874,2,0,L|68:212,1,52.4999983978272,8|0,1:3|0:0,0:0:0:0:
100,108,70190,6,0,L|48:97,1,52.4999983978272,4|0,3:1|0:0,0:0:0:0:
48,4,70506,2,0,L|99:14,1,52.4999983978272,2|0,3:3|0:0,0:0:0:0:
180,64,70822,2,0,P|189:99|187:135,1,52.4999983978272,2|0,3:0|0:0,0:0:0:0:
268,168,71137,2,0,P|306:160|352:152,1,78.7499975967408,10|0,1:3|0:0,0:0:0:0:
375,190,71453,2,0,P|384:225|382:261,1,52.4999983978272,2|0,3:3|0:0,0:0:0:0:
448,311,71769,2,0,P|438:346|440:382,1,52.4999983978272,2|0,3:3|0:0,0:0:0:0:
332,368,72085,6,0,L|280:378,1,52.4999983978272,4|0,3:1|0:0,0:0:0:0:
240,292,72401,2,0,L|188:281,1,52.4999983978272,2|0,3:3|0:0,0:0:0:0:
144,364,72716,2,0,L|92:374,1,52.4999983978272,2|0,3:3|0:0,0:0:0:0:
60,284,73032,2,0,L|36:204,1,78.7499975967408,10|0,1:3|0:0,0:0:0:0:
44,161,73348,2,0,P|53:136|68:114,1,52.4999983978272,2|0,3:3|0:0,0:0:0:0:
136,180,73664,2,0,P|155:162|178:149,1,52.4999983978272,10|0,1:3|0:0,0:0:0:0:
212,248,73980,6,0,P|216:273|215:299,1,52.4999983978272,4|0,3:1|0:0,0:0:0:0:
280,368,74295,2,0,P|305:363|331:365,1,52.4999983978272,2|0,3:3|0:0,0:0:0:0:
388,288,74611,2,0,P|414:290|440:286,1,52.4999983978272,2|0,3:3|0:0,0:0:0:0:
492,208,74927,2,0,P|496:172|488:124,1,78.7499975967408,10|0,1:3|0:0,0:0:0:0:
508,86,75243,2,0,P|504:60|506:33,1,52.4999983978272,2|0,3:0|0:0,0:0:0:0:
412,24,75558,2,0,P|400:47|396:64,3,26.2499991989136,8|8|8|8,1:3|1:3|1:3|1:3,0:0:0:0:
428,12,75874,38,0,B|378:32|378:32|356:66|356:66|304:89,1,150,0|0,1:0|1:0,0:0:0:0:
212,208,76822,6,0,B|169:196|169:196|153:179|153:179|110:168,1,112.5,0|0,1:0|3:0,0:0:0:0:
68,108,77453,5,8,1:3:0:0:
68,108,77769,6,0,P|92:160|80:268,1,150,4|0,3:1|0:0,0:0:0:0:
84,340,78243,2,0,P|120:332|168:336,1,75,0|0,3:0|0:0,0:0:0:0:
240,372,78558,1,0,3:0:0:0:
240,372,78716,2,0,P|240:334|251:298,1,75,12|0,0:1|0:0,0:0:0:0:
324,356,79032,2,0,P|338:321|360:291,1,75,2|0,3:0|0:0,0:0:0:0:
236,272,79348,2,0,P|239:234|232:197,1,75,2|0,3:0|0:0,0:0:0:0:
348,164,79664,38,0,B|404:180|404:180|424:204|424:204|488:224,1,150,4|0,3:1|0:0,0:0:0:0:
492,132,80137,2,0,L|512:40,1,75,0|0,3:0|0:0,0:0:0:0:
432,8,80453,1,0,3:0:0:0:
432,8,80611,2,0,B|391:19|391:19|377:36|377:36|331:51,1,112.5,12|0,0:1|0:0,0:0:0:0:
286,43,80927,2,0,L|203:28,1,75,2|0,3:0|0:0,0:0:0:0:
220,120,81243,2,0,L|146:133,1,75,2|0,3:0|0:0,0:0:0:0:
100,24,81558,6,0,L|128:200,1,150,4|0,3:1|0:0,0:0:0:0:
48,220,82032,2,0,L|32:293,1,75,0|0,3:0|0:0,0:0:0:0:
100,356,82348,1,0,3:0:0:0:
100,356,82506,2,0,P|136:350|174:354,1,75,12|0,0:1|0:0,0:0:0:0:
224,280,82822,2,0,P|261:277|296:264,1,75,2|0,3:0|0:0,0:0:0:0:
200,368,83137,2,0,P|237:370|272:383,1,75,2|0,3:0|0:0,0:0:0:0:
384,336,83453,6,0,P|348:284|352:176,1,150,4|0,3:1|0:0,0:0:0:0:
432,216,83927,2,0,P|437:178|452:144,1,75,0|0,3:0|0:0,0:0:0:0:
460,56,84243,1,0,3:0:0:0:
460,56,84401,2,0,P|422:61|388:80,1,75,10|0,0:3|3:0,0:0:0:0:
320,24,84716,2,0,P|282:18|248:0,1,75,10|0,0:3|3:0,0:0:0:0:
184,64,85032,2,0,P|152:68|140:72,3,37.5,8|8|8|8,0:3|0:3|0:3|0:3,0:0:0:0:
112,40,85348,6,0,P|140:100|132:192,1,150,4|0,3:1|0:0,0:0:0:0:
76,252,85822,2,0,L|0:272,1,75,0|0,3:0|0:0,0:0:0:0:
40,352,86137,1,0,3:0:0:0:
40,352,86295,2,0,P|77:356|109:374,1,75,12|0,0:1|0:0,0:0:0:0:
156,296,86611,2,0,P|193:291|225:273,1,75,2|0,3:0|0:0,0:0:0:0:
272,384,86927,2,0,P|308:377|345:383,1,75,2|0,3:0|0:0,0:0:0:0:
368,264,87243,38,0,B|424:280|424:280|444:304|444:304|508:324,1,150,4|0,3:1|0:0,0:0:0:0:
452,248,87716,2,0,L|440:152,1,75,0|0,3:0|0:0,0:0:0:0:
356,152,88032,1,0,3:0:0:0:
356,152,88190,2,0,L|372:32,1,112.5,12|0,0:1|0:0,0:0:0:0:
325,32,88506,2,0,L|229:44,1,75,4|0,3:1|0:0,0:0:0:0:
260,132,88822,2,0,L|185:122,1,75,0|0,3:0|0:0,0:0:0:0:
188,244,89137,6,0,B|132:260|132:260|112:284|112:284|48:304,1,150,10|0,0:3|3:0,0:0:0:0:
36,212,89611,1,0,3:0:0:0:
36,212,89769,2,0,L|24:116,1,75,8|0,0:3|3:0,0:0:0:0:
4,52,90085,2,0,P|48:52|104:100,1,112.5,10|0,0:3|0:0,0:0:0:0:
144,81,90401,2,0,L|218:71,1,75,4|0,3:1|3:0,0:0:0:0:
216,164,90716,2,0,L|327:178,1,112.5,10|0,0:3|0:0,0:0:0:0:
366,154,91032,6,0,L|375:228,1,75,10|0,0:3|3:0,0:0:0:0:
423,305,91348,2,0,L|413:379,1,75,10|0,0:3|3:0,0:0:0:0:
332,348,91664,2,0,L|220:333,1,112.5,10|0,0:3|0:0,0:0:0:0:
175,340,91980,2,0,L|166:386,2,37.5,10|8|0,0:3|0:3|3:0,0:0:0:0:
131,263,92295,2,0,L|139:219,2,37.5,4|4|0,3:3|3:3|3:0,0:0:0:0:
51,307,92611,2,0,L|42:353,3,37.5,8|8|8|8,0:3|0:3|0:3|0:3,0:0:0:0:
23,383,92927,6,0,P|-1:331|11:223,1,150,4|0,3:1|0:0,0:0:0:0:
11,149,93401,2,0,P|23:105|19:65,1,75,0|0,3:0|0:0,0:0:0:0:
100,28,93716,1,0,3:0:0:0:
100,28,93874,2,0,P|144:40|184:36,1,75,12|0,0:1|0:0,0:0:0:0:
224,112,94190,2,0,P|268:120|303:141,1,75,2|0,3:0|0:0,0:0:0:0:
192,20,94506,2,0,P|237:13|271:-6,1,75,2|0,3:0|0:0,0:0:0:0:
372,52,94822,38,0,B|428:68|428:68|448:92|448:92|512:112,1,150,4|0,3:1|0:0,0:0:0:0:
416,120,95295,2,0,L|436:212,1,75,0|0,3:0|0:0,0:0:0:0:
500,252,95611,1,0,3:0:0:0:
500,252,95769,2,0,L|480:372,1,112.5,12|0,0:1|0:0,0:0:0:0:
435,363,96085,2,0,L|358:385,1,75,2|0,3:0|0:0,0:0:0:0:
355,293,96401,2,0,L|282:273,1,75,0|0,3:0|0:0,0:0:0:0:
196,356,96716,6,0,P|156:344|52:384,1,150,4|0,3:1|0:0,0:0:0:0:
8,304,97190,2,0,P|20:260|16:220,1,75,0|0,3:0|0:0,0:0:0:0:
22,142,97506,1,0,3:0:0:0:
22,142,97664,2,0,P|57:153|87:175,1,75,12|0,0:1|0:0,0:0:0:0:
96,268,97980,2,0,P|131:255|161:233,1,75,2|0,3:0|0:0,0:0:0:0:
248,152,98295,2,0,P|210:152|174:141,1,75,2|0,3:0|0:0,0:0:0:0:
84,60,98611,6,0,P|157:57|215:11,1,150,4|0,3:1|0:0,0:0:0:0:
292,60,99085,2,0,P|326:70|364:70,1,75,0|0,3:0|0:0,0:0:0:0:
360,164,99401,1,0,3:0:0:0:
360,164,99558,2,0,P|378:196|385:233,1,75,10|0,3:0|3:0,0:0:0:0:
296,228,99874,2,0,P|303:264|298:301,1,75,10|0,3:3|3:0,0:0:0:0:
212,268,100190,2,0,P|176:276|164:284,3,37.5,8|8|8|8,0:3|0:3|0:3|0:3,0:0:0:0:
204,312,100506,6,0,B|260:328|260:328|280:352|280:352|337:370,1,150,4|0,3:1|0:0,0:0:0:0:
408,316,100980,2,0,L|500:300,1,75,0|0,3:0|0:0,0:0:0:0:
504,216,101295,1,0,3:0:0:0:
504,216,101453,2,0,P|508:178|501:142,1,75,12|0,0:1|0:0,0:0:0:0:
420,180,101769,2,0,P|397:150|367:128,1,75,2|0,3:0|0:0,0:0:0:0:
508,108,102085,2,0,P|503:70|510:34,1,75,2|0,3:0|0:0,0:0:0:0:
392,8,102401,38,0,P|340:44|232:28,1,150,4|0,3:1|0:0,0:0:0:0:
212,120,102874,2,0,P|174:121|139:133,1,75,0|0,3:0|0:0,0:0:0:0:
76,200,103190,1,0,3:0:0:0:
76,200,103348,2,0,P|62:248|82:315,1,112.5,12|0,0:1|0:0,0:0:0:0:
114,333,103664,2,0,L|194:362,1,75,4|0,3:1|0:0,0:0:0:0:
212,272,103980,2,0,L|282:246,1,75,0|0,3:0|0:0,0:0:0:0:
312,132,104295,6,0,B|368:148|368:148|388:172|388:172|452:192,1,150,10|0,0:3|3:0,0:0:0:0:
396,116,104769,1,0,3:0:0:0:
396,116,104927,2,0,L|380:12,1,75,8|0,0:3|3:0,0:0:0:0:
300,16,105243,2,0,B|257:21|257:21|241:37|241:37|194:46,1,112.5,10|0,0:3|0:0,0:0:0:0:
162,76,105558,2,0,L|88:61,1,75,4|0,3:1|3:0,0:0:0:0:
123,151,105874,2,0,L|12:129,1,112.5,10|0,0:3|0:0,0:0:0:0:
1,173,106190,6,0,L|12:247,1,75,10|0,0:3|3:0,0:0:0:0:
91,291,106506,2,0,L|79:365,1,75,10|0,0:3|3:0,0:0:0:0:
171,351,106822,2,0,P|224:336|278:350,1,112.5,10|0,0:3|0:0,0:0:0:0:
321,362,107137,2,0,P|354:383|366:387,2,37.5,8|8|0,3:0|3:0|3:0,0:0:0:0:
383,296,107453,2,0,P|419:285|430:278,2,37.5,4|4|0,3:3|3:3|3:0,0:0:0:0:
375,204,107769,2,0,P|339:161|330:106,1,112.5,8|0,0:3|0:0,0:0:0:0:
297,74,108085,5,4,3:1:0:0:
297,74,108243,2,0,P|353:89|410:73,1,120,0|0,3:0|3:0,0:0:0:0:
468,142,108716,2,0,P|484:165|495:203,1,60,0|0,1:3|3:0,0:0:0:0:
404,204,109032,2,0,B|394:252|394:252|398:271|398:271|388:324,1,120,8|0,1:3|1:0,0:0:0:0:
396,344,109664,2,0,P|368:334|328:334,1,60,2|0,3:1|1:3,0:0:0:0:
276,228,109980,37,0,3:3:0:0:
276,228,110137,2,0,P|248:237|208:237,1,60,0|0,3:0|1:3,0:0:0:0:
180,320,110453,1,0,3:0:0:0:
180,320,110611,2,0,P|152:310|112:310,1,60,0|0,1:3|3:0,0:0:0:0:
52,252,110927,2,0,P|44:208|56:160,1,90,8|0,1:3|1:3,0:0:0:0:
47,119,111243,2,0,P|51:90|43:51,1,60,0|0,3:1|1:3,0:0:0:0:
136,76,111558,2,0,P|131:46|136:16,1,60,2|0,3:1|1:3,0:0:0:0:
252,48,111874,5,2,3:2:0:0:
252,48,112032,2,0,B|300:57|300:57|319:53|319:53|372:64,1,120,0|0,3:0|3:0,0:0:0:0:
412,144,112506,2,0,L|476:136,1,60,0|0,1:3|3:0,0:0:0:0:
512,220,112822,2,0,P|453:227|384:236,1,120,8|0,1:3|1:1,0:0:0:0:
376,216,113453,2,0,P|371:245|375:275,1,60,2|0,3:1|1:3,0:0:0:0:
284,364,113769,5,0,3:0:0:0:
284,364,113927,2,0,P|288:334|283:304,1,60,0|0,3:0|1:3,0:0:0:0:
196,332,114243,1,0,3:0:0:0:
196,332,114401,2,0,P|175:310|149:295,1,60,0|0,1:3|3:0,0:0:0:0:
208,228,114716,2,0,P|216:184|204:136,1,90,8|0,1:3|0:0,0:0:0:0:
217,96,115032,2,0,L|281:88,1,60,0|0,3:0|1:3,0:0:0:0:
239,4,115348,2,0,L|179:11,1,60,8|0,3:0|0:0,0:0:0:0:
56,8,115664,5,4,3:1:0:0:
56,8,115822,2,0,P|39:64|52:121,1,120,0|0,3:0|3:0,0:0:0:0:
4,196,116295,2,0,P|8:225|4:255,1,60,0|0,1:3|3:0,0:0:0:0:
68,316,116611,2,0,B|116:325|116:325|135:321|135:321|188:332,1,120,8|0,1:3|1:3,0:0:0:0:
200,352,117243,2,0,L|264:344,1,60,2|0,3:1|1:3,0:0:0:0:
300,232,117558,37,0,3:0:0:0:
300,232,117716,2,0,L|359:239,1,60,0|0,3:0|1:3,0:0:0:0:
388,324,118032,1,0,3:0:0:0:
388,324,118190,2,0,L|452:316,1,60,0|0,1:3|3:0,0:0:0:0:
500,244,118506,2,0,P|508:200|496:152,1,90,8|0,1:3|1:0,0:0:0:0:
465,124,118822,2,0,P|437:133|397:133,1,60,0|0,3:0|1:3,0:0:0:0:
419,44,119137,2,0,P|393:31|364:3,1,60,2|0,3:1|1:3,0:0:0:0:
308,116,119453,5,2,3:2:0:0:
308,116,119611,2,0,P|251:100|194:116,1,120,0|0,3:0|3:0,0:0:0:0:
148,40,120085,2,0,P|120:49|80:49,1,60,0|0,1:3|3:0,0:0:0:0:
36,124,120401,2,0,P|20:180|36:237,1,120,8|0,1:3|3:3,0:0:0:0:
16,252,121032,2,0,L|8:324,1,60,2|0,3:1|1:3,0:0:0:0:
112,376,121348,5,0,3:0:0:0:
112,376,121506,2,0,L|118:316,1,60,0|0,3:0|1:3,0:0:0:0:
208,300,121822,1,0,3:0:0:0:
208,300,121980,2,0,L|201:240,1,60,0|0,1:3|3:0,0:0:0:0:
284,204,122295,2,0,L|296:92,1,90,8|0,1:3|1:0,0:0:0:0:
338,107,122611,2,0,P|365:116|405:116,1,60,0|0,3:0|1:3,0:0:0:0:
392,208,122927,2,0,P|421:209|450:218,1,60,8|0,1:3|0:0,0:0:0:0:
460,340,123243,5,4,3:1:0:0:
460,340,123401,2,0,P|401:346|347:322,1,120,0|0,3:0|3:0,0:0:0:0:
272,372,123874,2,0,P|243:373|214:382,1,60,0|0,1:3|3:0,0:0:0:0:
168,304,124190,2,0,P|109:310|55:286,1,120,8|0,1:3|1:0,0:0:0:0:
60,308,124822,2,0,P|31:309|2:318,1,60,2|0,3:1|1:3,0:0:0:0:
60,212,125137,37,0,3:3:0:0:
60,212,125295,2,0,P|31:211|2:202,1,60,0|0,3:0|1:3,0:0:0:0:
48,124,125611,1,0,3:0:0:0:
48,124,125769,2,0,P|34:98|27:68,1,60,0|0,1:3|3:0,0:0:0:0:
120,64,126085,2,0,P|164:56|212:68,1,90,8|0,1:3|1:3,0:0:0:0:
252,75,126401,2,0,P|268:115|272:147,1,60,0|0,3:1|1:3,0:0:0:0:
343,78,126716,2,0,P|359:38|363:6,1,60,2|0,3:1|1:3,0:0:0:0:
416,128,127032,5,2,3:2:0:0:
416,128,127190,2,0,P|398:184|413:242,1,120,0|0,3:0|3:0,0:0:0:0:
332,284,127664,2,0,P|323:256|306:231,1,60,0|0,1:3|3:0,0:0:0:0:
244,296,127980,2,0,P|185:289|131:313,1,120,8|0,1:3|1:1,0:0:0:0:
124,336,128611,2,0,L|52:360,1,60,2|0,3:1|1:3,0:0:0:0:
60,236,128927,5,0,3:0:0:0:
60,236,129085,2,0,L|3:217,1,60,0|0,3:0|1:3,0:0:0:0:
16,128,129401,1,0,3:0:0:0:
16,128,129558,2,0,L|72:146,1,60,0|0,1:3|3:0,0:0:0:0:
144,204,129874,2,0,B|178:214|178:214|192:212|192:212|230:224,1,90,8|0,1:3|1:0,0:0:0:0:
271,205,130190,2,0,P|300:204|330:210,1,60,0|0,3:0|1:3,0:0:0:0:
292,293,130506,2,0,P|278:334|277:366,1,60,8|0,3:0|0:0,0:0:0:0:
396,352,130822,5,4,3:1:0:0:
396,352,130980,2,0,P|454:345|508:369,1,120,0|0,3:0|3:0,0:0:0:0:
452,300,131453,2,0,P|440:272|436:242,1,60,0|0,1:3|3:0,0:0:0:0:
364,188,131769,2,0,P|379:130|362:73,1,120,8|0,1:3|1:3,0:0:0:0:
380,60,132401,2,0,L|316:52,1,60,2|0,3:1|1:3,0:0:0:0:
232,132,132716,37,0,3:0:0:0:
232,132,132874,2,0,L|172:139,1,60,0|0,3:0|1:3,0:0:0:0:
140,56,133190,1,0,3:0:0:0:
140,56,133348,2,0,L|80:48,1,60,0|0,1:3|3:0,0:0:0:0:
12,108,133664,2,0,L|0:212,1,90,8|0,1:3|0:0,0:0:0:0:
12,241,133980,2,0,P|54:230|86:232,1,60,0|0,3:0|1:3,0:0:0:0:
55,318,134295,2,0,P|49:361|55:392,1,60,0|0,3:0|1:3,0:0:0:0:
173,355,134611,5,2,3:2:0:0:
173,355,134769,2,0,P|229:372|287:357,1,120,0|0,3:0|3:0,0:0:0:0:
328,276,135243,2,0,P|332:246|325:207,1,60,0|0,1:3|3:0,0:0:0:0:
388,152,135558,2,0,P|372:209|389:266,1,120,8|0,1:3|1:3,0:0:0:0:
408,284,136190,2,0,L|476:300,1,60,2|0,3:1|1:3,0:0:0:0:
368,368,136506,5,0,3:0:0:0:
368,368,136664,2,0,L|300:352,1,60,0|0,3:0|1:3,0:0:0:0:
264,276,136980,1,0,3:0:0:0:
264,276,137137,2,0,L|205:289,1,60,0|0,1:3|3:0,0:0:0:0:
152,360,137453,2,0,L|44:336,1,90,8|0,1:3|0:0,0:0:0:0:
58,295,137769,2,0,P|28:297|-1:304,1,60,0|0,3:0|0:0,0:0:0:0:
10,215,138085,2,0,P|20:186|24:157,1,60,8|0,1:3|0:0,0:0:0:0:
113,144,138401,6,0,B|309:144|213:34|410:34,1,330,4|0,3:1|0:0,0:0:0:0:
429,52,142190,38,0,B|331:10|331:10|252:112|319:218,1,330,2|0,0:0|0:0,0:0:0:0:
337,235,145980,6,0,B|225:179|225:179|178:103|178:103|73:55,1,330,2|0,0:0|0:0,0:0:0:0:
48,59,149769,6,0,P|151:7|254:60,1,240,2|0,0:0|0:0,0:0:0:0:
277,71,152611,6,0,L|284:110,1,33.7499989700318,2|8,0:3|0:3,0:0:0:0:
309,185,152927,2,0,L|302:224,1,33.7499989700318,8|0,0:3|3:0,0:0:0:0:
396,228,153243,1,8,0:3:0:0:
396,228,153401,1,8,0:3:0:0:
396,228,153558,38,0,L|511:251,1,104.999996795654,4|0,3:1|1:0,0:0:0:0:
500,343,154032,2,0,L|448:332,1,52.4999983978272,4|0,3:3|0:0,0:0:0:0:
360,364,154348,1,0,3:2:0:0:
360,364,154506,2,0,L|245:387,1,104.999996795654,8|0,0:3|1:0,0:0:0:0:
183,324,154980,1,0,3:2:0:0:
56,184,155295,5,0,3:2:0:0:
56,184,155453,2,0,P|44:220|56:288,1,104.999996795654,4|0,3:1|1:0,0:0:0:0:
132,336,155927,2,0,P|182:324|233:337,1,104.999996795654,4|0,3:3|3:2,0:0:0:0:
280,256,156401,1,8,0:3:0:0:
280,256,156558,1,8,0:3:0:0:
280,256,156716,2,0,P|314:245|337:230,1,52.4999983978272,0|0,1:0|3:2,0:0:0:0:
324,332,157032,2,0,P|349:338|372:349,1,52.4999983978272,4|0,3:3|3:2,0:0:0:0:
448,292,157348,6,0,P|459:241|446:190,1,104.999996795654,4|0,3:1|1:0,0:0:0:0:
504,116,157822,2,0,P|499:79|503:52,1,52.4999983978272,4|0,3:3|0:0,0:0:0:0:
416,20,158137,1,0,3:2:0:0:
416,20,158295,2,0,P|365:34|315:23,1,104.999996795654,8|4,0:3|3:3,0:0:0:0:
268,105,158769,1,0,3:2:0:0:
177,272,159085,5,0,3:2:0:0:
177,272,159243,2,0,P|126:257|76:268,1,104.999996795654,4|0,3:1|1:0,0:0:0:0:
6,203,159716,2,0,P|18:151|4:101,1,104.999996795654,4|0,3:3|3:2,0:0:0:0:
88,52,160190,1,8,0:3:0:0:
88,52,160348,1,8,0:3:0:0:
88,52,160506,2,0,P|114:54|140:51,1,52.4999983978272,0|0,3:2|3:2,0:0:0:0:
204,120,160822,2,0,P|201:146|204:172,1,52.4999983978272,4|0,3:3|3:2,0:0:0:0:
296,144,161137,38,0,P|346:157|397:145,1,104.999996795654,4|0,3:1|1:0,0:0:0:0:
488,116,161611,2,0,P|491:142|488:168,1,52.4999983978272,4|0,3:3|0:0,0:0:0:0:
424,236,161927,1,0,3:2:0:0:
424,236,162085,2,0,P|410:286|422:337,1,104.999996795654,8|0,0:3|1:0,0:0:0:0:
504,384,162558,1,0,3:2:0:0:
316,376,162874,5,0,3:2:0:0:
316,376,163032,2,0,P|265:363|214:376,1,104.999996795654,4|0,3:1|1:0,0:0:0:0:
219,280,163506,2,0,P|168:292|118:279,1,104.999996795654,4|0,0:3|3:2,0:0:0:0:
76,368,163980,1,8,0:3:0:0:
76,368,164137,1,8,0:3:0:0:
76,368,164295,2,0,L|24:377,1,52.4999983978272,0|0,1:0|3:2,0:0:0:0:
20,284,164611,2,0,L|10:232,1,52.4999983978272,4|0,3:3|3:2,0:0:0:0:
96,192,164927,6,0,L|116:84,1,104.999996795654,4|0,3:1|1:0,0:0:0:0:
192,32,165401,2,0,L|243:41,1,52.4999983978272,4|0,3:3|0:0,0:0:0:0:
204,128,165716,1,0,3:2:0:0:
204,128,165874,2,0,L|307:147,1,104.999996795654,8|0,0:3|1:3,0:0:0:0:
380,84,166348,1,4,3:3:0:0:
268,236,166664,5,0,3:2:0:0:
268,236,166822,2,0,P|255:286|268:337,1,104.999996795654,4|0,3:1|1:0,0:0:0:0:
348,287,167295,2,0,P|399:289|444:316,1,104.999996795654,4|0,3:3|3:2,0:0:0:0:
448,228,167769,1,8,0:3:0:0:
448,228,167927,1,8,0:3:0:0:
448,228,168085,2,0,P|473:221|496:209,1,52.4999983978272,0|0,3:2|3:2,0:0:0:0:
508,116,168401,2,0,P|504:96|496:80,3,26.2499991989136,4|4|0|0,3:3|3:3|3:2|3:2,0:0:0:0:
468,56,168716,38,0,P|416:61|373:92,1,104.999996795654,4|0,3:1|1:0,0:0:0:0:
304,28,169190,2,0,P|278:21|255:9,1,52.4999983978272,4|0,3:3|0:0,0:0:0:0:
208,92,169506,1,0,3:2:0:0:
208,92,169664,2,0,P|156:97|113:128,1,104.999996795654,8|0,0:3|1:0,0:0:0:0:
189,185,170137,1,0,3:2:0:0:
32,76,170453,5,0,3:2:0:0:
32,76,170611,2,0,P|19:126|31:176,1,104.999996795654,4|0,3:1|1:0,0:0:0:0:
1,267,171085,2,0,P|50:281|87:318,1,104.999996795654,4|0,3:3|3:2,0:0:0:0:
184,296,171558,1,8,0:3:0:0:
184,296,171716,1,8,0:3:0:0:
184,296,171874,2,0,P|190:321|202:344,1,52.4999983978272,0|0,1:0|3:2,0:0:0:0:
276,288,172190,2,0,P|287:294|300:298,3,26.2499991989136,4|4|0|0,3:3|3:3|3:2|3:2,0:0:0:0:
332,332,172506,6,0,P|381:317|432:328,1,104.999996795654,4|0,3:1|1:0,0:0:0:0:
492,256,172980,2,0,L|504:200,1,52.4999983978272,4|0,3:3|0:0,0:0:0:0:
420,160,173295,1,0,3:2:0:0:
420,160,173453,2,0,L|408:40,1,104.999996795654,8|4,0:3|3:3,0:0:0:0:
488,0,173927,1,4,3:3:0:0:
300,12,174243,5,0,3:2:0:0:
300,12,174401,2,0,L|310:116,1,104.999996795654,4|0,3:1|1:0,0:0:0:0:
226,160,174874,2,0,L|196:285,1,104.999996795654,4|0,3:3|3:2,0:0:0:0:
304,268,175348,1,8,0:3:0:0:
304,268,175506,1,8,0:3:0:0:
304,268,175664,2,0,L|315:319,1,52.4999983978272,0|0,3:0|3:0,0:0:0:0:
228,356,175980,2,0,L|220:392,3,26.2499991989136,4|4|0|0,3:3|3:3|3:2|3:2,0:0:0:0:
180,364,176295,38,0,P|129:377|79:365,1,104.999996795654,4|0,3:1|1:0,0:0:0:0:
128,284,176769,2,0,P|102:277|79:265,1,52.4999983978272,4|0,3:3|0:0,0:0:0:0:
132,188,177085,1,0,3:2:0:0:
132,188,177243,2,0,P|118:137|130:87,1,104.999996795654,8|0,0:3|1:0,0:0:0:0:
64,20,177716,1,0,3:2:0:0:
212,136,178032,5,0,3:2:0:0:
212,136,178190,2,0,P|225:186|213:236,1,104.999996795654,4|0,3:1|1:0,0:0:0:0:
302,268,178664,2,0,P|352:255|402:268,1,104.999996795654,4|0,0:3|3:2,0:0:0:0:
392,174,179137,1,8,0:3:0:0:
392,174,179295,1,8,0:3:0:0:
392,174,179453,2,0,P|417:167|440:155,1,52.4999983978272,0|4,1:0|3:3,0:0:0:0:
488,236,179769,2,0,P|500:239|512:246,4,26.2499991989136,4|4|0|0|4,3:3|3:3|3:2|3:2|3:1,0:0:0:0:
288,64,185453,69,8,0:3:0:0:
288,64,185768,6,0,L|420:48,1,112.5,4|0,3:1|0:0,0:0:0:0:
437,26,186083,2,0,L|445:99,1,75,0|0,3:2|0:0,0:0:0:0:
496,175,186399,2,0,L|487:248,1,75,0|0,3:2|0:0,0:0:0:0:
400,244,186715,2,0,L|413:362,1,112.5,0|0,3:2|0:0,0:0:0:0:
368,368,187031,2,0,P|324:373|284:389,1,75,0|0,3:2|0:0,0:0:0:0:
301,293,187346,2,0,P|263:289|228:277,1,75,0|0,3:2|0:0,0:0:0:0:
148,368,187662,6,0,P|92:356|40:372,1,112.5,4|0,3:1|0:0,0:0:0:0:
12,335,187978,2,0,L|-1:223,1,112.5,0|0,3:2|0:0,0:0:0:0:
16,180,188294,2,0,L|89:171,1,75,0|0,3:2|0:0,0:0:0:0:
176,200,188610,2,0,P|187:164|191:127,1,75,0|0,3:2|0:0,0:0:0:0:
104,144,188925,2,0,P|100:106|88:71,1,75,0|0,3:2|0:0,0:0:0:0:
224,132,189241,2,0,P|227:94|239:59,1,75,2|0,3:3|0:0,0:0:0:0:
340,120,189557,6,0,P|393:133|447:119,1,112.5,4|0,3:1|0:0,0:0:0:0:
463,161,189873,2,0,P|458:198|462:235,1,75,0|0,3:2|0:0,0:0:0:0:
372,248,190189,2,0,P|376:285|372:322,1,75,0|0,3:2|0:0,0:0:0:0:
444,384,190504,2,0,P|390:370|336:384,1,112.5,0|0,3:2|0:0,0:0:0:0:
290,382,190820,2,0,L|206:374,1,75,0|0,3:2|0:0,0:0:0:0:
216,284,191136,2,0,L|141:291,1,75,0|0,3:2|0:0,0:0:0:0:
60,380,191452,38,0,B|47:338|47:338|51:318|51:318|36:263,1,112.5,4|0,3:1|0:0,0:0:0:0:
2,243,191768,2,0,P|-13:189|1:135,1,112.5,0|0,3:2|0:0,0:0:0:0:
44,126,192083,2,0,L|118:118,1,75,0|0,3:2|0:0,0:0:0:0:
163,39,192399,2,0,P|200:41|237:34,1,75,0|0,3:2|0:0,0:0:0:0:
263,123,192715,2,0,P|300:120|337:127,1,75,0|0,3:2|0:0,0:0:0:0:
371,11,193031,2,0,P|408:9|444:-1,1,75,8|0,0:3|3:0,0:0:0:0:
463,119,193346,6,0,P|477:172|464:226,1,112.5,4|0,3:1|0:0,0:0:0:0:
449,270,193662,2,0,P|412:272|376:282,1,75,0|0,3:2|0:0,0:0:0:0:
328,204,193978,2,0,P|291:207|254:200,1,75,0|0,3:2|0:0,0:0:0:0:
296,120,194294,2,0,P|243:101|206:59,1,112.5,8|0,3:0|0:0,0:0:0:0:
171,30,194610,2,0,P|133:24|96:29,1,75,0|0,3:2|0:0,0:0:0:0:
56,108,194925,2,0,P|50:145|55:182,1,75,0|0,3:2|0:0,0:0:0:0:
37,301,195241,6,0,P|90:285|143:297,1,112.5,4|0,3:1|0:0,0:0:0:0:
185,316,195557,2,0,P|198:261|184:208,1,112.5,0|0,3:2|0:0,0:0:0:0:
210,170,195873,2,0,P|247:175|284:170,1,75,0|0,3:2|0:0,0:0:0:0:
282,261,196189,2,0,P|317:272|348:293,1,75,8|0,3:0|0:0,0:0:0:0:
396,217,196504,2,0,P|432:212|467:198,1,75,0|0,3:2|0:0,0:0:0:0:
384,329,196820,2,0,P|419:340|450:361,1,75,0|0,3:2|0:0,0:0:0:0:
506,253,197136,6,0,P|493:198|509:145,1,112.5,4|0,3:1|0:0,0:0:0:0:
490,103,197452,2,0,L|511:27,1,75,0|0,3:2|0:0,0:0:0:0:
419,30,197768,2,0,L|398:106,1,75,0|0,3:2|0:0,0:0:0:0:
327,47,198083,2,0,P|273:60|219:47,1,112.5,8|0,3:0|0:0,0:0:0:0:
173,41,198399,2,0,L|97:57,1,75,0|0,3:2|0:0,0:0:0:0:
120,144,198715,2,0,L|193:128,1,75,0|0,3:2|0:0,0:0:0:0:
180,248,199031,38,0,B|138:235|138:235|118:239|118:239|63:224,1,112.5,4|0,3:1|0:0,0:0:0:0:
31,247,199346,2,0,P|13:297|31:354,1,112.5,0|0,3:2|0:0,0:0:0:0:
73,337,199662,2,0,L|154:359,1,75,0|0,3:2|0:0,0:0:0:0:
228,324,199978,5,8,3:0:0:0:
260,332,200294,1,2,0:2:0:0:
252,300,200610,1,2,0:2:0:0:
248,319,200925,6,0,B|304:333|304:333|333:322|333:322|399:337,1,150,4|0,3:1|0:0,0:0:0:0:
436,256,201399,2,0,L|336:233,1,75,0|0,3:0|0:0,0:0:0:0:
332,156,201715,1,0,3:0:0:0:
332,156,201873,2,0,L|258:172,1,75,10|0,0:3|0:0,0:0:0:0:
196,240,202189,2,0,L|122:223,1,75,2|0,3:0|0:0,0:0:0:0:
76,112,202504,2,0,L|2:128,1,75,2|0,3:0|0:0,0:0:0:0:
40,244,202820,6,0,L|60:96,1,150,4|0,3:1|0:0,0:0:0:0:
112,20,203294,2,0,L|185:3,1,75,0|0,3:0|0:0,0:0:0:0:
224,84,203610,1,0,3:0:0:0:
224,84,203768,2,0,L|333:109,1,112.5,10|0,0:3|0:0,0:0:0:0:
377,97,204083,2,0,P|413:86|450:84,1,75,2|0,3:0|0:0,0:0:0:0:
428,172,204399,2,0,P|465:174|501:184,1,75,0|0,3:0|0:0,0:0:0:0:
508,304,204715,38,0,P|433:304|372:348,1,150,4|0,3:1|0:0,0:0:0:0:
320,272,205189,2,0,P|282:269|246:259,1,75,0|0,3:0|0:0,0:0:0:0:
204,340,205504,1,0,3:0:0:0:
204,340,205662,2,0,P|166:342|130:352,1,75,10|0,0:3|0:0,0:0:0:0:
104,256,205978,2,0,P|66:253|30:243,1,75,2|0,3:0|0:0,0:0:0:0:
100,352,206294,2,0,P|62:354|26:364,1,75,2|0,3:0|0:0,0:0:0:0:
30,243,206610,6,0,P|49:171|25:100,1,150,4|0,3:1|0:0,0:0:0:0:
132,76,207083,2,0,P|163:95|199:107,1,75,0|0,3:0|0:0,0:0:0:0:
288,124,207399,1,0,3:0:0:0:
288,124,207557,2,0,P|272:180|291:242,1,112.5,8|0,3:0|3:0,0:0:0:0:
262,271,207873,2,0,P|266:308|263:345,1,75,8|0,3:3|3:0,0:0:0:0:
350,370,208189,2,0,P|387:368|410:372,3,37.5,8|8|8|8,3:3|3:3|3:3|3:3,0:0:0:0:
396,324,208504,6,0,P|415:252|391:181,1,150,4|0,3:1|0:0,0:0:0:0:
476,148,208978,2,0,P|472:110|477:73,1,75,0|0,3:0|0:0,0:0:0:0:
404,20,209294,1,0,3:0:0:0:
404,20,209452,2,0,P|369:35|333:43,1,75,10|0,0:3|0:0,0:0:0:0:
320,132,209768,2,0,P|285:116|249:108,1,75,2|0,3:0|0:0,0:0:0:0:
188,4,210083,2,0,P|153:19|117:27,1,75,2|0,3:0|0:0,0:0:0:0:
228,76,210399,6,0,B|214:132|214:132|225:161|225:161|210:227,1,150,4|0,3:1|0:0,0:0:0:0:
124,244,210873,2,0,L|144:156,1,75,0|0,3:0|0:0,0:0:0:0:
52,192,211189,1,0,3:0:0:0:
52,192,211346,2,0,L|24:318,1,112.5,10|0,0:3|0:0,0:0:0:0:
66,325,211662,2,0,L|151:352,1,75,4|0,3:1|0:0,0:0:0:0:
164,260,211978,2,0,L|235:237,1,75,10|0,3:0|0:0,0:0:0:0:
276,352,212294,38,0,B|332:366|332:366|361:355|361:355|427:370,1,150,10|0,0:3|3:0,0:0:0:0:
344,320,212768,1,0,3:0:0:0:
344,320,212925,2,0,L|332:216,1,75,8|0,0:3|3:0,0:0:0:0:
416,204,213241,2,0,L|428:84,1,112.5,10|0,0:3|0:0,0:0:0:0:
455,56,213557,2,0,L|376:48,1,75,4|0,3:1|3:0,0:0:0:0:
308,4,213873,2,0,L|188:20,1,112.5,10|0,0:3|0:0,0:0:0:0:
152,7,214189,6,0,L|73:-1,1,75,10|0,0:3|3:0,0:0:0:0:
57,87,214504,2,0,L|131:94,1,75,10|0,0:3|3:0,0:0:0:0:
192,168,214820,2,0,P|207:221|193:275,1,112.5,10|0,0:3|0:0,0:0:0:0:
156,302,215136,2,0,P|123:323|111:327,2,37.5,8|8|0,3:0|3:0|3:0,0:0:0:0:
236,347,215452,2,0,P|235:386|238:398,2,37.5,4|4|0,3:3|3:3|3:0,0:0:0:0:
308,295,215768,2,0,P|308:255|305:243,3,37.5,8|8|8|8,0:3|0:3|0:3|0:3,0:0:0:0:
344,231,216083,54,0,P|329:177|344:123,1,112.5,12|0,3:1|0:0,0:0:0:0:
378,95,216399,2,0,L|452:88,1,75,8|0,0:3|3:0,0:0:0:0:
416,8,216715,2,0,L|342:15,1,75,8|0,0:3|3:0,0:0:0:0:
278,80,217031,2,0,P|240:83|204:93,1,75,8|0,0:3|3:0,0:0:0:0:
154,17,217346,2,0,P|116:14|80:4,1,75,8|0,0:3|3:0,0:0:0:0:
180,136,217662,2,0,P|142:139|106:149,1,75,8|0,0:3|3:0,0:0:0:0:
24,240,217978,70,0,P|9:293|24:347,1,112.5,8|0,0:3|0:0,0:0:0:0:
69,353,218294,2,0,P|107:356|143:366,1,75,8|0,0:3|3:0,0:0:0:0:
128,276,218610,2,0,P|166:273|202:263,1,75,8|0,0:3|3:0,0:0:0:0:
236,348,218925,2,0,P|274:351|310:361,1,75,8|0,0:3|3:0,0:0:0:0:
328,240,219241,2,0,P|365:234|400:221,1,75,8|0,0:3|3:0,0:0:0:0:
452,296,219557,2,0,P|470:298|488:303,3,37.5,8|8|8|8,0:3|0:3|0:3|0:3,0:0:0:0:
496,348,219873,6,0,L|512:232,1,112.5,12|0,3:1|0:0,0:0:0:0:
490,195,220189,2,0,L|479:119,1,75,8|0,0:3|3:0,0:0:0:0:
401,74,220504,2,0,L|412:-3,1,75,8|0,0:3|3:0,0:0:0:0:
320,0,220820,2,0,L|245:11,1,75,8|0,0:3|3:0,0:0:0:0:
244,100,221136,2,0,L|169:88,1,75,8|0,0:3|3:0,0:0:0:0:
168,208,221452,2,0,L|93:219,1,75,8|0,0:3|3:0,0:0:0:0:
28,120,221768,70,0,B|40:76|40:76|32:56|32:56|44:12,1,112.5,8|0,0:3|0:0,0:0:0:0:
88,11,222083,2,0,L|162:-1,1,75,8|0,0:3|3:0,0:0:0:0:
137,86,222399,2,0,L|211:97,1,75,8|0,0:3|3:0,0:0:0:0:
301,102,222715,2,0,L|312:176,1,75,8|0,0:3|3:0,0:0:0:0:
192,196,223031,2,0,L|180:270,1,75,8|0,0:3|3:0,0:0:0:0:
248,332,223346,2,0,L|256:376,3,37.5,8|8|8|8,0:3|0:3|0:3|0:3,0:0:0:0:
212,356,223662,6,0,B|256:368|256:368|276:360|276:360|320:372,1,112.5,12|0,3:1|3:0,0:0:0:0:
362,354,223978,2,0,L|411:367,2,37.5,8|0|0,3:0|3:0|3:0,0:0:0:0:
383,267,224294,2,0,L|419:257,2,37.5,8|0|0,3:0|3:0|3:0,0:0:0:0:
319,203,224610,2,0,L|323:163,2,37.5,8|0|0,3:0|3:0|3:0,0:0:0:0:
243,251,224925,2,0,L|199:231,2,37.5,8|0|0,3:0|3:0|3:0,0:0:0:0:
347,187,225241,2,0,L|351:147,2,37.5,8|0|0,3:0|3:0|3:0,0:0:0:0:
435,123,225557,70,0,L|423:255,1,112.5,8|0,3:0|3:0,0:0:0:0:
459,264,225873,2,0,P|477:266|495:271,2,37.5,8|0|0,3:0|3:0|3:0,0:0:0:0:
462,356,226189,2,0,P|476:367|488:381,2,37.5,8|0|0,3:0|3:0|3:0,0:0:0:0:
382,312,226504,2,0,P|375:329|372:348,2,37.5,8|0|0,3:0|3:0|3:0,0:0:0:0:
302,272,226820,2,0,P|298:253|292:235,2,37.5,8|0|0,3:0|3:0|3:0,0:0:0:0:
210,348,227136,2,0,P|203:365|200:384,2,37.5,8|0|0,3:0|3:0|3:0,0:0:0:0:
126,260,227452,6,0,P|141:206|126:152,1,112.5,8|0,3:0|3:0,0:0:0:0:
90,125,227768,2,0,P|82:108|72:92,2,37.5,8|0|0,3:0|3:0|3:0,0:0:0:0:
158,65,228083,2,0,P|159:46|158:28,2,37.5,8|0|0,3:0|3:0|3:0,0:0:0:0:
238,109,228399,2,0,P|236:127|237:145,2,37.5,8|0|0,3:0|3:0|3:0,0:0:0:0:
314,61,228715,2,0,P|315:42|314:24,2,37.5,8|0|0,3:0|3:0|3:0,0:0:0:0:
214,121,229031,2,0,P|212:139|213:157,2,37.5,8|0|0,3:0|3:0|3:0,0:0:0:0:
228,244,229346,70,0,P|281:229|335:244,1,112.5,8|0,3:0|3:0,0:0:0:0:
380,251,229662,2,0,L|389:307,3,37.5,8|0|0|0,3:0|3:0|3:0|3:0,0:0:0:0:
352,319,229978,2,0,L|361:375,3,37.5,8|0|0|0,3:0|3:0|3:0|3:0,0:0:0:0:
398,376,230294,2,0,P|410:380|434:384,3,37.5,8|0|0|0,3:0|3:0|3:0|3:0,0:0:0:0:
459,345,230610,2,0,P|477:342|495:336,3,37.5,8|0|0|0,3:0|3:0|3:0|3:0,0:0:0:0:
485,291,230925,2,0,P|499:279|512:265,3,37.5,8|0|0|0,3:0|3:0|3:0|3:0,0:0:0:0:
492,223,231241,5,12,3:1:0:0:
256,192,231320,12,0,236768,0:0:0:0:
