osu file format v14

[General]
AudioFilename: audio.mp3
AudioLeadIn: 0
PreviewTime: 77295
Countdown: 0
SampleSet: Soft
StackLeniency: 0.7
Mode: 0
LetterboxInBreaks: 0
EpilepsyWarning: 1
WidescreenStoryboard: 1

[Editor]
Bookmarks: 17137,32295,47453,54953,70190,77769,108085,123243,138401,153558,180085,185769,200927,216085,223664
DistanceSpacing: 1
BeatDivisor: 4
GridSize: 4
TimelineZoom: 1.5

[Metadata]
Title:-ELIS-
TitleUnicode:-ELIS-
Artist:Yuyoyuppe
ArtistUnicode:ゆよゆっぺ
Creator:Seto Kousuke
Version:Extreme
Source:
Tags:Draw the Emotional meola feat. 巡音ルカ Megurine Luka Solitude Freak Ruuya Novelty Japanese Vocaloid Shirahane_Suou Shirahane Suou SrSkyPlayer Senhor Enerugii -Mikan Mikan
BeatmapID:1942387
BeatmapSetID:930062

[Difficulty]
HPDrainRate:6
CircleSize:4
OverallDifficulty:9
ApproachRate:9.4
SliderMultiplier:2.2
SliderTickRate:1

[Events]
//Background and Video events
0,0,"belladonna_by_ruuya_d5svnth.jpg",0,0
//Break Periods
//Storyboard Layer 0 (Background)
//Storyboard Layer 1 (Fail)
//Storyboard Layer 2 (Pass)
//Storyboard Layer 3 (Foreground)
//Storyboard Sound Samples

[TimingPoints]
1032,315.789473684211,6,2,2,30,1,0
1980,315.789473684211,6,2,2,30,1,0
1980,-200,6,2,2,30,0,0
15243,-200,6,2,1,40,0,0
17137,-133.333333333333,6,2,1,40,0,0
30401,-133.333333333333,6,2,1,50,0,0
32295,-90.9090909090909,6,2,1,60,0,0
33874,-181.818181818181,6,2,1,60,0,0
34032,-181.818181818181,6,2,1,5,0,0
34190,-90.9090909090909,6,2,1,60,0,0
35137,-76.9230769230769,6,2,1,60,0,0
35295,-76.9230769230769,6,2,1,5,0,0
35453,-90.9090909090909,6,2,1,60,0,0
37664,-181.818181818181,6,2,1,60,0,0
37822,-181.818181818181,6,2,1,5,0,0
37980,-90.9090909090909,6,2,1,60,0,0
41453,-181.818181818181,6,2,1,60,0,0
41611,-181.818181818181,6,2,1,5,0,0
41769,-90.9090909090909,6,2,1,60,0,0
42716,-76.9230769230769,6,2,1,60,0,0
42874,-76.9230769230769,6,2,1,5,0,0
43032,-90.9090909090909,6,2,1,60,0,0
45243,-181.818181818181,6,2,1,60,0,0
45401,-181.818181818181,6,2,1,5,0,0
45558,-90.9090909090909,6,2,1,60,0,0
47453,-285.714285714284,6,2,1,60,0,0
47532,-285.714285714284,6,2,2,40,0,0
54085,-285.714285714284,6,2,1,50,0,0
55032,-133.333333333333,6,2,1,50,0,0
70190,-133.333333333333,6,2,1,60,0,0
76190,-133.333333333333,6,2,1,40,0,0
77295,-133.333333333333,6,2,1,60,0,0
77453,-399.999999999997,6,2,1,60,0,0
77611,-399.999999999997,6,2,1,5,0,0
77769,-100,6,2,1,70,0,1
92927,-90.9090909090909,6,2,1,70,0,1
94506,-250,6,2,1,70,0,1
94822,-90.9090909090909,6,2,1,70,0,1
98295,-250,6,2,1,70,0,1
98611,-90.9090909090909,6,2,1,70,0,1
102085,-250,6,2,1,70,0,1
102401,-90.9090909090909,6,2,1,70,0,1
108085,-117.647058823529,6,2,1,60,0,0
138401,-285.714285714283,6,2,1,60,0,0
138558,-285.714285714283,6,2,2,25,0,0
152611,-285.714285714283,6,2,1,60,0,0
153558,-133.333333333333,6,2,1,60,0,0
180085,327.868852459016,6,2,1,60,1,0
180085,-1000,6,2,1,60,0,0
180164,-1000,6,2,2,30,0,0
185453,315.789473684211,6,2,1,70,1,0
185453,-1000,6,2,1,70,0,0
185768,315.789473684211,6,2,1,70,1,0
185768,-181.818181818181,6,2,1,70,0,0
200925,-90.9090909090909,6,2,1,80,0,1
202504,-250,6,2,1,80,0,1
202820,-90.9090909090909,6,2,1,80,0,1
206294,-250,6,2,1,80,0,1
206610,-90.9090909090909,6,2,1,80,0,1
210083,-250,6,2,1,80,0,1
210399,-90.9090909090909,6,2,1,80,0,1
216004,-90.9090909090909,6,2,1,80,0,0
216083,-125,6,2,1,90,0,1
223583,-125,6,2,1,90,0,0
223662,-125,6,2,1,90,0,1
231241,-90.9090909090909,6,2,1,90,0,0
231322,-90.9090909090909,6,2,1,70,0,0
231874,-90.9090909090909,6,2,1,60,0,0
232506,-90.9090909090909,6,2,1,50,0,0
233137,-90.9090909090909,6,2,1,40,0,0
233769,-90.9090909090909,6,2,1,30,0,0
234401,-90.9090909090909,6,2,1,20,0,0
236295,-90.9090909090909,6,2,1,10,0,0

[Colours]
Combo1 : 255,23,23
Combo2 : 187,165,178
Combo3 : 234,181,196
Combo4 : 158,97,139
Combo5 : 128,99,101
Combo6 : 228,69,81

[HitObjects]
207,36,1032,5,2,0:0:0:0:
124,51,1347,1,2,0:0:0:0:
83,138,1663,1,2,0:0:0:0:
124,246,1980,6,0,B|161:263|161:263|195:230|240:243,2,110,2|0|0,0:0|0:0|0:0,0:0:0:0:
297,364,2927,1,2,0:0:0:0:
359,292,3243,1,2,0:0:0:0:
319,205,3558,1,2,0:0:0:0:
168,357,3874,6,0,L|50:361,2,110,2|0|0,0:0|0:0|0:0,0:0:0:0:
359,292,4822,1,2,0:0:0:0:
303,365,5137,1,2,0:0:0:0:
232,299,5453,1,2,0:0:0:0:
178,117,5769,6,0,B|181:71|196:49|196:49|242:41,2,110,2|0|0,0:0|0:0|0:0,0:0:0:0:
364,192,6716,1,2,0:0:0:0:
440,137,7032,1,2,0:0:0:0:
298,125,7348,1,2,0:0:0:0:
351,296,7664,38,0,P|372:238|351:171,2,110,2|0|0,0:0|0:0|0:0,0:0:0:0:
140,189,8611,1,2,0:0:0:0:
73,332,8927,1,2,0:0:0:0:
73,332,9558,6,0,P|79:281|30:227,2,110,2|0|0,0:0|0:0|0:0,0:0:0:0:
27,125,10506,1,2,0:0:0:0:
102,59,10822,1,2,0:0:0:0:
196,104,11137,1,2,0:0:0:0:
286,276,11453,6,0,B|269:337|269:337|217:365,2,110,2|0|0,0:0|0:0|0:0,0:0:0:0:
336,83,12401,1,2,0:0:0:0:
425,183,12716,1,2,0:0:0:0:
475,64,13032,1,2,0:0:0:0:
273,18,13348,6,0,P|217:29|174:79,2,110,2|0|0,0:0|0:0|0:0,0:0:0:0:
316,213,14295,1,2,0:0:0:0:
318,308,14611,1,2,0:0:0:0:
242,372,14927,1,2,0:0:0:0:
85,278,15243,37,0,1:0:0:0:
85,249,15558,1,0,1:0:0:0:
85,220,15874,1,0,1:0:0:0:
243,90,16190,1,2,0:3:0:0:
58,29,16506,1,2,0:2:0:0:
75,124,16664,1,8,0:3:0:0:
75,124,16743,1,8,0:3:0:0:
75,124,16822,1,8,0:3:0:0:
158,42,16980,1,8,0:3:0:0:
268,180,17137,6,0,L|270:365,1,165.000006294251,2|0,3:2|1:0,0:0:0:0:
177,209,17611,2,0,L|178:315,1,82.5000031471254,4|0,3:3|1:0,0:0:0:0:
362,241,17927,1,0,3:2:0:0:
293,91,18085,2,0,P|230:88|191:125,1,82.5000031471254,8|0,0:3|3:2,0:0:0:0:
31,43,18401,1,0,1:0:0:0:
79,210,18558,1,0,3:2:0:0:
113,111,18716,1,0,1:0:0:0:
0,145,18874,1,0,3:2:0:0:
35,340,19032,6,0,B|81:375|81:375|120:336|206:346,1,165.000006294251,0|0,3:2|1:0,0:0:0:0:
402,342,19506,1,8,0:3:0:0:
274,307,19664,1,0,1:0:0:0:
356,252,19822,1,0,3:2:0:0:
174,119,19980,5,8,0:3:0:0:
364,76,20137,1,8,0:3:0:0:
159,28,20295,1,0,1:0:0:0:
266,87,20453,1,4,3:3:0:0:
123,207,20611,1,0,3:2:0:0:
60,87,20769,1,0,3:2:0:0:
260,214,20927,38,0,P|251:276|143:296,1,165.000006294251,2|0,3:2|1:0,0:0:0:0:
0,319,21401,2,0,P|-3:278|14:242,1,82.5000031471254,4|0,3:3|1:0,0:0:0:0:
150,102,21716,1,0,3:2:0:0:
162,306,21874,2,0,L|72:300,1,82.5000031471254,8|0,0:3|3:2,0:0:0:0:
33,137,22190,1,4,3:3:0:0:
147,196,22348,1,0,3:2:0:0:
225,60,22506,1,8,0:3:0:0:
224,49,22585,1,8,0:3:0:0:
224,39,22664,1,8,0:3:0:0:
224,29,22743,1,8,0:3:0:0:
224,18,22822,6,0,P|289:25|342:118,1,165.000006294251,0|0,3:2|1:0,0:0:0:0:
451,310,23295,2,0,P|373:285|436:250,1,165.000006294251,8|0,0:3|3:2,0:0:0:0:
267,369,23769,2,0,P|225:370|177:313,1,82.5000031471254,8|0,0:3|3:2,0:0:0:0:
114,203,24085,1,8,0:3:0:0:
267,269,24243,1,8,0:3:0:0:
389,118,24401,1,2,1:2:0:0:
389,107,24480,1,0,1:0:0:0:
389,97,24558,1,0,1:0:0:0:
390,87,24637,1,0,1:0:0:0:
390,76,24716,6,0,P|335:43|230:109,1,165.000006294251,2|0,3:2|1:0,0:0:0:0:
83,107,25190,2,0,P|85:147|109:181,1,82.5000031471254,4|0,3:3|1:0,0:0:0:0:
317,162,25506,1,0,3:2:0:0:
202,350,25664,2,0,L|109:350,1,82.5000031471254,8|0,0:3|3:2,0:0:0:0:
226,234,25980,1,0,1:0:0:0:
406,243,26137,1,0,3:2:0:0:
311,323,26295,1,0,1:0:0:0:
317,162,26453,1,0,3:2:0:0:
146,281,26611,6,0,P|90:265|86:161,1,165.000006294251,0|0,3:2|1:0,0:0:0:0:
239,42,27085,1,8,0:3:0:0:
119,59,27243,1,0,1:0:0:0:
205,163,27401,1,0,3:2:0:0:
380,25,27558,37,8,0:3:0:0:
410,222,27716,1,8,0:3:0:0:
484,96,27874,1,0,1:0:0:0:
303,200,28032,1,4,3:3:0:0:
402,325,28190,1,0,3:2:0:0:
387,120,28348,1,0,3:2:0:0:
245,319,28506,6,0,P|305:343|417:314,1,165.000006294251,2|0,3:2|1:0,0:0:0:0:
180,230,28980,2,0,P|140:219|93:232,1,82.5000031471254,4|0,3:3|1:0,0:0:0:0:
134,337,29295,1,0,3:2:0:0:
327,246,29453,1,8,0:3:0:0:
255,159,29611,1,0,3:2:0:0:
335,14,29769,5,4,3:3:0:0:
363,23,29848,1,4,3:0:0:0:
380,49,29927,1,0,3:2:0:0:
378,79,30006,1,0,3:0:0:0:
357,102,30085,1,8,0:3:0:0:
322,65,30164,1,8,0:3:0:0:
273,51,30243,1,8,0:3:0:0:
224,65,30322,1,8,0:3:0:0:
188,101,30401,6,0,P|180:142|186:197,1,82.5000031471254,2|0,3:0|0:0,0:0:0:0:
81,311,30716,2,0,P|61:274|52:235,1,82.5000031471254,2|0,1:3|3:0,0:0:0:0:
320,181,31032,1,10,0:3:0:0:
218,310,31190,1,0,3:0:0:0:
414,361,31348,37,8,0:3:0:0:
418,330,31427,1,8,0:3:0:0:
423,299,31506,1,0,3:0:0:0:
427,269,31585,1,0,3:0:0:0:
474,245,31664,1,0,3:0:0:0:
469,184,31743,1,0,3:0:0:0:
426,142,31822,1,0,3:0:0:0:
365,141,31901,1,0,3:0:0:0:
320,181,31980,1,8,0:3:0:0:
63,164,32295,5,4,3:1:0:0:
278,82,32453,2,0,P|191:57|110:99,1,181.500005538941,0|0,3:0|0:0,0:0:0:0:
212,227,32769,2,0,P|235:157|159:185,1,181.500005538941,0|0,3:0|0:0,0:0:0:0:
129,259,33085,1,0,3:0:0:0:
459,384,33243,2,0,B|492:334|492:334|483:303|489:251|489:251|464:298,1,181.500005538941,10|0,0:3|0:0,0:0:0:0:
305,251,33558,2,0,B|315:288|354:322|354:322|392:289|405:240,1,181.500005538941,2|0,3:0|0:0,0:0:0:0:
390,70,33874,6,0,P|342:62|299:91,1,90.7500027694703,2|0,3:0|0:0,0:0:0:0:
280,118,34190,5,4,3:1:0:0:
130,21,34348,2,0,B|108:88|129:159|129:159|157:110,1,181.500005538941,0|0,3:0|0:0,0:0:0:0:
41,8,34664,2,0,P|24:89|42:192,1,181.500005538941,0|0,3:0|0:0,0:0:0:0:
107,236,34980,1,0,3:0:0:0:
117,246,35058,1,0,3:0:0:0:
128,257,35137,38,0,B|155:258|186:268|186:268|202:250|202:250|233:270|262:276|262:276|291:259|382:257,1,214.49999018097,10|0,0:3|0:0,0:0:0:0:
487,207,35453,1,2,3:0:0:0:
487,207,35769,5,0,3:0:0:0:
444,219,35848,1,0,3:0:0:0:
415,254,35927,1,0,3:0:0:0:
411,298,36006,1,0,3:0:0:0:
433,337,36085,5,4,3:1:0:0:
391,149,36243,2,0,B|360:132|335:136|335:136|274:181|212:159,1,181.500005538941,0|0,3:0|0:0,0:0:0:0:
38,128,36558,2,0,P|99:91|107:180,1,181.500005538941,0|0,3:0|0:0,0:0:0:0:
36,219,36874,1,0,3:0:0:0:
217,382,37032,2,0,P|296:355|297:265,1,181.500005538941,10|0,0:3|0:0,0:0:0:0:
362,208,37348,2,0,B|295:160|237:202|237:202|222:189|218:158,1,181.500005538941,2|0,3:0|0:0,0:0:0:0:
436,166,37664,6,0,P|452:210|435:251,1,90.7500027694703,2|0,3:0|0:0,0:0:0:0:
406,280,37980,37,4,3:1:0:0:
218,160,38137,2,0,P|209:97|258:44,1,121.000003692627,0|0,3:0|0:0,0:0:0:0:
292,317,38453,1,0,3:0:0:0:
330,158,38611,1,0,0:0:0:0:
164,264,38769,1,0,3:0:0:0:
164,264,38848,1,0,3:0:0:0:
164,264,38927,1,10,0:3:0:0:
125,293,39006,1,8,0:3:0:0:
81,278,39085,1,0,3:0:0:0:
70,230,39164,1,0,3:0:0:0:
105,197,39243,1,2,3:0:0:0:
150,180,39322,1,0,3:0:0:0:
165,134,39401,1,0,3:0:0:0:
139,94,39480,1,0,3:0:0:0:
91,89,39558,6,0,P|65:110|57:144,1,60.5000018463135,8|8,0:3|0:3,0:0:0:0:
245,212,39716,2,0,P|260:186|262:156,1,60.5000018463135,8|8,0:3|0:3,0:0:0:0:
233,18,39874,5,4,3:1:0:0:
150,180,40032,2,0,L|143:365,1,181.500005538941,0|0,3:0|0:0,0:0:0:0:
309,382,40348,2,0,P|363:348|288:261,1,181.500005538941,0|0,3:0|0:0,0:0:0:0:
254,311,40664,1,0,3:0:0:0:
418,152,40822,2,0,B|436:176|438:190|438:190|398:207|362:183|362:183|333:170|299:181,1,181.500005538941,10|0,0:3|0:0,0:0:0:0:
116,217,41137,2,0,P|180:239|147:141,1,181.500005538941,2|0,3:0|0:0,0:0:0:0:
47,23,41453,6,0,L|37:134,1,90.7500027694703,2|0,3:0|0:0,0:0:0:0:
35,145,41769,37,4,3:1:0:0:
204,38,41927,2,0,L|340:48,1,121.000003692627,0|0,3:0|0:0,0:0:0:0:
478,216,42243,1,0,3:0:0:0:
456,74,42401,1,0,0:0:0:0:
348,238,42558,1,0,3:0:0:0:
338,248,42637,1,0,3:0:0:0:
327,259,42716,6,0,B|300:257|300:257|273:271|244:263|244:263|222:276|213:299|213:299|178:277|178:277|121:285|87:263,1,214.49999018097,10|0,0:3|0:0,0:0:0:0:
27,146,43032,1,2,3:0:0:0:
27,146,43348,5,0,3:0:0:0:
82,166,43427,1,0,3:0:0:0:
139,149,43506,1,0,3:0:0:0:
175,102,43585,1,0,3:0:0:0:
175,42,43664,5,4,3:1:0:0:
330,170,43822,2,0,P|422:125|354:52,1,181.500005538941,0|0,3:0|0:0,0:0:0:0:
247,246,44137,2,0,P|238:328|319:347,1,181.500005538941,0|0,3:0|0:0,0:0:0:0:
401,306,44453,1,0,3:0:0:0:
232,162,44611,2,0,B|209:153|167:162|167:162|131:145|131:145|89:166|36:144,1,181.500005538941,10|0,0:3|0:0,0:0:0:0:
328,56,44927,2,0,P|385:97|307:164,1,181.500005538941,2|0,3:0|0:0,0:0:0:0:
131,47,45243,38,0,P|179:42|222:57,1,90.7500027694703,2|0,3:0|0:0,0:0:0:0:
247,81,45558,5,4,3:1:0:0:
444,45,45716,2,0,L|438:187,1,121.000003692627,0|0,3:0|0:0,0:0:0:0:
327,356,46032,1,0,3:0:0:0:
250,225,46190,1,0,0:0:0:0:
105,347,46348,5,0,3:0:0:0:
105,347,46427,1,0,3:0:0:0:
105,347,46506,2,0,P|89:316|93:284,1,60.5000018463135,10|8,0:3|0:3,0:0:0:0:
189,87,46664,1,0,3:0:0:0:
189,87,46743,1,0,3:0:0:0:
189,87,46822,2,0,P|205:118|201:150,1,60.5000018463135,10|8,0:3|0:3,0:0:0:0:
40,221,46980,5,0,3:0:0:0:
80,201,47058,1,0,3:0:0:0:
124,205,47137,1,8,0:3:0:0:
161,231,47216,1,8,0:3:0:0:
178,273,47295,1,8,0:3:0:0:
221,308,47374,1,8,0:3:0:0:
280,292,47453,38,0,P|311:211|287:149,1,153.999995300293,4|0,3:1|0:0,0:0:0:0:
200,81,48401,2,0,P|248:79|359:44,1,153.999995300293,2|0,0:0|0:0,0:0:0:0:
482,196,49348,2,0,P|423:214|371:293,1,153.999995300293,2|0,0:0|0:0,0:0:0:0:
367,383,50295,1,2,0:0:0:0:
367,383,50927,1,0,0:0:0:0:
300,316,51243,6,0,B|240:288|222:340|151:307,1,153.999995300293,2|0,0:0|0:0,0:0:0:0:
76,242,52190,2,0,P|81:185|163:183,1,153.999995300293,2|0,0:0|0:0,0:0:0:0:
357,160,53137,2,0,P|333:152|248:46,1,153.999995300293,2|0,0:0|0:0,0:0:0:0:
72,52,54085,5,2,0:3:0:0:
93,69,54401,1,2,0:2:0:0:
14,146,54558,1,0,1:3:0:0:
8,155,54637,1,0,1:0:0:0:
2,163,54716,5,8,0:3:0:0:
128,166,54874,1,4,3:3:0:0:
168,333,55032,38,0,P|98:370|33:327,1,165.000006294251,4|0,3:1|1:3,0:0:0:0:
199,238,55506,2,0,P|241:230|293:241,1,82.5000031471254,0|0,3:0|1:3,0:0:0:0:
346,312,55822,1,0,3:0:0:0:
455,195,55980,2,0,L|455:84,1,82.5000031471254,8|0,1:3|1:3,0:0:0:0:
454,100,56216,1,0,1:3:0:0:
454,87,56295,1,0,1:0:0:0:
95,60,56611,1,2,3:1:0:0:
115,56,56927,6,0,P|157:80|139:190,1,165.000006294251,0|0,3:3|1:3,0:0:0:0:
256,338,57401,2,0,P|241:297|258:250,1,82.5000031471254,0|0,3:0|1:3,0:0:0:0:
324,195,57716,1,0,3:0:0:0:
141,312,57874,1,8,1:3:0:0:
340,303,58032,1,0,1:3:0:0:
340,303,58111,1,0,1:3:0:0:
340,303,58190,1,0,3:1:0:0:
235,178,58348,1,0,1:3:0:0:
235,178,58427,1,0,1:3:0:0:
235,178,58506,1,2,3:1:0:0:
141,312,58664,1,0,1:3:0:0:
141,312,58743,1,0,1:3:0:0:
141,312,58822,6,0,P|84:275|120:185,1,165.000006294251,2|0,3:2|1:3,0:0:0:0:
285,76,59295,1,0,3:0:0:0:
285,76,59374,1,0,1:3:0:0:
285,76,59453,1,0,1:3:0:0:
157,92,59611,1,0,3:0:0:0:
314,253,59769,1,8,1:3:0:0:
341,234,60085,1,0,1:1:0:0:
171,346,60401,1,2,3:1:0:0:
368,215,60716,6,0,P|382:162|299:94,1,165.000006294251,0|0,3:0|1:3,0:0:0:0:
139,40,61190,2,0,L|155:128,1,82.5000031471254,0|0,3:0|1:3,0:0:0:0:
30,41,61506,1,0,3:0:0:0:
77,253,61664,1,8,1:3:0:0:
53,148,61822,1,0,1:3:0:0:
204,230,61980,1,0,3:0:0:0:
107,360,62137,1,0,1:3:0:0:
107,360,62216,1,0,1:3:0:0:
107,360,62295,1,0,3:0:0:0:
77,253,62453,1,0,1:3:0:0:
264,360,62611,38,0,B|294:359|322:363|322:363|363:350|363:350|401:356|437:351,1,165.000006294251,4|0,3:1|1:3,0:0:0:0:
512,250,63085,1,0,3:0:0:0:
512,250,63164,1,0,1:3:0:0:
512,250,63243,1,0,1:3:0:0:
454,126,63401,1,0,3:0:0:0:
306,272,63558,2,0,L|203:277,1,82.5000031471254,8|0,1:3|1:3,0:0:0:0:
211,277,63795,1,0,1:3:0:0:
198,278,63874,1,0,1:3:0:0:
66,27,64190,1,2,3:1:0:0:
38,45,64506,6,0,P|19:98|124:128,1,165.000006294251,0|0,3:0|1:3,0:0:0:0:
304,144,64980,2,0,P|267:131|220:149,1,82.5000031471254,0|0,3:0|1:3,0:0:0:0:
165,72,65295,1,0,3:0:0:0:
52,243,65453,2,0,L|56:337,1,82.5000031471254,8|0,1:3|1:3,0:0:0:0:
276,321,65769,2,0,L|279:238,1,82.5000031471254,0|0,3:0|1:3,0:0:0:0:
289,231,66006,1,0,1:3:0:0:
300,226,66085,2,0,L|303:143,1,82.5000031471254,0|0,3:0|1:3,0:0:0:0:
457,13,66401,6,0,P|495:91|468:167,1,165.000006294251,2|0,3:2|1:3,0:0:0:0:
430,324,66874,1,0,3:0:0:0:
430,324,66953,1,0,1:3:0:0:
430,324,67032,2,0,P|388:332|334:306,1,82.5000031471254,0|0,1:3|3:0,0:0:0:0:
183,168,67348,1,8,1:3:0:0:
156,187,67664,1,0,1:3:0:0:
326,75,67980,1,2,3:1:0:0:
129,206,68295,6,0,P|115:259|198:327,1,165.000006294251,0|0,3:0|1:3,0:0:0:0:
384,277,68769,1,0,3:0:0:0:
304,208,68927,1,0,1:3:0:0:
295,314,69085,1,0,3:0:0:0:
466,339,69243,1,8,1:3:0:0:
475,240,69401,1,0,1:3:0:0:
367,372,69558,1,0,3:0:0:0:
217,256,69716,1,0,1:3:0:0:
201,269,69795,1,0,1:3:0:0:
186,283,69874,1,8,1:3:0:0:
190,287,70190,38,0,L|203:192,1,82.5000031471254,4|0,3:1|0:0,0:0:0:0:
108,227,70506,2,0,L|121:132,1,82.5000031471254,2|0,3:3|0:0,0:0:0:0:
26,167,70822,2,0,L|39:72,1,82.5000031471254,2|0,3:0|0:0,0:0:0:0:
310,205,71137,6,0,L|322:287,1,82.5000031471254,10|0,1:3|0:0,0:0:0:0:
392,145,71453,2,0,L|404:227,1,82.5000031471254,2|0,3:3|0:0,0:0:0:0:
474,85,71769,2,0,L|486:167,1,82.5000031471254,2|0,3:3|0:0,0:0:0:0:
369,358,72085,6,0,P|329:373|267:355,1,82.5000031471254,4|0,3:1|0:0,0:0:0:0:
137,359,72401,2,0,P|177:374|239:356,1,82.5000031471254,2|0,3:3|0:0,0:0:0:0:
352,213,72716,2,0,P|344:255|298:299,1,82.5000031471254,2|0,3:3|0:0,0:0:0:0:
68,289,73032,6,0,P|43:256|37:215,1,82.5000031471254,10|0,1:3|0:0,0:0:0:0:
207,213,73348,2,0,P|200:253|176:286,1,82.5000031471254,2|0,3:3|0:0,0:0:0:0:
75,113,73664,2,0,L|157:113,1,82.5000031471254,10|0,1:3|0:0,0:0:0:0:
465,130,73980,38,0,P|424:112|392:64,1,82.5000031471254,4|0,3:1|0:0,0:0:0:0:
305,88,74295,2,0,P|278:117|240:133,1,82.5000031471254,2|0,3:3|0:0,0:0:0:0:
193,45,74611,2,0,P|219:15|257:0,1,82.5000031471254,2|0,3:3|0:0,0:0:0:0:
350,193,74927,6,0,P|322:223|284:239,1,82.5000031471254,10|0,1:3|0:0,0:0:0:0:
95,247,75243,2,0,P|57:231|29:200,1,82.5000031471254,2|0,3:0|0:0,0:0:0:0:
193,46,75558,1,8,1:3:0:0:
193,76,75637,1,8,1:3:0:0:
193,107,75716,1,8,1:3:0:0:
193,138,75795,1,8,1:3:0:0:
193,169,75874,5,0,1:0:0:0:
212,201,76190,1,0,1:0:0:0:
193,233,76506,1,0,1:0:0:0:
212,265,76822,1,0,1:0:0:0:
468,374,77295,5,0,3:0:0:0:
452,367,77374,1,0,3:0:0:0:
442,351,77453,2,0,P|438:326|443:307,1,41.25,8|0,1:3|0:0,0:0:0:0:
454,300,77769,38,0,P|384:332|313:214,1,220,4|0,3:1|0:0,0:0:0:0:
50,115,78243,2,0,P|150:89|198:179,1,220,0|0,3:0|3:0,0:0:0:0:
195,194,78637,1,0,3:0:0:0:
183,208,78716,2,0,P|131:221|73:174,1,110,12|0,0:1|0:0,0:0:0:0:
324,36,79032,2,0,P|377:89|370:164,1,110,2|0,3:0|0:0,0:0:0:0:
209,358,79348,1,2,3:0:0:0:
176,363,79664,6,0,P|247:342|413:371,1,220,4|0,3:1|0:0,0:0:0:0:
483,79,80137,2,0,P|412:100|246:71,1,220,0|0,3:0|3:0,0:0:0:0:
257,72,80532,1,0,3:0:0:0:
247,59,80611,1,12,0:1:0:0:
367,14,80769,1,0,0:0:0:0:
157,33,80927,1,2,3:0:0:0:
316,163,81085,1,0,0:0:0:0:
103,254,81243,1,2,3:0:0:0:
88,275,81558,6,0,P|145:351|202:275,1,220,4|0,3:1|0:0,0:0:0:0:
438,278,82032,2,0,P|380:353|324:277,1,220,0|0,3:0|3:0,0:0:0:0:
329,263,82427,1,0,3:0:0:0:
341,253,82506,2,0,P|328:200|237:201,1,110,12|0,0:1|0:0,0:0:0:0:
4,66,82822,2,0,P|38:108|120:69,1,110,2|0,3:0|0:0,0:0:0:0:
408,21,83137,1,2,3:0:0:0:
375,2,83453,6,0,P|321:5|308:141,1,220,4|0,3:1|0:0,0:0:0:0:
455,384,83927,2,0,B|489:359|491:322|491:322|416:278|309:334,1,220,0|0,3:0|3:0,0:0:0:0:
337,325,84322,1,0,3:0:0:0:
328,338,84401,1,10,0:3:0:0:
212,234,84558,1,0,3:0:0:0:
203,254,84637,1,0,3:0:0:0:
203,276,84716,1,10,0:3:0:0:
75,159,84874,1,0,3:0:0:0:
77,191,84953,1,0,3:0:0:0:
96,217,85032,1,8,0:3:0:0:
123,186,85111,1,8,0:3:0:0:
135,147,85190,1,8,0:3:0:0:
127,107,85269,1,8,0:3:0:0:
103,74,85348,38,0,P|49:154|100:275,1,220,4|0,3:1|0:0,0:0:0:0:
427,268,85822,2,0,P|465:168|409:78,1,220,0|0,3:0|3:0,0:0:0:0:
394,75,86216,1,0,3:0:0:0:
378,80,86295,2,0,P|354:142|388:199,1,110,12|0,0:1|0:0,0:0:0:0:
220,384,86611,2,0,P|193:323|128:306,1,110,2|0,3:0|0:0,0:0:0:0:
33,70,86927,1,2,3:0:0:0:
44,106,87243,6,0,P|107:130|254:59,1,220,4|0,3:1|0:0,0:0:0:0:
492,221,87716,2,0,B|477:182|440:172|440:172|397:195|332:172|332:172|364:157|383:169,1,220,0|0,3:0|3:0,0:0:0:0:
380,160,88111,1,0,3:0:0:0:
392,150,88190,1,12,0:1:0:0:
298,12,88348,1,0,0:0:0:0:
239,191,88506,1,4,3:1:0:0:
139,57,88664,1,0,0:0:0:0:
55,267,88822,1,0,3:0:0:0:
31,263,89137,5,10,0:3:0:0:
128,169,89295,1,0,3:0:0:0:
225,346,89453,1,0,3:0:0:0:
201,359,89532,1,0,3:0:0:0:
174,358,89611,1,0,3:0:0:0:
151,343,89690,1,0,3:0:0:0:
140,318,89769,1,8,0:3:0:0:
243,161,89927,1,0,3:0:0:0:
260,182,90006,1,0,3:0:0:0:
278,205,90085,5,10,0:3:0:0:
391,63,90243,1,0,3:0:0:0:
453,217,90401,1,4,3:1:0:0:
440,241,90480,1,0,3:0:0:0:
417,256,90558,1,0,3:0:0:0:
391,259,90637,1,0,3:0:0:0:
364,250,90716,1,10,0:3:0:0:
300,95,90874,1,0,3:0:0:0:
173,263,91032,37,10,0:3:0:0:
172,91,91190,1,0,3:0:0:0:
298,309,91348,1,10,0:3:0:0:
384,114,91506,1,0,3:0:0:0:
395,370,91664,1,10,0:3:0:0:
493,191,91822,1,0,3:0:0:0:
173,355,91980,5,10,0:3:0:0:
132,318,92058,1,8,0:3:0:0:
120,266,92137,1,0,3:0:0:0:
139,215,92216,1,0,3:0:0:0:
184,184,92295,1,4,3:3:0:0:
224,185,92374,1,4,3:3:0:0:
257,209,92453,1,0,3:0:0:0:
270,247,92532,1,0,3:0:0:0:
259,286,92611,1,8,0:3:0:0:
297,339,92690,1,8,0:3:0:0:
363,339,92769,1,8,0:3:0:0:
401,284,92848,1,8,0:3:0:0:
377,228,92927,6,0,B|283:183|218:252|218:252|247:275|304:270,1,242.000007385254,4|0,3:1|0:0,0:0:0:0:
499,128,93401,2,0,P|437:82|260:69,1,242.000007385254,0|0,3:0|3:0,0:0:0:0:
259,80,93795,1,0,3:0:0:0:
255,103,93874,2,0,P|303:151|369:133,1,121.000003692627,12|0,0:1|0:0,0:0:0:0:
185,37,94190,2,0,P|97:44|44:153,1,181.500005538941,2|0,3:0|0:0,0:0:0:0:
43,219,94506,6,0,L|45:284,1,66,2|0,3:0|0:0,0:0:0:0:
104,365,94822,38,0,P|187:372|218:219,1,242.000007385254,4|0,3:1|0:0,0:0:0:0:
443,78,95295,2,0,P|360:88|397:234,1,242.000007385254,0|0,3:0|3:0,0:0:0:0:
385,231,95690,1,0,3:0:0:0:
409,229,95769,2,0,P|428:194|409:110,1,121.000003692627,12|0,0:1|0:0,0:0:0:0:
160,33,96085,2,0,B|137:44|122:78|122:78|172:116|160:190,1,181.500005538941,2|0,3:0|0:0,0:0:0:0:
0,196,96401,2,0,P|30:127|78:186,1,181.500005538941,0|0,3:0|0:0,0:0:0:0:
251,226,96716,6,0,P|254:312|96:314,1,242.000007385254,4|0,3:1|0:0,0:0:0:0:
241,86,97190,2,0,P|288:39|433:137,1,242.000007385254,0|0,3:0|3:0,0:0:0:0:
433,124,97585,1,0,3:0:0:0:
429,146,97664,2,0,P|377:193|358:97,1,181.500005538941,12|0,0:1|0:0,0:0:0:0:
474,229,97980,2,0,P|412:276|292:239,1,181.500005538941,2|0,3:0|0:0,0:0:0:0:
223,360,98295,6,0,P|230:328|220:297,1,66,2|0,3:0|0:0,0:0:0:0:
77,207,98611,6,0,P|35:278|161:329,1,242.000007385254,4|0,3:1|0:0,0:0:0:0:
325,113,99085,2,0,B|287:83|271:45|271:45|259:145|150:150,1,242.000007385254,0|0,3:0|3:0,0:0:0:0:
155,150,99480,1,0,3:0:0:0:
137,146,99558,1,10,3:0:0:0:
0,40,99716,1,0,3:0:0:0:
21,56,99795,1,0,3:0:0:0:
28,82,99874,1,10,3:3:0:0:
1,262,100032,1,0,3:0:0:0:
29,240,100111,1,0,3:0:0:0:
65,236,100190,1,8,0:3:0:0:
97,252,100269,1,8,0:3:0:0:
118,282,100348,1,8,0:3:0:0:
153,289,100427,1,8,0:3:0:0:
189,283,100506,38,0,P|249:173|161:119,1,242.000007385254,4|0,3:1|0:0,0:0:0:0:
411,48,100980,2,0,P|330:123|395:213,1,242.000007385254,0|0,3:0|3:0,0:0:0:0:
419,212,101374,1,0,3:0:0:0:
441,203,101453,2,0,P|436:159|347:143,1,121.000003692627,12|0,0:1|0:0,0:0:0:0:
210,340,101769,2,0,P|272:361|252:254,1,181.500005538941,2|0,3:0|0:0,0:0:0:0:
210,185,102085,6,0,P|205:213|209:254,1,66,2|0,3:0|0:0,0:0:0:0:
281,131,102401,6,0,P|212:85|128:190,1,242.000007385254,4|0,3:1|0:0,0:0:0:0:
41,364,102874,2,0,P|60:266|35:125,1,242.000007385254,0|0,3:0|3:0,0:0:0:0:
21,107,103269,1,0,3:0:0:0:
1,92,103348,1,12,0:1:0:0:
179,0,103506,1,0,0:0:0:0:
176,192,103664,1,4,3:1:0:0:
313,78,103822,1,0,0:0:0:0:
352,309,103980,1,0,3:0:0:0:
380,314,104295,5,10,0:3:0:0:
402,176,104453,1,0,3:0:0:0:
224,321,104611,1,0,3:0:0:0:
184,340,104690,1,0,3:0:0:0:
141,328,104769,1,0,3:0:0:0:
119,290,104848,1,0,3:0:0:0:
128,247,104927,1,8,0:3:0:0:
244,132,105085,1,0,3:0:0:0:
253,159,105164,1,0,3:0:0:0:
262,186,105243,37,10,0:3:0:0:
114,124,105401,1,0,3:0:0:0:
231,32,105558,1,4,3:1:0:0:
261,34,105637,1,0,3:0:0:0:
291,36,105716,1,0,3:0:0:0:
321,38,105795,1,0,3:0:0:0:
351,40,105874,1,10,0:3:0:0:
434,142,106032,1,0,3:0:0:0:
339,308,106190,5,10,0:3:0:0:
296,124,106348,1,0,3:0:0:0:
168,330,106506,1,10,0:3:0:0:
194,121,106664,1,0,3:0:0:0:
43,307,106822,1,10,0:3:0:0:
0,123,106980,1,0,3:0:0:0:
186,230,107137,5,8,3:0:0:0:
231,229,107216,1,8,3:0:0:0:
270,206,107295,1,0,3:0:0:0:
293,167,107374,1,0,3:0:0:0:
295,123,107453,1,4,3:3:0:0:
315,77,107532,1,4,3:3:0:0:
358,53,107611,1,0,3:0:0:0:
407,61,107690,1,0,3:0:0:0:
442,97,107769,2,0,P|451:154|426:233,1,121.000003692627,8|0,0:3|0:0,0:0:0:0:
247,352,108085,5,4,3:1:0:0:
335,215,108243,2,0,P|353:265|331:313,1,93.500001783371,0|0,3:0|1:3,0:0:0:0:
231,229,108558,1,0,3:0:0:0:
289,106,108716,1,0,1:3:0:0:
183,40,108874,1,0,3:0:0:0:
183,40,108953,1,0,1:0:0:0:
183,40,109032,2,0,P|141:67|126:134,1,93.500001783371,8|0,1:3|1:3,0:0:0:0:
125,124,109269,1,0,1:3:0:0:
129,142,109348,1,0,1:0:0:0:
27,81,109506,1,0,1:3:0:0:
3,280,109664,2,0,P|37:284|109:247,1,93.500001783371,2|0,3:1|1:3,0:0:0:0:
320,358,109980,37,0,3:3:0:0:
228,238,110137,2,0,P|212:295|238:360,1,93.500001783371,0|0,3:0|1:3,0:0:0:0:
414,326,110453,2,0,P|427:273|411:221,1,93.500001783371,0|0,3:0|1:3,0:0:0:0:
321,175,110769,1,0,3:0:0:0:
470,53,110927,1,8,1:3:0:0:
492,160,111085,1,0,1:3:0:0:
492,160,111164,1,0,1:3:0:0:
492,160,111243,1,0,3:1:0:0:
360,69,111401,1,0,1:3:0:0:
222,168,111558,2,0,P|219:221|225:292,1,93.500001783371,2|0,3:1|1:3,0:0:0:0:
38,361,111874,5,2,3:2:0:0:
56,178,112032,2,0,P|59:222|55:306,1,93.500001783371,0|0,3:0|1:3,0:0:0:0:
191,365,112348,1,0,3:0:0:0:
138,229,112506,1,0,1:3:0:0:
284,343,112664,1,0,3:0:0:0:
284,343,112743,1,0,1:0:0:0:
284,343,112822,2,0,P|329:337|365:306,1,93.500001783371,8|0,1:3|1:3,0:0:0:0:
320,98,113137,2,0,P|278:158|293:208,1,93.500001783371,0|0,1:1|1:3,0:0:0:0:
468,228,113453,1,2,3:1:0:0:
431,124,113611,1,0,1:3:0:0:
219,265,113769,5,0,3:0:0:0:
152,111,113927,2,0,P|127:143|136:205,1,93.500001783371,0|0,3:0|1:3,0:0:0:0:
242,61,114243,1,0,3:0:0:0:
66,44,114401,1,0,1:3:0:0:
213,172,114558,1,0,3:0:0:0:
28,313,114716,1,8,1:3:0:0:
33,185,114874,1,0,1:3:0:0:
153,336,115032,2,0,P|201:338|249:317,1,93.500001783371,0|0,3:0|1:3,0:0:0:0:
312,95,115348,1,8,3:0:0:0:
323,120,115664,5,4,3:1:0:0:
213,172,115822,2,0,P|207:125|220:81,1,93.500001783371,0|0,3:0|1:3,0:0:0:0:
308,213,116137,1,0,3:0:0:0:
242,321,116295,1,0,1:3:0:0:
353,384,116453,1,0,3:0:0:0:
353,384,116532,1,0,1:0:0:0:
353,384,116611,2,0,P|399:369|425:310,1,93.500001783371,8|0,1:3|1:3,0:0:0:0:
427,314,116848,1,0,1:3:0:0:
427,295,116927,1,0,1:3:0:0:
308,233,117085,1,0,1:3:0:0:
213,339,117243,2,0,L|105:329,1,93.500001783371,2|0,3:1|1:3,0:0:0:0:
34,138,117558,37,0,3:0:0:0:
119,235,117716,2,0,L|212:243,1,93.500001783371,0|0,3:0|1:3,0:0:0:0:
226,80,118032,2,0,L|132:71,1,93.500001783371,0|0,3:0|1:3,0:0:0:0:
298,167,118348,1,0,3:0:0:0:
433,32,118506,1,8,1:3:0:0:
473,138,118664,1,0,1:3:0:0:
473,138,118743,1,0,1:0:0:0:
473,138,118822,2,0,L|462:252,1,93.500001783371,0|0,3:0|1:3,0:0:0:0:
405,373,119137,2,0,P|343:347|302:361,1,93.500001783371,2|0,3:1|1:3,0:0:0:0:
157,353,119453,5,2,3:2:0:0:
254,197,119611,2,0,P|258:244|243:293,1,93.500001783371,0|0,3:0|1:3,0:0:0:0:
167,237,119927,1,0,3:0:0:0:
323,141,120085,1,0,1:3:0:0:
222,42,120243,1,0,3:0:0:0:
409,57,120401,2,0,P|455:60|529:59,1,93.500001783371,8|0,1:3|1:3,0:0:0:0:
500,223,120716,2,0,P|453:223|406:226,1,93.500001783371,0|0,3:3|1:3,0:0:0:0:
229,137,121032,2,0,P|275:137|322:140,1,93.500001783371,2|0,3:1|1:3,0:0:0:0:
377,343,121348,5,0,3:0:0:0:
254,268,121506,2,0,P|207:282|184:320,1,93.500001783371,0|0,3:0|1:3,0:0:0:0:
20,357,121822,1,0,3:0:0:0:
136,220,121980,1,0,1:3:0:0:
21,150,122137,1,0,3:0:0:0:
21,150,122216,1,0,3:0:0:0:
21,150,122295,1,8,1:3:0:0:
166,71,122453,1,0,1:3:0:0:
166,71,122532,1,0,1:0:0:0:
166,71,122611,2,0,P|206:71|273:94,1,93.500001783371,0|0,3:0|1:3,0:0:0:0:
401,268,122927,1,8,1:3:0:0:
426,240,123243,5,4,3:1:0:0:
371,97,123401,2,0,P|352:139|351:186,1,93.500001783371,0|0,3:0|1:3,0:0:0:0:
387,356,123716,1,0,3:0:0:0:
282,251,123874,2,0,P|235:257|188:296,1,93.500001783371,0|0,1:3|3:0,0:0:0:0:
57,374,124190,2,0,P|69:324|64:261,1,93.500001783371,8|0,1:3|1:3,0:0:0:0:
60,266,124427,1,0,1:3:0:0:
47,254,124506,1,0,1:0:0:0:
142,151,124664,1,0,1:3:0:0:
31,75,124822,1,2,3:1:0:0:
222,41,124980,1,0,1:3:0:0:
150,174,125137,37,0,3:3:0:0:
235,303,125295,2,0,P|242:261|237:198,1,93.500001783371,0|0,3:0|1:3,0:0:0:0:
432,215,125611,2,0,P|429:261|436:307,1,93.500001783371,0|0,3:0|1:3,0:0:0:0:
331,180,125927,1,0,3:0:0:0:
496,66,126085,1,8,1:3:0:0:
361,31,126243,1,0,1:3:0:0:
361,31,126322,1,0,1:3:0:0:
361,31,126401,2,0,P|311:41|260:36,1,93.500001783371,0|0,3:1|1:3,0:0:0:0:
71,43,126716,2,0,P|118:84|111:132,1,93.500001783371,2|0,3:1|1:3,0:0:0:0:
85,288,127032,5,2,3:2:0:0:
31,128,127190,2,0,P|21:174|22:239,1,93.500001783371,0|0,3:0|1:3,0:0:0:0:
211,279,127506,1,0,3:0:0:0:
215,139,127664,1,0,1:3:0:0:
141,207,127822,1,0,3:0:0:0:
351,237,127980,1,8,1:3:0:0:
260,371,128137,1,0,1:3:0:0:
260,371,128216,1,0,1:0:0:0:
260,371,128295,2,0,P|207:378|164:368,1,93.500001783371,0|0,1:1|1:3,0:0:0:0:
351,237,128611,2,0,P|403:229|446:239,1,93.500001783371,2|0,3:1|1:3,0:0:0:0:
231,254,128927,5,0,3:0:0:0:
171,150,129085,2,0,P|196:103|258:77,1,93.500001783371,0|0,3:0|1:3,0:0:0:0:
437,121,129401,2,0,L|316:121,1,93.500001783371,0|0,3:0|1:3,0:0:0:0:
158,19,129716,1,0,3:0:0:0:
51,199,129874,1,8,1:3:0:0:
44,63,130032,1,0,1:3:0:0:
44,63,130111,1,0,1:0:0:0:
44,63,130190,1,0,3:0:0:0:
163,134,130348,1,0,1:3:0:0:
67,315,130506,1,8,3:0:0:0:
90,332,130822,5,4,3:1:0:0:
210,238,130980,2,0,P|215:288|206:352,1,93.500001783371,0|0,3:0|1:3,0:0:0:0:
99,210,131295,1,0,3:0:0:0:
264,155,131453,2,0,P|315:158|365:179,1,93.500001783371,0|0,1:3|3:0,0:0:0:0:
472,362,131769,1,8,1:3:0:0:
482,227,131927,1,0,1:3:0:0:
482,227,132006,1,0,1:3:0:0:
482,227,132085,1,0,1:3:0:0:
378,277,132243,1,0,1:3:0:0:
444,122,132401,2,0,P|433:59|391:29,1,93.500001783371,2|0,3:1|1:3,0:0:0:0:
196,27,132716,37,0,3:0:0:0:
324,119,132874,2,0,P|272:113|215:119,1,93.500001783371,0|0,3:0|1:3,0:0:0:0:
8,88,133190,2,0,P|52:96|117:88,1,93.500001783371,0|0,3:0|1:3,0:0:0:0:
205,210,133506,1,0,3:0:0:0:
28,320,133664,1,8,1:3:0:0:
79,206,133822,1,0,1:3:0:0:
168,359,133980,2,0,P|212:365|269:344,1,93.500001783371,0|0,3:0|1:3,0:0:0:0:
349,203,134295,1,0,3:0:0:0:
426,349,134453,1,0,1:3:0:0:
426,349,134532,1,0,1:3:0:0:
426,349,134611,5,2,3:2:0:0:
434,164,134769,2,0,P|438:216|429:257,1,93.500001783371,0|0,3:0|1:3,0:0:0:0:
273,275,135085,1,0,3:0:0:0:
349,203,135243,1,0,1:3:0:0:
261,120,135401,1,0,3:0:0:0:
261,120,135480,1,0,3:0:0:0:
261,120,135558,2,0,P|274:71|342:48,1,93.500001783371,8|0,1:3|1:3,0:0:0:0:
328,48,135795,1,0,1:0:0:0:
347,51,135874,1,0,1:3:0:0:
183,17,136032,1,0,1:3:0:0:
122,176,136190,1,2,3:1:0:0:
46,98,136348,1,0,1:3:0:0:
46,267,136506,5,0,3:0:0:0:
157,173,136664,2,0,P|164:223|156:265,1,93.500001783371,0|0,3:0|1:3,0:0:0:0:
327,109,136980,2,0,P|319:155|327:200,1,93.500001783371,0|0,3:0|1:3,0:0:0:0:
228,89,137295,1,0,3:0:0:0:
298,317,137453,5,8,1:3:0:0:
416,157,137611,1,0,1:3:0:0:
237,201,137769,1,0,3:0:0:0:
399,274,137927,1,0,1:3:0:0:
189,352,138085,1,8,1:3:0:0:
85,48,138401,38,0,P|121:83|135:119,1,76.9999976501466,4|0,3:1|0:0,0:0:0:0:
141,191,139032,1,0,0:0:0:0:
89,258,139348,2,0,P|89:290|118:340,1,76.9999976501466,2|0,0:0|0:0,0:0:0:0:
143,353,139822,2,0,L|192:351,1,38.4999988250733,2|0,0:0|0:0,0:0:0:0:
273,330,140137,1,0,0:0:0:0:
273,330,140295,6,0,P|255:293|266:250,1,76.9999976501466,2|0,0:0|0:0,0:0:0:0:
313,192,140927,1,0,0:0:0:0:
298,108,141243,2,0,L|218:109,1,76.9999976501466,2|0,0:0|0:0,0:0:0:0:
178,104,141716,2,0,P|174:83|175:63,1,38.4999988250733,2|0,0:0|0:0,0:0:0:0:
253,16,142032,1,0,0:0:0:0:
253,16,142190,6,0,L|343:17,1,76.9999976501466,2|0,0:0|0:0,0:0:0:0:
406,54,142822,1,0,0:0:0:0:
359,124,143137,2,0,P|347:166|361:214,1,76.9999976501466,2|0,0:0|0:0,0:0:0:0:
395,271,143769,1,0,0:0:0:0:
324,317,144085,6,0,L|233:317,1,76.9999976501466,2|0,0:0|0:0,0:0:0:0:
173,274,144716,1,0,0:0:0:0:
106,326,145032,2,0,P|73:334|30:315,1,76.9999976501466,2|0,0:0|0:0,0:0:0:0:
12,236,145664,1,0,0:0:0:0:
75,180,145980,38,0,L|156:187,1,76.9999976501466,2|0,0:0|0:0,0:0:0:0:
214,129,146611,1,0,0:0:0:0:
273,188,146927,2,0,L|349:181,1,76.9999976501466,2|0,0:0|0:0,0:0:0:0:
389,165,147401,2,0,P|402:149|409:118,1,38.4999988250733,2|0,0:0|0:0,0:0:0:0:
404,44,147716,1,0,0:0:0:0:
404,44,147874,6,0,P|364:28|320:39,1,76.9999976501466,2|0,0:0|0:0,0:0:0:0:
258,76,148506,1,0,0:0:0:0:
188,27,148822,2,0,P|149:19|106:32,1,76.9999976501466,2|0,0:0|0:0,0:0:0:0:
77,50,149295,2,0,L|74:97,1,38.4999988250733,2|0,0:0|0:0,0:0:0:0:
41,166,149611,1,0,0:0:0:0:
41,166,149769,6,0,P|62:203|104:213,1,76.9999976501466,2|0,0:0|0:0,0:0:0:0:
174,191,150401,1,0,0:0:0:0:
235,249,150716,2,0,L|233:331,1,76.9999976501466,2|0,0:0|0:0,0:0:0:0:
301,375,151348,1,0,0:0:0:0:
365,319,151664,2,0,L|366:242,1,76.9999976501466,2|0,0:0|0:0,0:0:0:0:
300,189,152295,1,0,0:0:0:0:
153,328,152611,5,2,0:3:0:0:
89,252,152769,1,8,0:3:0:0:
85,256,152848,1,8,0:3:0:0:
81,260,152927,1,8,0:3:0:0:
150,175,153085,1,0,3:0:0:0:
47,106,153243,1,8,0:3:0:0:
201,15,153401,1,8,0:3:0:0:
367,85,153558,38,0,P|381:162|322:246,1,165.000006294251,4|0,3:1|1:0,0:0:0:0:
394,360,154032,2,0,P|324:334|234:361,1,165.000006294251,4|0,3:3|3:2,0:0:0:0:
74,299,154506,1,8,0:3:0:0:
60,303,154822,1,0,1:0:0:0:
181,209,154980,1,0,3:2:0:0:
192,200,155295,1,0,3:2:0:0:
175,42,155453,6,0,P|97:34|60:103,1,165.000006294251,4|0,3:1|1:0,0:0:0:0:
235,120,155927,2,0,B|307:146|320:91|397:118,1,165.000006294251,4|0,3:3|3:2,0:0:0:0:
471,296,156401,1,8,0:3:0:0:
489,125,156558,1,8,0:3:0:0:
345,287,156716,1,0,1:0:0:0:
345,287,156874,1,0,3:2:0:0:
268,232,157032,2,0,P|223:232|176:253,1,82.5000031471254,4|0,3:3|3:2,0:0:0:0:
47,137,157348,6,0,P|103:153|203:93,1,165.000006294251,4|0,3:1|1:0,0:0:0:0:
410,127,157822,2,0,P|354:111|254:171,1,165.000006294251,4|0,3:3|3:2,0:0:0:0:
153,364,158295,1,8,0:3:0:0:
150,376,158611,1,4,3:3:0:0:
140,197,158769,1,0,3:2:0:0:
145,185,159085,1,0,3:2:0:0:
301,294,159243,6,0,P|383:307|451:234,1,165.000006294251,4|0,3:1|1:0,0:0:0:0:
392,91,159716,2,0,P|310:78|242:151,1,165.000006294251,4|0,3:3|3:2,0:0:0:0:
105,290,160190,1,8,0:3:0:0:
51,107,160348,1,8,0:3:0:0:
218,231,160506,1,0,3:2:0:0:
218,231,160664,1,0,3:2:0:0:
263,48,160822,2,0,P|219:54|195:68,2,41.2500015735627,4|4|0,3:3|3:3|3:2,0:0:0:0:
407,34,161137,38,0,P|377:110|395:199,1,165.000006294251,4|0,3:1|1:0,0:0:0:0:
313,364,161611,2,0,P|326:283|296:207,1,165.000006294251,4|0,3:3|3:2,0:0:0:0:
94,102,162085,1,8,0:3:0:0:
76,105,162401,1,0,1:0:0:0:
56,269,162558,1,0,3:2:0:0:
56,284,162874,1,0,3:2:0:0:
262,205,163032,6,0,P|274:133|194:82,1,165.000006294251,4|0,3:1|1:0,0:0:0:0:
164,313,163506,2,0,B|202:325|223:320|223:320|258:295|258:295|289:290|342:310,1,165.000006294251,4|0,0:3|3:2,0:0:0:0:
512,164,163980,1,8,0:3:0:0:
278,203,164137,1,8,0:3:0:0:
437,316,164295,1,0,1:0:0:0:
437,316,164453,1,0,3:2:0:0:
416,176,164611,1,4,3:3:0:0:
412,185,164690,1,4,3:3:0:0:
408,195,164769,1,0,3:2:0:0:
405,205,164848,1,0,3:2:0:0:
401,214,164927,6,0,P|318:228|224:198,1,165.000006294251,4|0,3:1|1:0,0:0:0:0:
70,124,165401,2,0,P|153:138|247:108,1,165.000006294251,4|0,3:3|3:2,0:0:0:0:
436,16,165874,1,8,0:3:0:0:
453,10,166190,1,4,3:3:0:0:
291,29,166348,1,4,3:3:0:0:
272,36,166664,1,0,3:2:0:0:
378,249,166822,6,0,P|451:222|453:145,1,165.000006294251,4|0,3:1|1:0,0:0:0:0:
249,212,167295,2,0,P|235:288|301:329,1,165.000006294251,4|0,3:3|3:2,0:0:0:0:
341,114,167769,1,8,0:3:0:0:
109,134,167927,1,8,0:3:0:0:
225,30,168085,1,0,3:2:0:0:
225,30,168243,1,0,3:2:0:0:
249,212,168401,1,4,3:3:0:0:
245,221,168480,1,4,3:3:0:0:
242,231,168558,1,0,3:2:0:0:
239,241,168637,1,0,3:2:0:0:
236,251,168716,38,0,P|181:285|91:221,1,165.000006294251,4|0,3:1|1:0,0:0:0:0:
332,186,169190,2,0,P|397:230|393:308,1,165.000006294251,4|0,3:3|3:2,0:0:0:0:
226,135,169664,1,8,0:3:0:0:
213,126,169980,1,0,1:0:0:0:
365,74,170137,1,0,3:2:0:0:
304,180,170295,1,0,1:0:0:0:
249,23,170453,1,0,3:2:0:0:
108,114,170611,6,0,P|104:164|193:224,1,165.000006294251,4|0,3:1|1:0,0:0:0:0:
215,384,171085,2,0,P|218:305|287:267,1,165.000006294251,4|0,3:3|3:2,0:0:0:0:
460,356,171558,1,8,0:3:0:0:
437,160,171716,1,8,0:3:0:0:
361,304,171874,1,0,1:0:0:0:
361,304,172032,1,0,3:2:0:0:
273,134,172190,1,4,3:3:0:0:
273,123,172269,1,4,3:3:0:0:
274,113,172348,1,0,3:2:0:0:
275,103,172427,1,0,3:2:0:0:
276,92,172506,6,0,B|244:70|219:76|219:76|173:115|105:91,1,165.000006294251,4|0,3:1|1:0,0:0:0:0:
7,224,172980,2,0,P|57:194|153:227,1,165.000006294251,4|0,3:3|3:2,0:0:0:0:
296,361,173453,1,8,0:3:0:0:
305,374,173769,1,4,3:3:0:0:
384,230,173927,1,4,3:3:0:0:
400,328,174085,1,0,3:2:0:0:
311,166,174243,1,0,3:2:0:0:
227,282,174401,6,0,B|191:289|191:289|110:263|110:263|48:281,1,165.000006294251,4|0,3:1|1:0,0:0:0:0:
0,106,174874,2,0,B|36:121|36:121|165:93,1,165.000006294251,4|0,3:3|3:2,0:0:0:0:
387,35,175348,1,8,0:3:0:0:
253,186,175506,1,8,0:3:0:0:
456,161,175664,1,0,3:2:0:0:
456,161,175822,1,0,3:2:0:0:
302,87,175980,1,4,3:3:0:0:
291,87,176058,1,4,3:3:0:0:
281,87,176137,1,0,3:2:0:0:
271,87,176216,1,0,3:2:0:0:
260,87,176295,38,0,P|216:144|254:231,1,165.000006294251,4|0,3:1|1:0,0:0:0:0:
403,318,176769,2,0,P|347:303|239:337,1,165.000006294251,4|0,3:3|3:2,0:0:0:0:
53,298,177243,1,8,0:3:0:0:
36,303,177558,1,0,1:0:0:0:
139,196,177716,1,0,3:2:0:0:
22,180,177874,1,0,1:0:0:0:
149,316,178032,1,0,3:2:0:0:
291,191,178190,6,0,B|310:120|288:68|288:68|270:82|267:120,1,165.000006294251,4|0,3:1|1:0,0:0:0:0:
303,319,178664,2,0,P|368:340|431:261,1,165.000006294251,4|0,0:3|3:2,0:0:0:0:
409,49,179137,1,8,0:3:0:0:
506,219,179295,1,8,0:3:0:0:
345,181,179453,1,0,1:0:0:0:
345,181,179611,1,4,3:3:0:0:
204,281,179769,1,4,3:3:0:0:
206,291,179848,1,4,3:3:0:0:
208,301,179927,1,0,3:2:0:0:
210,311,180006,1,0,3:2:0:0:
212,321,180085,6,0,B|253:332|280:325,2,66,4|2|2,3:1|0:0|0:0,0:0:0:0:
69,108,185453,5,8,0:3:0:0:
51,128,185768,38,0,P|87:158|123:168,1,60.5000018463135,4|0,3:1|0:0,0:0:0:0:
82,284,186083,2,0,P|120:256|139:224,1,60.5000018463135,0|0,3:2|0:0,0:0:0:0:
261,293,186399,2,0,P|244:249|218:222,1,60.5000018463135,0|0,3:2|0:0,0:0:0:0:
320,128,186715,2,0,P|273:132|240:150,1,60.5000018463135,0|0,3:2|0:0,0:0:0:0:
181,31,187031,2,0,P|173:77|182:113,1,60.5000018463135,0|0,3:2|0:0,0:0:0:0:
51,128,187346,2,0,P|87:158|123:168,1,60.5000018463135,0|0,3:2|0:0,0:0:0:0:
251,351,187662,6,0,P|260:322|260:292,1,60.5000018463135,4|0,3:1|0:0,0:0:0:0:
430,331,187978,2,0,P|404:314|375:306,1,60.5000018463135,0|0,3:2|0:0,0:0:0:0:
482,186,188294,2,0,P|459:206|444:232,1,60.5000018463135,0|0,3:2|0:0,0:0:0:0:
355,97,188610,2,0,P|368:123|390:145,1,60.5000018463135,0|0,3:2|0:0,0:0:0:0:
198,90,188925,2,0,P|227:83|253:68,1,60.5000018463135,0|0,3:2|0:0,0:0:0:0:
116,210,189241,2,0,P|117:179|109:150,1,60.5000018463135,2|0,3:3|0:0,0:0:0:0:
344,328,189557,6,0,P|343:298|335:269,1,60.5000018463135,4|0,3:1|0:0,0:0:0:0:
168,272,189873,2,0,P|159:306|164:357,1,60.5000018463135,0|0,3:2|0:0,0:0:0:0:
343,175,190189,2,0,P|342:145|333:116,1,60.5000018463135,0|0,3:2|0:0,0:0:0:0:
166,125,190504,2,0,P|157:154|157:184,1,60.5000018463135,0|0,3:2|0:0,0:0:0:0:
386,41,190820,2,0,P|356:32|326:31,1,60.5000018463135,0|0,3:2|0:0,0:0:0:0:
293,261,191136,2,0,P|322:269|352:270,1,60.5000018463135,0|0,3:2|0:0,0:0:0:0:
507,52,191452,6,0,L|494:122,1,60.5000018463135,4|0,3:1|0:0,0:0:0:0:
449,289,191768,2,0,L|436:219,1,60.5000018463135,0|0,3:2|0:0,0:0:0:0:
281,114,192083,2,0,L|268:184,1,60.5000018463135,0|0,3:2|0:0,0:0:0:0:
223,351,192399,2,0,L|210:281,1,60.5000018463135,0|0,3:2|0:0,0:0:0:0:
110,83,192715,2,0,L|97:153,1,60.5000018463135,0|0,3:2|0:0,0:0:0:0:
44,341,193031,1,8,3:0:0:0:
44,341,193346,37,4,3:1:0:0:
44,341,193504,1,0,0:0:0:0:
70,235,193662,1,0,3:2:0:0:
70,235,193820,1,0,0:0:0:0:
142,313,193978,1,0,3:2:0:0:
142,313,194136,1,0,0:0:0:0:
215,94,194294,5,8,3:0:0:0:
215,94,194452,1,0,0:0:0:0:
300,136,194610,1,0,3:2:0:0:
300,136,194768,1,0,0:0:0:0:
319,234,194925,1,0,3:2:0:0:
319,234,195083,1,0,0:0:0:0:
460,142,195241,6,0,P|460:112|440:67,1,60.5000018463135,4|0,3:1|0:0,0:0:0:0:
381,11,195557,1,0,3:2:0:0:
381,11,195715,1,0,0:0:0:0:
476,6,195873,1,0,3:2:0:0:
476,6,196031,1,0,0:0:0:0:
394,191,196189,5,8,3:0:0:0:
394,191,196346,1,0,0:0:0:0:
308,143,196504,1,0,3:2:0:0:
308,143,196662,1,0,0:0:0:0:
249,224,196820,1,0,3:2:0:0:
249,224,196978,1,0,0:0:0:0:
109,120,197136,38,0,P|105:154|110:196,1,60.5000018463135,4|0,3:1|0:0,0:0:0:0:
159,268,197452,1,0,3:2:0:0:
159,268,197610,1,0,0:0:0:0:
91,339,197768,1,0,3:2:0:0:
91,339,197925,1,0,0:0:0:0:
292,339,198083,5,8,3:0:0:0:
292,339,198241,1,0,0:0:0:0:
331,251,198399,1,0,3:2:0:0:
331,251,198557,1,0,0:0:0:0:
415,307,198715,1,0,3:2:0:0:
415,307,198873,1,0,0:0:0:0:
367,149,199031,6,0,P|329:141|296:146,1,60.5000018463135,4|0,3:1|0:0,0:0:0:0:
226,198,199346,1,0,3:2:0:0:
160,131,199504,1,0,0:0:0:0:
99,224,199662,1,0,3:2:0:0:
14,134,199820,1,0,0:0:0:0:
22,309,199978,5,8,3:0:0:0:
36,321,200294,1,2,0:2:0:0:
58,322,200610,1,2,0:2:0:0:
79,314,200925,38,0,B|93:262|80:213|16:247|3:148|82:94|139:205|73:204,1,242.000007385254,4|0,3:1|0:0,0:0:0:0:
299,285,201399,2,0,P|269:209|189:301,1,242.000007385254,0|0,3:0|3:0,0:0:0:0:
187,305,201794,1,0,3:0:0:0:
199,318,201873,2,0,P|234:272|213:201,1,121.000003692627,10|0,0:3|0:0,0:0:0:0:
53,79,202189,2,0,P|126:123|211:45,1,181.500005538941,2|0,3:0|0:0,0:0:0:0:
351,137,202504,6,0,P|316:130|284:140,1,66,2|0,3:0|0:0,0:0:0:0:
383,240,202820,6,0,P|352:129|441:57,1,242.000007385254,4|0,3:1|0:0,0:0:0:0:
485,335,203294,2,0,P|386:321|238:349,1,242.000007385254,0|0,3:0|3:0,0:0:0:0:
230,353,203689,1,0,3:0:0:0:
214,363,203768,2,0,P|240:296|214:243,1,121.000003692627,10|0,0:3|0:0,0:0:0:0:
22,76,204083,2,0,P|120:107|190:57,1,181.500005538941,2|0,3:0|0:0,0:0:0:0:
299,207,204399,2,0,P|210:172|140:234,1,181.500005538941,0|0,3:0|0:0,0:0:0:0:
118,360,204715,6,0,P|211:373|207:242,1,242.000007385254,4|0,3:1|0:0,0:0:0:0:
468,137,205189,2,0,P|375:124|379:255,1,242.000007385254,0|0,3:0|3:0,0:0:0:0:
380,252,205583,1,0,3:0:0:0:
397,257,205662,2,0,P|410:191|348:141,1,121.000003692627,10|0,0:3|0:0,0:0:0:0:
93,115,205978,2,0,B|121:144|153:142|153:142|202:92|270:116,1,181.500005538941,2|0,3:0|0:0,0:0:0:0:
265,246,206294,38,0,P|252:215|227:194,1,66,2|0,3:0|0:0,0:0:0:0:
205,352,206610,6,0,B|245:338|299:358|299:358|334:337|334:337|387:359|440:339,1,242.000007385254,4|0,3:1|0:0,0:0:0:0:
456,174,207083,2,0,P|398:259|337:176,1,242.000007385254,0|0,3:0|3:0,0:0:0:0:
351,163,207478,1,0,3:0:0:0:
368,156,207557,1,8,3:0:0:0:
264,42,207715,1,0,3:0:0:0:
256,69,207794,1,0,3:0:0:0:
260,100,207873,1,8,3:3:0:0:
131,251,208031,1,0,3:0:0:0:
164,221,208110,1,0,3:0:0:0:
177,178,208189,1,8,3:3:0:0:
166,135,208268,1,8,3:3:0:0:
133,104,208346,1,8,3:3:0:0:
75,91,208425,1,8,3:3:0:0:
29,127,208504,6,0,P|4:175|96:331,1,242.000007385254,4|0,3:1|0:0,0:0:0:0:
406,339,208978,2,0,B|353:307|341:246|341:246|328:304|264:351,1,242.000007385254,0|0,3:0|3:0,0:0:0:0:
254,354,209373,1,0,3:0:0:0:
236,357,209452,6,0,P|171:285|200:234,1,121.000003692627,10|0,0:3|0:0,0:0:0:0:
423,101,209768,2,0,P|488:173|400:238,1,181.500005538941,0|0,3:0|0:0,3:0:0:0:
327,69,210083,38,0,P|341:34|385:20,1,66,2|0,3:0|0:0,0:0:0:0:
362,182,210399,6,0,B|312:173|288:184|288:184|227:145|227:145|174:162|99:140,1,242.000007385254,4|0,3:1|0:0,0:0:0:0:
108,335,210873,2,0,P|171:373|222:245,1,242.000007385254,0|0,3:0|3:0,0:0:0:0:
221,244,211268,1,0,3:0:0:0:
204,236,211346,1,10,0:3:0:0:
175,64,211504,1,0,0:0:0:0:
325,217,211662,1,0,3:0:0:0:
334,29,211820,1,0,0:0:0:0:
416,290,211978,1,10,3:0:0:0:
404,272,212294,5,10,0:3:0:0:
234,205,212452,1,0,3:0:0:0:
440,67,212610,1,0,3:0:0:0:
444,111,212689,1,0,3:0:0:0:
425,152,212768,1,0,3:0:0:0:
388,176,212846,1,0,3:0:0:0:
343,177,212925,1,8,0:3:0:0:
246,38,213083,1,0,3:0:0:0:
229,78,213162,1,0,3:0:0:0:
212,123,213241,5,10,0:3:0:0:
81,47,213399,1,0,3:0:0:0:
35,214,213557,1,4,3:1:0:0:
40,243,213636,1,0,3:0:0:0:
44,273,213715,1,0,3:0:0:0:
49,303,213794,1,0,3:0:0:0:
53,333,213873,1,10,0:3:0:0:
225,312,214031,1,0,3:0:0:0:
161,101,214189,37,10,0:3:0:0:
344,33,214346,1,0,3:0:0:0:
131,219,214504,1,10,0:3:0:0:
307,334,214662,1,0,3:0:0:0:
70,352,214820,1,10,0:3:0:0:
250,199,214978,1,0,3:0:0:0:
448,332,215136,5,8,3:0:0:0:
457,289,215215,1,8,3:0:0:0:
437,249,215294,1,0,3:0:0:0:
396,232,215373,1,0,3:0:0:0:
345,244,215452,1,4,3:3:0:0:
293,239,215531,1,4,3:3:0:0:
250,199,215610,1,0,3:0:0:0:
241,140,215689,1,0,3:0:0:0:
271,90,215768,2,0,L|288:18,3,60.5000018463135,8|8|8|8,0:3|0:3|0:3|0:3,0:0:0:0:
207,26,216083,53,12,3:1:0:0:
370,8,216241,1,0,3:0:0:0:
167,107,216399,1,8,0:3:0:0:
404,98,216557,1,0,3:0:0:0:
132,187,216715,1,8,0:3:0:0:
403,198,216873,1,0,3:0:0:0:
96,264,217031,1,8,0:3:0:0:
396,295,217189,1,0,3:0:0:0:
55,340,217346,1,8,0:3:0:0:
361,384,217504,1,0,3:0:0:0:
141,188,217662,1,8,0:3:0:0:
417,182,217820,1,0,3:0:0:0:
146,350,217978,1,8,0:3:0:0:
4,132,218136,1,0,3:0:0:0:
240,324,218294,1,8,0:3:0:0:
154,61,218452,1,0,3:0:0:0:
337,321,218610,1,8,0:3:0:0:
297,33,218768,1,0,3:0:0:0:
426,346,218925,1,8,0:3:0:0:
461,47,219083,1,0,3:0:0:0:
205,183,219241,1,8,0:3:0:0:
512,251,219399,1,0,3:0:0:0:
382,39,219557,70,0,P|393:71|396:112,1,44,8|8,0:3|0:3,0:0:0:0:
261,29,219715,2,0,P|245:44|232:62,1,44,8|8,0:3|0:3,0:0:0:0:
312,324,219873,5,12,3:1:0:0:
316,93,220031,1,0,3:0:0:0:
131,170,220189,1,8,0:3:0:0:
411,212,220346,1,0,3:0:0:0:
206,327,220504,1,8,0:3:0:0:
232,61,220662,1,0,3:0:0:0:
77,296,220820,1,8,0:3:0:0:
338,304,220978,1,0,3:0:0:0:
135,65,221136,1,8,0:3:0:0:
214,354,221294,1,0,3:0:0:0:
341,91,221452,1,8,0:3:0:0:
77,198,221610,1,0,3:0:0:0:
378,208,221768,1,8,0:3:0:0:
232,9,221925,1,0,3:0:0:0:
259,268,222083,1,8,0:3:0:0:
77,53,222241,1,0,3:0:0:0:
58,340,222399,1,8,0:3:0:0:
201,125,222557,1,0,3:0:0:0:
454,340,222715,1,8,0:3:0:0:
311,125,222873,1,0,3:0:0:0:
256,372,223031,1,8,0:3:0:0:
254,52,223189,1,0,3:0:0:0:
53,271,223346,70,0,L|-9:273,3,44,8|8|8|8,0:3|0:3|0:3|0:3,0:0:0:0:
119,363,223662,5,12,3:1:0:0:
145,331,223741,1,0,3:0:0:0:
161,293,223820,1,0,3:0:0:0:
162,253,223899,1,0,3:0:0:0:
150,214,223978,1,8,3:0:0:0:
126,181,224057,1,0,3:0:0:0:
92,158,224136,1,0,3:0:0:0:
77,122,224215,1,0,3:0:0:0:
76,82,224294,1,8,3:0:0:0:
90,47,224373,1,0,3:0:0:0:
119,20,224452,1,0,3:0:0:0:
155,7,224531,1,0,3:0:0:0:
193,8,224610,1,8,3:0:0:0:
229,25,224689,1,0,3:0:0:0:
252,56,224768,1,0,3:0:0:0:
262,93,224846,1,0,3:0:0:0:
252,133,224925,1,8,3:0:0:0:
229,163,225004,1,0,3:0:0:0:
193,181,225083,1,0,3:0:0:0:
154,182,225162,1,0,3:0:0:0:
116,187,225241,1,8,3:0:0:0:
82,209,225320,1,0,3:0:0:0:
59,241,225399,1,0,3:0:0:0:
50,278,225478,1,0,3:0:0:0:
56,318,225557,1,8,3:0:0:0:
77,352,225636,1,0,3:0:0:0:
108,373,225715,1,0,3:0:0:0:
146,383,225794,1,0,3:0:0:0:
184,378,225873,1,8,3:0:0:0:
218,358,225952,1,0,3:0:0:0:
242,326,226031,1,0,3:0:0:0:
262,293,226110,1,0,3:0:0:0:
293,269,226189,1,8,3:0:0:0:
331,260,226268,1,0,3:0:0:0:
370,265,226346,1,0,3:0:0:0:
404,285,226425,1,0,3:0:0:0:
427,317,226504,1,8,3:0:0:0:
465,310,226583,1,0,3:0:0:0:
497,287,226662,1,0,3:0:0:0:
512,253,226741,1,0,3:0:0:0:
512,213,226820,1,8,3:0:0:0:
503,177,226899,1,0,3:0:0:0:
474,151,226978,1,0,3:0:0:0:
436,141,227057,1,0,3:0:0:0:
397,147,227136,1,8,3:0:0:0:
371,176,227215,1,0,3:0:0:0:
333,185,227294,1,0,3:0:0:0:
296,171,227373,1,0,3:0:0:0:
267,142,227452,1,8,3:0:0:0:
233,114,227531,1,0,3:0:0:0:
190,109,227610,1,0,3:0:0:0:
150,122,227689,1,0,3:0:0:0:
120,155,227768,1,8,3:0:0:0:
110,198,227846,1,0,3:0:0:0:
122,239,227925,1,0,3:0:0:0:
150,274,228004,1,0,3:0:0:0:
189,293,228083,1,8,3:0:0:0:
232,293,228162,1,0,3:0:0:0:
270,275,228241,1,0,3:0:0:0:
299,243,228320,1,0,3:0:0:0:
331,215,228399,1,8,3:0:0:0:
375,211,228478,1,0,3:0:0:0:
412,233,228557,1,0,3:0:0:0:
434,269,228636,1,0,3:0:0:0:
432,312,228715,1,8,3:0:0:0:
405,347,228794,1,0,3:0:0:0:
365,361,228873,1,0,3:0:0:0:
323,352,228952,1,0,3:0:0:0:
290,327,229031,1,8,3:0:0:0:
248,312,229110,1,0,3:0:0:0:
204,310,229189,1,0,3:0:0:0:
163,325,229268,1,0,3:0:0:0:
127,348,229346,1,8,3:0:0:0:
84,350,229425,1,0,3:0:0:0:
47,330,229504,1,0,3:0:0:0:
22,294,229583,1,0,3:0:0:0:
17,251,229662,1,8,3:0:0:0:
35,212,229741,1,0,3:0:0:0:
69,186,229820,1,0,3:0:0:0:
111,179,229899,1,0,3:0:0:0:
152,194,229978,1,8,3:0:0:0:
190,214,230057,1,0,3:0:0:0:
234,210,230136,1,0,3:0:0:0:
268,187,230215,1,0,3:0:0:0:
285,146,230294,1,8,3:0:0:0:
280,105,230373,1,0,3:0:0:0:
312,77,230452,1,0,3:0:0:0:
355,72,230531,1,0,3:0:0:0:
394,93,230610,1,8,3:0:0:0:
415,131,230689,1,0,3:0:0:0:
411,172,230768,1,0,3:0:0:0:
386,206,230846,1,0,3:0:0:0:
343,215,230925,1,8,3:0:0:0:
307,241,231004,1,0,3:0:0:0:
293,281,231083,1,0,3:0:0:0:
303,323,231162,1,0,3:0:0:0:
335,352,231241,1,12,3:1:0:0:
256,192,231320,12,0,236768,0:0:0:0:
