osu file format v14

[General]
AudioFilename: audio.mp3
AudioLeadIn: 0
PreviewTime: 73033
Countdown: 0
SampleSet: Soft
StackLeniency: 0.5
Mode: 0
LetterboxInBreaks: 0
WidescreenStoryboard: 1

[Editor]
DistanceSpacing: 1
BeatDivisor: 4
GridSize: 32
TimelineZoom: 1.7

[Metadata]
Title:Hajimari no Uta
TitleUnicode:はじまりのうた
Artist:Yuyake Container
ArtistUnicode:夕焼けコンテナ。
Creator:m3gB3g
Version:Moonlight Descent Ceremony
Source:東方地霊殿 ~ Subterranean Animism.
Tags:ya treniruyus 多夢楽せうゆ 村瀬悠太 / Yuta Murase Koishi Komeiji's Heart-Throbbing Adventure kkhta
BeatmapID:1818321
BeatmapSetID:870071

[Difficulty]
HPDrainRate:2.28
CircleSize:4
OverallDifficulty:3.22
ApproachRate:8.8
SliderMultiplier:1.8
SliderTickRate:1

[Events]
//Background and Video events
0,0,"kkhta1.jpg",0,0
//Break Periods
2,115406,116083
2,118233,119561
2,121711,123040
2,125190,126518
2,188015,190866
2,194320,197822
2,261493,262170
2,263232,263909
//Storyboard Layer 0 (Background)
//Storyboard Layer 1 (Fail)
//Storyboard Layer 2 (Pass)
//Storyboard Layer 3 (Foreground)
//Storyboard Sound Samples

[TimingPoints]
207,434.782608695652,4,1,0,50,1,0
1946,-25,4,2,0,5,0,0
2163,-25,4,2,0,10,0,0
2380,-25,4,2,0,15,0,0
2598,-25,4,2,0,30,0,0
2815,-25,4,2,0,45,0,0
3033,-25,4,2,0,60,0,0
3250,-25,4,2,0,75,0,0
3467,-25,4,2,0,100,0,0
3685,-111.111111111111,4,2,0,60,0,0
20641,-142.857142857143,4,2,0,60,0,0
21076,-111.111111111111,4,2,0,60,0,0
24120,-83.3333333333333,4,2,0,60,0,0
31511,-100,4,2,0,60,0,0
59337,-133.333333333333,4,2,0,60,0,0
73250,-80,4,2,0,60,0,1
101076,-111.111111111111,4,2,0,60,0,0
128902,-133.333333333333,4,2,0,60,0,0
142815,-80,4,2,0,60,0,1
170641,-111.111111111111,4,2,0,60,0,0
211946,-222.222222222222,4,2,0,60,0,0
212380,-80,4,2,0,60,0,1
240206,-80,4,2,0,60,0,0
268033,-200,4,2,0,60,0,0
269772,-100,4,2,0,5,0,0

[Colours]
Combo1 : 255,219,111
Combo2 : 60,255,60
Combo3 : 64,150,255
Combo4 : 241,18,52

[HitObjects]
320,169,1946,6,0,P|329:191|331:214,56,45
381,121,3685,6,0,L|331:245,1,121.499996292114
329,131,5424,6,0,L|352:259,1,121.499996292114
144,268,7163,6,0,L|168:126,1,121.499996292114
359,117,8902,6,0,L|378:238,1,121.499996292114
263,146,10641,6,0,P|267:214|249:276,1,121.499996292114
240,126,12380,6,0,P|269:170|283:247,1,121.499996292114
211,113,14120,6,0,P|270:103|321:140,1,121.499996292114
334,237,15859,6,0,P|332:217|345:246,1,121.499996292114
287,289,17598,6,0,L|277:332,4,40.4999987640381
215,203,18467,6,0,L|225:246,4,40.4999987640381
296,131,19337,6,0,L|288:181,4,40.4999987640381
180,43,20206,6,0,L|207:139,1,80.9999975280763
135,255,20641,6,0,L|146:171,1,62.9999980773926
36,65,21076,6,0,L|20:121,4,40.4999987640381
85,144,21946,6,0,L|101:200,4,40.4999987640381
29,217,22815,6,0,L|13:273,4,40.4999987640381
86,323,23685,6,0,L|179:359,1,80.9999975280763
309,221,24120,6,0,L|199:263,1,107.999996704102
434,288,24554,5,0,0:0:0:0:
469,180,24989,5,0,0:0:0:0:
415,80,25424,5,0,0:0:0:0:
316,23,25859,5,0,0:0:0:0:
196,23,26293,5,0,0:0:0:0:
97,80,26728,5,0,0:0:0:0:
43,180,27163,5,0,0:0:0:0:
78,288,27598,5,0,0:0:0:0:
457,136,28033,5,0,0:0:0:0:
316,334,28250,1,0,0:0:0:0:
397,56,28467,5,0,0:0:0:0:
399,300,28685,1,0,0:0:0:0:
318,28,28902,5,0,0:0:0:0:
464,223,29119,1,0,0:0:0:0:
224,62,29336,5,0,0:0:0:0:
457,136,29554,1,0,0:0:0:0:
115,186,29772,5,0,0:0:0:0:
125,147,29880,1,0,0:0:0:0:
144,111,29989,1,0,0:0:0:0:
170,79,30098,1,0,0:0:0:0:
201,55,30206,1,0,0:0:0:0:
238,37,30315,1,0,0:0:0:0:
277,28,30424,1,0,0:0:0:0:
318,28,30532,1,0,0:0:0:0:
357,37,30641,1,0,0:0:0:0:
394,54,30750,1,0,0:0:0:0:
426,78,30858,1,0,0:0:0:0:
452,109,30967,1,0,0:0:0:0:
471,145,31076,1,0,0:0:0:0:
481,184,31185,1,0,0:0:0:0:
483,224,31293,1,0,0:0:0:0:
476,264,31402,1,0,0:0:0:0:
461,302,31511,6,0,L|367:285,1,90
184,159,31946,1,0,0:0:0:0:
263,88,32163,2,0,P|284:167|211:262,1,180
51,70,32815,1,0,0:0:0:0:
100,233,33033,1,0,0:0:0:0:
184,159,33250,6,0,L|369:159,1,180
401,74,33902,1,0,0:0:0:0:
401,74,34011,1,0,0:0:0:0:
401,74,34120,2,0,L|305:74,1,90
220,36,34554,2,0,L|124:36,1,90
46,0,34989,5,0,0:0:0:0:
13,140,35206,1,0,0:0:0:0:
13,140,35315,1,0,0:0:0:0:
13,140,35424,1,0,0:0:0:0:
173,66,35641,2,0,P|170:158|138:248,1,180
13,140,36293,1,0,0:0:0:0:
46,280,36510,1,0,0:0:0:0:
284,298,36728,6,0,P|350:309|385:335,1,90
451,269,37163,2,0,P|385:280|350:306,1,90
93,339,37598,2,0,P|159:328|194:302,1,90
386,374,38033,2,0,P|320:363|285:337,1,90
168,143,38467,5,0,0:0:0:0:
347,94,38685,1,0,0:0:0:0:
140,168,38902,1,0,0:0:0:0:
269,312,39120,2,0,P|360:329|424:252,1,180
347,94,39772,1,0,0:0:0:0:
302,216,39989,1,0,0:0:0:0:
152,141,40206,6,0,P|133:181|130:225,1,90
181,143,40641,2,0,P|162:102|159:58,1,90
336,51,41076,2,0,P|333:96|315:137,1,90
365,220,41511,2,0,P|363:175|344:135,1,90
257,48,41946,5,0,0:0:0:0:
294,237,42163,1,0,0:0:0:0:
326,17,42380,1,0,0:0:0:0:
155,61,42598,2,0,P|119:87|167:66,1,180
111,250,43250,1,0,0:0:0:0:
261,144,43467,1,0,0:0:0:0:
145,343,43685,6,0,P|193:318|322:356,1,180
480,192,44554,5,0,0:0:0:0:
480,203,44662,1,0,0:0:0:0:
480,214,44771,1,0,0:0:0:0:
480,225,44880,1,0,0:0:0:0:
480,237,44988,1,0,0:0:0:0:
480,248,45097,1,0,0:0:0:0:
480,259,45206,1,0,0:0:0:0:
480,270,45314,1,0,0:0:0:0:
480,282,45424,5,0,0:0:0:0:
403,343,45641,1,0,0:0:0:0:
320,287,45859,1,0,0:0:0:0:
83,343,46076,5,0,0:0:0:0:
237,343,46293,1,0,0:0:0:0:
160,282,46511,1,0,0:0:0:0:
243,226,46729,1,0,0:0:0:0:
0,287,46946,1,0,0:0:0:0:
275,41,47163,5,0,0:0:0:0:
441,379,47598,1,0,0:0:0:0:
108,204,48033,1,0,0:0:0:0:
480,150,48467,1,0,0:0:0:0:
44,105,48902,6,0,P|125:84|225:157,1,180
219,150,49554,1,0,0:0:0:0:
317,84,49772,2,0,L|338:195,2,90
309,58,50424,1,0,0:0:0:0:
139,345,50641,6,0,P|184:346|230:364,1,90
424,290,51076,2,0,P|379:288|335:300,1,90
69,272,51511,2,0,P|113:267|155:250,1,90
406,179,51946,2,0,P|450:183|492:200,1,90
227,110,52380,5,0,0:0:0:0:
310,77,52598,1,0,0:0:0:0:
397,99,52815,1,0,0:0:0:0:
326,366,53033,5,0,0:0:0:0:
184,275,53251,1,0,0:0:0:0:
411,335,53467,1,0,0:0:0:0:
240,345,53685,1,0,0:0:0:0:
461,259,53903,1,0,0:0:0:0:
180,185,54120,6,0,P|137:203|94:262,1,90
70,356,54554,1,0,0:0:0:0:
157,378,54771,1,0,0:0:0:0:
240,345,54989,2,0,P|313:306|415:358,1,180
332,185,55641,1,0,0:0:0:0:
332,185,55750,1,0,0:0:0:0:
332,185,55859,6,0,P|375:203|418:262,1,90
256,96,56293,1,0,0:0:0:0:
200,288,56511,2,0,P|92:275|45:213,1,180
50,210,57054,1,0,0:0:0:0:
51,196,57163,2,0,L|59:100,1,90
256,96,57598,6,0,L|272:279,1,180
256,96,58467,5,0,0:0:0:0:
257,118,58576,1,0,0:0:0:0:
259,140,58684,1,0,0:0:0:0:
261,163,58793,1,0,0:0:0:0:
263,185,58902,1,0,0:0:0:0:
265,208,59010,1,0,0:0:0:0:
267,230,59119,1,0,0:0:0:0:
269,252,59228,1,0,0:0:0:0:
271,275,59337,6,0,P|350:314|395:289,1,135.000005149842
100,352,60424,2,0,L|33:358,2,67.5000025749208
207,215,61076,5,0,0:0:0:0:
186,309,61293,1,0,0:0:0:0:
287,382,61510,1,0,0:0:0:0:
266,288,61728,1,0,0:0:0:0:
160,347,61946,5,0,0:0:0:0:
254,368,62163,1,0,0:0:0:0:
297,306,62380,1,0,0:0:0:0:
203,327,62598,1,0,0:0:0:0:
163,126,62815,6,0,P|119:176|115:243,1,135.000005149842
208,314,63903,2,0,L|275:320,2,67.5000025749208
257,105,64555,5,0,0:0:0:0:
278,199,64772,1,0,0:0:0:0:
163,126,64989,1,0,0:0:0:0:
184,220,65207,1,0,0:0:0:0:
163,126,65425,5,0,0:0:0:0:
69,147,65642,1,0,0:0:0:0:
372,178,65859,1,0,0:0:0:0:
278,199,66077,1,0,0:0:0:0:
392,0,66294,6,0,P|435:50|440:116,1,135.000005149842
292,300,67380,2,0,L|279:366,2,67.5000025749208
46,238,68032,5,0,0:0:0:0:
135,272,68249,1,0,0:0:0:0:
80,148,68466,1,0,0:0:0:0:
170,182,68684,1,0,0:0:0:0:
70,119,68902,5,0,0:0:0:0:
87,270,69120,1,0,0:0:0:0:
81,82,69337,1,0,0:0:0:0:
69,307,69554,1,0,0:0:0:0:
164,29,69772,5,0,0:0:0:0:
362,170,69989,1,0,0:0:0:0:
84,89,70206,5,0,0:0:0:0:
328,87,70424,1,0,0:0:0:0:
56,168,70641,5,0,0:0:0:0:
251,22,70858,1,0,0:0:0:0:
90,262,71075,5,0,0:0:0:0:
164,29,71293,1,0,0:0:0:0:
214,371,71511,5,0,0:0:0:0:
175,361,71619,1,0,0:0:0:0:
139,342,71728,1,0,0:0:0:0:
107,316,71837,1,0,0:0:0:0:
83,285,71945,1,0,0:0:0:0:
65,248,72054,1,0,0:0:0:0:
56,209,72163,1,0,0:0:0:0:
56,168,72271,1,0,0:0:0:0:
65,129,72380,1,0,0:0:0:0:
82,92,72489,1,0,0:0:0:0:
106,60,72597,1,0,0:0:0:0:
137,34,72706,1,0,0:0:0:0:
173,15,72815,1,0,0:0:0:0:
212,5,72924,1,0,0:0:0:0:
252,3,73032,1,0,0:0:0:0:
292,10,73141,1,0,0:0:0:0:
330,25,73250,6,0,P|365:46|412:118,1,112.5
168,218,73685,2,0,P|186:165|224:123,1,112.5
187,348,74120,5,0,0:0:0:0:
385,215,74337,1,0,0:0:0:0:
146,228,74554,1,0,0:0:0:0:
305,334,74771,1,0,0:0:0:0:
425,103,74989,5,0,0:0:0:0:
265,340,75206,1,0,0:0:0:0:
252,23,75423,1,0,0:0:0:0:
283,361,75640,1,0,0:0:0:0:
54,36,75859,5,0,0:0:0:0:
451,303,76076,1,0,0:0:0:0:
65,189,76293,1,0,0:0:0:0:
351,88,76510,1,0,0:0:0:0:
289,384,76728,5,0,0:0:0:0:
161,224,76946,1,0,0:0:0:0:
449,355,77163,1,0,0:0:0:0:
64,316,77381,1,0,0:0:0:0:
289,32,77598,5,0,0:0:0:0:
180,301,77816,1,0,0:0:0:0:
193,0,78033,1,0,0:0:0:0:
321,224,78251,1,0,0:0:0:0:
321,32,78467,5,0,0:0:0:0:
225,320,78685,1,0,0:0:0:0:
289,128,78902,1,0,0:0:0:0:
193,224,79120,1,0,0:0:0:0:
192,82,79337,6,0,P|132:62|64:77,1,112.5
290,349,79772,1,0,0:0:0:0:
115,230,79989,1,0,0:0:0:0:
320,166,80206,6,0,P|380:146|448:161,1,112.5
192,329,80641,2,0,P|139:347|84:341,1,112.5
319,293,81076,2,0,P|371:312|427:307,1,112.5
315,57,81511,1,0,0:0:0:0:
201,190,81728,1,0,0:0:0:0:
56,96,81946,6,0,L|88:224,1,112.5
173,114,82380,2,0,L|205:242,1,112.5
427,205,82815,6,0,L|395:333,1,112.5
310,223,83249,2,0,L|278:351,1,112.5
63,304,83685,5,0,0:0:0:0:
172,332,83902,1,0,0:0:0:0:
449,262,84120,1,0,0:0:0:0:
340,290,84337,1,0,0:0:0:0:
179,41,84554,5,0,0:0:0:0:
142,182,84771,1,0,0:0:0:0:
333,83,84989,1,0,0:0:0:0:
370,224,85206,1,0,0:0:0:0:
58,71,85424,5,0,0:0:0:0:
409,155,85641,1,0,0:0:0:0:
73,259,85859,1,0,0:0:0:0:
256,20,86076,1,0,0:0:0:0:
256,186,86293,6,0,L|256:299,1,112.5
128,128,86728,1,0,0:0:0:0:
384,128,86946,1,0,0:0:0:0:
182,359,87163,6,0,P|147:338|100:266,1,112.5
406,280,87598,2,0,P|376:327|330:359,1,112.5
187,36,88033,5,0,0:0:0:0:
385,169,88250,1,0,0:0:0:0:
127,169,88467,1,0,0:0:0:0:
325,36,88684,1,0,0:0:0:0:
412,261,88902,5,0,0:0:0:0:
279,63,89119,1,0,0:0:0:0:
242,376,89336,1,0,0:0:0:0:
334,84,89553,1,0,0:0:0:0:
15,261,89772,5,0,0:0:0:0:
480,224,89989,1,0,0:0:0:0:
99,64,90206,1,0,0:0:0:0:
256,288,90423,1,0,0:0:0:0:
32,224,90641,5,0,0:0:0:0:
192,96,90859,1,0,0:0:0:0:
64,352,91076,1,0,0:0:0:0:
96,32,91294,1,0,0:0:0:0:
384,224,91511,5,0,0:0:0:0:
224,160,91729,1,0,0:0:0:0:
416,128,91946,1,0,0:0:0:0:
192,264,92164,1,0,0:0:0:0:
501,203,92380,5,0,0:0:0:0:
282,0,92815,1,0,0:0:0:0:
451,334,93250,6,0,P|398:353|343:347,1,112.5
256,192,93685,1,0,0:0:0:0:
384,256,93902,1,0,0:0:0:0:
84,333,94119,6,0,P|139:339|192:320,1,112.5
191,191,94554,2,0,P|139:172|84:178,1,112.5
319,192,94989,2,0,P|371:172|427:178,1,112.5
128,256,95424,1,0,0:0:0:0:
256,320,95641,1,0,0:0:0:0:
456,271,95859,6,0,L|424:143,1,112.5
339,253,96293,2,0,L|307:125,1,112.5
85,162,96728,6,0,L|117:34,1,112.5
202,144,97162,2,0,L|234:16,1,112.5
348,355,97598,5,0,0:0:0:0:
150,214,97815,1,0,0:0:0:0:
428,295,98033,5,0,0:0:0:0:
184,297,98250,1,0,0:0:0:0:
456,216,98467,5,0,0:0:0:0:
261,362,98684,1,0,0:0:0:0:
422,122,98901,5,0,0:0:0:0:
348,355,99119,1,0,0:0:0:0:
298,13,99337,5,0,0:0:0:0:
337,23,99445,1,0,0:0:0:0:
373,42,99554,1,0,0:0:0:0:
405,68,99663,1,0,0:0:0:0:
429,99,99771,1,0,0:0:0:0:
447,136,99880,1,0,0:0:0:0:
456,175,99989,1,0,0:0:0:0:
456,216,100097,1,0,0:0:0:0:
447,255,100206,1,0,0:0:0:0:
430,292,100315,1,0,0:0:0:0:
406,324,100423,1,0,0:0:0:0:
375,350,100532,1,0,0:0:0:0:
339,369,100641,1,0,0:0:0:0:
300,379,100750,1,0,0:0:0:0:
260,381,100858,1,0,0:0:0:0:
220,374,100967,1,0,0:0:0:0:
182,359,101076,6,0,L|136:364,4,40.4999987640381
81,289,101946,5,0,0:0:0:0:
81,289,102054,2,0,L|35:294,1,40.4999987640381
160,246,102272,2,0,L|254:235,1,80.9999975280763
81,289,102815,5,0,0:0:0:0:
81,289,102924,2,0,L|35:294,1,40.4999987640381
160,246,103141,2,0,L|254:236,1,80.9999975280763
365,339,103685,6,0,P|404:335|436:312,1,80.9999975280763
390,190,104120,2,0,P|350:193|318:216,1,80.9999975280763
55,277,104554,5,0,0:0:0:0:
55,277,104663,2,0,L|50:323,1,40.4999987640381
98,198,104880,2,0,L|108:103,1,80.9999975280763
103,277,105423,5,0,0:0:0:0:
103,277,105533,2,0,L|108:323,1,40.4999987640381
60,198,105749,2,0,L|49:103,1,80.9999975280763
55,277,106293,5,0,0:0:0:0:
55,277,106402,2,0,L|50:323,1,40.4999987640381
98,198,106619,2,0,L|108:103,1,80.9999975280763
209,351,107163,6,0,P|170:347|138:324,1,80.9999975280763
184,202,107598,2,0,P|224:205|256:228,1,80.9999975280763
296,320,108033,5,0,0:0:0:0:
296,320,108142,2,0,L|250:315,1,40.4999987640381
375,363,108359,2,0,L|470:373,1,80.9999975280763
296,320,108902,5,0,0:0:0:0:
296,320,109012,2,0,L|250:325,1,40.4999987640381
375,277,109228,2,0,L|470:266,1,80.9999975280763
296,234,109772,5,0,0:0:0:0:
296,234,109881,2,0,L|250:229,1,40.4999987640381
375,277,110098,2,0,L|470:287,1,80.9999975280763
218,110,110642,6,0,P|256:100|294:111,1,80.9999975280763
292,261,111077,2,0,P|254:271|216:260,1,80.9999975280763
505,119,111511,5,0,0:0:0:0:
364,317,111728,1,0,0:0:0:0:
445,39,111945,5,0,0:0:0:0:
447,283,112163,1,0,0:0:0:0:
366,11,112380,5,0,0:0:0:0:
512,206,112597,1,0,0:0:0:0:
272,45,112814,5,0,0:0:0:0:
505,119,113032,1,0,0:0:0:0:
102,208,113250,5,0,0:0:0:0:
112,247,113358,1,0,0:0:0:0:
131,283,113467,1,0,0:0:0:0:
157,315,113576,1,0,0:0:0:0:
188,339,113684,1,0,0:0:0:0:
225,357,113793,1,0,0:0:0:0:
264,366,113902,1,0,0:0:0:0:
305,366,114010,1,0,0:0:0:0:
344,357,114119,1,0,0:0:0:0:
381,340,114228,1,0,0:0:0:0:
413,316,114336,1,0,0:0:0:0:
439,285,114445,1,0,0:0:0:0:
458,249,114554,1,0,0:0:0:0:
468,210,114663,1,0,0:0:0:0:
470,170,114771,1,0,0:0:0:0:
463,130,114880,1,0,0:0:0:0:
448,92,114989,6,0,L|336:58,1,80.9999975280763
32,160,116728,5,0,0:0:0:0:
160,160,117163,5,0,0:0:0:0:
288,160,117598,5,0,0:0:0:0:
416,160,118033,5,0,0:0:0:0:
480,160,120206,5,0,0:0:0:0:
352,160,120641,5,0,0:0:0:0:
224,160,121076,5,0,0:0:0:0:
96,160,121511,5,0,0:0:0:0:
32,160,123685,5,0,0:0:0:0:
160,160,124120,5,0,0:0:0:0:
288,160,124555,5,0,0:0:0:0:
416,160,124990,5,0,0:0:0:0:
480,160,127163,5,0,0:0:0:0:
224,160,128033,5,0,0:0:0:0:
203,160,128141,1,0,0:0:0:0:
183,160,128250,1,0,0:0:0:0:
163,160,128359,1,0,0:0:0:0:
143,160,128467,1,0,0:0:0:0:
122,160,128576,1,0,0:0:0:0:
102,160,128685,1,0,0:0:0:0:
82,160,128793,1,0,0:0:0:0:
62,160,128902,6,0,P|23:239|48:284,1,135.000005149842
133,232,129989,2,0,L|127:299,2,67.5000025749208
207,152,130641,5,0,0:0:0:0:
235,241,130858,1,0,0:0:0:0:
319,201,131075,1,0,0:0:0:0:
202,172,131293,1,0,0:0:0:0:
270,275,131511,5,0,0:0:0:0:
305,152,131728,1,0,0:0:0:0:
181,219,131945,1,0,0:0:0:0:
295,292,132163,1,0,0:0:0:0:
275,65,132380,6,0,P|341:69|390:113,1,135.000005149842
489,83,133468,2,0,L|483:150,2,67.5000025749208
303,157,134120,5,0,0:0:0:0:
337,67,134337,1,0,0:0:0:0:
406,139,134554,1,0,0:0:0:0:
268,181,134772,1,0,0:0:0:0:
318,50,134989,5,0,0:0:0:0:
405,184,135206,1,0,0:0:0:0:
225,180,135423,1,0,0:0:0:0:
331,30,135641,1,0,0:0:0:0:
425,275,135859,6,0,P|375:318|309:323,1,135.000005149842
197,315,136945,2,0,L|130:321,2,67.5000025749208
270,134,137597,5,0,0:0:0:0:
315,284,137814,1,0,0:0:0:0:
158,241,138033,1,0,0:0:0:0:
286,143,138249,1,0,0:0:0:0:
267,348,138467,5,0,0:0:0:0:
171,146,138685,1,0,0:0:0:0:
419,224,138902,1,0,0:0:0:0:
99,288,139119,1,0,0:0:0:0:
346,357,139337,5,0,0:0:0:0:
148,216,139554,1,0,0:0:0:0:
425,297,139771,5,0,0:0:0:0:
181,299,139989,1,0,0:0:0:0:
453,218,140206,5,0,0:0:0:0:
258,364,140423,1,0,0:0:0:0:
419,124,140640,5,0,0:0:0:0:
345,357,140858,1,0,0:0:0:0:
295,15,141076,5,0,0:0:0:0:
334,25,141184,1,0,0:0:0:0:
370,44,141293,1,0,0:0:0:0:
402,70,141402,1,0,0:0:0:0:
426,101,141510,1,0,0:0:0:0:
444,138,141619,1,0,0:0:0:0:
453,177,141728,1,0,0:0:0:0:
453,218,141836,1,0,0:0:0:0:
444,257,141945,1,0,0:0:0:0:
427,294,142054,1,0,0:0:0:0:
403,326,142162,1,0,0:0:0:0:
372,352,142271,1,0,0:0:0:0:
336,371,142380,1,0,0:0:0:0:
297,381,142489,1,0,0:0:0:0:
257,383,142597,1,0,0:0:0:0:
217,376,142706,1,0,0:0:0:0:
179,361,142815,6,0,P|144:340|97:268,1,112.5
124,115,143250,1,0,0:0:0:0:
197,210,143467,1,0,0:0:0:0:
427,247,143685,5,0,0:0:0:0:
301,200,143902,1,0,0:0:0:0:
294,5,144120,1,0,0:0:0:0:
223,116,144337,1,0,0:0:0:0:
62,294,144555,5,0,0:0:0:0:
313,125,144772,1,0,0:0:0:0:
29,309,144989,1,0,0:0:0:0:
357,347,145206,1,0,0:0:0:0:
110,0,145424,5,0,0:0:0:0:
180,253,145641,1,0,0:0:0:0:
417,122,145859,1,0,0:0:0:0:
159,74,146076,1,0,0:0:0:0:
445,344,146293,5,0,0:0:0:0:
175,236,146511,1,0,0:0:0:0:
503,273,146728,1,0,0:0:0:0:
86,351,146946,1,0,0:0:0:0:
221,66,147163,5,0,0:0:0:0:
329,336,147381,1,0,0:0:0:0:
292,8,147598,1,0,0:0:0:0:
226,376,147816,1,0,0:0:0:0:
342,171,148033,5,0,0:0:0:0:
177,264,148250,1,0,0:0:0:0:
389,279,148467,1,0,0:0:0:0:
134,159,148685,1,0,0:0:0:0:
241,20,148902,2,0,P|280:91|277:134,1,112.5
337,327,149337,1,0,0:0:0:0:
156,127,149554,1,0,0:0:0:0:
74,384,149772,6,0,L|197:348,1,112.5
313,127,150206,1,0,0:0:0:0:
389,295,150424,1,0,0:0:0:0:
444,95,150641,5,0,0:0:0:0:
319,230,150859,1,0,0:0:0:0:
223,159,151076,1,0,0:0:0:0:
147,327,151294,1,0,0:0:0:0:
78,41,151511,5,0,0:0:0:0:
203,176,151729,1,0,0:0:0:0:
434,41,151946,1,0,0:0:0:0:
413,143,152163,1,0,0:0:0:0:
334,25,152380,2,0,P|273:47|226:97,1,112.5
99,143,152815,1,0,0:0:0:0:
78,41,153032,1,0,0:0:0:0:
273,305,153250,6,0,P|231:341|178:359,1,112.5
369,174,153685,2,0,P|405:216|423:270,1,112.5
238,78,154120,2,0,P|280:42|334:25,1,112.5
142,209,154555,2,0,P|106:167|89:114,1,112.5
320,112,154989,5,0,0:0:0:0:
190,269,155206,1,0,0:0:0:0:
394,214,155424,1,0,0:0:0:0:
204,138,155641,1,0,0:0:0:0:
383,346,155859,5,0,0:0:0:0:
273,172,156076,1,0,0:0:0:0:
262,383,156294,1,0,0:0:0:0:
394,226,156511,1,0,0:0:0:0:
119,15,156728,6,0,P|67:66|48:134,1,112.5
121,311,157163,2,0,P|173:260|192:192,1,112.5
333,25,157598,5,0,0:0:0:0:
409,193,157816,1,0,0:0:0:0:
434,41,158033,1,0,0:0:0:0:
309,176,158251,1,0,0:0:0:0:
189,97,158467,5,0,0:0:0:0:
115,330,158685,1,0,0:0:0:0:
276,90,158902,1,0,0:0:0:0:
81,236,159119,1,0,0:0:0:0:
394,151,159336,5,0,0:0:0:0:
41,154,159554,1,0,0:0:0:0:
495,308,159771,1,0,0:0:0:0:
105,31,159988,1,0,0:0:0:0:
470,154,160206,5,0,0:0:0:0:
117,151,160424,1,0,0:0:0:0:
406,31,160641,1,0,0:0:0:0:
16,308,160858,1,0,0:0:0:0:
431,236,161075,5,0,0:0:0:0:
236,90,161292,1,0,0:0:0:0:
397,330,161511,1,0,0:0:0:0:
323,97,161727,1,0,0:0:0:0:
164,355,161946,5,0,0:0:0:0:
362,214,162163,1,0,0:0:0:0:
84,295,162380,1,0,0:0:0:0:
328,297,162598,1,0,0:0:0:0:
56,216,162815,5,0,0:0:0:0:
251,362,163033,1,0,0:0:0:0:
361,212,163249,1,0,0:0:0:0:
85,296,163467,1,0,0:0:0:0:
386,102,163685,6,0,P|437:140|470:193,1,112.5
199,257,164120,1,0,0:0:0:0:
123,89,164338,1,0,0:0:0:0:
96,272,164555,5,0,0:0:0:0:
221,137,164773,1,0,0:0:0:0:
333,359,164990,1,0,0:0:0:0:
409,191,165206,1,0,0:0:0:0:
461,357,165425,5,0,0:0:0:0:
336,222,165641,1,0,0:0:0:0:
78,343,165860,1,0,0:0:0:0:
99,241,166077,1,0,0:0:0:0:
178,359,166294,6,0,P|239:337|286:287,1,112.5
180,152,166728,1,0,0:0:0:0:
270,186,166946,1,0,0:0:0:0:
71,110,167163,5,0,0:0:0:0:
212,308,167380,1,0,0:0:0:0:
131,31,167597,5,0,0:0:0:0:
129,275,167815,1,0,0:0:0:0:
210,3,168032,5,0,0:0:0:0:
64,198,168249,1,0,0:0:0:0:
304,37,168466,5,0,0:0:0:0:
71,111,168684,1,0,0:0:0:0:
413,161,168902,5,0,0:0:0:0:
403,122,169010,1,0,0:0:0:0:
384,86,169119,1,0,0:0:0:0:
358,54,169228,1,0,0:0:0:0:
327,30,169336,1,0,0:0:0:0:
290,12,169445,1,0,0:0:0:0:
251,3,169554,1,0,0:0:0:0:
210,3,169662,1,0,0:0:0:0:
171,12,169771,1,0,0:0:0:0:
134,29,169880,1,0,0:0:0:0:
102,53,169988,1,0,0:0:0:0:
76,84,170097,1,0,0:0:0:0:
57,120,170206,1,0,0:0:0:0:
47,159,170315,1,0,0:0:0:0:
45,199,170423,1,0,0:0:0:0:
52,239,170532,1,0,0:0:0:0:
67,277,170641,6,0,L|48:351,4,40.4999987640381
161,107,171511,6,0,L|142:33,4,40.4999987640381
255,277,172380,6,0,L|236:351,4,40.4999987640381
330,132,173250,5,0,0:0:0:0:
400,171,173467,1,0,0:0:0:0:
426,201,173685,1,0,0:0:0:0:
446,251,173902,1,0,0:0:0:0:
443,277,174120,6,0,L|462:351,4,40.4999987640381
349,107,174990,6,0,L|368:33,4,40.4999987640381
255,277,175859,6,0,L|274:351,4,40.4999987640381
289,142,176729,5,0,0:0:0:0:
219,181,176946,1,0,0:0:0:0:
193,211,177164,1,0,0:0:0:0:
173,261,177381,1,0,0:0:0:0:
176,287,177598,6,0,L|123:299,4,40.4999987640381
304,230,178467,6,0,L|357:242,4,40.4999987640381
201,152,179337,6,0,L|148:164,4,40.4999987640381
393,172,180206,5,0,0:0:0:0:
354,242,180423,1,0,0:0:0:0:
324,268,180641,1,0,0:0:0:0:
274,288,180858,1,0,0:0:0:0:
248,285,181076,6,0,L|174:266,4,40.4999987640381
367,322,181945,6,0,L|317:380,4,40.4999987640381
448,226,182815,6,0,L|478:296,4,40.4999987640381,0|0|0|0|0,0:3|0:3|0:3|0:3|0:3,0:3:0:0:
404,110,183684,6,0,L|376:206,1,80.9999975280763,0|0,0:3|0:3,0:3:0:0:
208,69,184554,5,0,0:0:0:0:
147,223,184772,1,0,0:0:0:0:
133,129,184989,1,0,0:0:0:0:
236,257,185206,1,0,0:0:0:0:
276,127,185424,5,0,0:0:0:0:
379,255,185642,1,0,0:0:0:0:
365,161,185859,1,0,0:0:0:0:
304,315,186076,1,0,0:0:0:0:
191,172,186293,5,0,0:0:0:0:
440,63,186728,5,0,0:0:0:0:
132,138,187163,5,0,0:0:0:0:
142,329,187380,1,0,0:0:0:0:
245,168,187598,1,0,0:0:0:0:
68,237,187815,1,0,0:0:0:0:
186,322,191511,5,0,0:0:0:0:
106,202,191729,1,0,0:0:0:0:
241,252,191946,1,0,0:0:0:0:
103,291,192163,1,0,0:0:0:0:
386,262,192380,5,0,0:0:0:0:
266,342,192598,1,0,0:0:0:0:
316,207,192815,1,0,0:0:0:0:
355,345,193032,1,0,0:0:0:0:
326,62,193250,5,0,0:0:0:0:
406,182,193468,1,0,0:0:0:0:
271,132,193685,1,0,0:0:0:0:
409,93,193902,1,0,0:0:0:0:
126,122,194120,5,0,0:0:0:0:
262,183,198467,5,0,0:0:0:0:
351,201,198685,1,0,0:0:0:0:
266,189,198902,5,0,0:0:0:0:
329,255,199120,1,0,0:0:0:0:
259,202,199337,5,0,0:0:0:0:
193,265,199555,1,0,0:0:0:0:
264,198,199772,5,0,0:0:0:0:
246,287,199990,1,0,0:0:0:0:
243,95,200206,6,0,P|192:118|161:205,1,121.499996292114
161,173,200641,2,0,P|167:228|240:284,1,121.499996292114
210,275,201076,2,0,P|264:286|340:234,1,121.499996292114,0|0,3:0|3:0,3:0:0:0:
322,259,201511,2,0,P|349:210|323:121,1,121.499996292114,0|0,3:0|3:0,3:0:0:0:
342,147,201946,5,0,0:0:0:0:
283,87,202163,1,0,0:0:0:0:
342,147,202380,5,0,0:0:0:0:
322,22,202597,1,0,0:0:0:0:
342,147,202815,5,0,0:0:0:0:
391,50,203032,1,0,0:0:0:0:
342,147,203249,5,0,0:0:0:0:
423,105,203466,1,0,0:0:0:0:
334,254,203685,6,0,P|348:288|350:341,1,80.9999975280763
426,263,204120,2,0,P|459:268|509:292,1,80.9999975280763
312,163,204554,2,0,P|283:195|244:220,1,80.9999975280763
178,254,205424,6,0,L|162:341,1,80.9999975280763
4,218,205859,1,0,0:0:0:0:
31,294,206076,1,0,0:0:0:0:
148,176,206293,5,0,0:0:0:0:
70,153,206510,1,0,0:0:0:0:
45,299,206728,1,0,0:0:0:0:
91,232,206945,1,0,0:0:0:0:
164,360,207163,5,0,0:0:0:0:
188,257,207380,1,0,0:0:0:0:
311,354,207598,1,0,0:0:0:0:
280,263,207815,1,0,0:0:0:0:
392,299,208033,2,0,L|480:286,1,80.9999975280763
230,265,208902,5,0,0:0:0:0:
304,32,209120,1,0,0:0:0:0:
143,272,209337,5,0,0:0:0:0:
338,126,209554,1,0,0:0:0:0:
66,207,209771,5,0,0:0:0:0:
310,205,209989,1,0,0:0:0:0:
33,124,210206,5,0,0:0:0:0:
231,265,210423,1,0,0:0:0:0:
295,15,210641,5,0,0:0:0:0:
334,25,210749,1,0,0:0:0:0:
370,44,210858,1,0,0:0:0:0:
402,70,210967,1,0,0:0:0:0:
426,101,211075,1,0,0:0:0:0:
444,138,211184,1,0,0:0:0:0:
453,177,211293,1,0,0:0:0:0:
453,218,211401,1,0,0:0:0:0:
444,257,211510,1,0,0:0:0:0:
427,294,211619,1,0,0:0:0:0:
403,326,211727,1,0,0:0:0:0:
372,352,211836,1,0,0:0:0:0:
336,371,211946,6,0,P|306:380|269:378,1,60.7499981460572
179,361,212380,6,0,P|208:305|260:278,1,112.5
427,294,212815,1,0,0:0:0:0:
298,188,213033,1,0,0:0:0:0:
141,219,213250,5,0,0:0:0:0:
423,107,213467,1,0,0:0:0:0:
447,212,213685,1,0,0:0:0:0:
178,51,213902,1,0,0:0:0:0:
121,147,214120,5,0,0:0:0:0:
414,72,214337,1,0,0:0:0:0:
95,67,214554,5,0,0:0:0:0:
480,121,214771,1,0,0:0:0:0:
0,163,214989,1,0,0:0:0:0:
492,38,215423,1,0,0:0:0:0:
159,135,215859,5,0,0:0:0:0:
199,278,216076,1,0,0:0:0:0:
283,49,216293,1,0,0:0:0:0:
225,347,216510,1,0,0:0:0:0:
176,5,216728,5,0,0:0:0:0:
282,381,216945,1,0,0:0:0:0:
353,135,217162,1,0,0:0:0:0:
313,278,217379,1,0,0:0:0:0:
256,32,217598,5,0,0:0:0:0:
194,250,217815,1,0,0:0:0:0:
142,32,218033,1,0,0:0:0:0:
306,248,218250,1,0,0:0:0:0:
456,68,218467,6,0,P|477:124|484:185,1,112.5
256,352,218902,1,0,0:0:0:0:
293,231,219120,1,0,0:0:0:0:
128,180,219337,6,0,P|108:128|101:73,1,112.5
483,208,219772,2,0,P|476:263|456:315,1,112.5
55,315,220206,6,0,P|35:263|28:208,1,112.5
411,73,220641,2,0,P|402:128|382:180,1,112.5
256,352,221076,5,0,0:0:0:0:
448,288,221293,1,0,0:0:0:0:
64,288,221511,1,0,0:0:0:0:
256,352,221728,1,0,0:0:0:0:
256,224,221946,6,0,L|256:96,1,112.5
84,25,222380,1,0,0:0:0:0:
148,217,222598,1,0,0:0:0:0:
352,32,222815,6,0,L|384:160,1,112.5
288,320,223250,1,0,0:0:0:0:
320,224,223468,1,0,0:0:0:0:
400,304,223685,5,0,0:0:0:0:
208,240,223903,1,0,0:0:0:0:
491,215,224120,1,0,0:0:0:0:
138,333,224338,1,0,0:0:0:0:
221,13,224555,5,0,0:0:0:0:
358,355,224773,1,0,0:0:0:0:
197,187,224989,1,0,0:0:0:0:
432,329,225207,1,0,0:0:0:0:
224,370,225424,5,0,0:0:0:0:
401,178,225642,1,0,0:0:0:0:
221,293,225858,1,0,0:0:0:0:
404,256,226076,1,0,0:0:0:0:
142,145,226293,6,0,P|75:167|32:198,1,112.5
99,352,226728,1,0,0:0:0:0:
124,247,226945,1,0,0:0:0:0:
330,354,227163,5,0,0:0:0:0:
246,247,227380,1,0,0:0:0:0:
377,284,227597,1,0,0:0:0:0:
248,331,227815,1,0,0:0:0:0:
433,125,228033,5,0,0:0:0:0:
326,209,228250,1,0,0:0:0:0:
323,3,228467,1,0,0:0:0:0:
427,354,228685,1,0,0:0:0:0:
31,102,228902,5,0,0:0:0:0:
484,192,229119,1,0,0:0:0:0:
97,301,229337,1,0,0:0:0:0:
346,125,229555,1,0,0:0:0:0:
111,201,229772,5,0,0:0:0:0:
338,238,229989,1,0,0:0:0:0:
83,64,230206,5,0,0:0:0:0:
211,336,230423,1,0,0:0:0:0:
244,0,230641,5,0,0:0:0:0:
62,326,230859,1,0,0:0:0:0:
375,104,231076,1,0,0:0:0:0:
106,239,231293,1,0,0:0:0:0:
512,192,231511,5,0,0:0:0:0:
0,192,231946,1,0,0:0:0:0:
512,192,232380,1,0,0:0:0:0:
158,226,232815,5,0,0:0:0:0:
361,276,233033,1,0,0:0:0:0:
31,290,233250,6,0,P|30:217|46:160,1,112.5
297,187,233685,1,0,0:0:0:0:
199,214,233903,1,0,0:0:0:0:
371,217,234120,5,0,0:0:0:0:
120,190,234338,1,0,0:0:0:0:
485,195,234554,1,0,0:0:0:0:
15,215,234772,1,0,0:0:0:0:
512,9,234989,5,0,0:0:0:0:
21,330,235207,1,0,0:0:0:0:
271,16,235424,1,0,0:0:0:0:
206,365,235642,1,0,0:0:0:0:
367,247,235859,5,0,0:0:0:0:
126,214,236077,1,0,0:0:0:0:
328,178,236294,1,0,0:0:0:0:
128,313,236511,1,0,0:0:0:0:
369,306,236728,5,0,0:0:0:0:
171,165,236945,1,0,0:0:0:0:
449,246,237162,5,0,0:0:0:0:
205,248,237380,1,0,0:0:0:0:
477,167,237597,5,0,0:0:0:0:
282,313,237814,1,0,0:0:0:0:
443,73,238033,5,0,0:0:0:0:
369,306,238249,1,0,0:0:0:0:
214,13,238467,5,0,0:0:0:0:
175,23,238575,1,0,0:0:0:0:
139,42,238684,1,0,0:0:0:0:
107,68,238793,1,0,0:0:0:0:
83,99,238901,1,0,0:0:0:0:
65,136,239010,1,0,0:0:0:0:
56,175,239119,1,0,0:0:0:0:
56,216,239227,1,0,0:0:0:0:
65,255,239336,1,0,0:0:0:0:
82,292,239445,1,0,0:0:0:0:
106,324,239553,1,0,0:0:0:0:
137,350,239662,1,0,0:0:0:0:
173,369,239771,1,0,0:0:0:0:
212,379,239880,1,0,0:0:0:0:
252,381,239988,1,0,0:0:0:0:
292,374,240097,1,0,0:0:0:0:
330,359,240206,6,0,L|405:377,2,56.25
380,292,240533,2,0,L|490:319,2,112.5
352,189,241076,1,0,0:0:0:0:
330,184,241184,1,0,0:0:0:0:
309,178,241293,1,0,0:0:0:0:
183,76,241511,1,0,0:0:0:0:
219,270,241728,1,0,0:0:0:0:
63,231,241946,6,0,L|-12:249,2,56.25
131,292,242272,2,0,L|22:319,2,112.5
216,359,242815,1,0,0:0:0:0:
238,354,242923,1,0,0:0:0:0:
259,348,243032,1,0,0:0:0:0:
287,120,243251,1,0,0:0:0:0:
410,317,243468,1,0,0:0:0:0:
353,45,243685,6,0,L|428:27,2,56.25
403,112,244012,2,0,L|513:85,2,112.5
375,215,244555,1,0,0:0:0:0:
353,220,244663,1,0,0:0:0:0:
332,226,244772,1,0,0:0:0:0:
206,328,244990,1,0,0:0:0:0:
242,134,245207,1,0,0:0:0:0:
86,173,245425,6,0,L|11:155,2,56.25
154,112,245751,2,0,L|45:85,2,112.5
239,45,246294,1,0,0:0:0:0:
261,50,246402,1,0,0:0:0:0:
282,56,246511,1,0,0:0:0:0:
310,284,246728,1,0,0:0:0:0:
433,87,246947,1,0,0:0:0:0:
196,315,247163,6,0,L|207:371,2,56.25
96,257,247489,2,0,L|125:138,2,112.5
59,299,248033,1,0,0:0:0:0:
64,326,248141,1,0,0:0:0:0:
69,354,248250,1,0,0:0:0:0:
62,73,248468,1,0,0:0:0:0:
12,208,248685,1,0,0:0:0:0:
316,239,248902,6,0,L|328:294,2,56.25
412,213,249228,2,0,L|433:97,2,112.5
447,258,249772,1,0,0:0:0:0:
452,285,249880,1,0,0:0:0:0:
458,312,249989,1,0,0:0:0:0:
281,66,250207,1,0,0:0:0:0:
231,342,250424,1,0,0:0:0:0:
313,200,250641,6,0,L|325:255,2,56.25
409,174,250967,2,0,L|430:58,2,112.5
465,260,251511,1,0,0:0:0:0:
465,260,251620,1,0,0:0:0:0:
465,260,251728,1,0,0:0:0:0:
324,74,251946,1,0,0:0:0:0:
289,313,252163,1,0,0:0:0:0:
168,181,252380,6,0,L|112:170,2,56.25
110,261,252706,2,0,L|-28:284,2,112.5
253,238,253250,1,0,0:0:0:0:
253,238,253359,1,0,0:0:0:0:
253,238,253467,1,0,0:0:0:0:
256,25,253685,1,0,0:0:0:0:
405,183,253902,1,0,0:0:0:0:
170,196,254120,6,0,P|93:180|62:159,1,112.5
146,274,254554,1,0,0:0:0:0:
343,33,254989,1,0,0:0:0:0:
424,333,255424,1,0,0:0:0:0:
337,228,255859,6,0,P|288:255|232:263,1,112.5
133,218,256293,1,0,0:0:0:0:
311,89,256728,1,0,0:0:0:0:
371,306,257163,1,0,0:0:0:0:
150,277,257598,6,0,P|200:304|255:312,1,112.5
391,79,258033,1,0,0:0:0:0:
348,283,258467,1,0,0:0:0:0:
197,124,258902,1,0,0:0:0:0:
71,336,259337,6,0,P|120:362|175:370,1,112.5
367,332,259772,1,0,0:0:0:0:
150,277,260206,1,0,0:0:0:0:
377,151,260641,1,0,0:0:0:0:
10,223,261076,6,0,L|116:259,1,112.5
77,170,262815,6,0,L|176:227,1,112.5
457,136,264554,5,0,0:0:0:0:
316,334,264771,1,0,0:0:0:0:
397,56,264988,5,0,0:0:0:0:
399,300,265206,1,0,0:0:0:0:
318,28,265423,5,0,0:0:0:0:
464,223,265640,1,0,0:0:0:0:
224,62,265859,5,0,0:0:0:0:
457,136,266075,1,0,0:0:0:0:
115,186,266293,5,0,0:0:0:0:
125,147,266401,1,0,0:0:0:0:
144,111,266510,1,0,0:0:0:0:
170,79,266619,1,0,0:0:0:0:
201,55,266727,1,0,0:0:0:0:
238,37,266836,1,0,0:0:0:0:
277,28,266945,1,0,0:0:0:0:
318,28,267053,1,0,0:0:0:0:
357,37,267162,1,0,0:0:0:0:
394,54,267271,1,0,0:0:0:0:
426,78,267379,1,0,0:0:0:0:
452,109,267488,1,0,0:0:0:0:
471,145,267597,1,0,0:0:0:0:
481,184,267706,1,0,0:0:0:0:
483,224,267814,1,0,0:0:0:0:
476,264,267923,1,0,0:0:0:0:
461,302,268033,6,0,L|475:348,1,45
456,311,269772,6,0,L|470:357,1,45
