osu file format v14

[General]
AudioFilename: audio.mp3
AudioLeadIn: 0
PreviewTime: 46793
Countdown: 0
SampleSet: Soft
StackLeniency: 0.7
Mode: 2
LetterboxInBreaks: 0
WidescreenStoryboard: 1

[Editor]
DistanceSpacing: 1
BeatDivisor: 4
GridSize: 8
TimelineZoom: 0.6

[Metadata]
Title:Trust Me (TV Size)
TitleUnicode:Trust Me (TV Size)
Artist:Yuya Matsushita
ArtistUnicode:松下優也
Creator:rew0825
Version:Cup
Source:デュラララ!!
Tags:Durarara!! DRRR!! Anime Japanese J-Pop JPop Pop Male Vocal Vocals ED Ending
BeatmapID:3550626
BeatmapSetID:1736636

[Difficulty]
HPDrainRate:2
CircleSize:2.5
OverallDifficulty:5.6
ApproachRate:5.6
SliderMultiplier:2.2
SliderTickRate:2

[Events]
//Background and Video events
0,0,"BG.jpg",0,0
Video,0,"VDO.m4v"
//Break Periods
//Storyboard Layer 0 (Background)
//Storyboard Layer 1 (Fail)
//Storyboard Layer 2 (Pass)
//Storyboard Layer 3 (Foreground)
//Storyboard Layer 4 (Overlay)
//Storyboard Sound Samples

[TimingPoints]
263,612.244897959184,4,2,1,45,1,0
2099,-100,4,2,1,75,0,0
2711,-100,4,2,1,80,0,0
7609,-100,4,2,1,85,0,0
27201,-100,4,2,1,75,0,0
34548,-100,4,2,1,80,0,0
36997,-100,4,2,1,75,0,0
44344,-100,4,2,1,80,0,0
46793,-100,4,2,1,85,0,1
66232,-100,4,2,1,85,0,0
66385,-100,4,2,1,85,0,1
83528,-100,4,2,1,80,0,1
84140,-100,4,2,1,75,0,1
84752,-100,4,2,1,70,0,1
85365,-100,4,2,1,65,0,1
85824,-100,4,2,1,60,0,0

[Colours]
Combo1 : 227,174,94
Combo2 : 97,201,231
Combo3 : 226,155,232
Combo4 : 230,217,142

[HitObjects]
256,192,263,12,0,1487,0:0:0:0:
194,326,2099,6,0,L|192:215,1,110,0|0,3:2|1:2,0:0:0:0:
312,216,2711,6,0,P|384:214|443:92,1,220,4|10,1:2|1:2,0:0:0:0:
223,93,3936,1,2,1:2:0:0:
119,93,4242,1,2,0:0:0:0:
222,93,4548,1,10,1:2:0:0:
463,93,5160,6,0,P|485:168|375:217,1,220,6|10,1:2|1:2,0:0:0:0:
265,217,6079,1,2,3:2:0:0:
144,217,6385,2,0,P|91:146|184:102,1,220,6|10,1:2|1:2,0:0:0:0:
294,102,7303,1,0,3:2:0:0:
173,102,7609,6,0,L|57:100,2,110,4|2|10,1:2|0:0|1:2,0:0:0:0:
393,102,8834,2,0,P|466:171|386:218,1,220,2|8,1:2|1:2,0:0:0:0:
279,219,9752,1,2,1:2:0:0:
399,219,10058,6,0,L|401:108,1,110,4|2,1:2|0:0,0:0:0:0:
290,109,10671,1,10,1:2:0:0:
70,109,11283,2,0,P|19:179|119:229,1,220,2|8,1:2|1:2,0:0:0:0:
221,232,12201,1,2,1:2:0:0:
341,232,12507,6,0,L|459:232,2,110,4|2|10,1:2|0:0|1:2,0:0:0:0:
120,232,13732,2,0,P|46:178|123:115,1,220,2|8,1:2|1:2,0:0:0:0:
364,114,14956,6,0,P|437:162|359:233,1,220,6|10,1:2|1:2,0:0:0:0:
252,233,15875,1,0,1:2:0:0:
131,233,16181,2,0,P|58:185|136:114,1,220,6|10,1:2|1:2,0:0:0:0:
242,113,17099,1,8,2:3:0:0:
362,113,17405,6,0,L|479:111,2,110,4|2|10,1:2|0:0|1:2,0:0:0:0:
141,113,18630,2,0,P|92:168|190:240,1,220,2|8,1:2|1:2,0:0:0:0:
293,242,19548,1,2,1:2:0:0:
172,242,19854,6,0,L|55:241,2,110,4|2|10,1:2|0:0|1:2,0:0:0:0:
392,242,21079,2,0,L|394:131,1,110,2|2,1:2|0:0,0:0:0:0:
284,132,21691,2,0,L|165:129,1,110,10|2,1:2|1:2,0:0:0:0:
294,129,22303,6,0,P|379:135|424:264,1,220,4|10,1:2|1:2,0:0:0:0:
209,247,23528,1,2,1:2:0:0:
99,247,23834,1,2,0:0:0:0:
209,247,24140,1,8,1:2:0:0:
450,247,24752,6,0,P|489:173|438:56,1,220,6|10,1:2|1:2,0:0:0:0:
327,55,25671,1,10,0:3:0:0:
206,55,25977,2,0,L|203:169,1,110,6|10,1:2|0:3,0:0:0:0:
313,164,26589,2,0,L|316:278,1,110,10|10,1:2|0:3,0:0:0:0:
194,273,27201,6,0,P|93:260|53:156,1,220,4|2,1:2|3:2,0:0:0:0:
217,159,28273,2,0,L|219:272,1,110,2|2,1:2|1:2,0:0:0:0:
54,268,29038,2,0,L|51:157,1,110,2|2,3:2|0:0,0:0:0:0:
171,158,29650,6,0,P|272:171|312:275,1,220,4|2,1:2|3:2,0:0:0:0:
147,271,30722,2,0,L|145:157,1,110,2|2,1:2|1:2,0:0:0:0:
310,161,31487,2,0,L|313:279,1,110,2|2,3:2|0:0,0:0:0:0:
191,270,32099,6,0,P|152:217|253:146,1,220,4|2,1:2|3:2,0:0:0:0:
416,145,33171,2,0,L|417:255,1,110,2|2,1:2|1:2,0:0:0:0:
252,254,33936,2,0,L|251:142,1,110,2|2,3:2|0:0,0:0:0:0:
371,144,34548,6,0,P|444:87|369:21,1,220,6|2,1:2|3:2,0:0:0:0:
258,21,35467,2,0,P|185:78|260:144,1,220,10|2,0:3|1:2,0:0:0:0:
370,143,36385,2,0,L|373:257,1,110,2|2,3:2|1:2,0:0:0:0:
251,252,36997,6,0,P|160:266|104:375,1,220,4|2,1:2|3:2,0:0:0:0:
324,371,38222,1,2,1:2:0:0:
433,371,38528,1,2,0:0:0:0:
324,371,38834,1,0,3:2:0:0:
104,371,39446,6,0,P|31:319|113:257,1,220,0|2,1:2|3:2,0:0:0:0:
328,255,40671,1,2,1:2:0:0:
219,255,40977,1,2,0:0:0:0:
110,255,41283,1,0,3:2:0:0:
329,255,41895,6,0,P|400:202|321:133,1,220,0|2,1:2|3:2,0:0:0:0:
103,132,43120,1,2,1:2:0:0:
16,200,43426,1,2,0:0:0:0:
125,200,43732,1,0,3:2:0:0:
344,200,44344,6,0,L|152:309,1,220,2|10,1:2|1:2,0:0:0:0:
372,308,45569,2,0,P|441:257|363:185,1,220,2|10,1:2|1:2,0:0:0:0:
253,184,46487,1,8,1:3:0:0:
132,184,46793,5,4,1:2:0:0:
241,184,47099,1,2,0:0:0:0:
350,184,47405,1,10,1:2:0:0:
129,184,48018,2,0,P|84:111|177:50,1,220,2|8,1:2|1:2,0:0:0:0:
287,50,48936,1,2,1:2:0:0:
165,146,49242,6,0,L|52:144,2,110,4|2|10,1:2|0:0|1:2,0:0:0:0:
385,146,50467,2,0,P|275:160|221:246,1,220,2|8,1:2|1:2,0:0:0:0:
330,246,51385,1,10,0:3:0:0:
450,246,51691,6,0,L|452:132,1,110,4|2,1:2|0:0,0:0:0:0:
341,136,52303,1,10,1:2:0:0:
120,136,52916,2,0,P|48:190|126:257,1,220,2|8,1:2|1:2,0:0:0:0:
366,257,54140,6,0,P|434:211|358:134,1,220,6|10,1:2|1:2,0:0:0:0:
247,134,55058,1,0,3:2:0:0:
125,134,55365,2,0,P|49:188|128:239,1,220,6|10,1:2|1:2,0:0:0:0:
237,239,56283,1,8,0:3:0:0:
357,239,56589,6,0,L|474:238,2,110,4|2|10,1:2|0:0|1:2,0:0:0:0:
136,239,57814,2,0,P|19:168|34:105,1,220,2|8,1:2|1:2,0:0:0:0:
142,107,58732,1,2,1:2:0:0:
262,107,59038,6,0,L|264:218,1,110,4|2,1:2|0:0,0:0:0:0:
154,216,59650,1,10,1:2:0:0:
374,216,60263,2,0,L|376:328,1,110,2|2,1:2|0:0,0:0:0:0:
266,325,60875,2,0,L|154:322,1,110,10|10,1:2|0:3,0:0:0:0:
276,322,61487,6,0,P|352:319|422:201,1,220,4|10,1:2|1:2,0:0:0:0:
202,205,62711,2,0,P|126:202|77:82,1,220,2|8,1:2|1:2,0:0:0:0:
187,82,63630,1,2,1:2:0:0:
307,82,63936,6,0,P|376:135|301:215,1,220,6|10,1:2|1:2,0:0:0:0:
194,215,64854,1,10,0:3:0:0:
314,215,65160,2,0,L|316:103,1,110,6|10,1:2|0:3,0:0:0:0:
206,105,65773,2,0,L|204:218,1,110,10|2,1:2|1:2,0:0:0:0:
325,214,66385,6,0,L|449:214,2,110,4|2|10,1:2|0:0|1:2,0:0:0:0:
105,214,67609,2,0,P|47:156|137:94,1,220,2|8,1:2|1:2,0:0:0:0:
246,93,68528,1,2,1:2:0:0:
125,93,68834,6,0,L|8:93,2,110,4|2|10,1:2|0:0|1:2,0:0:0:0:
344,93,70058,2,0,P|415:143|337:214,1,220,2|8,1:2|1:2,0:0:0:0:
228,214,70977,1,10,0:3:0:0:
107,214,71283,6,0,L|108:100,1,110,4|2,1:2|0:0,0:0:0:0:
217,104,71895,1,10,1:2:0:0:
436,104,72507,2,0,P|489:175|395:221,1,220,2|8,1:2|1:2,0:0:0:0:
154,221,73732,6,0,P|226:218|290:98,1,220,6|10,1:2|1:2,0:0:0:0:
180,98,74650,1,8,0:3:0:0:
59,98,74956,2,0,P|48:153|172:219,1,220,6|10,1:2|1:2,0:0:0:0:
281,219,75875,1,8,1:3:0:0:
160,219,76181,6,0,L|41:220,2,110,4|2|10,1:2|0:0|1:2,0:0:0:0:
379,219,77405,2,0,P|452:164|372:103,1,220,2|8,1:2|1:2,0:0:0:0:
265,102,78324,1,2,1:2:0:0:
386,102,78630,6,0,L|499:97,2,110,4|2|10,1:2|0:0|1:2,0:0:0:0:
166,102,79854,2,0,L|164:214,1,110,2|2,1:2|0:0,0:0:0:0:
274,211,80467,2,0,L|388:208,1,110,10|10,1:2|0:3,0:0:0:0:
263,208,81079,6,0,L|46:177,1,220,4|10,1:2|1:2,0:0:0:0:
264,180,82303,2,0,P|351:191|387:308,1,220,2|8,1:2|1:2,0:0:0:0:
277,304,83222,1,2,1:2:0:0:
156,304,83528,6,0,P|83:258|163:193,1,220,6|2,0:2|3:2,0:0:0:0:
380,192,84752,2,0,P|385:120|264:72,1,220,6|6,0:2|3:2,0:0:0:0:
143,71,85671,5,10,3:3:0:0:
