osu file format v14

[General]
AudioFilename: midnight cookie.mp3
AudioLeadIn: 0
PreviewTime: 73995
Countdown: 0
SampleSet: Soft
StackLeniency: 0.7
Mode: 0
LetterboxInBreaks: 0
WidescreenStoryboard: 1

[Editor]
DistanceSpacing: 1.2
BeatDivisor: 2
GridSize: 4
TimelineZoom: 2

[Metadata]
Title:midnight cookie
TitleUnicode:midnight cookie
Artist:Yuuzuki Tsubaki
ArtistUnicode:夕月椿
Creator:Yukiin0
Version:Normal
Source:東方Project
Tags:Halozy 864 Touhou Koumakyou Reitaisai12 sumijun くまりす ZUN Embodiment of Scarlet Devil Flandre Scarlet
BeatmapID:847540
BeatmapSetID:388093

[Difficulty]
HPDrainRate:4
CircleSize:3
OverallDifficulty:4
ApproachRate:5
SliderMultiplier:1
SliderTickRate:1

[Events]
//Background and Video events
0,0,"bg.jpg",0,0
//Break Periods
//Storyboard Layer 0 (Background)
//Storyboard Layer 1 (Fail)
//Storyboard Layer 2 (Pass)
//Storyboard Layer 3 (Foreground)
//Storyboard Sound Samples

[TimingPoints]
1536,327.868852459016,4,2,1,60,1,0
5470,-111.111111111111,4,2,1,10,0,0
7273,-111.111111111111,4,2,1,30,0,0
9568,-111.111111111111,4,2,1,50,0,0
11781,-99.9999999999999,4,2,1,60,0,0
22519,-111.111111111111,4,2,1,10,0,0
25142,-111.111111111111,4,2,1,30,0,0
25798,-111.111111111111,4,2,1,40,0,0
26454,-111.111111111111,4,2,1,50,0,0
27765,-99.9999999999999,4,2,1,60,0,0
33011,-90.9090909090909,4,2,1,60,0,0
43503,-111.111111111111,4,2,1,10,0,0
45798,-111.111111111111,4,2,1,20,0,0
46454,-111.111111111111,4,2,1,30,0,0
47109,-111.111111111111,4,2,1,40,0,0
47765,-111.111111111111,4,2,1,50,0,0
48749,-99.9999999999999,4,2,1,60,0,0
53995,-90.9090909090909,4,2,1,60,0,0
64486,-133.333333333333,4,2,2,35,0,0
69732,-111.111111111111,4,2,1,50,0,0
72191,-100,4,2,1,40,0,0
74978,-83.3333333333333,4,2,1,60,0,1
85470,-90.9090909090909,4,2,1,60,0,0
87765,-99.9999999999999,4,2,1,40,0,0
89732,-99.9999999999999,4,2,1,50,0,0
90388,-99.9999999999999,4,2,1,60,0,0

[Colours]
Combo1 : 255,192,0
Combo2 : 255,0,128
Combo3 : 18,124,255
Combo4 : 242,24,57

[HitObjects]
256,192,5470,12,0,10716,0:0:0:0:
256,280,12027,6,0,P|208:272|160:248,1,100,6|10,0:0|0:0,0:0:0:0:
48,208,12683,2,0,P|72:184|136:160,1,100,2|10,0:0|0:0,0:0:0:0:
175,117,13175,2,0,P|223:101|271:109,1,100
331,108,13667,1,10,0:0:0:0:
452,96,13995,2,0,P|448:152|424:192,1,100,2|10,0:0|0:0,0:0:0:0:
385,304,14650,6,0,P|329:322|285:314,1,100,6|10,0:0|0:0,0:0:0:0:
232,295,15142,2,0,P|179:288|133:302,1,100,2|2,0:0|0:0,0:0:0:0:
74,300,15635,1,10,0:0:0:0:
74,180,15962,2,0,P|58:124|66:84,2,100,2|10|2,0:0|0:0|0:0,0:0:0:0:
160,264,16945,1,10,0:0:0:0:
280,278,17273,6,0,P|328:256|356:220,1,100,6|10,0:0|0:0,0:0:0:0:
256,176,17929,1,2,0:0:0:0:
162,112,18257,2,0,P|199:80|248:74,2,100,10|2|10,0:0|0:0|0:0,0:0:0:0:
183,222,19240,2,0,P|199:274|231:306,1,100,2|10,0:0|0:0,0:0:0:0:
352,288,19896,5,6,0:0:0:0:
472,296,20224,2,0,P|456:352|416:368,2,100,10|2|10,0:0|0:0|0:0,0:0:0:0:
432,184,21208,2,0,P|394:215|344:240,1,100,2|10,0:0|0:0,0:0:0:0:
292,228,21699,2,0,P|232:192|212:168,1,100,2|2,0:0|0:0,0:0:0:0:
170,126,22191,1,10,0:0:0:0:
260,64,22519,6,0,P|308:40|344:36,1,89.9999972534181,2|2,0:0|0:0,0:0:0:0:
413,117,23175,2,0,P|421:173|409:205,1,89.9999972534181,2|2,0:0|0:0,0:0:0:0:
344,288,23831,2,0,P|296:264|272:232,1,89.9999972534181,2|2,0:0|0:0,0:0:0:0:
192,168,24486,2,0,P|192:104|208:80,1,89.9999972534181,8|8,0:0|0:0,0:0:0:0:
304,128,25142,6,0,P|345:118|392:128,1,89.9999972534181,8|8,0:0|0:0,0:0:0:0:
348,227,25798,2,0,P|390:244|424:280,1,89.9999972534181,8|8,0:0|0:0,0:0:0:0:
320,315,26454,2,0,P|272:331|232:323,1,89.9999972534181,8|8,0:0|0:0,0:0:0:0:
265,220,27109,2,0,L|217:212,1,44.999998626709,8|8,0:0|0:0,0:0:0:0:
171,190,27437,1,8,0:0:0:0:
255,105,27765,6,0,P|295:121|352:128,1,100,6|10,0:0|0:0,0:0:0:0:
408,152,28257,2,0,L|408:256,1,100,2|2,0:0|0:0,0:0:0:0:
362,291,28749,1,10,0:0:0:0:
248,248,29076,6,0,P|192:228|164:200,1,100,6|10,0:0|0:0,0:0:0:0:
196,148,29568,2,0,P|156:112|112:104,1,100,2|2,0:0|0:0,0:0:0:0:
60,136,30060,1,10,0:0:0:0:
28,252,30388,6,0,P|40:288|80:336,1,100,6|10,0:0|0:0,0:0:0:0:
139,335,30880,2,0,P|196:320|232:300,1,100,2|2,0:0|0:0,0:0:0:0:
244,240,31372,1,10,0:0:0:0:
328,155,31699,1,4,0:0:0:0:
243,70,32027,1,4,0:0:0:0:
129,109,32355,2,0,P|81:125|89:165,1,100,4|2,0:0|0:0,0:0:0:0:
208,224,33011,6,0,P|256:189|304:176,1,110.000003356934,6|10,0:0|0:0,0:0:0:0:
416,104,33667,2,0,P|449:162|438:200,1,110.000003356934,2|10,0:0|0:0,0:0:0:0:
412,260,34158,2,0,P|348:268|304:260,1,110.000003356934,2|2,0:0|0:0,0:0:0:0:
240,248,34650,1,10,0:0:0:0:
290,126,34978,1,2,0:0:0:0:
273,62,35142,1,2,0:0:0:0:
215,30,35306,1,10,0:0:0:0:
84,48,35634,6,0,P|59:102|57:151,1,110.000003356934,6|10,0:0|0:0,0:0:0:0:
8,276,36290,2,0,P|47:248|103:224,1,110.000003356934,2|10,0:0|0:0,0:0:0:0:
156,184,36781,2,0,P|220:179|263:189,1,110.000003356934,2|2,0:0|0:0,0:0:0:0:
324,216,37273,1,10,0:0:0:0:
244,324,37601,2,0,L|244:380,2,55.0000016784668,2|2|10,0:0|0:0|0:0,0:0:0:0:
372,288,38257,6,0,P|408:244|400:192,1,110.000003356934,6|10,0:0|0:0,0:0:0:0:
372,64,38913,2,0,P|305:72|282:104,1,110.000003356934,2|10,0:0|0:0,0:0:0:0:
240,156,39404,2,0,P|184:148|132:164,1,110.000003356934,2|2,0:0|0:0,0:0:0:0:
112,228,39896,1,10,0:0:0:0:
216,308,40224,1,2,0:0:0:0:
278,333,40388,1,2,0:0:0:0:
338,306,40552,1,10,0:0:0:0:
256,200,40880,6,0,L|232:144,2,55.0000016784668,6|2|10,0:0|0:0|0:0,0:0:0:0:
344,104,41535,2,0,B|424:88|424:88|440:64,1,110.000003356934,2|10,0:0|0:0,0:0:0:0:
392,16,42027,1,2,0:0:0:0:
264,32,42355,2,0,P|232:24|208:24,2,55.0000016784668,2|8|2,0:0|0:0|0:0,0:0:0:0:
256,96,42847,1,2,0:0:0:0:
160,192,43175,1,2,0:0:0:0:
264,192,43503,6,0,P|241:232|208:264,1,89.9999972534181,6|2,0:0|0:0,0:0:0:0:
120,312,44158,1,2,0:0:0:0:
84,212,44486,2,0,P|90:161|108:124,2,89.9999972534181,2|2|2,0:0|0:0|0:0,0:0:0:0:
191,210,45470,1,2,0:0:0:0:
298,227,45798,6,0,L|274:187,2,44.999998626709,8|8|8,0:0|0:0|0:0,0:0:0:0:
406,227,46454,2,0,L|430:187,2,44.999998626709,8|8|8,0:0|0:0|0:0,0:0:0:0:
354,131,47110,2,0,P|341:110|322:99,2,44.999998626709,8|8|8,0:0|0:0|0:0,0:0:0:0:
284,212,47765,2,0,P|239:237|196:236,2,89.9999972534181,2|2|2,0:0|0:0|0:0,0:0:0:0:
208,120,48749,6,0,P|241:70|272:40,1,100,6|10,0:0|0:0,0:0:0:0:
328,32,49240,2,0,P|375:47|424:72,1,100,2|2,0:0|0:0,0:0:0:0:
400,128,49732,1,10,0:0:0:0:
392,248,50060,6,0,P|360:280|328:248,1,100,2|10,0:0|0:0,0:0:0:0:
285,205,50552,2,0,P|253:173|221:205,1,100,2|2,0:0|0:0,0:0:0:0:
176,240,51044,1,8,0:0:0:0:
68,292,51372,6,0,P|56:232|68:196,1,100,6|10,0:0|0:0,0:0:0:0:
80,136,51863,2,0,P|132:132|180:148,1,100,2|2,0:0|0:0,0:0:0:0:
182,206,52355,1,10,0:0:0:0:
280,136,52683,1,4,0:0:0:0:
400,136,53011,1,4,0:0:0:0:
353,246,53339,2,0,P|337:294|289:294,1,100,4|2,0:0|0:0,0:0:0:0:
175,236,53995,6,0,P|119:196|95:156,1,110.000003356934,6|10,0:0|0:0,0:0:0:0:
190,68,54650,2,0,P|249:60|302:60,1,110.000003356934,2|10,0:0|0:0,0:0:0:0:
364,74,55142,2,0,L|356:186,1,110.000003356934,2|2,0:0|0:0,0:0:0:0:
320,240,55634,1,10,0:0:0:0:
192,272,55962,1,2,0:0:0:0:
84,196,56290,1,10,0:0:0:0:
182,107,56617,6,0,P|238:67|262:27,1,110.000003356934,6|10,0:0|0:0,0:0:0:0:
127,32,57273,2,0,P|79:16|15:24,1,110.000003356934,2|10,0:0|0:0,0:0:0:0:
7,87,57765,2,0,P|11:143|23:199,1,110.000003356934,2|2,0:0|0:0,0:0:0:0:
72,240,58256,1,10,0:0:0:0:
192,288,58585,2,0,L|232:328,2,55.0000016784668,2|2|10,0:0|0:0|0:0,0:0:0:0:
311,231,59240,6,0,P|367:191|391:151,1,110.000003356934,6|10,0:0|0:0,0:0:0:0:
261,119,59896,2,0,P|201:111|149:111,1,110.000003356934,2|10,0:0|0:0,0:0:0:0:
85,110,60388,2,0,L|93:222,1,110.000003356934,2|2,0:0|0:0,0:0:0:0:
150,252,60880,1,10,0:0:0:0:
282,252,61208,1,2,0:0:0:0:
342,135,61535,1,10,0:0:0:0:
232,64,61863,6,0,P|205:53|176:48,2,55.0000016784668,6|2|10,0:0|0:0|0:0,0:0:0:0:
160,176,62519,2,0,L|72:248,1,110.000003356934,2|10,0:0|0:0,0:0:0:0:
92,309,63011,2,0,B|156:341|208:328,1,110.000003356934,2|2,0:0|0:0,0:0:0:0:
238,279,63503,2,0,B|296:184,1,110.000003356934,10|2,0:0|0:0,0:0:0:0:
264,56,64158,1,10,0:0:0:0:
180,88,64486,6,0,P|140:79|104:88,2,75.0000028610231,8|8|8,0:0|0:0|0:0,0:0:0:0:
140,216,65634,2,0,B|216:224|216:160|320:180,1,187.500007152558,8|8,0:0|0:0,0:0:0:0:
424,28,67109,2,0,P|480:88|476:152,1,150.000005722046,8|8,0:0|0:0,0:0:0:0:
344,116,68257,2,0,P|240:84|164:100,1,187.500007152558,8|8,0:0|0:0,0:0:0:0:
240,300,69732,6,0,P|300:300|324:284,1,89.9999972534181,6|10,0:0|0:0,0:0:0:0:
428,320,70388,2,0,P|440:264|424:236,1,89.9999972534181,2|10,0:0|0:0,0:0:0:0:
396,192,70880,2,0,P|348:176|308:184,1,89.9999972534181,2|2,0:0|0:0,0:0:0:0:
264,212,71372,1,10,0:0:0:0:
176,276,71699,2,0,P|140:292|92:284,1,89.9999972534181,2|10,0:0|0:0,0:0:0:0:
36,256,72191,6,0,P|28:208|48:160,1,100,2|2,0:0|0:0,0:0:0:0:
108,160,72683,1,10,0:0:0:0:
152,48,73011,2,0,P|216:104|216:164,1,150,10|2,0:0|0:0,0:0:0:0:
40,240,74978,6,0,L|88:128,1,119.999996337891,6|10,0:0|0:0,0:0:0:0:
232,128,75634,2,0,L|352:104,1,119.999996337891,2|10,0:0|0:0,0:0:0:0:
400,160,76126,2,0,P|352:208|304:224,1,119.999996337891,2|2,0:0|0:0,0:0:0:0:
232,216,76617,2,0,P|184:176|152:128,1,119.999996337891,10|2,0:0|0:0,0:0:0:0:
292,100,77273,1,10,0:0:0:0:
164,36,77601,6,0,P|217:19|284:24,1,119.999996337891,6|10,0:0|0:0,0:0:0:0:
352,36,78093,1,0,0:0:0:0:
464,124,78421,2,0,P|480:99|488:68,2,59.9999981689454,2|10|2,0:0|0:0|0:0,0:0:0:0:
468,196,78913,1,4,0:0:0:0:
420,327,79240,1,4,0:0:0:0:
369,192,79568,1,4,0:0:0:0:
96,272,80224,6,0,P|40:232|0:192,1,119.999996337891,6|10,0:0|0:0,0:0:0:0:
88,80,80880,2,0,P|112:24|168:8,2,119.999996337891,2|10|2,0:0|0:0|0:0,0:0:0:0:
108,148,81699,2,0,L|132:204,1,59.9999981689454,2|10,0:0|0:0,0:0:0:0:
176,340,82191,2,0,P|228:356|288:336,1,119.999996337891,2|10,0:0|0:0,0:0:0:0:
385,218,82847,6,0,P|314:218|282:182,1,119.999996337891,6|10,0:0|0:0,0:0:0:0:
209,183,83339,2,0,P|234:128|288:111,1,119.999996337891,2|2,0:0|0:0,0:0:0:0:
326,46,83831,2,0,P|361:100|351:154,2,119.999996337891,10|2|10,0:0|0:0|0:0,0:0:0:0:
180,44,84814,2,0,P|108:80|96:116,1,119.999996337891,2|10,0:0|0:0,0:0:0:0:
256,192,85470,12,0,87437,0:0:0:0:
476,68,87765,5,2,0:0:0:0:
360,88,88093,2,0,P|363:125|360:152,2,50,8|8|8,0:0|0:0|0:0,0:0:0:0:
240,104,88749,2,0,L|208:152,2,50,8|8|8,0:0|0:0|0:0,0:0:0:0:
128,64,89404,6,0,P|105:75|96:96,1,50,8|8,0:0|0:0,0:0:0:0:
67,213,89896,2,0,P|69:270|83:317,1,100,2|2,0:0|0:0,0:0:0:0:
134,339,90388,1,2,0:0:0:0:
192,340,90552,1,2,0:0:0:0:
248,324,90716,1,4,0:0:0:0:
