osu file format v14

[General]
AudioFilename: midnight cookie.mp3
AudioLeadIn: 0
PreviewTime: 73995
Countdown: 0
SampleSet: Soft
StackLeniency: 0.7
Mode: 0
LetterboxInBreaks: 0
WidescreenStoryboard: 0

[Editor]
DistanceSpacing: 1.1
BeatDivisor: 2
GridSize: 4
TimelineZoom: 1.4

[Metadata]
Title:midnight cookie
TitleUnicode:midnight cookie
Artist:Yuuzuki Tsubaki
ArtistUnicode:夕月椿
Creator:Yukiin0
Version:Easy
Source:東方Project
Tags:Halozy 864 Touhou Koumakyou Reitaisai12 sumijun くまりす ZUN Embodiment of Scarlet Devil Flandre Scarlet
BeatmapID:847672
BeatmapSetID:388093

[Difficulty]
HPDrainRate:3
CircleSize:3
OverallDifficulty:3
ApproachRate:4
SliderMultiplier:0.8
SliderTickRate:1

[Events]
//Background and Video events
0,0,"bg.jpg",0,0
//Break Periods
//Storyboard Layer 0 (Background)
//Storyboard Layer 1 (Fail)
//Storyboard Layer 2 (Pass)
//Storyboard Layer 3 (Foreground)
//Storyboard Sound Samples

[TimingPoints]
1536,327.868852459016,4,2,1,60,1,0
5470,-111.111111111111,4,2,1,10,0,0
7273,-111.111111111111,4,2,1,30,0,0
9568,-111.111111111111,4,2,1,50,0,0
11781,-111.111111111111,4,2,1,60,0,0
22519,-125,4,2,1,20,0,0
23831,-125,4,2,1,30,0,0
25142,-125,4,2,1,40,0,0
26781,-125,4,2,1,50,0,0
27765,-111.111111111111,4,2,1,60,0,0
33011,-100,4,2,1,60,0,0
43503,-111.111111111111,4,2,1,25,0,0
46126,-111.111111111111,4,2,1,30,0,0
47437,-111.111111111111,4,2,1,35,0,0
48749,-111.111111111111,4,2,1,60,0,0
53995,-100,4,2,1,60,0,0
64486,-133.333333333333,4,2,2,35,0,0
69732,-111.111111111111,4,2,1,50,0,0
74978,-90.9090909090909,4,2,1,60,0,1
85470,-100,4,2,1,60,0,0
88093,-111.111111111111,4,2,1,60,0,0

[Colours]
Combo1 : 255,192,0
Combo2 : 255,0,128
Combo3 : 18,124,255
Combo4 : 242,24,57

[HitObjects]
256,192,5470,12,0,10716,0:0:0:0:
232,192,12027,6,0,P|200:200|160:192,1,71.9999978027344,6|10,0:0|0:0,0:0:0:0:
104,128,12683,2,0,P|80:96|80:64,2,71.9999978027344,2|10|2,0:0|0:0|0:0,0:0:0:0:
172,72,13667,2,0,P|237:64|320:104,1,143.999995605469,10|10,0:0|0:0,0:0:0:0:
384,132,14650,6,0,P|440:144|452:156,2,71.9999978027344,2|10|2,0:0|0:0|0:0,0:0:0:0:
324,196,15634,1,10,0:0:0:0:
356,276,15962,2,0,P|388:300|418:300,2,71.9999978027344,2|10|2,0:0|0:0|0:0,0:0:0:0:
188,232,17273,6,0,P|191:188|213:157,1,71.9999978027344,6|10,0:0|0:0,0:0:0:0:
284,132,17929,2,0,P|344:136|360:148,2,71.9999978027344,2|10|2,0:0|0:0|0:0,0:0:0:0:
196,128,18913,2,0,B|155:205|211:205|171:269,1,143.999995605469,10|10,2:0|2:0,2:0:0:0:
96,232,19896,6,0,P|92:184|104:136,2,71.9999978027344,6|10|2,0:0|0:0|0:0,0:0:0:0:
132,308,20880,1,10,0:0:0:0:
212,336,21208,2,0,B|264:317|284:285|284:285|324:277|360:241|360:197,1,215.999993408203
372,120,22519,6,0,P|341:115|310:125,1,64,6|2,0:3|0:3,0:3:0:0:
234,105,23175,2,0,P|233:142|243:167,1,64,2|2,0:3|0:3,0:3:0:0:
304,216,23831,2,0,P|244:248|188:224,1,128,2|2,0:0|0:0,0:0:0:0:
160,156,24814,1,2,0:0:0:0:
99,107,25142,6,0,P|153:77|213:96,2,128,2|2|2,0:0|0:0|0:0,0:0:0:0:
72,180,26781,2,0,P|88:228|112:248,1,64,2|2,0:0|0:0,0:0:0:0:
176,244,27437,1,2,0:0:0:0:
252,220,27765,6,0,P|292:204|332:148,2,107.999996704102,6|10|2,0:0|0:0|0:0,0:0:0:0:
244,132,29076,6,0,P|244:68|272:36,2,107.999996704102,6|10|2,0:0|0:0|0:0,0:0:0:0:
328,112,30388,6,0,P|380:104|430:123,2,107.999996704102,6|10|10,0:0|0:0|0:0,0:0:0:0:
312,196,31699,5,6,0:0:0:0:
244,248,32027,1,6,0:0:0:0:
160,272,32355,1,6,0:0:0:0:
32,176,33011,6,0,P|72:151|96:128,1,80,6|10,0:0|0:0,0:0:0:0:
190,104,33667,2,0,P|158:54|104:32,2,120,2|2|10,0:0|0:0|0:0,0:0:0:0:
208,200,34978,1,2,0:0:0:0:
176,288,35306,1,10,0:0:0:0:
260,336,35634,6,0,P|308:348|344:344,1,80,6|10,0:0|0:0,0:0:0:0:
340,248,36290,2,0,P|404:268|436:320,2,120,2|2|10,0:0|0:0|0:0,0:0:0:0:
252,204,37601,2,0,P|296:160|328:152,1,80,2|10,0:0|0:0,0:0:0:0:
404,124,38257,6,0,P|372:80|328:64,1,80,6|10,0:0|0:0,0:0:0:0:
256,52,38913,2,0,L|172:52,1,80,2|10,0:0|0:0,0:0:0:0:
84,80,39568,2,0,P|104:120|136:140,1,80,2|10,0:0|0:0,0:0:0:0:
224,172,40224,1,2,0:0:0:0:
168,248,40552,1,10,0:0:0:0:
196,340,40880,6,0,L|288:340,1,80,6|10,0:0|0:0,0:0:0:0:
300,248,41535,2,0,P|337:260|364:288,2,80,2|10|2,0:0|0:0|0:0,0:0:0:0:
204,252,42519,1,10,0:0:0:0:
252,168,42847,2,0,P|288:152|340:164,1,80,2|10,0:0|0:0,0:0:0:0:
392,100,43503,6,0,P|412:192|384:232,2,143.999995605469,8|8|8,0:0|0:0|0:0,0:0:0:0:
307,66,45142,2,0,P|304:102|316:136,2,71.9999978027344,8|8|8,0:0|0:0|0:0,0:0:0:0:
232,24,46126,2,0,P|220:64|220:96,1,71.9999978027344,8|8,0:0|0:0,0:0:0:0:
216,180,46781,2,0,P|164:164|148:144,1,71.9999978027344,8|8,0:0|0:0,0:0:0:0:
84,204,47437,2,0,P|152:256|228:264,1,143.999995605469,8|8,0:0|0:0,0:0:0:0:
272,208,48421,1,8,0:0:0:0:
348,248,48749,6,0,P|325:278|292:296,2,71.9999978027344,6|10|2,0:0|0:0|0:0,0:0:0:0:
296,84,50060,2,0,P|264:68|224:60,2,71.9999978027344,6|10|2,0:0|0:0|0:0,0:0:0:0:
428,196,51372,6,0,P|461:154|460:102,2,107.999996704102,10|2|10,0:0|0:0|0:0,0:0:0:0:
344,208,52683,1,6,0:0:0:0:
268,166,53011,1,6,0:0:0:0:
192,124,53339,1,6,0:0:0:0:
72,248,53995,6,0,P|88:296|112:312,1,80,6|10,0:0|0:0,0:0:0:0:
204,336,54650,2,0,B|268:336|300:272,2,120,2|2|10,0:0|0:0|0:0,0:0:0:0:
204,240,55962,2,0,P|164:224|124:224,1,80,2|10,0:0|0:0,0:0:0:0:
32,208,56617,6,0,P|48:168|80:136,1,80,6|10,0:0|0:0,0:0:0:0:
148,80,57273,2,0,P|212:100|244:152,2,120,2|2|10,0:0|0:0|0:0,0:0:0:0:
156,176,58585,2,0,P|200:228|228:236,1,80,2|10,0:0|0:0,0:0:0:0:
304,208,59240,6,0,P|344:192|384:192,2,80,6|10|2,0:0|0:0|0:0,0:0:0:0:
368,280,60224,2,0,P|432:264|464:176,2,160,10|10|10,0:0|0:0|0:0,0:0:0:0:
276,308,61863,6,0,P|296:344|330:368,2,80,6|10|2,0:0|0:0|0:0,0:0:0:0:
192,260,62847,2,0,P|179:298|191:337,2,80,10|2|10,0:0|0:0|0:0,0:0:0:0:
272,208,63831,1,2,0:0:0:0:
188,160,64158,1,10,0:0:0:0:
272,124,64486,6,0,B|289:118|329:82|385:94,1,120.000004577637,8|8,0:0|0:0,0:0:0:0:
480,192,65634,2,0,B|402:230|402:182|334:214,1,150.000005722046,8|8,0:0|0:0,0:0:0:0:
184,312,67109,2,0,B|116:261|128:202,1,120.000004577637,8|8,0:0|0:0,0:0:0:0:
260,200,68257,2,0,P|252:140|164:92,1,150.000005722046,8|8,0:0|0:0,0:0:0:0:
120,232,69732,6,0,P|93:264|61:280,1,71.9999978027344,6|10,0:0|0:0,0:0:0:0:
44,196,70388,2,0,P|24:160|40:96,2,107.999996704102,2|6|2,0:0|0:0|0:0,0:0:0:0:
116,144,71699,2,0,P|132:93|110:45,2,107.999996704102,2|6|2,0:0|0:0|0:0,0:0:0:0:
200,156,73011,2,0,B|244:184|244:136|304:164,1,107.999996704102,10|6,0:0|0:0,0:0:0:0:
152,264,74978,6,0,P|212:264|240:248,1,88.000002685547,6|10,0:0|0:0,0:0:0:0:
272,160,75634,2,0,B|322:159|322:219|390:203,2,132.00000402832,2|2|10,0:0|0:0|0:0,0:0:0:0:
176,152,76945,2,0,L|80:152,1,88.000002685547,2|10,0:0|0:0,0:0:0:0:
136,68,77601,2,0,L|48:68,2,88.000002685547,6|10|2,0:0|0:0|0:0,0:0:0:0:
232,72,78585,1,10,0:0:0:0:
292,148,78913,2,0,P|328:96|332:64,2,88.000002685547,2|10|2,0:0|0:0|0:0,0:0:0:0:
120,236,80224,6,0,P|159:264|199:273,1,88.000002685547,6|10,0:0|0:0,0:0:0:0:
292,292,80880,2,0,P|264:344|236:364,2,88.000002685547,2|10|2,0:0|0:0|0:0,0:0:0:0:
348,212,81863,2,0,P|384:264|388:300,2,88.000002685547,10|2|10,0:0|0:0|0:0,0:0:0:0:
296,132,82847,6,0,P|360:120|436:168,2,132.00000402832,6|2|10,0:0|0:0|0:0,0:0:0:0:
216,188,84158,2,0,P|173:196|130:185,2,88.000002685547,2|10|2,0:0|0:0|0:0,0:0:0:0:
276,112,85142,1,0,0:0:0:0:
256,192,85470,12,0,89404,0:0:0:0:
256,192,90716,5,2,0:0:0:0:
