osu file format v14

[General]
AudioFilename: audio.mp3
AudioLeadIn: 0
PreviewTime: 74084
Countdown: 0
SampleSet: Soft
StackLeniency: 0.6
Mode: 0
LetterboxInBreaks: 0
WidescreenStoryboard: 0

[Editor]
Bookmarks: 1536,6789,90724,101052
DistanceSpacing: 1
BeatDivisor: 4
GridSize: 16
TimelineZoom: 1

[Metadata]
Title:midnight cookie
TitleUnicode:midnight cookie
Artist:Yuuzuki Tsubaki
ArtistUnicode:夕月椿
Creator:PayneTrain
Version:Hard
Source:東方Project
Tags:tasuke912 japanese zun Halozy 864 flandre scarlet un owen was her touhou koumakyou embodiment of scarlet devil 紅魔郷 reitaisai 12 例大祭 SquareTude
BeatmapID:2054348
BeatmapSetID:942692

[Difficulty]
HPDrainRate:3
CircleSize:3.8
OverallDifficulty:7
ApproachRate:8
SliderMultiplier:1.65
SliderTickRate:1

[Events]
//Background and Video events
0,0,"background.jpg",0,0
//Break Periods
//Storyboard Layer 0 (Background)
//Storyboard Layer 1 (Fail)
//Storyboard Layer 2 (Pass)
//Storyboard Layer 3 (Foreground)
//Storyboard Sound Samples

[TimingPoints]
1544,327.868852459016,4,2,1,20,1,0
1544,-200,4,2,1,20,0,0
11707,-83.3333333333333,4,1,1,50,0,0
12035,-86.9565217391304,4,1,1,75,0,0
22199,-142.857142857143,4,1,2,35,0,0
22363,-142.857142857143,4,1,1,35,0,0
22527,-117.647058823529,4,1,1,50,0,0
22609,-117.647058823529,4,3,1,50,0,0
25150,-100,4,3,1,50,0,0
25478,-100,4,3,1,55,0,0
25806,-95.2380952380952,4,3,1,60,0,0
26134,-95.2380952380952,4,3,1,65,0,0
26462,-90.9090909090909,4,3,1,70,0,0
26789,-90.9090909090909,4,3,1,75,0,0
27117,-86.9565217391304,4,3,1,80,0,0
27445,-80,4,1,2,35,0,0
27609,-80,4,1,1,50,0,0
27773,-100,4,1,1,75,0,0
31707,-83.3333333333333,4,1,1,75,0,0
32691,-142.857142857143,4,1,2,35,0,0
32855,-142.857142857143,4,1,1,35,0,0
33019,-90.9090909090909,4,1,1,75,0,0
43511,-117.647058823529,4,1,1,50,0,0
43593,-117.647058823529,4,3,1,50,0,0
46134,-100,4,3,1,50,0,0
46462,-100,4,3,1,55,0,0
46789,-95.2380952380952,4,3,1,60,0,0
47117,-95.2380952380952,4,3,1,65,0,0
47445,-90.9090909090909,4,3,1,70,0,0
47773,-90.9090909090909,4,3,1,75,0,0
48101,-86.9565217391304,4,3,1,80,0,0
48429,-80,4,1,2,35,0,0
48593,-80,4,1,1,35,0,0
48757,-100,4,1,1,75,0,0
52691,-83.3333333333333,4,1,1,75,0,0
53675,-142.857142857143,4,1,2,35,0,0
53839,-142.857142857143,4,1,1,35,0,0
54003,-90.9090909090909,4,1,1,75,0,0
64494,-133.333333333333,4,1,1,40,0,0
69740,-90.9090909090909,4,1,1,60,0,0
70888,-86.9565217391304,4,1,1,65,0,0
72199,-83.3333333333333,4,1,1,70,0,0
73511,-90.9090909090909,4,1,1,75,0,0
74166,-100,4,1,1,60,0,0
74494,-100,4,1,1,65,0,0
74658,-100,4,1,1,70,0,0
74822,-100,4,1,1,75,0,0
74986,-80,4,1,1,75,0,1
78921,-76.9230769230769,4,1,1,75,0,1
80232,-80,4,1,1,75,0,1
85478,-117.647058823529,4,1,1,60,0,0
88101,-100,4,1,1,60,0,0
88429,-100,4,1,1,65,0,0
88757,-100,4,1,1,70,0,0
89084,-100,4,1,1,75,0,0
89412,-76.9230769230769,4,1,1,75,0,0
89904,-100,4,1,1,60,0,0
90396,-100,4,1,1,65,0,0
90560,-100,4,1,1,70,0,0
90724,-86.9565217391304,4,1,1,75,0,0
100888,-133.333333333333,4,1,2,35,0,0
101052,-133.333333333333,4,1,1,35,0,0

[Colours]
Combo1 : 250,194,90
Combo2 : 226,71,149
Combo3 : 88,164,209

[HitObjects]
256,192,6789,12,8,11707,0:0:0:0:
146,71,12035,6,0,P|184:99|202:143,1,94.8750018095971,4|0,0:0|0:0,0:0:0:0:
259,219,12363,2,0,P|216:237|169:231,1,94.8750018095971,8|0,0:0|0:0,0:0:0:0:
75,242,12691,2,0,P|80:195|108:158,1,94.8750018095971,0|0,0:0|0:0,0:0:0:0:
201,141,13019,1,8,0:0:0:0:
298,130,13183,2,0,P|336:158|354:202,1,94.8750018095971,0|0,0:0|0:0,0:0:0:0:
325,292,13511,5,0,0:0:0:0:
417,275,13675,1,8,0:0:0:0:
322,314,13839,1,0,0:0:0:0:
432,293,14003,1,0,0:0:0:0:
362,211,14166,1,0,0:0:0:0:
353,200,14330,2,0,L|250:219,1,94.8750018095971,8|0,0:0|0:0,0:0:0:0:
164,227,14658,6,0,P|169:180|197:143,1,94.8750018095971,0|0,0:0|0:0,0:0:0:0:
291,131,14986,1,8,0:0:0:0:
243,51,15150,1,0,0:0:0:0:
149,51,15314,1,0,0:0:0:0:
86,120,15478,1,0,0:0:0:0:
86,120,15560,1,0,0:0:0:0:
86,120,15642,2,0,L|67:222,1,94.8750018095971,8|0,0:0|0:0,0:0:0:0:
36,313,15970,5,0,0:0:0:0:
128,296,16134,1,0,0:0:0:0:
33,335,16298,1,8,0:0:0:0:
143,314,16462,1,0,0:0:0:0:
72,237,16625,2,0,P|64:190|82:147,1,94.8750018095971,0|0,0:0|0:0,0:0:0:0:
180,113,16953,2,0,P|187:159|170:203,1,94.8750018095971,8|0,0:0|0:0,0:0:0:0:
128,296,17281,6,0,P|164:325|212:331,1,94.8750018095971,4|0,0:0|0:0,0:0:0:0:
300,366,17609,2,0,P|306:319|288:275,1,94.8750018095971,8|0,0:0|0:0,0:0:0:0:
274,183,17937,2,0,P|229:199|201:236,1,94.8750018095971,0|0,0:0|0:0,0:0:0:0:
211,331,18265,1,8,0:0:0:0:
300,366,18429,2,0,P|346:359|383:330,1,94.8750018095971,0|0,0:0|0:0,0:0:0:0:
475,280,18757,5,0,0:0:0:0:
397,227,18921,1,8,0:0:0:0:
492,267,19085,1,0,0:0:0:0:
400,204,19249,1,0,0:0:0:0:
385,316,19412,1,0,0:0:0:0:
383,329,19576,2,0,L|281:348,1,94.8750018095971,8|0,0:0|0:0,0:0:0:0:
184,354,19904,6,0,P|189:307|217:270,1,94.8750018095971,0|0,0:0|0:0,0:0:0:0:
321,260,20232,1,8,0:0:0:0:
273,180,20396,1,0,0:0:0:0:
179,180,20560,1,0,0:0:0:0:
116,249,20724,1,0,0:0:0:0:
116,249,20806,1,0,0:0:0:0:
116,249,20888,2,0,L|97:351,1,94.8750018095971,8|0,0:0|0:0,0:0:0:0:
216,269,21216,6,0,P|194:180|110:145,2,189.750003619194,0|8|0,0:0|0:0|0:0,0:0:0:0:
116,249,22035,1,0,0:0:0:0:
149,347,22199,2,0,B|175:353|175:353|183:349|183:349|207:354,1,57.7499982376099,2|0,0:0|0:0,0:0:0:0:
287,317,22527,6,0,L|362:330,1,70.1250013375282,4|0,0:0|0:0,0:0:0:0:
352,244,22855,2,0,L|427:230,1,70.1250013375282,8|0,0:0|0:0,0:0:0:0:
388,153,23183,2,0,L|454:114,1,70.1250013375282,8|0,0:0|0:0,0:0:0:0:
390,55,23511,2,0,L|439:-3,1,70.1250013375282,8|0,0:0|0:0,0:0:0:0:
457,141,23839,6,0,L|387:153,1,70.1250013375282,8|0,0:0|0:0,0:0:0:0:
392,239,24167,2,0,L|322:226,1,70.1250013375282,8|0,0:0|0:0,0:0:0:0:
298,309,24495,2,0,L|237:273,1,70.1250013375282,8|0,0:0|0:0,0:0:0:0:
183,340,24823,2,0,L|137:286,1,70.1250013375282,8|0,0:0|0:0,0:0:0:0:
134,186,25150,6,0,L|174:193,7,41.25,8|0|0|0|8|0|0|0,0:0|0:0|0:0|0:0|0:0|0:0|0:0|0:0,0:0:0:0:
107,152,25806,2,0,L|64:144,7,43.3124986782074,8|0|0|0|8|0|0|0,0:0|0:0|0:0|0:0|0:0|0:0|0:0|0:0,0:0:0:0:
144,129,26462,6,0,L|188:136,7,45.3750013847352,8|0|0|0|8|0|0|0,0:0|0:0|0:0|0:0|0:0|0:0|0:0|0:0,0:0:0:0:
117,95,27117,2,0,L|70:86,4,47.4375009047985,8|0|0|0|2,0:0|0:0|0:0|0:0|0:0,0:0:0:0:
117,95,27773,6,0,L|198:80,1,82.5,4|0,0:0|0:0,0:0:0:0:
288,65,28101,1,8,0:0:0:0:
384,88,28265,2,0,P|334:151|254:158,1,165,0|0,0:0|0:0,0:0:0:0:
156,143,28757,2,0,P|170:104|198:74,1,82.5,8|0,0:0|0:0,0:0:0:0:
288,65,29084,6,0,P|314:96|326:135,1,82.5,0|0,0:0|0:0,0:0:0:0:
289,218,29412,1,8,0:0:0:0:
387,204,29576,2,0,P|456:163|474:85,1,165,0|0,0:0|0:0,0:0:0:0:
392,28,30068,2,0,P|376:65|375:106,1,82.5,8|0,0:0|0:0,0:0:0:0:
387,204,30396,6,0,P|392:244|382:284,1,82.5,0|0,0:0|0:0,0:0:0:0:
307,333,30724,1,8,0:0:0:0:
391,383,30888,2,0,P|460:342|478:264,1,165,0|0,0:0|0:0,0:0:0:0:
418,195,31380,2,0,L|307:213,1,82.5,8|0,0:0|0:0,0:0:0:0:
214,228,31707,6,0,L|19:262,1,197.99999395752,8|8,0:0|0:0,0:0:0:0:
179,143,32363,2,0,P|272:153|306:241,1,197.99999395752,8|2,0:0|0:0,0:0:0:0:
107,205,33019,6,0,P|83:158|86:115,1,90.7500027694703,4|0,0:0|0:0,0:0:0:0:
70,26,33347,2,0,P|114:28|153:51,1,90.7500027694703,8|0,0:0|0:0,0:0:0:0:
242,83,33675,2,0,P|218:120|179:142,1,90.7500027694703,0|0,0:0|0:0,0:0:0:0:
84,121,34003,1,8,0:0:0:0:
19,189,34166,2,0,P|-5:274|47:345,1,181.500005538941,0|0,0:0|0:0,0:0:0:0:
141,328,34658,6,0,P|127:286|94:256,1,90.7500027694703,10|0,0:0|0:0,0:0:0:0:
29,184,34986,1,2,0:0:0:0:
1,92,35150,1,2,0:0:0:0:
65,21,35314,2,0,L|159:4,1,90.7500027694703,10|0,0:0|0:0,0:0:0:0:
263,1,35642,6,0,P|315:3|351:27,1,90.7500027694703,6|0,0:0|0:0,0:0:0:0:
437,58,35970,2,0,P|412:96|373:118,1,90.7500027694703,8|0,0:0|0:0,0:0:0:0:
301,179,36298,2,0,P|280:138|281:93,1,90.7500027694703,0|0,0:0|0:0,0:0:0:0:
346,22,36625,1,8,0:0:0:0:
437,58,36789,2,0,P|494:124|477:211,1,181.500005538941,0|0,0:0|0:0,0:0:0:0:
450,306,37281,6,0,P|409:285|385:248,1,90.7500027694703,10|0,0:0|0:0,0:0:0:0:
398,150,37609,1,2,0:0:0:0:
437,58,37773,1,2,0:0:0:0:
337,71,37937,2,0,L|247:86,1,90.7500027694703,10|0,0:0|0:0,0:0:0:0:
207,184,38265,6,0,P|163:156|143:118,1,90.7500027694703,6|0,0:0|0:0,0:0:0:0:
185,32,38593,2,0,P|141:21|98:33,1,90.7500027694703,8|0,0:0|0:0,0:0:0:0:
43,119,38921,2,0,P|48:163|75:199,1,90.7500027694703,0|0,0:0|0:0,0:0:0:0:
151,264,39248,1,8,0:0:0:0:
242,304,39412,2,0,P|175:361|88:344,1,181.500005538941,0|0,0:0|0:0,0:0:0:0:
65,251,39904,6,0,P|110:246|151:264,1,90.7500027694703,10|0,0:0|0:0,0:0:0:0:
242,304,40232,1,2,0:0:0:0:
328,353,40396,1,2,0:0:0:0:
427,352,40560,2,0,P|470:340|503:310,1,90.7500027694703,10|0,0:0|0:0,0:0:0:0:
501,218,40888,6,0,P|457:229|424:259,1,90.7500027694703,6|0,0:0|0:0,0:0:0:0:
353,316,41216,2,0,P|335:274|339:230,1,90.7500027694703,8|0,0:0|0:0,0:0:0:0:
401,163,41543,2,0,P|418:121|414:77,1,90.7500027694703,0|0,0:0|0:0,0:0:0:0:
346,18,41871,1,8,0:0:0:0:
263,47,42035,1,0,0:0:0:0:
401,163,42363,6,0,L|496:179,2,90.7500027694703,0|8|0,0:0|0:0|0:0,0:0:0:0:
311,145,42855,2,0,L|221:160,2,90.7500027694703,0|0|8,0:0|0:0|0:0,0:0:0:0:
296,5,43511,6,0,L|355:46,1,70.1250013375282,4|0,0:0|0:0,0:0:0:0:
426,77,43839,2,0,L|439:148,1,70.1250013375282,8|0,0:0|0:0,0:0:0:0:
467,219,44166,2,0,L|425:278,1,70.1250013375282,8|0,0:0|0:0,0:0:0:0:
395,350,44494,2,0,L|324:363,1,70.1250013375282,8|0,0:0|0:0,0:0:0:0:
219,335,44822,6,0,L|206:264,1,70.1250013375282,8|0,0:0|0:0,0:0:0:0:
291,268,45150,2,0,L|303:197,1,70.1250013375282,8|0,0:0|0:0,0:0:0:0:
219,197,45478,2,0,L|206:127,1,70.1250013375282,8|0,0:0|0:0,0:0:0:0:
291,126,45806,2,0,L|303:55,1,70.1250013375282,8|0,0:0|0:0,0:0:0:0:
219,55,46134,6,0,L|179:48,7,41.25,8|0|0|0|8|0|0|0,0:0|0:0|0:0|0:0|0:0|0:0|0:0|0:0,0:0:0:0:
246,89,46790,2,0,L|289:97,7,43.3124986782074,8|0|0|0|8|0|0|0,0:0|0:0|0:0|0:0|0:0|0:0|0:0|0:0,0:0:0:0:
209,112,47446,6,0,L|165:105,7,45.3750013847352,8|0|0|0|8|0|0|0,0:0|0:0|0:0|0:0|0:0|0:0|0:0|0:0,0:0:0:0:
236,146,48101,2,0,L|283:155,4,47.4375009047985,8|0|0|0|2,0:0|0:0|0:0|0:0|0:0,0:0:0:0:
236,146,48757,6,0,P|198:162|158:158,1,82.5,4|0,0:0|0:0,0:0:0:0:
93,95,49084,1,8,0:0:0:0:
183,56,49248,2,0,P|264:47|327:97,1,165,0|0,0:0|0:0,0:0:0:0:
304,194,49740,2,0,P|344:197|381:181,1,82.5,8|0,0:0|0:0,0:0:0:0:
421,98,50068,6,0,P|414:57|388:26,1,82.5,0|0,0:0|0:0,0:0:0:0:
326,96,50396,1,8,0:0:0:0:
304,194,50560,2,0,P|318:273|383:320,1,165,0|0,0:0|0:0,0:0:0:0:
458,372,51052,2,0,P|474:334|470:294,1,82.5,8|0,0:0|0:0,0:0:0:0:
401,227,51380,6,0,P|360:232|327:255,1,82.5,0|0,0:0|0:0,0:0:0:0:
281,343,51707,1,8,0:0:0:0:
185,368,51871,2,0,P|106:383|38:340,1,165,0|0,0:0|0:0,0:0:0:0:
56,240,52363,2,0,P|95:252|124:282,1,82.5,8|0,0:0|0:0,0:0:0:0:
185,368,52691,6,0,L|380:334,1,197.99999395752,8|8,0:0|0:0,0:0:0:0:
174,258,53347,2,0,P|85:291|75:384,1,197.99999395752,8|2,0:0|0:0,0:0:0:0:
283,351,54003,6,0,P|327:354|359:337,1,90.7500027694703,4|0,0:0|0:0,0:0:0:0:
462,315,54330,2,0,P|442:275|406:248,1,90.7500027694703,8|0,0:0|0:0,0:0:0:0:
342,179,54658,2,0,P|317:215|312:260,1,90.7500027694703,0|0,0:0|0:0,0:0:0:0:
366,331,54986,1,8,0:0:0:0:
462,315,55150,2,0,L|494:132,1,181.500005538941,0|0,0:0|0:0,0:0:0:0:
493,40,55642,6,0,P|450:49|416:79,1,90.7500027694703,10|0,0:0|0:0,0:0:0:0:
379,168,55970,1,2,0:0:0:0:
349,263,56134,1,2,0:0:0:0:
286,192,56298,2,0,P|285:147|306:107,1,90.7500027694703,10|0,0:0|0:0,0:0:0:0:
293,14,56625,6,0,P|337:18|366:40,1,90.7500027694703,6|0,0:0|0:0,0:0:0:0:
463,80,56953,2,0,P|437:115|396:135,1,90.7500027694703,8|0,0:0|0:0,0:0:0:0:
320,193,57281,2,0,P|302:151|305:107,1,90.7500027694703,0|0,0:0|0:0,0:0:0:0:
337,18,57609,1,8,0:0:0:0:
238,40,57773,2,0,P|204:122|221:210,1,181.500005538941,0|0,0:0|0:0,0:0:0:0:
318,184,58265,6,0,P|321:228|303:269,1,90.7500027694703,10|0,0:0|0:0,0:0:0:0:
208,304,58593,1,2,0:0:0:0:
130,238,58757,1,2,0:0:0:0:
148,137,58921,2,0,P|151:92|133:51,1,90.7500027694703,10|0,0:0|0:0,0:0:0:0:
43,21,59248,6,0,P|39:65|56:97,1,90.7500027694703,6|0,0:0|0:0,0:0:0:0:
81,194,59576,2,0,P|120:174|147:138,1,90.7500027694703,8|0,0:0|0:0,0:0:0:0:
217,73,59904,2,0,P|177:51|132:50,1,90.7500027694703,0|0,0:0|0:0,0:0:0:0:
61,104,60232,1,8,0:0:0:0:
81,194,60396,2,0,P|122:272|205:306,1,181.500005538941,0|0,0:0|0:0,0:0:0:0:
290,272,60888,6,0,P|331:288|361:322,1,90.7500027694703,10|0,0:0|0:0,0:0:0:0:
279,363,61216,1,2,0:0:0:0:
205,306,61380,1,2,0:0:0:0:
214,219,61543,2,0,L|198:130,1,90.7500027694703,10|0,0:0|0:0,0:0:0:0:
190,34,61871,6,0,P|234:37|270:64,1,90.7500027694703,6|0,0:0|0:0,0:0:0:0:
362,104,62199,2,0,P|333:140|291:161,1,90.7500027694703,8|0,0:0|0:0,0:0:0:0:
214,219,62527,2,0,P|195:177|199:130,1,90.7500027694703,0|0,0:0|0:0,0:0:0:0:
270,64,62855,1,8,0:0:0:0:
362,104,63019,1,0,0:0:0:0:
214,219,63347,6,0,L|119:235,2,90.7500027694703,0|8|0,0:0|0:0|0:0,0:0:0:0:
297,190,63839,2,0,L|391:206,2,90.7500027694703,0|0|8,0:0|0:0|0:0,0:0:0:0:
183,140,64494,6,0,P|198:91|268:58,1,123.750004720688,0|2,0:0|0:0,0:0:0:0:
391,126,65150,2,0,L|266:136,1,123.750004720688,8|2,3:0|0:0,0:0:0:0:
183,140,65642,1,0,0:0:0:0:
256,192,65724,12,2,66789,0:0:0:0:
271,227,67117,6,0,P|257:277|187:310,1,123.750004720688,2|2,0:0|0:0,0:0:0:0:
64,242,67773,2,0,L|188:231,1,123.750004720688,8|2,3:0|0:0,0:0:0:0:
271,227,68265,1,0,0:0:0:0:
256,192,68347,12,2,69412,0:0:0:0:
226,155,69740,6,0,P|251:119|292:99,1,90.7500027694703,4|0,0:0|0:0,0:0:0:0:
374,41,70068,2,0,P|392:81|390:126,1,90.7500027694703,8|0,0:0|0:0,0:0:0:0:
313,191,70396,2,0,P|294:230|297:276,2,90.7500027694703,8|0|8,3:0|0:0|0:0,0:0:0:0:
389,127,70888,6,0,P|448:189|386:247,1,189.750003619194,4|0,0:0|0:0,0:0:0:0:
313,191,71380,2,0,P|270:170|223:168,1,94.8750018095971,8|0,0:0|0:0,0:0:0:0:
129,192,71707,2,0,P|81:194|38:175,2,94.8750018095971,8|0|8,3:0|0:0|0:0,0:0:0:0:
223,167,72199,6,0,P|190:81|99:92,1,197.99999395752,4|0,0:0|0:0,0:0:0:0:
38,175,72691,2,0,P|82:194|131:192,1,98.9999969787599,8|0,0:0|0:0,0:0:0:0:
223,167,73019,1,8,3:0:0:0:
269,253,73183,1,0,0:0:0:0:
201,323,73347,1,8,0:0:0:0:
111,278,73511,6,0,P|76:131|224:168,1,363.000011077881,4|2,0:0|0:0,0:0:0:0:
327,178,74494,2,0,L|408:192,2,82.5,0|0|0,0:0|0:0|0:0,0:0:0:0:
230,175,74986,6,0,P|178:178|131:158,1,103.125,4|0,0:0|0:0,0:0:0:0:
163,4,75314,2,0,P|191:47|197:98,1,103.125,8|0,0:0|0:0,0:0:0:0:
48,149,75642,1,0,0:0:0:0:
61,56,75806,1,0,0:0:0:0:
25,152,75970,1,8,0:0:0:0:
42,43,76134,2,0,L|145:24,1,103.125,0|0,0:0|0:0,0:0:0:0:
245,4,76462,5,0,0:0:0:0:
293,97,76626,1,8,0:0:0:0:
216,167,76789,1,0,0:0:0:0:
126,109,76953,2,0,B|95:84|95:84|156:70,1,103.125,0|0,0:0|0:0,0:0:0:0:
323,59,77281,2,0,B|354:84|354:84|292:97,1,103.125,8|0,0:0|0:0,0:0:0:0:
216,166,77609,6,0,P|177:200|162:249,1,103.125,0|0,0:0|0:0,0:0:0:0:
207,342,77937,1,8,0:0:0:0:
310,337,78101,2,0,B|378:333|378:333|264:254,1,206.25,0|0,0:0|0:0,0:0:0:0:
162,249,78593,1,8,0:0:0:0:
107,336,78757,1,0,0:0:0:0:
207,342,78921,6,0,L|314:336,1,107.249995090485,2|0,0:0|0:0,0:0:0:0:
461,271,79248,2,0,L|353:265,1,107.249995090485,10|0,0:0|0:0,0:0:0:0:
258,215,79576,1,2,0:0:0:0:
337,164,79740,1,2,0:0:0:0:
266,238,79904,1,10,0:0:0:0:
357,176,80068,1,0,0:0:0:0:
274,261,80232,6,0,P|306:300|354:319,1,103.125,6|0,0:0|0:0,0:0:0:0:
439,376,80560,2,0,P|457:328|449:277,1,103.125,8|0,0:0|0:0,0:0:0:0:
466,177,80888,1,0,0:0:0:0:
376,204,81052,1,0,0:0:0:0:
462,152,81216,1,8,0:0:0:0:
358,188,81380,2,0,L|340:86,1,103.125,0|0,0:0|0:0,0:0:0:0:
403,4,81707,5,0,0:0:0:0:
477,67,81870,1,8,0:0:0:0:
456,163,82034,1,0,0:0:0:0:
358,187,82199,2,0,P|308:199|260:182,1,103.125,0|0,0:0|0:0,0:0:0:0:
157,172,82527,2,0,P|171:123|210:90,1,103.125,8|0,0:0|0:0,0:0:0:0:
271,5,82855,6,0,P|306:41|314:91,1,103.125,0|0,0:0|0:0,0:0:0:0:
260,182,83183,1,8,0:0:0:0:
182,249,83347,2,0,P|186:299|218:338,1,103.125,0|0,0:0|0:0,0:0:0:0:
324,333,83675,1,0,0:0:0:0:
347,234,83838,1,8,0:0:0:0:
260,182,84003,1,0,0:0:0:0:
182,248,84166,6,0,P|101:211|162:147,1,206.25,0|8,0:0|0:0,0:0:0:0:
347,234,84822,2,0,P|427:196|366:132,1,206.25,0|8,0:0|0:0,0:0:0:0:
260,182,85478,5,4,0:0:0:0:
256,192,85642,12,12,88101,0:0:0:0:
176,192,89412,5,8,0:0:0:0:
336,192,89576,1,8,0:0:0:0:
256,192,90724,5,4,0:0:0:0:
