osu file format v14

[General]
AudioFilename: audio.mp3
AudioLeadIn: 0
PreviewTime: 74084
Countdown: 0
SampleSet: Soft
StackLeniency: 0.7
Mode: 0
LetterboxInBreaks: 0
WidescreenStoryboard: 0

[Editor]
Bookmarks: 1544,12035,90724,101052
DistanceSpacing: 1.5
BeatDivisor: 4
GridSize: 8
TimelineZoom: 1

[Metadata]
Title:midnight cookie
TitleUnicode:midnight cookie
Artist:Yuuzuki Tsubaki
ArtistUnicode:夕月椿
Creator:PayneTrain
Version:Advanced
Source:東方Project
Tags:tasuke912 japanese zun Halozy 864 flandre scarlet un owen was her touhou koumakyou embodiment of scarlet devil 紅魔郷 reitaisai 12 例大祭 SquareTude
BeatmapID:2065700
BeatmapSetID:942692

[Difficulty]
HPDrainRate:2.5
CircleSize:3.3
OverallDifficulty:6
ApproachRate:7
SliderMultiplier:0.999999999999999
SliderTickRate:1

[Events]
//Background and Video events
0,0,"background.jpg",0,0
//Break Periods
2,22399,26873
2,43511,47857
//Storyboard Layer 0 (Background)
//Storyboard Layer 1 (Fail)
//Storyboard Layer 2 (Pass)
//Storyboard Layer 3 (Foreground)
//Storyboard Sound Samples

[TimingPoints]
1544,327.868852459016,4,2,1,20,1,0
1544,-111.111111111111,4,2,1,20,0,0
11707,-100,4,1,1,50,0,0
12035,-90.9090909090909,4,1,1,75,0,0
22199,-90.9090909090909,4,1,2,35,0,0
22363,-100,4,1,1,35,0,0
22527,-100,4,1,1,50,0,0
22609,-100,4,3,1,50,0,0
25478,-100,4,3,1,55,0,0
25806,-100,4,3,1,60,0,0
26134,-100,4,3,1,65,0,0
26462,-100,4,3,1,70,0,0
26789,-100,4,3,1,75,0,0
27117,-100,4,3,1,80,0,0
27445,-100,4,1,2,35,0,0
27609,-100,4,1,1,50,0,0
27773,-100,4,1,1,75,0,0
32691,-100,4,1,2,35,0,0
32855,-100,4,1,1,35,0,0
33019,-100,4,1,1,75,0,0
43511,-100,4,1,1,50,0,0
43593,-100,4,3,1,50,0,0
46462,-100,4,3,1,55,0,0
46789,-100,4,3,1,60,0,0
47117,-100,4,3,1,65,0,0
47445,-100,4,3,1,70,0,0
47773,-100,4,3,1,75,0,0
48101,-100,4,3,1,80,0,0
48429,-100,4,1,2,35,0,0
48593,-100,4,1,1,35,0,0
48757,-100,4,1,1,75,0,0
53675,-100,4,1,2,35,0,0
53839,-100,4,1,1,35,0,0
54003,-100,4,1,1,75,0,0
64494,-111.111111111111,4,1,1,40,0,0
69740,-95.2380952380952,4,1,1,60,0,0
70888,-95.2380952380952,4,1,1,65,0,0
72199,-95.2380952380952,4,1,1,70,0,0
73511,-95.2380952380952,4,1,1,75,0,0
74166,-100,4,1,1,60,0,0
74494,-100,4,1,1,65,0,0
74658,-100,4,1,1,70,0,0
74822,-100,4,1,1,75,0,0
74986,-90.9090909090909,4,1,1,75,0,1
78921,-90.9090909090909,4,1,1,75,0,1
80232,-90.9090909090909,4,1,1,75,0,1
85478,-100,4,1,1,60,0,0
88429,-100,4,1,1,65,0,0
88757,-100,4,1,1,70,0,0
89084,-100,4,1,1,75,0,0
89412,-90.9090909090909,4,1,1,75,0,0
89904,-100,4,1,1,60,0,0
90396,-100,4,1,1,65,0,0
90560,-100,4,1,1,70,0,0
90724,-90.9090909090909,4,1,1,75,0,0
100888,-100,4,1,2,35,0,0
101052,-100,4,1,1,35,0,0

[Colours]
Combo1 : 250,194,90
Combo2 : 226,71,149
Combo3 : 88,164,209

[HitObjects]
128,160,12035,6,0,P|154:169|182:170,1,55.0000016784668,4|0,0:0|0:0,0:0:0:0:
205,250,12363,2,0,P|231:242|253:226,1,55.0000016784668,8|0,0:0|0:0,0:0:0:0:
337,226,12691,1,0,0:0:0:0:
378,154,12855,1,0,0:0:0:0:
345,77,13019,1,8,0:0:0:0:
262,68,13183,1,0,0:0:0:0:
100,101,13511,5,0,0:0:0:0:
36,153,13675,2,0,L|45:208,1,55.0000016784668,8|0,0:0|0:0,0:0:0:0:
119,244,14003,2,0,L|109:299,1,55.0000016784668,0|0,0:0|0:0,0:0:0:0:
93,379,14330,1,8,0:0:0:0:
204,257,14658,6,0,L|214:203,1,55.0000016784668,0|0,0:0|0:0,0:0:0:0:
255,129,14986,1,8,0:0:0:0:
339,133,15150,1,0,0:0:0:0:
387,199,15314,2,0,L|395:253,1,55.0000016784668,0|0,0:0|0:0,0:0:0:0:
402,294,15560,1,0,0:0:0:0:
402,294,15642,2,0,L|410:348,1,55.0000016784668,8|0,0:0|0:0,0:0:0:0:
328,364,15970,6,0,L|318:309,1,55.0000016784668,0|0,0:0|0:0,0:0:0:0:
239,288,16298,2,0,L|262:236,1,55.0000016784668,8|0,0:0|0:0,0:0:0:0:
291,160,16625,2,0,L|339:131,2,55.0000016784668,0|0|8,0:0|0:0|0:0,0:0:0:0:
152,250,17281,6,0,P|143:224|142:196,1,55.0000016784668,4|0,0:0|0:0,0:0:0:0:
62,173,17609,2,0,P|69:146|85:124,1,55.0000016784668,8|0,0:0|0:0,0:0:0:0:
85,40,17937,1,0,0:0:0:0:
163,18,18101,1,0,0:0:0:0:
237,59,18265,1,8,0:0:0:0:
258,141,18429,1,0,0:0:0:0:
327,290,18757,5,0,0:0:0:0:
387,231,18921,2,0,L|396:174,1,55.0000016784668,8|0,0:0|0:0,0:0:0:0:
338,117,19248,2,0,L|328:60,1,55.0000016784668,0|0,0:0|0:0,0:0:0:0:
391,8,19576,1,8,0:0:0:0:
485,143,19904,6,0,L|494:197,1,55.0000016784668,0|0,0:0|0:0,0:0:0:0:
480,280,20232,1,8,0:0:0:0:
422,340,20396,1,0,0:0:0:0:
342,356,20560,2,0,L|287:364,1,55.0000016784668,0|0,0:0|0:0,0:0:0:0:
246,372,20806,1,0,0:0:0:0:
246,372,20888,2,0,L|191:380,1,55.0000016784668,8|0,0:0|0:0,0:0:0:0:
108,383,21216,6,0,P|62:354|44:303,1,110.000003356934,0|8,0:0|0:0,0:0:0:0:
27,138,21871,2,0,L|31:192,1,55.0000016784668,0|0,0:0|0:0,0:0:0:0:
41,275,22199,1,2,0:0:0:0:
35,276,27773,6,0,P|82:287|131:276,1,99.9999999999999,4|8,0:0|0:0,0:0:0:0:
201,249,28265,2,0,P|249:238|297:249,1,99.9999999999999,0|0,0:0|0:0,0:0:0:0:
366,275,28757,1,8,0:0:0:0:
478,374,29084,6,0,L|495:275,1,99.9999999999999,0|8,0:0|0:0,0:0:0:0:
478,201,29576,2,0,L|495:102,1,99.9999999999999,0|0,0:0|0:0,0:0:0:0:
478,28,30068,1,8,0:0:0:0:
402,157,30396,6,0,P|354:145|305:156,1,99.9999999999999,0|8,0:0|0:0,0:0:0:0:
236,184,30888,2,0,P|187:194|139:183,1,99.9999999999999,0|0,0:0|0:0,0:0:0:0:
65,166,31380,1,8,0:0:0:0:
189,81,31707,5,8,0:0:0:0:
308,173,32035,1,8,0:0:0:0:
255,315,32363,1,8,0:0:0:0:
105,309,32691,1,2,0:0:0:0:
65,166,33019,6,0,P|114:156|161:170,1,99.9999999999999,4|8,0:0|0:0,0:0:0:0:
297,226,33675,1,0,0:0:0:0:
299,81,34003,1,8,0:0:0:0:
299,81,34166,2,0,L|200:63,1,99.9999999999999,0|0,0:0|0:0,0:0:0:0:
149,51,34658,5,10,0:0:0:0:
8,102,34986,2,0,L|0:151,1,50,2|2,0:0|0:0,0:0:0:0:
24,223,35314,2,0,L|16:272,1,50,10|0,0:0|0:0,0:0:0:0:
40,344,35642,6,0,P|87:359|136:353,1,99.9999999999999,6|8,0:0|0:0,0:0:0:0:
273,290,36298,1,0,0:0:0:0:
415,336,36625,1,8,0:0:0:0:
415,336,36789,2,0,L|433:238,1,99.9999999999999,0|0,0:0|0:0,0:0:0:0:
446,164,37281,5,10,0:0:0:0:
368,36,37609,2,0,L|376:85,1,50,2|2,0:0|0:0,0:0:0:0:
352,157,37937,2,0,L|360:206,1,50,10|0,0:0|0:0,0:0:0:0:
336,278,38265,6,0,P|306:318|262:341,1,99.9999999999999,6|8,0:0|0:0,0:0:0:0:
191,208,38921,1,0,0:0:0:0:
90,311,39248,1,8,0:0:0:0:
90,311,39412,2,0,L|188:329,1,99.9999999999999,0|0,0:0|0:0,0:0:0:0:
262,341,39904,5,10,0:0:0:0:
293,195,40232,2,0,L|244:203,1,50,2|2,0:0|0:0,0:0:0:0:
172,179,40560,2,0,L|123:187,1,50,10|0,0:0|0:0,0:0:0:0:
51,163,40888,6,0,P|16:199|0:246,1,99.9999999999999,6|8,0:0|0:0,0:0:0:0:
146,278,41543,1,0,0:0:0:0:
199,138,41871,1,8,0:0:0:0:
199,138,42035,1,0,0:0:0:0:
347,120,42363,6,0,L|355:70,2,50,0|8|0,0:0|0:0|0:0,0:0:0:0:
363,193,42855,2,0,L|355:242,2,50,0|0|8,0:0|0:0|0:0,0:0:0:0:
131,44,48757,6,0,L|229:61,1,99.9999999999999,4|8,0:0|0:0,0:0:0:0:
304,44,49249,2,0,L|402:61,1,99.9999999999999,0|0,0:0|0:0,0:0:0:0:
477,44,49741,1,8,0:0:0:0:
501,190,50068,6,0,P|457:211|426:251,1,99.9999999999999,0|8,0:0|0:0,0:0:0:0:
362,291,50560,2,0,P|331:330|287:352,1,99.9999999999999,0|0,0:0|0:0,0:0:0:0:
212,352,51052,1,8,0:0:0:0:
95,257,51380,6,0,L|193:239,1,99.9999999999999,0|8,0:0|0:0,0:0:0:0:
268,257,51872,2,0,L|366:239,1,99.9999999999999,0|0,0:0|0:0,0:0:0:0:
435,261,52363,1,8,0:0:0:0:
501,126,52690,5,8,0:0:0:0:
394,20,53018,1,8,0:0:0:0:
260,88,53346,1,8,0:0:0:0:
284,237,53674,1,2,0:0:0:0:
435,261,54003,6,0,P|442:212|427:164,1,99.9999999999999,4|8,0:0|0:0,0:0:0:0:
291,230,54659,1,0,0:0:0:0:
229,366,54987,1,8,0:0:0:0:
229,366,55150,2,0,L|327:384,1,99.9999999999999,0|0,0:0|0:0,0:0:0:0:
399,361,55642,5,10,0:0:0:0:
504,254,55970,2,0,L|512:205,1,50,2|2,0:0|0:0,0:0:0:0:
488,133,56298,2,0,L|496:84,1,50,10|0,0:0|0:0,0:0:0:0:
446,26,56626,6,0,P|397:19|349:33,1,99.9999999999999,6|8,0:0|0:0,0:0:0:0:
244,142,57282,1,0,0:0:0:0:
177,17,57609,1,8,0:0:0:0:
177,17,57773,2,0,L|275:35,1,99.9999999999999,0|0,0:0|0:0,0:0:0:0:
349,50,58265,5,10,0:0:0:0:
447,162,58593,2,0,L|398:154,1,50,2|2,0:0|0:0,0:0:0:0:
326,178,58921,2,0,L|277:170,1,50,10|0,0:0|0:0,0:0:0:0:
205,194,59248,6,0,P|155:189|109:206,1,99.9999999999999,6|8,0:0|0:0,0:0:0:0:
175,341,59904,1,0,0:0:0:0:
300,258,60232,1,8,0:0:0:0:
300,258,60396,2,0,L|282:160,1,99.9999999999999,0|0,0:0|0:0,0:0:0:0:
267,86,60888,5,10,0:0:0:0:
143,1,61216,2,0,L|151:50,1,50,2|2,0:0|0:0,0:0:0:0:
134,124,61544,2,0,L|142:173,1,50,10|0,0:0|0:0,0:0:0:0:
125,246,61871,6,0,P|81:270|31:273,1,99.9999999999999,6|8,0:0|0:0,0:0:0:0:
42,123,62527,1,0,0:0:0:0:
188,87,62855,1,8,0:0:0:0:
188,87,63019,1,0,0:0:0:0:
267,214,63347,6,0,L|259:264,2,50,0|8|0,0:0|0:0|0:0,0:0:0:0:
310,152,63839,2,0,L|318:103,2,50,0|0|8,0:0|0:0|0:0,0:0:0:0:
291,285,64494,6,0,P|253:307|209:313,1,89.999997253418,0|2,0:0|0:0,0:0:0:0:
76,339,65150,2,0,P|75:294|92:252,1,89.999997253418,8|2,3:0|0:0,0:0:0:0:
135,200,65642,2,0,B|183:157|244:178|306:199|350:161,1,224.999993133545,0|8,0:0|3:0,0:0:0:0:
349,161,67117,6,0,P|371:123|377:79,1,89.999997253418,2|2,0:0|0:0,0:0:0:0:
265,0,67773,2,0,P|221:0|179:16,1,89.999997253418,8|2,3:0|0:0,0:0:0:0:
140,73,68265,2,0,L|100:294,1,224.999993133545,0|8,0:0|3:0,0:0:0:0:
100,294,69740,6,0,L|152:303,1,52.4999983978271,4|0,0:0|0:0,0:0:0:0:
219,343,70068,2,0,L|271:352,1,52.4999983978271,8|0,0:0|0:0,0:0:0:0:
348,364,70396,1,8,3:0:0:0:
398,303,70560,1,0,0:0:0:0:
370,229,70724,1,8,0:0:0:0:
291,216,70888,6,0,L|187:234,1,104.999996795654,4|0,0:0|0:0,0:0:0:0:
109,220,71380,2,0,L|118:168,1,52.4999983978271,8|0,0:0|0:0,0:0:0:0:
133,90,71707,1,8,3:0:0:0:
208,63,71871,1,0,0:0:0:0:
268,114,72035,1,8,0:0:0:0:
253,191,72199,6,0,L|356:209,1,104.999996795654,4|0,0:0|0:0,0:0:0:0:
427,244,72691,2,0,L|474:221,1,52.4999983978271,8|0,0:0|0:0,0:0:0:0:
485,143,73019,1,8,3:0:0:0:
450,73,73183,1,0,0:0:0:0:
381,35,73347,1,8,0:0:0:0:
300,42,73511,6,0,B|242:17|191:57|139:97|101:80,2,209.999993591309,4|2|0,0:0|0:0|0:0,0:0:0:0:
346,110,74986,6,0,P|363:161|365:216,1,110.000003356934,4|8,0:0|0:0,0:0:0:0:
496,320,75642,2,0,L|441:311,1,55.0000016784668,0|0,0:0|0:0,0:0:0:0:
362,335,75970,1,8,0:0:0:0:
282,361,76134,2,0,P|231:378|176:379,1,110.000003356934,0|0,0:0|0:0,0:0:0:0:
99,350,76625,5,8,0:0:0:0:
86,269,76789,1,0,0:0:0:0:
149,217,76953,2,0,L|203:226,2,55.0000016784668,0|0|8,0:0|0:0|0:0,0:0:0:0:
0,144,77609,6,0,L|54:134,1,55.0000016784668,0|0,0:0|0:0,0:0:0:0:
127,96,77937,1,8,0:0:0:0:
203,63,78101,2,0,P|253:44|303:63,1,110.000003356934,0|0,0:0|0:0,0:0:0:0:
336,140,78593,2,0,L|345:194,1,55.0000016784668,8|0,0:0|0:0,0:0:0:0:
262,183,78921,6,0,L|253:129,1,55.0000016784668,2|0,0:0|0:0,0:0:0:0:
303,63,79248,2,0,L|334:17,1,55.0000016784668,10|0,0:0|0:0,0:0:0:0:
416,6,79576,1,2,0:0:0:0:
482,57,79740,1,2,0:0:0:0:
492,139,79904,1,10,0:0:0:0:
443,295,80232,6,0,P|426:244|424:189,1,110.000003356934,6|8,0:0|0:0,0:0:0:0:
425,24,80888,2,0,L|415:78,1,55.0000016784668,0|0,0:0|0:0,0:0:0:0:
359,139,81216,1,8,0:0:0:0:
302,198,81380,2,0,L|193:178,1,110.000003356934,0|0,0:0|0:0,0:0:0:0:
126,132,81871,5,8,0:0:0:0:
55,165,82035,1,0,0:0:0:0:
50,243,82199,2,0,L|59:298,2,55.0000016784668,0|0|8,0:0|0:0|0:0,0:0:0:0:
17,80,82855,6,0,L|72:71,1,55.0000016784668,0|0,0:0|0:0,0:0:0:0:
153,58,83183,1,8,0:0:0:0:
234,45,83347,2,0,P|283:67|305:116,1,110.000003356934,0|0,0:0|0:0,0:0:0:0:
328,196,83839,1,8,0:0:0:0:
269,254,84003,1,0,0:0:0:0:
190,231,84166,6,0,P|185:178|216:134,1,110.000003356934,0|8,0:0|0:0,0:0:0:0:
381,137,84822,1,0,0:0:0:0:
381,137,84986,1,0,0:0:0:0:
381,137,85150,1,8,0:0:0:0:
256,192,85478,12,12,88101,0:0:0:0:
256,192,89412,5,8,0:0:0:0:
256,192,89576,1,8,0:0:0:0:
256,192,90724,5,4,0:0:0:0:
