osu file format v14

[General]
AudioFilename: audio.mp3
AudioLeadIn: 0
PreviewTime: 46211
Countdown: 0
SampleSet: Soft
StackLeniency: 0.7
Mode: 0
LetterboxInBreaks: 0
WidescreenStoryboard: 0

[Editor]
DistanceSpacing: 1
BeatDivisor: 8
GridSize: 32
TimelineZoom: 2.2

[Metadata]
Title:INDETERMINATE UNIVERSE (TV Size)
TitleUnicode:INDETERMINATE UNIVERSE (TV Size)
Artist:Yuuyu feat. Kemurikusa
ArtistUnicode:ゆうゆ feat.ケムリクサ
Creator:rosario wknd
Version:NORMAL
Source:ケムリクサ
Tags:anime ending ed japanese vocaloid ゆうゆP yuuyup yuuyu-p 初音ミク hatsune miku
BeatmapID:2400964
BeatmapSetID:1149989

[Difficulty]
HPDrainRate:3
CircleSize:3.8
OverallDifficulty:4
ApproachRate:6
SliderMultiplier:1.1
SliderTickRate:1

[Events]
//Background and Video events
0,0,"collapse.jpg",0,0
Video,-90,"collapse.mp4"
//Break Periods
//Storyboard Layer 0 (Background)
//Storyboard Layer 1 (Fail)
//Storyboard Layer 2 (Pass)
//Storyboard Layer 3 (Foreground)
//Storyboard Layer 4 (Overlay)
//Storyboard Sound Samples

[TimingPoints]
2121,428.571428571429,4,2,1,50,1,0
7263,-100,4,2,1,55,0,0
8978,-100,4,2,1,60,0,0
15622,428.571428571429,4,2,1,40,1,0
15836,428.571428571429,4,2,1,40,1,0
22264,-100,4,2,1,50,0,0
39836,-100,4,2,1,55,0,0
44764,-100,4,2,1,40,0,0
46703,428.571428571429,4,2,1,70,1,1
46703,-83.3333333333333,4,2,1,70,0,1
56988,-83.3333333333333,4,2,1,75,0,1
60417,-83.3333333333333,4,2,1,70,0,1
67274,-90.9090909090909,4,2,1,60,0,0
73274,-90.9090909090909,4,2,1,65,0,0
74131,-90.9090909090909,4,2,1,70,0,0
77560,-90.9090909090909,4,2,1,75,0,0
80988,-90.9090909090909,4,2,1,80,0,1
84417,-90.9090909090909,4,2,1,85,0,0
88220,-90.9090909090909,4,2,1,5,0,0

[Colours]
Combo1 : 29,205,73
Combo2 : 166,0,0
Combo3 : 249,188,6
Combo4 : 110,110,110

[HitObjects]
443,41,2121,6,0,P|464:95|436:153,1,110,2|0,0:0|0:0,0:0:0:0:
426,194,2763,1,2,0:0:0:0:
426,194,2978,2,0,L|446:319,1,110,2|2,0:0|0:0,0:0:0:0:
341,345,3835,2,0,P|300:363|236:335,2,110,2|2|2,0:0|0:0|0:0,0:0:0:0:
301,242,5121,1,0,0:0:0:0:
191,253,5549,6,0,L|208:129,1,110,2|0,0:0|0:0,0:0:0:0:
206,92,6192,1,2,0:0:0:0:
206,92,6406,2,0,B|162:61|162:61|89:73,1,110,2|2,0:0|0:0,0:0:0:0:
56,87,7049,1,2,0:0:0:0:
56,87,7263,6,0,L|71:157,1,55,2|0,3:2|0:0,0:0:0:0:
85,192,7692,2,0,L|73:258,1,55,0|2,0:0|0:0,0:0:0:0:
66,300,8121,2,0,P|130:330|170:312,1,110,2|8,0:0|0:0,0:0:0:0:
219,228,8978,6,0,L|206:97,1,110,6|0,3:2|3:2,0:0:0:0:
203,68,9621,1,2,0:0:0:0:
203,68,9835,2,0,P|231:54|275:61,1,55,0|0,3:0|0:0,0:0:0:0:
301,81,10263,1,0,3:2:0:0:
391,18,10692,6,0,P|443:55|454:100,1,110,2|0,3:2|3:2,0:0:0:0:
426,146,11335,1,0,0:0:0:0:
426,146,11549,2,0,L|417:224,1,55,0|0,3:2|3:0,0:0:0:0:
438,252,11978,2,0,L|451:321,1,55,0|2,3:2|3:2,0:0:0:0:
453,360,12406,6,0,P|409:375|363:357,1,82.5,6|0,3:2|3:2,0:0:0:0:
332,294,13049,2,0,B|270:298|270:298|236:321|236:321|168:323,1,165,0|0,3:2|3:0,0:0:0:0:
71,364,14121,2,0,P|51:320|63:286,1,82.5,0|0,3:2|3:2,0:0:0:0:
8,225,14763,2,0,L|2:187,1,27.5,2|4,3:2|3:2,0:0:0:0:
202,223,15622,1,2,3:2:0:0:
202,223,15836,6,0,L|186:103,1,110,6|2,3:2|0:0,0:0:0:0:
165,63,16479,2,0,B|111:49|111:49|58:77,1,110,2|0,3:2|0:0,0:0:0:0:
48,127,17122,1,2,0:0:0:0:
48,127,17336,2,0,L|64:243,1,110,2|2,3:2|0:0,0:0:0:0:
153,304,18193,1,2,3:2:0:0:
153,304,18407,2,0,P|185:298|224:311,1,55,2|2,0:0|0:0,0:0:0:0:
249,337,18836,2,0,P|280:341|313:334,1,55,2|2,3:2|0:0,0:0:0:0:
337,294,19264,6,0,P|353:234|328:189,1,110,2|2,3:2|0:0,0:0:0:0:
281,172,19907,2,0,P|267:109|288:65,1,110,2|0,3:2|0:0,0:0:0:0:
325,31,20550,1,2,0:0:0:0:
325,31,20764,2,0,L|447:28,1,110,2|2,3:2|0:0,0:0:0:0:
499,128,21622,1,2,3:2:0:0:
499,128,21836,2,0,L|423:134,1,55,2|2,0:0|0:0,0:0:0:0:
402,171,22264,2,0,L|322:158,1,55,2|2,0:0|0:0,0:0:0:0:
298,136,22693,6,0,L|176:149,1,110,6|2,3:2|0:2,0:0:0:0:
151,188,23336,1,2,0:0:0:0:
151,188,23550,1,0,3:2:0:0:
59,127,23978,2,0,L|73:70,1,55,8|0,3:2|0:0,0:0:0:0:
110,34,24407,6,0,B|140:31|161:10|161:10|178:33|208:43,1,110,2|0,3:2|3:2,0:0:0:0:
208,95,25050,1,2,0:0:0:0:
208,95,25264,2,0,L|221:162,1,55,2|2,3:2|0:0,0:0:0:0:
255,189,25693,1,0,3:0:0:0:
263,300,26122,6,0,P|218:323|162:300,1,110,2|2,3:2|3:2,0:0:0:0:
138,255,26764,2,0,P|85:239|29:261,1,110,2|2,0:0|0:0,0:0:0:0:
0,302,27407,1,2,3:2:0:0:
89,365,27836,6,0,L|206:354,1,110,0|0,3:2|3:2,0:0:0:0:
243,323,28479,1,2,0:0:0:0:
243,323,28693,2,0,P|273:316|308:329,1,55,2|2,3:2|0:0,0:0:0:0:
334,361,29122,2,0,P|370:367|397:358,1,55,2|2,3:2|0:0,0:0:0:0:
426,324,29550,5,4,3:2:0:0:
385,221,29979,2,0,L|398:97,1,110,10|0,0:2|3:2,0:0:0:0:
379,64,30622,1,0,0:0:0:0:
379,64,30836,2,0,L|306:53,1,55,8|2,0:2|0:0,0:0:0:0:
281,89,31264,6,0,P|227:115|174:96,1,110,2|10,3:2|0:2,0:0:0:0:
131,90,31907,1,2,0:0:0:0:
131,90,32122,2,0,L|70:98,1,55,0|2,3:2|0:0,0:0:0:0:
43,141,32550,1,10,0:2:0:0:
123,228,32979,6,0,P|128:268|105:319,2,82.5,2|2|2,3:2|0:0|0:0,0:0:0:0:
162,189,33836,2,0,P|210:199|240:230,2,82.5,2|2|2,3:2|0:0|0:0,0:0:0:0:
148,135,34693,6,0,P|153:76|248:56,1,165,2|2,3:2|0:0,0:0:0:0:
287,86,35550,2,0,P|320:92|355:79,1,55,0|2,3:0|0:0,0:0:0:0:
371,56,35979,2,0,P|402:50|433:61,1,55,10|2,0:2|0:0,0:0:0:0:
461,95,36407,5,2,3:2:0:0:
402,187,36836,2,0,B|375:230|375:230|392:298,1,110,10|0,0:2|3:2,0:0:0:0:
398,341,37479,1,0,0:0:0:0:
398,341,37693,2,0,L|327:349,1,55,8|2,0:2|0:0,0:0:0:0:
295,319,38122,6,0,L|176:306,1,110,2|10,3:2|0:2,0:0:0:0:
143,342,38764,2,0,P|113:350|78:332,1,55,2|0,0:0|3:2,0:0:0:0:
41,319,39193,1,2,0:0:0:0:
41,319,39407,1,10,0:2:0:0:
79,215,39836,5,2,3:2:0:0:
79,215,40050,2,0,P|122:195|189:224,1,110,0|2,3:0|3:2,0:0:0:0:
223,246,40693,2,0,P|279:263|328:242,1,110,0|2,3:2|3:2,0:0:0:0:
337,187,41336,6,0,L|324:67,1,110,2|2,3:2|3:2,0:0:0:0:
311,24,41979,1,2,3:2:0:0:
311,24,42193,2,0,P|281:15|247:28,1,55,2|0,0:0|3:2,0:0:0:0:
216,56,42622,2,0,P|190:62|162:55,1,55,2|2,0:0|0:0,0:0:0:0:
116,25,43050,5,6,3:2:0:0:
256,192,43264,12,2,44764,0:2:0:0:
462,135,46703,6,0,L|441:269,1,131.99999597168,4|8,3:2|0:0,0:0:0:0:
468,325,47345,1,2,0:0:0:0:
419,370,47560,2,0,P|387:378|344:363,1,65.9999979858399,0|0,3:2|0:0,0:0:0:0:
319,314,47988,2,0,P|287:305|254:313,1,65.9999979858399,10|2,0:0|0:0,0:0:0:0:
202,351,48417,6,0,B|142:374|142:374|70:344,1,131.99999597168,0|10,3:2|0:0,0:0:0:0:
31,302,49060,1,2,0:0:0:0:
53,240,49274,2,0,L|42:154,1,65.9999979858399,0|0,3:2|0:0,0:0:0:0:
34,109,49703,1,10,0:0:0:0:
138,29,50131,2,0,P|186:5|261:41,1,131.99999597168,0|10,3:0|0:0,0:0:0:0:
307,73,50774,1,2,0:0:0:0:
274,130,50988,2,0,L|260:209,1,65.9999979858399,2|0,3:2|0:0,0:0:0:0:
238,257,51417,2,0,L|253:352,1,65.9999979858399,8|2,0:0|0:0,0:0:0:0:
297,365,51845,6,0,P|361:374|411:326,2,131.99999597168,0|10|2,3:2|0:0|3:2,0:0:0:0:
358,248,53131,1,10,0:0:0:0:
483,288,53560,6,0,L|466:141,1,131.99999597168,4|8,3:2|0:0,0:0:0:0:
500,99,54203,1,2,0:0:0:0:
464,43,54417,2,0,P|412:19|348:49,1,131.99999597168,2|8,3:2|0:0,0:0:0:0:
332,105,55060,1,2,0:0:0:0:
288,154,55274,6,0,L|201:141,1,65.9999979858399,2|0,3:2|0:0,0:0:0:0:
174,99,55703,2,0,L|91:110,1,65.9999979858399,8|2,0:0|0:0,0:0:0:0:
57,148,56131,2,0,P|45:176|56:217,2,65.9999979858399,0|2|10,3:2|0:0|3:2,0:0:0:0:
122,33,56988,2,0,B|185:18|185:18|245:55,1,131.99999597168,6|8,3:2|0:0,0:0:0:0:
360,112,57845,2,0,L|475:94,2,98.9999969787599,6|0|0,3:2|0:0|0:0,0:0:0:0:
308,155,58703,6,0,B|297:230|297:230|319:277|319:277|305:360,1,197.99999395752,6|6,3:2|0:0,0:0:0:0:
468,231,59988,1,2,3:2:0:0:
391,123,60417,6,0,P|340:72|276:74,1,131.99999597168,4|8,3:2|0:0,0:0:0:0:
227,102,61059,1,2,0:0:0:0:
162,89,61274,2,0,L|73:95,1,65.9999979858399,0|0,3:2|0:0,0:0:0:0:
53,143,61703,2,0,P|41:182|54:213,1,65.9999979858399,10|0,0:0|0:0,0:0:0:0:
99,246,62131,6,0,L|237:237,1,131.99999597168,0|8,3:2|0:0,0:0:0:0:
286,272,62774,1,2,0:0:0:0:
347,247,62988,2,0,L|361:160,1,65.9999979858399,0|0,3:2|0:0,0:0:0:0:
366,116,63417,1,10,0:0:0:0:
449,25,63845,6,0,L|472:161,1,131.99999597168,0|8,3:0|0:0,0:0:0:0:
512,206,64488,1,2,0:0:0:0:
482,264,64702,2,0,L|468:345,1,65.9999979858399,2|0,3:2|0:0,0:0:0:0:
421,373,65131,2,0,P|380:379|343:356,1,65.9999979858399,8|0,0:0|0:0,0:0:0:0:
312,322,65560,5,0,3:2:0:0:
389,215,65988,2,0,L|381:127,1,65.9999979858399,10|0,3:2|0:0,0:0:0:0:
376,83,66417,2,0,P|329:27|267:43,1,131.99999597168,2|8,0:0|0:0,0:0:0:0:
237,74,67060,1,0,0:0:0:0:
237,74,67274,6,0,L|106:61,1,121.000003692627,6|8,3:2|0:0,0:0:0:0:
61,81,67917,1,2,0:0:0:0:
61,81,68131,2,0,P|41:133|80:196,1,121.000003692627,2|10,3:2|0:0,0:0:0:0:
152,276,68988,6,0,L|15:291,2,121.000003692627,2|8|2,3:2|0:0|3:2,0:0:0:0:
248,349,70274,1,8,0:0:0:0:
363,312,70703,6,0,B|391:252|391:252|363:180,1,121.000003692627,2|8,3:2|0:0,0:0:0:0:
316,188,71345,1,2,0:0:0:0:
316,188,71560,2,0,L|191:174,1,121.000003692627,2|10,3:2|0:0,0:0:0:0:
143,153,72203,1,2,0:0:0:0:
143,153,72417,6,0,P|119:97|145:42,1,121.000003692627,2|0,3:2|0:0,0:0:0:0:
192,11,73060,1,2,0:0:0:0:
192,11,73274,2,0,L|268:22,1,60.5000018463135,2|0,0:0|3:2,0:0:0:0:
304,49,73703,1,8,0:0:0:0:
420,17,74131,6,0,L|407:146,1,121.000003692627,6|8,3:2|0:0,0:0:0:0:
445,184,74774,1,2,0:0:0:0:
445,184,74988,2,0,P|453:223|443:255,1,60.5000018463135,0|0,3:0|0:0,0:0:0:0:
409,289,75417,1,8,0:0:0:0:
324,202,75845,6,0,P|270:182|206:201,1,121.000003692627,2|12,3:2|0:0,0:0:0:0:
173,246,76488,1,0,0:0:0:0:
173,246,76703,2,0,L|37:234,1,121.000003692627,0|8,3:2|3:2,0:0:0:0:
13,189,77345,1,2,3:2:0:0:
13,189,77560,6,0,L|2:81,1,90.7500027694703,6|0,3:2|3:2,0:0:0:0:
63,30,78203,2,0,B|128:15|128:15|176:48,1,121.000003692627,0|0,3:2|3:2,0:0:0:0:
223,79,78845,2,0,L|290:73,1,60.5000018463135,10|0,0:0|3:2,0:0:0:0:
343,64,79274,6,0,P|374:94|361:162,1,90.7500027694703,0|0,3:2|3:2,0:0:0:0:
299,189,79917,2,0,L|286:315,1,121.000003692627,0|0,3:2|3:2,0:0:0:0:
289,369,80560,2,0,P|334:377|367:355,1,60.5000018463135,8|2,0:0|3:2,0:0:0:0:
390,330,80988,6,0,L|493:340,2,90.7500027694703,6|0|0,3:2|3:2|3:2,0:0:0:0:
351,247,82060,1,0,3:2:0:0:
351,247,82274,2,0,L|360:159,1,60.5000018463135,0|0,3:2|3:2,0:0:0:0:
402,146,82703,6,0,L|390:39,2,90.7500027694703,0|0|0,3:2|3:2|3:2,0:0:0:0:
295,94,83774,1,0,3:2:0:0:
295,94,83988,2,0,P|264:83|219:88,1,60.5000018463135,0|0,3:2|0:0,0:0:0:0:
178,101,84417,1,6,0:0:0:0:
256,192,84524,12,0,88220,0:0:0:0:
