osu file format v14

[General]
AudioFilename: audio.mp3
AudioLeadIn: 0
PreviewTime: 46211
Countdown: 0
SampleSet: Soft
StackLeniency: 0.7
Mode: 0
LetterboxInBreaks: 0
WidescreenStoryboard: 0

[Editor]
Bookmarks: 74236
DistanceSpacing: 0.8
BeatDivisor: 8
GridSize: 32
TimelineZoom: 2.2

[Metadata]
Title:INDETERMINATE UNIVERSE (TV Size)
TitleUnicode:INDETERMINATE UNIVERSE (TV Size)
Artist:Yuuyu feat. Kemurikusa
ArtistUnicode:ゆうゆ feat.ケムリクサ
Creator:rosario wknd
Version:INSANE
Source:ケムリクサ
Tags:anime ending ed japanese vocaloid ゆうゆP yuuyup yuuyu-p 初音ミク hatsune miku
BeatmapID:2452875
BeatmapSetID:1149989

[Difficulty]
HPDrainRate:5
CircleSize:4.5
OverallDifficulty:8
ApproachRate:9
SliderMultiplier:2
SliderTickRate:1

[Events]
//Background and Video events
0,0,"collapse.jpg",0,0
Video,-90,"collapse.mp4"
//Break Periods
//Storyboard Layer 0 (Background)
//Storyboard Layer 1 (Fail)
//Storyboard Layer 2 (Pass)
//Storyboard Layer 3 (Foreground)
//Storyboard Layer 4 (Overlay)
//Storyboard Sound Samples

[TimingPoints]
2121,428.571428571429,4,2,1,50,1,0
7263,-90.9090909090909,4,2,1,55,0,0
8978,-83.3333333333333,4,2,1,60,0,0
14871,-125,4,2,1,60,0,0
15622,428.571428571429,4,2,1,40,1,0
15836,428.571428571429,4,2,1,40,1,0
15836,-111.111111111111,4,2,1,40,0,0
22693,-100,4,2,1,50,0,0
39836,-100,4,2,1,55,0,0
44764,-100,4,2,1,40,0,0
46703,428.571428571429,4,2,1,70,1,1
46703,-76.9230769230769,4,2,1,70,0,1
56988,-71.4285714285714,4,2,1,75,0,1
57417,-62.5,4,2,1,75,0,1
59345,-76.9230769230769,4,2,1,75,0,1
60417,-76.9230769230769,4,2,1,70,0,1
65774,-83.3333333333333,4,2,1,70,0,1
67274,-83.3333333333333,4,2,1,60,0,1
67595,-90.9090909090909,4,2,1,60,0,0
72417,-83.3333333333333,4,2,1,60,0,0
73274,-83.3333333333333,4,2,1,65,0,0
74131,-76.9230769230769,4,2,1,70,0,0
77560,-71.4285714285714,4,2,1,75,0,1
80988,-71.4285714285714,4,2,1,80,0,1
84417,-71.4285714285714,4,2,1,85,0,0
88220,-71.4285714285714,4,2,1,5,0,0

[Colours]
Combo1 : 29,205,73
Combo2 : 166,0,0
Combo3 : 249,188,6
Combo4 : 110,110,110

[HitObjects]
36,69,2121,5,2,0:0:0:0:
77,105,2228,1,2,0:0:0:0:
131,107,2335,1,2,0:0:0:0:
179,77,2442,2,0,P|234:73|265:114,1,100,2|2,0:0|0:0,0:0:0:0:
336,141,2763,2,0,L|397:127,1,50,2|2,0:0|0:0,0:0:0:0:
444,219,2978,6,0,B|380:209|380:209|354:220|354:220|289:207,1,150,2|0,0:0|0:0,0:0:0:0:
243,264,3406,2,0,L|259:318,3,50,2|2|2|2,0:0|0:0|0:0|0:0,0:0:0:0:
168,358,3835,5,2,0:0:0:0:
160,334,3942,1,2,0:0:0:0:
152,310,4049,1,2,0:0:0:0:
143,283,4156,2,0,L|158:210,1,50,2|2,0:0|0:0,0:0:0:0:
133,152,4371,2,0,L|121:121,2,25,2|2|2,0:0|0:0|0:0,0:0:0:0:
216,184,4585,1,2,0:0:0:0:
216,184,4692,6,0,P|240:181|275:173,1,50,2|2,0:0|0:0,0:0:0:0:
312,234,4906,1,2,0:0:0:0:
312,234,5013,2,0,P|393:246|426:253,1,100,2|2,0:0|0:0,0:0:0:0:
479,207,5335,2,0,P|465:169|460:149,1,50,2|2,0:0|0:0,0:0:0:0:
446,46,5549,5,2,0:0:0:0:
411,88,5656,1,2,0:0:0:0:
356,91,5763,1,2,0:0:0:0:
304,61,5871,2,0,P|253:61|223:104,1,100,2|2,0:0|0:0,0:0:0:0:
149,175,6192,2,0,P|137:140|123:105,1,50,2|2,0:0|0:0,0:0:0:0:
242,210,6406,6,0,B|208:214|193:245|193:245|228:336,1,150,2|0,0:0|0:0,0:0:0:0:
154,360,6835,2,0,L|104:351,2,50,2|2|2,0:0|0:0|0:0,0:0:0:0:
79,281,7156,1,2,0:0:0:0:
79,281,7263,6,0,P|72:215|20:215,1,110.000003356934,2|0,3:2|0:0,0:0:0:0:
26,80,7585,2,0,P|48:119|67:142,1,55.0000016784668,0|0,3:2|0:0,0:0:0:0:
82,141,7746,2,0,L|96:107,3,27.5000008392334,2|2|2|2,0:0|0:0|0:0|0:0,0:0:0:0:
192,96,8013,1,0,0:0:0:0:
192,96,8121,6,0,P|272:61|354:47,2,165.000005035401,2|2|2,0:0|0:0|0:0,0:0:0:0:
296,149,8871,1,0,0:0:0:0:
296,149,8978,6,0,P|330:213|378:198,1,119.999996337891,6|0,3:2|0:0,0:0:0:0:
428,157,9299,1,0,0:0:0:0:
428,157,9406,1,0,3:2:0:0:
303,281,9621,1,2,0:0:0:0:
303,281,9728,1,2,0:0:0:0:
303,281,9835,2,0,P|342:306|357:344,1,59.9999981689454,0|0,3:2|0:0,0:0:0:0:
412,272,10049,2,0,P|426:315|412:355,1,59.9999981689454,0|2,0:0|0:0,0:0:0:0:
274,357,10263,2,0,L|134:336,1,119.999996337891,0|2,3:2|0:0,0:0:0:0:
103,284,10585,1,0,0:0:0:0:
103,284,10692,5,2,3:2:0:0:
11,328,10906,1,0,0:0:0:0:
177,248,11121,2,0,L|194:182,1,59.9999981689454,0|0,3:2|0:0,0:0:0:0:
154,123,11335,1,0,0:0:0:0:
284,48,11549,1,0,3:2:0:0:
290,71,11656,1,0,3:0:0:0:
295,94,11763,1,0,3:0:0:0:
300,117,11871,1,0,3:0:0:0:
306,140,11978,1,0,3:2:0:0:
358,197,12085,5,2,3:2:0:0:
305,254,12192,2,0,P|287:273|321:330,1,59.9999981689454,2|2,3:2|3:2,0:0:0:0:
225,219,12406,2,0,B|192:185|192:185|91:229,1,119.999996337891,6|0,3:2|0:0,0:0:0:0:
24,129,12728,2,0,B|57:163|57:163|158:119,1,119.999996337891,0|0,3:2|0:0,0:0:0:0:
206,79,13049,2,0,L|347:98,1,119.999996337891,0|0,3:2|0:0,0:0:0:0:
380,145,13371,1,0,3:2:0:0:
380,145,13478,2,0,L|449:133,1,59.9999981689454,0|0,0:0|0:0,0:0:0:0:
442,300,13692,1,2,0:0:0:0:
450,271,13799,1,2,0:0:0:0:
457,241,13906,1,2,0:0:0:0:
465,212,14013,1,2,0:0:0:0:
390,173,14121,6,0,L|380:145,2,29.9999990844727,2|0|0,3:2|0:0|0:0,0:0:0:0:
434,86,14335,2,0,P|476:109|479:134,1,59.9999981689454,0|0,0:0|3:2,0:0:0:0:
301,93,14549,1,2,0:0:0:0:
366,39,14656,1,2,0:0:0:0:
310,175,14763,1,0,3:2:0:0:
310,175,14871,2,0,B|242:146|220:186|214:186|207:186|181:243|101:190,1,200,4|0,3:2|0:0,0:0:0:0:
68,147,15622,1,2,3:2:0:0:
19,221,15836,6,0,P|38:286|49:330,2,89.9999972534181,6|2|2,3:2|0:0|0:0,0:0:0:0:
105,371,16479,2,0,B|135:317|135:317|255:355,1,179.999994506836,2|0,3:2|0:0,0:0:0:0:
332,382,17122,1,2,0:0:0:0:
450,239,17336,6,0,P|437:311|385:315,1,134.999995880127,2|0,3:2|0:0,0:0:0:0:
324,264,17764,1,2,0:0:0:0:
424,154,17979,1,2,0:0:0:0:
363,85,18193,1,2,3:2:0:0:
468,11,18407,2,0,B|430:29|430:29|447:57|443:98,1,89.9999972534181,2|2,0:0|0:0,0:0:0:0:
466,206,18836,2,0,B|469:164|469:164|436:164|403:140,1,89.9999972534181,2|2,3:2|0:0,0:0:0:0:
209,238,19264,6,0,B|272:222|272:222|323:237|323:237|390:218,1,179.999994506836,2|2,3:2|0:0,0:0:0:0:
296,354,19907,2,0,B|307:326|271:303|271:303|150:332,1,179.999994506836,2|0,3:2|0:0,0:0:0:0:
91,370,20550,1,2,0:0:0:0:
23,248,20764,6,0,P|75:222|69:146,1,134.999995880127,2|0,3:2|0:0,0:0:0:0:
0,125,21193,1,2,0:0:0:0:
185,186,21407,1,2,0:0:0:0:
237,110,21622,1,2,3:2:0:0:
139,258,21836,1,2,0:0:0:0:
236,362,22050,2,0,P|219:312|209:287,1,44.999998626709,2|0,0:0|0:0,0:0:0:0:
94,249,22264,2,0,P|145:259|172:263,1,44.999998626709,2|0,0:0|0:0,0:0:0:0:
272,198,22479,2,0,P|237:237|220:258,1,44.999998626709,2|0,0:0|0:0,0:0:0:0:
373,328,22693,6,0,P|310:320|310:271,1,100,6|0,3:2|0:0,0:0:0:0:
355,240,23014,1,0,0:0:0:0:
355,240,23122,1,2,3:2:0:0:
272,198,23336,1,2,0:0:0:0:
361,38,23550,2,0,P|346:84|329:157,1,100,0|0,3:2|0:0,0:0:0:0:
397,178,23872,1,0,0:0:0:0:
397,178,23979,2,0,P|464:166|459:126,1,100,2|2,3:2|0:0,0:0:0:0:
273,66,24407,6,0,L|148:79,1,100,0|0,3:2|0:0,0:0:0:0:
115,27,24729,1,0,0:0:0:0:
115,27,24836,1,0,3:2:0:0:
245,139,25050,1,2,0:0:0:0:
160,239,25264,1,2,3:2:0:0:
101,181,25479,1,2,0:0:0:0:
219,301,25693,2,0,P|193:354|135:362,1,100,2|2,3:2|0:0,0:0:0:0:
262,236,26014,1,0,0:0:0:0:
262,236,26122,6,0,B|314:211|338:243|340:243|343:243|365:267|418:240,1,150,2|0,3:2|0:0,0:0:0:0:
453,179,26550,1,2,3:2:0:0:
484,352,26764,2,0,B|481:318|459:302|459:302|380:331,1,100,2|0,0:0|3:2,0:0:0:0:
366,372,27193,1,2,0:0:0:0:
255,324,27407,2,0,B|207:338|207:338|170:323|170:323|110:339,1,150,2|0,3:2|0:0,0:0:0:0:
35,317,27836,1,0,3:2:0:0:
97,252,28050,1,0,0:0:0:0:
15,136,28264,1,0,3:2:0:0:
119,34,28479,6,0,P|95:98|89:112,1,50,2|0,0:0|0:0,0:0:0:0:
205,150,28693,2,0,P|229:86|235:72,1,50,2|0,3:2|0:0,0:0:0:0:
90,162,28907,2,0,P|154:186|168:192,1,50,2|0,0:0|0:0,0:0:0:0:
222,103,29122,1,2,3:2:0:0:
119,34,29336,1,2,0:0:0:0:
374,31,29550,6,0,P|409:94|385:143,1,100,4|0,3:2|0:0,0:0:0:0:
479,217,29979,2,0,P|377:188|342:180,1,100,10|2,0:2|0:0,0:0:0:0:
303,231,30407,1,0,3:2:0:0:
360,299,30622,1,0,0:0:0:0:
242,377,30836,2,0,P|285:336|265:297,1,100,8|2,0:2|0:0,0:0:0:0:
196,264,31157,1,2,0:0:0:0:
196,264,31264,6,0,B|142:246|128:280|124:281|118:282|107:318|46:294,1,150,2|0,3:2|0:0,0:0:0:0:
9,247,31693,1,10,0:2:0:0:
124,118,31907,2,0,P|62:183|71:200,1,100,2|0,0:0|3:2,0:0:0:0:
199,163,32336,1,2,0:0:0:0:
266,112,32550,1,10,0:2:0:0:
209,41,32764,1,2,0:0:0:0:
326,181,32979,6,0,B|383:171|383:171|423:192|423:192|480:181,2,150,2|2|2,3:2|0:0|0:0,0:0:0:0:
297,263,33836,2,0,B|240:253|240:253|200:274|200:274|143:263,2,150,2|2|2,3:2|0:0|0:0,0:0:0:0:
354,322,34693,6,0,P|419:332|434:226,1,150,2|0,3:2|0:0,0:0:0:0:
389,216,35122,1,10,0:2:0:0:
494,92,35336,2,0,L|466:204,1,100,2|0,0:0|3:0,0:0:0:0:
338,79,35764,1,2,0:0:0:0:
415,38,35979,1,10,0:2:0:0:
381,146,36193,1,2,0:0:0:0:
292,12,36407,6,0,P|220:25|205:43,1,100,2|0,3:2|0:0,0:0:0:0:
239,217,36836,2,0,P|263:148|255:126,1,100,10|2,0:2|0:0,0:0:0:0:
106,85,37264,1,0,3:2:0:0:
159,151,37479,1,0,0:0:0:0:
42,251,37693,2,0,P|118:232|151:227,1,100,8|2,0:2|0:0,0:0:0:0:
204,274,38014,1,2,0:0:0:0:
204,274,38122,6,0,B|225:298|224:352|224:352|246:313|298:305,1,150,2|0,3:2|0:0,0:0:0:0:
343,275,38550,1,10,0:2:0:0:
474,313,38764,2,0,P|419:237|432:212,1,100,2|0,0:0|3:2,0:0:0:0:
483,165,39193,2,0,L|407:181,1,50,2|0,0:0|0:0,0:0:0:0:
370,138,39407,2,0,L|300:123,1,50,10|0,0:2|0:0,0:0:0:0:
245,180,39622,1,2,0:0:0:0:
80,56,39836,5,2,3:2:0:0:
149,107,40050,2,0,B|102:144|102:144|160:247,1,150,0|0,3:0|0:0,0:0:0:0:
93,380,40479,5,2,3:2:0:0:
49,317,40693,2,0,B|96:280|96:280|38:177,1,150,0|0,3:2|0:0,0:0:0:0:
172,331,41122,6,0,L|235:317,1,50,2|0,3:2|0:0,0:0:0:0:
292,362,41336,1,2,3:2:0:0:
292,362,41443,2,0,B|316:315|316:315|278:252,1,100,2|0,0:0|0:0,0:0:0:0:
235,229,41764,6,0,P|218:171|212:160,1,50,2|0,3:2|0:0,0:0:0:0:
300,85,41979,2,0,P|281:138|277:152,1,50,2|0,3:2|0:0,0:0:0:0:
114,138,42193,2,0,P|182:115|225:96,1,100,2|0,0:0|3:2,0:0:0:0:
371,16,42514,1,0,0:0:0:0:
371,16,42622,6,0,P|388:71|396:86,1,50,2|0,0:0|0:0,0:0:0:0:
350,198,42836,2,0,P|377:148|385:140,1,50,2|0,0:0|0:0,0:0:0:0:
398,276,43050,5,6,3:2:0:0:
256,192,43157,12,0,44550,0:2:0:0:
29,335,44764,6,0,B|94:323|94:323|129:341|129:341|196:329,1,150,2|0,3:2|0:0,0:0:0:0:
239,293,45193,2,0,L|303:306,1,50,2|0,3:2|0:0,0:0:0:0:
365,346,45407,1,2,0:0:0:0:
389,340,45514,1,2,0:0:0:0:
413,334,45622,2,0,P|435:289|370:251,1,100,2|0,3:2|0:0,0:0:0:0:
265,177,45943,2,0,P|292:218|358:181,1,100,2|0,3:2|0:0,0:0:0:0:
451,153,46264,6,0,P|391:193|386:202,1,50,2|0,3:2|0:0,0:0:0:0:
410,37,46479,1,2,0:0:0:0:
410,37,46586,1,0,0:0:0:0:
410,37,46703,6,0,B|414:53|388:72|388:72|291:33,1,129.999994049073,4|2,3:2|0:0,0:0:0:0:
232,77,47024,1,0,0:0:0:0:
232,77,47131,2,0,L|93:101,1,129.999994049073,8|2,0:0|0:0,0:0:0:0:
6,47,47453,1,2,0:0:0:0:
6,47,47560,2,0,P|19:74|37:120,1,64.9999970245363,0|0,3:2|0:0,0:0:0:0:
13,184,47774,1,0,0:0:0:0:
102,248,47988,1,10,0:0:0:0:
28,384,48203,1,2,0:0:0:0:
28,384,48310,1,2,0:0:0:0:
28,384,48417,6,0,P|78:332|130:365,1,129.999994049073,0|2,3:2|0:0,0:0:0:0:
204,371,48738,1,0,0:0:0:0:
204,371,48845,2,0,P|273:344|331:333,1,129.999994049073,10|2,0:0|0:0,0:0:0:0:
400,377,49167,1,2,0:0:0:0:
400,377,49274,1,0,3:2:0:0:
245,280,49488,1,0,0:0:0:0:
346,129,49703,6,0,L|309:223,1,64.9999970245363,10|0,0:0|0:0,0:0:0:0:
373,256,49917,1,2,0:0:0:0:
373,256,50024,2,0,B|411:263|428:290|428:290|430:254|453:223,1,129.999994049073,2|0,0:0|0:0,0:0:0:0:
381,58,50345,2,0,P|423:108|426:122,1,64.9999970245363,2|0,0:0|0:0,0:0:0:0:
297,67,50560,2,0,P|319:5|330:-4,1,64.9999970245363,10|0,0:0|0:0,0:0:0:0:
346,129,50774,2,0,P|281:140|269:133,1,64.9999970245363,2|0,0:0|0:0,0:0:0:0:
195,228,50988,2,0,B|205:167|205:167|176:163|148:132,1,129.999994049073,2|0,3:2|0:0,0:0:0:0:
213,325,51310,2,8,B|260:364|260:364|278:341|322:332,1,129.999994049073,2|0,0:0|0:0,0:0:0:0:
128,290,51631,2,0,P|90:337|91:348,1,64.9999970245363,2|0,0:0|0:0,0:0:0:0:
11,370,51845,6,0,L|-8:289,1,64.9999970245363,0|0,3:2|0:0,0:0:0:0:
48,239,52060,2,0,L|66:161,1,64.9999970245363,0|0,0:0|0:0,0:0:0:0:
4,78,52274,2,0,B|74:63|74:63|111:88|111:88|207:63,1,194.999991073609,10|0,0:0|0:0,0:0:0:0:
322,0,52703,2,0,P|344:82|266:61,1,194.999991073609,2|0,3:2|0:0,0:0:0:0:
222,3,53131,1,10,0:0:0:0:
349,163,53345,1,2,0:0:0:0:
349,163,53453,1,0,0:0:0:0:
349,163,53560,6,0,B|375:180|381:203|381:203|326:309,1,129.999994049073,4|0,3:2|0:0,0:0:0:0:
205,314,53881,1,0,0:0:0:0:
205,314,53988,2,0,P|237:298|281:292,1,64.9999970245363,8|0,0:0|0:0,0:0:0:0:
375,384,54203,2,0,P|345:364|316:329,1,64.9999970245363,2|0,0:0|0:0,0:0:0:0:
253,221,54417,2,0,P|255:177|172:184,1,129.999994049073,2|2,3:2|0:0,0:0:0:0:
111,222,54738,1,2,0:0:0:0:
111,222,54845,2,0,P|93:157|76:133,1,64.9999970245363,8|0,0:0|0:0,0:0:0:0:
1,73,55060,2,0,P|66:89|97:86,1,64.9999970245363,2|0,0:0|0:0,0:0:0:0:
242,98,55274,6,0,B|224:61|224:61|104:103,1,129.999994049073,2|0,3:2|0:0,0:0:0:0:
93,157,55595,1,2,0:0:0:0:
93,157,55703,1,8,0:0:0:0:
208,289,55917,2,0,L|187:198,1,64.9999970245363,2|0,0:0|0:0,0:0:0:0:
262,177,56131,1,0,3:2:0:0:
97,298,56345,2,0,L|119:243,2,32.4999985122681,2|2|2,0:0|0:0|0:0,0:0:0:0:
139,364,56560,1,10,3:2:0:0:
11,188,56774,2,0,P|27:237|38:274,1,64.9999970245363,2|0,0:0|0:0,0:0:0:0:
180,154,56988,6,0,P|106:148|96:24,1,209.999993591309,6|0,3:2|0:0,0:0:0:0:
177,172,57417,2,0,P|86:158|63:24,1,240,10|0,3:2|0:0,0:0:0:0:
269,195,57845,6,0,B|271:241|300:268|300:268|257:279|232:326,1,160,6|0,3:2|0:0,0:0:0:0:
148,291,58167,2,0,B|145:244|116:217|116:217|159:206|184:159,1,160,2|0,0:0|0:0,0:0:0:0:
295,120,58488,2,0,P|350:187|348:210,1,80,2|0,0:0|0:0,0:0:0:0:
377,327,58703,5,6,3:2:0:0:
372,263,58810,1,2,0:0:0:0:
431,238,58917,1,2,0:0:0:0:
472,286,59024,1,2,0:0:0:0:
444,343,59131,1,10,3:2:0:0:
444,343,59345,2,0,B|367:321|355:362|350:362|346:362|327:398|242:361,1,194.999991073609,6|0,0:0|0:0,0:0:0:0:
186,326,59774,6,0,P|119:347|100:350,1,64.9999970245363,0|0,0:0|0:0,0:0:0:0:
58,309,59988,2,0,P|66:237|64:218,1,64.9999970245363,2|0,3:2|0:0,0:0:0:0:
113,81,60203,1,2,3:2:0:0:
113,81,60310,1,2,3:2:0:0:
113,81,60417,6,0,P|129:134|153:215,1,129.999994049073,4|2,3:2|0:0,0:0:0:0:
208,266,60738,1,0,0:0:0:0:
208,266,60845,2,0,P|275:269|270:198,1,129.999994049073,10|2,0:0|0:0,0:0:0:0:
381,70,61167,1,2,0:0:0:0:
381,70,61274,2,0,P|346:75|296:93,1,64.9999970245363,0|0,3:2|0:0,0:0:0:0:
247,36,61488,1,0,0:0:0:0:
425,151,61702,1,10,0:0:0:0:
358,267,61917,1,2,0:0:0:0:
358,267,62024,1,2,0:0:0:0:
358,267,62131,6,0,B|322:301|322:301|369:382,1,129.999994049073,0|2,3:2|0:0,0:0:0:0:
451,373,62452,1,0,0:0:0:0:
451,373,62560,2,0,P|511:335|477:305,1,129.999994049073,10|2,0:0|0:0,0:0:0:0:
448,232,62881,1,2,0:0:0:0:
448,232,62988,1,0,3:2:0:0:
266,341,63202,1,0,0:0:0:0:
194,190,63417,6,0,L|157:284,1,64.9999970245363,10|0,0:0|0:0,0:0:0:0:
125,326,63631,1,2,0:0:0:0:
125,326,63738,2,0,B|117:289|90:271|90:271|46:282|29:336,1,129.999994049073,2|0,0:0|0:0,0:0:0:0:
89,203,64060,2,0,P|63:132|53:117,1,64.9999970245363,2|0,0:0|0:0,0:0:0:0:
177,50,64274,2,0,P|128:108|120:124,1,64.9999970245363,10|0,0:0|0:0,0:0:0:0:
2,56,64488,2,0,P|76:68|94:67,1,64.9999970245363,2|0,0:0|0:0,0:0:0:0:
182,231,64703,6,0,P|250:185|314:168,1,129.999994049073,2|0,3:2|0:0,0:0:0:0:
454,164,65024,2,0,P|377:122|326:83,1,129.999994049073,2|0,0:0|0:0,0:0:0:0:
283,44,65345,2,0,P|275:75|261:104,1,64.9999970245363,2|0,0:0|0:0,0:0:0:0:
187,106,65560,1,0,3:2:0:0:
280,234,65774,2,0,B|336:215|336:215|283:157,2,119.999996337891,2|10|2,0:0|3:2|0:0,0:0:0:0:
352,286,66417,2,0,B|285:310|285:310|280:357|280:357|184:391,1,179.999994506836,2|0,0:0|0:0,0:0:0:0:
148,356,66845,2,0,P|85:375|110:295,1,179.999994506836,8|0,3:2|0:0,0:0:0:0:
152,258,67274,5,6,3:2:0:0:
168,205,67381,1,2,0:0:0:0:
148,155,67488,1,2,0:0:0:0:
95,124,67595,2,0,P|68:75|103:25,1,110.000003356934,2|2,0:0|0:0,0:0:0:0:
168,65,67916,2,0,P|203:55|241:48,1,55.0000016784668,2|2,0:0|0:0,0:0:0:0:
363,152,68131,2,0,B|333:97|333:97|234:125,1,165.000005035401,2|0,3:2|0:0,0:0:0:0:
225,200,68559,2,0,P|241:222|252:249,3,55.0000016784668,10|2|2|2,0:0|0:0|0:0|0:0,0:0:0:0:
262,363,68988,5,2,3:2:0:0:
285,354,69095,1,2,0:0:0:0:
309,346,69202,1,2,0:0:0:0:
334,337,69309,2,0,L|350:259,1,55.0000016784668,2|8,0:0|0:0,0:0:0:0:
413,235,69524,2,0,L|400:199,2,27.5000008392334,2|2|2,0:0|0:0|0:0,0:0:0:0:
330,217,69738,1,2,0:0:0:0:
330,217,69845,2,0,L|234:235,1,55.0000016784668,2|2,3:2|0:0,0:0:0:0:
204,248,70059,1,2,0:0:0:0:
204,248,70167,2,0,P|149:273|112:223,1,110.000003356934,2|0,0:0|0:0,0:0:0:0:
137,127,70488,2,0,P|144:150|157:177,1,55.0000016784668,2|0,0:0|0:0,0:0:0:0:
109,51,70702,5,2,3:2:0:0:
60,76,70809,1,2,0:0:0:0:
46,129,70916,1,2,0:0:0:0:
77,181,71024,2,0,B|78:214|93:235|93:235|62:238|22:282,1,110.000003356934,2|2,0:0|0:0,0:0:0:0:
110,374,71345,2,0,P|98:339|82:300,1,55.0000016784668,2|2,0:0|0:0,0:0:0:0:
175,324,71560,2,0,B|234:293|259:341|264:341|269:341|293:366|367:315,1,165.000005035401,2|0,3:2|0:0,0:0:0:0:
404,273,71988,2,0,L|349:262,2,55.0000016784668,10|2|2,0:0|0:0|0:0,0:0:0:0:
472,223,72309,1,2,0:0:0:0:
472,223,72417,6,0,P|465:157|405:157,1,119.999996337891,2|2,3:2|0:0,0:0:0:0:
409,61,72738,2,0,P|470:82|491:84,1,59.9999981689454,2|0,3:2|0:0,0:0:0:0:
488,70,72899,2,0,P|483:55|469:25,3,29.9999990844727,2|2|2|2,0:0|0:0|0:0|0:0,0:0:0:0:
320,115,73166,1,2,0:0:0:0:
320,115,73274,2,0,B|279:96|262:49|262:49|268:105|228:146,2,179.999994506836,2|2|2,0:0|3:2|0:0,0:0:0:0:
211,253,74024,1,0,0:0:0:0:
211,253,74131,6,0,P|268:256|248:310,1,129.999994049073,6|0,3:2|0:0,0:0:0:0:
211,366,74452,1,0,0:0:0:0:
211,366,74559,1,8,0:0:0:0:
27,274,74774,1,2,0:0:0:0:
27,274,74881,1,2,0:0:0:0:
27,274,74988,2,0,P|7:205|1:195,1,64.9999970245363,0|0,0:0|0:0,0:0:0:0:
116,112,75203,2,0,P|83:176|81:187,1,64.9999970245363,0|0,0:0|0:0,0:0:0:0:
68,54,75416,2,0,B|101:18|101:18|201:68,1,129.999994049073,8|0,0:0|0:0,0:0:0:0:
230,113,75738,1,0,0:0:0:0:
230,113,75845,5,2,3:2:0:0:
319,53,76059,1,0,0:0:0:0:
384,217,76274,2,0,L|403:148,1,64.9999970245363,12|0,0:0|0:0,0:0:0:0:
466,102,76488,1,0,0:0:0:0:
304,239,76702,1,0,3:2:0:0:
280,244,76809,1,0,3:2:0:0:
257,248,76916,1,0,3:2:0:0:
235,252,77024,1,0,3:2:0:0:
211,257,77131,1,8,3:2:0:0:
147,219,77238,5,2,3:2:0:0:
93,273,77345,2,0,B|68:246|68:246|72:203,1,64.9999970245363,2|2,3:2|3:2,0:0:0:0:
129,64,77560,6,0,P|125:103|229:123,1,139.999995727539,6|0,3:2|0:0,0:0:0:0:
362,61,77881,2,0,P|330:38|260:118,1,139.999995727539,0|0,3:2|0:0,0:0:0:0:
303,272,78203,2,0,B|337:235|337:235|265:142,1,139.999995727539,0|0,3:2|0:0,0:0:0:0:
439,168,78524,1,0,0:0:0:0:
439,168,78631,2,0,P|414:243|415:258,1,69.9999978637696,0|0,3:2|0:0,0:0:0:0:
421,312,78845,2,0,P|462:379|474:388,1,69.9999978637696,10|0,0:0|0:0,0:0:0:0:
333,357,79060,1,2,3:2:0:0:
263,324,79167,1,2,0:0:0:0:
193,356,79274,6,0,P|108:333|103:289,1,139.999995727539,0|0,3:2|0:0,0:0:0:0:
180,134,79595,2,0,P|202:219|166:245,1,139.999995727539,0|0,3:2|0:0,0:0:0:0:
127,68,79917,2,0,B|205:37|222:76|231:77|239:77|258:126|364:63,1,209.999993591309,0|0,3:2|0:0,0:0:0:0:
410,84,80345,2,0,P|382:15|371:2,1,69.9999978637696,0|0,3:2|0:0,0:0:0:0:
340,223,80560,2,0,P|363:151|374:138,1,69.9999978637696,8|0,0:0|3:2,0:0:0:0:
326,81,80774,2,0,L|311:43,2,34.9999989318848,2|2|2,3:2|0:0|0:0,0:0:0:0:
257,155,80988,6,0,P|192:120|186:118,1,69.9999978637696,6|0,3:2|0:0,0:0:0:0:
99,58,81203,1,0,0:0:0:0:
99,58,81310,2,0,P|166:40|178:32,1,69.9999978637696,0|0,3:2|0:0,0:0:0:0:
151,271,81524,1,0,0:0:0:0:
151,271,81631,2,0,P|139:222|100:135,1,139.999995727539,0|0,3:2|0:0,0:0:0:0:
218,236,81953,1,0,3:2:0:0:
261,294,82060,2,0,P|245:329|237:368,1,69.9999978637696,0|0,3:2|0:0,0:0:0:0:
386,176,82274,2,0,P|354:237|283:206,1,139.999995727539,0|0,3:2|3:2,0:0:0:0:
219,125,82595,1,0,0:0:0:0:
260,59,82703,6,0,P|308:49|336:42,2,69.9999978637696,0|0|0,3:2|0:0|0:0,0:0:0:0:
447,120,83024,2,0,P|399:110|371:103,2,69.9999978637696,0|0|0,3:2|0:0|0:0,0:0:0:0:
450,247,83345,2,0,B|423:251|390:211|390:211|408:258|387:302,1,139.999995727539,0|0,3:2|0:0,0:0:0:0:
361,352,83667,1,0,3:2:0:0:
361,352,83774,2,0,P|324:344|284:340,1,69.9999978637696,0|0,3:2|0:0,0:0:0:0:
229,289,83988,2,0,P|190:296|159:300,1,69.9999978637696,0|0,3:2|0:0,0:0:0:0:
44,318,84203,1,2,0:0:0:0:
93,249,84310,1,2,0:0:0:0:
107,368,84417,5,6,0:0:0:0:
256,192,84524,12,0,88220,0:0:0:0:
