osu file format v14

[General]
AudioFilename: audio.mp3
AudioLeadIn: 0
PreviewTime: 46211
Countdown: 0
SampleSet: Soft
StackLeniency: 0.7
Mode: 0
LetterboxInBreaks: 0
WidescreenStoryboard: 0

[Editor]
DistanceSpacing: 1.2
BeatDivisor: 8
GridSize: 32
TimelineZoom: 2.2

[Metadata]
Title:INDETERMINATE UNIVERSE (TV Size)
TitleUnicode:INDETERMINATE UNIVERSE (TV Size)
Artist:Yuuyu feat. Kemurikusa
ArtistUnicode:ゆうゆ feat.ケムリクサ
Creator:rosario wknd
Version:EASY
Source:ケムリクサ
Tags:anime ending ed japanese vocaloid ゆうゆP yuuyup yuuyu-p 初音ミク hatsune miku
BeatmapID:2400651
BeatmapSetID:1149989

[Difficulty]
HPDrainRate:2
CircleSize:3
OverallDifficulty:2
ApproachRate:4
SliderMultiplier:0.8
SliderTickRate:1

[Events]
//Background and Video events
0,0,"collapse.jpg",0,0
Video,-90,"collapse.mp4"
//Break Periods
//Storyboard Layer 0 (Background)
//Storyboard Layer 1 (Fail)
//Storyboard Layer 2 (Pass)
//Storyboard Layer 3 (Foreground)
//Storyboard Layer 4 (Overlay)
//Storyboard Sound Samples

[TimingPoints]
2121,428.571428571429,4,2,1,50,1,0
7263,-100,4,2,1,55,0,0
8978,-100,4,2,1,60,0,0
15622,428.571428571429,4,2,1,40,1,0
15836,428.571428571429,4,2,1,40,1,0
22693,-100,4,2,1,50,0,0
39836,-100,4,2,1,55,0,0
44764,-100,4,2,1,40,0,0
46703,428.571428571429,4,2,1,70,1,1
46703,-100,4,2,1,70,0,1
56988,-100,4,2,1,75,0,1
60417,-100,4,2,1,70,0,1
67274,-100,4,2,1,60,0,0
73274,-100,4,2,1,65,0,0
74131,-100,4,2,1,70,0,0
77560,-100,4,2,1,75,0,0
80988,-100,4,2,1,80,0,1
84417,-100,4,2,1,85,0,0
88220,-100,4,2,1,5,0,0

[Colours]
Combo1 : 29,205,73
Combo2 : 166,0,0
Combo3 : 249,188,6
Combo4 : 110,110,110

[HitObjects]
138,315,2121,6,0,P|177:268|279:270,1,160,2|2,0:0|0:0,0:0:0:0:
329,340,3406,1,2,0:0:0:0:
424,326,3835,2,0,B|418:287|388:264|388:264|422:210|407:164,1,160,2|2,0:0|0:0,0:0:0:0:
390,88,5121,1,0,0:0:0:0:
311,142,5549,6,0,L|142:117,1,160,2|2,0:0|0:0,0:0:0:0:
85,50,6835,1,2,0:0:0:0:
10,110,7263,2,0,L|23:204,2,80,2|0|2,3:2|0:0|0:0,0:0:0:0:
85,50,8549,1,8,0:0:0:0:
165,102,8978,6,0,P|182:142|162:187,1,80,6|0,3:2|3:2,0:0:0:0:
100,239,9835,2,0,P|86:278|100:319,1,80,0|0,3:0|3:2,0:0:0:0:
185,350,10692,1,2,3:2:0:0:
263,294,11121,1,0,3:2:0:0:
206,216,11549,2,0,L|195:127,1,80,0|0,3:2|3:2,0:0:0:0:
184,41,12406,6,0,B|245:49|245:49|249:54|249:54|307:62,1,120,6|0,3:2|3:0,0:0:0:0:
444,52,13692,1,0,0:0:0:0:
488,137,14121,2,0,P|439:164|450:243,1,140,0|4,3:2|3:2,0:0:0:0:
260,350,15836,6,0,L|241:189,1,160,6|0,3:2|0:0,0:0:0:0:
293,110,17122,1,2,0:0:0:0:
214,55,17550,2,0,B|177:43|177:43|138:58,1,80,0|2,0:0|0:0,0:0:0:0:
78,132,18407,2,0,L|89:217,1,80,2|2,0:0|3:2,0:0:0:0:
111,304,19264,6,0,P|143:344|246:317,1,160,2|0,3:2|0:0,0:0:0:0:
303,254,20550,1,2,0:0:0:0:
241,180,20979,2,0,L|232:92,2,80,0|2|2,0:0|0:0|0:0,0:0:0:0:
303,254,22264,1,2,0:0:0:0:
355,173,22693,6,0,P|394:162|441:179,1,80,6|2,3:2|3:2,0:0:0:0:
496,242,23550,2,0,P|511:288|499:320,1,80,0|2,3:2|3:2,0:0:0:0:
411,350,24407,1,0,3:2:0:0:
328,300,24836,1,0,3:2:0:0:
244,347,25264,2,0,L|162:337,1,80,2|2,3:2|3:2,0:0:0:0:
82,287,26122,6,0,B|55:190|119:230|79:117,1,160,2|0,3:2|3:2,0:0:0:0:
124,45,27407,1,2,3:2:0:0:
207,92,27836,2,0,L|288:102,1,80,0|0,3:2|3:2,0:0:0:0:
363,44,28693,1,2,3:2:0:0:
444,95,29122,1,2,3:2:0:0:
389,174,29550,6,0,L|399:257,1,80,4|10,3:2|0:2,0:0:0:0:
356,339,30407,1,0,3:2:0:0:
259,340,30836,1,8,0:2:0:0:
181,284,31264,2,0,B|153:208|153:208|202:132,1,160,2|0,3:2|3:2,0:0:0:0:
263,73,32550,1,10,0:2:0:0:
184,17,32979,6,0,P|135:8|100:20,1,80,2|8,3:2|0:0,0:0:0:0:
36,81,33836,2,0,P|20:118|32:170,1,80,2|8,3:2|0:0,0:0:0:0:
87,229,34693,2,0,L|94:320,2,80,2|10|0,3:2|0:2|3:0,0:0:0:0:
157,163,35979,1,10,0:2:0:0:
228,226,36407,6,0,P|272:235|309:222,1,80,2|10,3:2|0:2,0:0:0:0:
375,159,37264,1,0,3:2:0:0:
311,87,37693,1,8,0:2:0:0:
385,26,38122,2,0,P|450:21|493:97,1,160,2|0,3:2|3:2,0:0:0:0:
428,166,39407,1,10,0:2:0:0:
472,250,39836,6,0,L|466:296,1,40,2|0,3:2|3:0,0:0:0:0:
391,349,40478,2,0,L|339:339,1,40,0|0,3:0|3:0,0:0:0:0:
272,286,41121,2,0,L|220:295,1,40,2|2,3:2|3:2,0:0:0:0:
148,339,41764,2,0,L|98:327,1,40,2|2,3:2|3:2,0:0:0:0:
53,251,42407,2,0,L|38:199,1,40,0|2,3:0|3:2,0:0:0:0:
256,192,43050,12,2,44764,0:2:0:0:
438,66,46703,6,0,P|424:111|448:169,1,80,4|8,3:2|0:0,0:0:0:0:
506,200,47560,2,0,P|516:244|492:313,1,80,0|10,3:2|0:0,0:0:0:0:
456,356,48417,1,0,3:2:0:0:
368,316,48845,1,10,0:0:0:0:
281,356,49274,2,0,L|171:342,1,80,0|10,3:2|0:0,0:0:0:0:
120,294,50131,6,0,P|73:320|58:355,2,80,0|10|2,3:0|0:0|3:2,0:0:0:0:
192,231,51417,1,8,0:0:0:0:
287,236,51845,2,0,B|277:171|277:171|250:143|250:143|235:40,1,160,0|2,3:2|3:2,0:0:0:0:
317,28,53131,1,10,0:0:0:0:
395,82,53560,6,0,L|496:98,2,80,4|8|2,3:2|0:0|3:2,0:0:0:0:
313,133,54845,1,8,0:0:0:0:
226,90,55274,2,0,B|184:78|184:78|144:92,1,80,2|8,3:2|0:0,0:0:0:0:
76,152,56131,2,0,L|87:238,1,80,0|10,3:2|0:2,0:0:0:0:
103,325,56988,6,0,B|172:296|182:325|197:358|260:328,1,160,6|6,3:2|3:2,0:0:0:0:
335,278,58274,1,0,3:0:0:0:
418,324,58703,2,0,P|495:297|494:225,1,160,6|0,3:2|0:0,0:0:0:0:
434,152,59988,1,2,3:2:0:0:
351,199,60417,6,0,P|314:210|256:187,1,80,4|10,3:2|0:0,0:0:0:0:
197,143,61274,2,0,P|164:134|103:155,1,80,0|10,3:2|0:0,0:0:0:0:
44,83,62131,1,0,3:2:0:0:
113,16,62560,1,10,0:0:0:0:
199,57,62988,2,0,L|305:46,1,80,0|10,3:2|0:0,0:0:0:0:
372,70,63845,6,0,L|466:79,2,80,0|10|2,3:0|0:0|3:2,0:0:0:0:
302,136,65131,1,8,0:0:0:0:
368,205,65560,2,0,P|301:300|241:267,1,160,0|2,3:2|0:2,0:0:0:0:
212,225,66845,1,0,3:2:0:0:
128,273,67274,6,0,L|33:264,1,80,6|8,3:2|0:0,0:0:0:0:
8,177,68131,2,0,P|-3:138|19:89,1,80,2|10,3:2|0:0,0:0:0:0:
86,45,68988,1,2,3:2:0:0:
157,108,69417,1,8,0:0:0:0:
117,193,69845,2,0,L|129:281,1,80,2|8,3:2|0:0,0:0:0:0:
162,362,70703,6,0,P|207:372|256:356,1,80,2|8,3:2|0:0,0:0:0:0:
303,293,71560,2,0,P|316:245|293:206,1,80,2|10,3:2|0:0,0:0:0:0:
235,152,72417,2,0,L|223:62,2,80,2|0|2,3:2|0:0|0:0,0:0:0:0:
305,218,73703,1,8,0:0:0:0:
357,138,74131,6,0,L|449:152,1,80,6|8,3:2|0:0,0:0:0:0:
511,209,74988,2,0,B|524:246|524:246|508:292,1,80,0|8,3:0|0:0,0:0:0:0:
435,343,75845,1,2,3:2:0:0:
348,301,76274,1,12,0:0:0:0:
260,340,76703,2,0,L|166:351,1,80,0|8,3:2|3:2,0:0:0:0:
84,357,77560,6,0,B|79:308|109:278|109:278|89:180,1,160,14|0,3:2|0:0,0:0:0:0:
134,118,78845,1,10,0:0:0:0:
209,177,79274,2,0,B|282:181|282:181|307:203|307:203|423:210,1,160,0|0,3:2|0:0,0:0:0:0:
443,254,80560,1,8,0:0:0:0:
501,177,80988,6,0,P|497:79|368:74,1,240,6|0,3:2|3:2,0:0:0:0:
300,124,82703,2,0,B|138:109|138:109|183:92|210:60,1,240,0|0,3:2|3:2,0:0:0:0:
284,16,84417,5,6,0:0:0:0:
256,192,84524,12,0,88220,0:0:0:0:
