osu file format v14

[General]
AudioFilename: audio.mp3
AudioLeadIn: 0
PreviewTime: 46211
Countdown: 0
SampleSet: Soft
StackLeniency: 0.7
Mode: 0
LetterboxInBreaks: 0
WidescreenStoryboard: 0

[Editor]
Bookmarks: 74236
DistanceSpacing: 1.1
BeatDivisor: 8
GridSize: 32
TimelineZoom: 2.2

[Metadata]
Title:INDETERMINATE UNIVERSE (TV Size)
TitleUnicode:INDETERMINATE UNIVERSE (TV Size)
Artist:Yuuyu feat. Kemurikusa
ArtistUnicode:ゆうゆ feat.ケムリクサ
Creator:rosario wknd
Version:COLLAPSE
Source:ケムリクサ
Tags:anime ending ed japanese vocaloid ゆうゆP yuuyup yuuyu-p 初音ミク hatsune miku
BeatmapID:2451014
BeatmapSetID:1149989

[Difficulty]
HPDrainRate:6
CircleSize:4.7
OverallDifficulty:9
ApproachRate:9.3
SliderMultiplier:2
SliderTickRate:1

[Events]
//Background and Video events
0,0,"collapse.jpg",0,0
Video,-90,"collapse.mp4"
//Break Periods
//Storyboard Layer 0 (Background)
//Storyboard Layer 1 (Fail)
//Storyboard Layer 2 (Pass)
//Storyboard Layer 3 (Foreground)
//Storyboard Layer 4 (Overlay)
//Storyboard Sound Samples

[TimingPoints]
2121,428.571428571429,4,2,1,50,1,0
7263,-83.3333333333333,4,2,1,55,0,0
8978,-76.9230769230769,4,2,1,60,0,0
12406,-71.4285714285714,4,2,1,60,0,0
14871,-142.857142857143,4,2,1,60,0,0
15622,428.571428571429,4,2,1,40,1,0
15836,428.571428571429,4,2,1,40,1,0
15836,-111.111111111111,4,2,1,40,0,0
22693,-100,4,2,1,50,0,0
39836,-100,4,2,1,55,0,0
44764,-100,4,2,1,40,0,0
46703,428.571428571429,4,2,1,70,1,1
46703,-76.9230769230769,4,2,1,70,0,1
56988,-66.6666666666667,4,2,1,75,0,1
57417,-58.8235294117647,4,2,1,75,0,1
59345,-66.6666666666667,4,2,1,75,0,1
60417,-76.9230769230769,4,2,1,70,0,1
66417,-83.3333333333333,4,2,1,70,0,1
67274,-90.9090909090909,4,2,1,60,0,0
73274,-90.9090909090909,4,2,1,65,0,0
74131,-76.9230769230769,4,2,1,70,0,0
77560,-71.4285714285714,4,2,1,75,0,0
80988,-66.6666666666667,4,2,1,80,0,1
84417,-66.6666666666667,4,2,1,85,0,0
88220,-66.6666666666667,4,2,1,5,0,0

[Colours]
Combo1 : 29,205,73
Combo2 : 166,0,0
Combo3 : 249,188,6
Combo4 : 110,110,110

[HitObjects]
131,318,2121,5,2,0:0:0:0:
175,340,2228,1,2,0:0:0:0:
244,310,2335,1,2,0:0:0:0:
333,353,2442,2,0,B|378:377|378:377|413:373|422:324,1,100,2|2,0:0|0:0,0:0:0:0:
455,285,2763,1,2,0:0:0:0:
406,226,2871,1,2,0:0:0:0:
431,137,2978,6,0,B|419:194|419:194|393:212|393:212|381:278,1,150,2|0,0:0|0:0,0:0:0:0:
342,170,3406,1,2,0:0:0:0:
319,178,3513,1,2,0:0:0:0:
255,134,3621,1,2,0:0:0:0:
318,251,3728,1,2,0:0:0:0:
238,278,3835,5,2,0:0:0:0:
222,273,3942,1,2,0:0:0:0:
207,269,4049,1,2,0:0:0:0:
136,311,4156,2,0,L|109:359,1,50,2|2,0:0|0:0,0:0:0:0:
131,233,4371,2,0,L|117:204,2,25,2|2|2,0:0|0:0|0:0,0:0:0:0:
136,311,4585,1,2,0:0:0:0:
23,248,4692,5,2,0:0:0:0:
23,248,4799,1,2,0:0:0:0:
73,176,4906,1,2,0:0:0:0:
33,80,5013,2,0,P|44:128|56:187,1,100,2|2,0:0|0:0,0:0:0:0:
131,91,5335,2,0,L|143:33,1,50,2|2,0:0|0:0,0:0:0:0:
215,89,5549,5,2,0:0:0:0:
258,113,5656,1,2,0:0:0:0:
324,77,5763,1,2,0:0:0:0:
405,136,5871,2,0,P|444:94|485:103,1,100,2|2,0:0|0:0,0:0:0:0:
484,187,6192,1,2,0:0:0:0:
419,256,6299,1,2,0:0:0:0:
429,349,6406,6,0,B|462:336|462:302|462:302|417:212,1,150,2|0,0:0|0:0,0:0:0:0:
364,304,6835,1,2,0:0:0:0:
364,304,6942,1,2,0:0:0:0:
247,309,7049,1,2,0:0:0:0:
309,363,7156,1,2,0:0:0:0:
175,340,7263,6,0,P|234:295|219:244,1,119.999996337891,2|0,3:2|0:0,0:0:0:0:
103,215,7585,2,0,P|133:242|173:253,1,59.9999981689454,0|0,3:2|0:0,0:0:0:0:
195,185,7799,2,0,P|196:171|211:136,2,29.9999990844727,2|2|2,0:0|0:0|0:0,0:0:0:0:
228,257,8013,1,0,0:0:0:0:
308,107,8121,6,0,P|237:147|189:156,1,119.999996337891,2|0,0:0|3:2,0:0:0:0:
28,29,8442,2,0,P|98:70|129:107,1,119.999996337891,2|0,0:0|0:0,0:0:0:0:
119,248,8763,2,0,P|122:187|140:146,1,59.9999981689454,2|0,0:0|0:0,0:0:0:0:
252,330,8978,6,0,B|246:309|219:295|219:295|123:328,1,129.999994049073,6|0,3:2|0:0,0:0:0:0:
68,356,9299,1,0,0:0:0:0:
68,356,9406,2,0,P|57:316|38:264,1,64.9999970245363,0|0,3:2|0:0,0:0:0:0:
0,231,9621,1,2,0:0:0:0:
79,158,9728,2,0,B|144:139|162:168|167:169|173:169|196:213|298:160,1,194.999991073609,2|0,0:0|0:0,0:0:0:0:
326,110,10156,1,2,0:0:0:0:
326,110,10263,2,0,P|376:166|378:183,1,64.9999970245363,0|0,3:2|0:0,0:0:0:0:
375,296,10478,2,0,P|394:230|411:221,1,64.9999970245363,2|0,0:0|0:0,0:0:0:0:
401,26,10692,6,0,L|368:164,1,129.999994049073,2|0,3:2|0:0,0:0:0:0:
312,208,11013,1,0,0:0:0:0:
248,168,11121,2,0,B|219:202|219:202|260:289,1,129.999994049073,0|0,3:2|0:0,0:0:0:0:
327,309,11442,1,0,0:0:0:0:
160,259,11549,1,0,3:2:0:0:
140,261,11657,1,0,3:0:0:0:
120,264,11764,1,0,3:0:0:0:
100,267,11871,1,0,3:0:0:0:
80,271,11978,5,0,3:2:0:0:
30,223,12085,1,2,3:2:0:0:
122,330,12192,1,2,3:2:0:0:
15,301,12299,1,2,3:2:0:0:
99,188,12406,6,0,P|68:122|-15:133,1,139.999995727539,6|0,3:2|0:0,0:0:0:0:
140,261,12728,2,0,P|212:267|251:193,1,139.999995727539,0|0,3:2|0:0,0:0:0:0:
199,53,13049,2,0,P|190:126|177:197,1,139.999995727539,0|0,3:2|0:0,0:0:0:0:
302,148,13371,1,0,3:2:0:0:
302,148,13478,2,0,P|289:107|283:64,1,69.9999978637696,0|0,0:0|0:0,0:0:0:0:
382,13,13692,1,2,0:0:0:0:
395,16,13799,1,2,0:0:0:0:
464,76,13906,1,2,0:0:0:0:
398,113,14013,1,2,0:0:0:0:
474,190,14121,6,0,L|463:135,3,34.9999989318848,0|0|0|0,3:2|0:0|0:0|0:0,0:0:0:0:
487,314,14335,1,2,0:0:0:0:
412,287,14442,1,2,3:2:0:0:
327,338,14549,1,2,0:0:0:0:
233,343,14656,2,0,L|335:318,1,69.9999978637696,2|2,0:0|3:2,0:0:0:0:
261,250,14871,2,0,B|235:252|206:233|206:233|174:257|174:257|142:229|91:240,1,174.999994659424,4|0,3:2|0:0,0:0:0:0:
103,238,15622,1,2,3:2:0:0:
132,99,15836,6,0,P|178:122|172:194,1,89.9999972534181,6|2,3:2|0:0,0:0:0:0:
103,238,16264,1,2,0:0:0:0:
55,127,16479,2,0,P|65:53|183:33,1,179.999994506836,2|0,3:2|0:0,0:0:0:0:
242,65,17122,1,2,0:0:0:0:
396,82,17336,6,0,B|393:53|350:37|350:37|222:70,1,179.999994506836,2|2,3:2|0:0,0:0:0:0:
201,148,17979,1,2,0:0:0:0:
288,261,18193,1,2,3:2:0:0:
167,358,18407,2,0,P|209:303|190:264,1,89.9999972534181,2|2,0:0|0:0,0:0:0:0:
81,194,18836,2,0,P|107:257|148:261,1,89.9999972534181,2|2,3:2|0:0,0:0:0:0:
353,172,19264,6,0,B|293:156|282:188|276:189|267:187|244:239|163:197,1,179.999994506836,2|2,3:2|0:0,0:0:0:0:
50,79,19907,2,0,B|71:57|86:28|86:28|109:170,1,179.999994506836,2|0,3:2|0:0,0:0:0:0:
57,224,20550,1,2,0:0:0:0:
176,315,20764,6,0,B|241:306|241:306|279:323|279:323|350:312,1,179.999994506836,2|2,3:2|0:0,0:0:0:0:
425,250,21407,1,2,0:0:0:0:
503,334,21622,1,2,3:2:0:0:
376,198,21836,2,0,P|394:143|453:133,1,89.9999972534181,2|2,0:0|0:0,0:0:0:0:
497,69,22157,1,0,0:0:0:0:
497,69,22264,2,0,P|440:52|417:43,1,44.999998626709,2|0,0:0|0:0,0:0:0:0:
382,18,22479,2,0,P|331:36|315:37,1,44.999998626709,2|0,0:0|0:0,0:0:0:0:
251,193,22693,6,0,P|264:144|275:84,1,100,6|0,3:2|0:0,0:0:0:0:
229,34,23014,1,0,0:0:0:0:
229,34,23122,2,0,P|162:38|157:87,1,100,2|2,3:2|0:0,0:0:0:0:
167,133,23443,1,0,0:0:0:0:
167,133,23550,1,0,3:2:0:0:
46,76,23764,2,0,L|74:160,1,50,0|0,0:0|0:0,0:0:0:0:
89,193,23979,2,0,P|62:250|42:316,1,100,2|2,3:2|0:0,0:0:0:0:
140,338,24407,6,0,B|194:320|211:341|217:341|223:341|230:365|301:340,1,150,0|0,3:2|0:0,0:0:0:0:
340,292,24836,1,0,3:2:0:0:
224,183,25050,2,0,P|231:208|239:232,1,50,2|0,0:0|0:0,0:0:0:0:
182,280,25264,1,2,3:2:0:0:
305,183,25479,1,2,0:0:0:0:
165,111,25693,2,0,P|155:65|137:14,1,100,2|2,3:2|0:0,0:0:0:0:
229,42,26014,1,0,0:0:0:0:
229,42,26122,6,0,B|271:82|271:82|376:30,1,150,2|0,3:2|0:0,0:0:0:0:
422,82,26550,1,2,3:2:0:0:
398,262,26764,2,0,L|369:177,1,50,2|0,0:0|0:0,0:0:0:0:
310,193,26979,1,0,3:2:0:0:
484,242,27193,1,2,0:0:0:0:
328,355,27407,6,0,P|322:297|241:278,1,150,2|0,3:2|0:0,0:0:0:0:
140,325,27836,2,0,P|165:256|178:211,1,100,0|0,3:2|0:0,0:0:0:0:
218,75,28264,1,0,3:2:0:0:
218,75,28371,1,0,0:0:0:0:
218,75,28479,6,0,P|201:98|189:131,1,50,2|0,0:0|0:0,0:0:0:0:
344,103,28693,2,0,P|332:76|310:49,1,50,2|0,3:2|0:0,0:0:0:0:
256,201,28907,2,0,P|284:204|318:198,1,50,2|0,0:0|0:0,0:0:0:0:
261,11,29122,1,2,3:2:0:0:
166,278,29336,1,2,0:0:0:0:
397,177,29550,5,4,3:2:0:0:
344,103,29764,1,0,0:0:0:0:
436,18,29979,2,0,B|460:48|460:48|421:128,1,100,10|2,0:2|0:0,0:0:0:0:
397,177,30300,1,0,0:0:0:0:
397,177,30407,2,0,L|415:289,1,100,0|0,3:2|0:0,0:0:0:0:
494,302,30836,1,8,0:2:0:0:
327,247,31050,1,2,0:0:0:0:
327,247,31157,1,2,0:0:0:0:
327,247,31264,6,0,B|321:218|286:212|286:212|191:250,1,150,2|0,3:2|0:0,0:0:0:0:
138,296,31693,1,10,0:2:0:0:
66,145,31907,2,0,P|94:204|142:204,1,100,2|0,0:0|3:2,0:0:0:0:
38,347,32336,2,0,L|53:273,1,50,2|0,0:0|0:0,0:0:0:0:
12,231,32550,1,10,0:2:0:0:
122,74,32764,1,2,0:0:0:0:
5,26,32979,6,0,P|29:80|53:165,1,100,2|0,3:2|0:0,0:0:0:0:
85,246,33300,2,0,P|100:198|122:154,1,100,2|0,0:0|0:0,0:0:0:0:
104,324,33622,2,0,P|80:330|57:340,1,50,2|0,0:0|0:0,0:0:0:0:
289,298,33836,6,0,P|346:315|359:381,1,100,2|0,3:2|0:0,0:0:0:0:
214,247,34157,2,0,P|200:189|250:144,1,100,2|0,0:0|0:0,0:0:0:0:
217,331,34479,2,0,P|163:356|137:344,1,50,2|0,0:0|0:0,0:0:0:0:
309,94,34693,6,0,B|348:132|348:132|303:246,1,150,2|0,3:2|0:0,0:0:0:0:
363,277,35122,1,10,0:2:0:0:
473,332,35336,2,0,B|422:313|405:339|401:340|396:341|370:369|304:329,1,150,2|0,0:0|0:0,0:0:0:0:
254,297,35764,2,0,P|229:304|188:309,1,50,2|0,0:0|0:0,0:0:0:0:
142,357,35979,2,0,P|117:350|76:345,1,50,10|0,0:2|0:0,0:0:0:0:
28,283,36193,1,2,0:0:0:0:
90,168,36407,5,2,3:2:0:0:
36,99,36622,1,0,0:0:0:0:
104,5,36836,2,0,P|111:69|174:71,1,100,10|2,0:2|0:0,0:0:0:0:
211,111,37157,1,0,0:0:0:0:
211,111,37264,2,0,P|288:97|346:87,1,100,0|0,3:2|0:0,0:0:0:0:
334,19,37586,1,0,0:0:0:0:
334,19,37693,1,8,0:2:0:0:
295,172,37907,1,2,0:0:0:0:
295,172,38014,1,2,0:0:0:0:
295,172,38122,6,0,B|332:218|332:218|269:331,1,150,2|0,3:2|0:0,0:0:0:0:
209,284,38550,1,10,0:2:0:0:
439,341,38764,2,0,P|393:291|408:259,1,100,2|0,0:0|3:2,0:0:0:0:
456,191,39086,1,0,0:0:0:0:
456,191,39193,6,0,P|444:160|435:130,1,50,2|0,0:0|0:0,0:0:0:0:
499,27,39407,2,0,P|478:52|456:75,1,50,10|0,0:2|0:0,0:0:0:0:
329,76,39622,2,0,P|361:81|392:88,1,50,2|0,0:0|0:0,0:0:0:0:
253,157,39836,6,0,L|239:78,1,50,2|0,3:2|0:0,0:0:0:0:
213,28,40050,2,0,L|244:186,1,150,0|0,3:0|0:0,0:0:0:0:
126,354,40479,6,0,L|140:275,1,50,2|2,3:2|0:0,0:0:0:0:
166,225,40693,2,0,L|135:383,1,150,0|0,3:2|0:0,0:0:0:0:
77,131,41122,6,0,P|98:115|125:112,1,50,2|0,3:2|0:0,0:0:0:0:
180,107,41336,1,2,3:2:0:0:
180,107,41443,2,0,L|64:77,1,100,2|0,0:0|0:0,0:0:0:0:
262,145,41764,6,0,P|288:137|325:132,1,50,2|0,3:2|0:0,0:0:0:0:
406,80,41978,2,0,P|346:60|332:55,1,50,10|0,3:2|0:0,0:0:0:0:
458,210,42193,2,0,P|392:179|392:134,1,100,2|0,0:0|3:2,0:0:0:0:
334,239,42514,1,0,0:0:0:0:
334,239,42622,2,0,L|354:318,1,50,2|0,0:0|0:0,0:0:0:0:
418,336,42836,2,0,L|402:393,1,50,2|0,0:0|0:0,0:0:0:0:
259,279,43050,1,6,3:2:0:0:
256,192,43157,12,0,44657,0:2:0:0:
126,287,44764,6,0,P|189:302|165:264,1,150,2|0,3:2|0:0,0:0:0:0:
90,196,45193,2,0,L|171:180,1,50,2|0,3:2|0:0,0:0:0:0:
195,130,45407,1,2,0:0:0:0:
270,157,45514,1,2,0:0:0:0:
366,89,45622,6,0,P|425:118|477:129,1,100,2|0,3:2|0:0,0:0:0:0:
505,203,45943,2,0,P|458:217|414:241,1,100,2|0,3:2|0:0,0:0:0:0:
364,309,46264,2,0,P|291:289|283:290,1,50,2|0,3:2|0:0,0:0:0:0:
208,238,46479,1,2,0:0:0:0:
245,309,46586,1,2,0:0:0:0:
112,345,46703,6,0,B|141:300|141:300|95:186,1,129.999994049073,4|2,3:2|0:0,0:0:0:0:
39,200,47024,1,0,0:0:0:0:
71,85,47131,2,0,P|93:148|163:144,1,129.999994049073,8|2,0:0|0:0,0:0:0:0:
260,71,47453,1,2,0:0:0:0:
260,71,47560,6,0,P|229:81|150:86,1,64.9999970245363,0|0,3:2|0:0,0:0:0:0:
222,222,47774,2,0,P|228:190|264:119,1,64.9999970245363,0|0,0:0|0:0,0:0:0:0:
332,13,47988,2,0,L|368:174,1,129.999994049073,10|2,0:0|0:0,0:0:0:0:
342,217,48310,1,2,0:0:0:0:
455,288,48417,6,0,B|400:280|400:280|371:295|371:295|324:289,1,129.999994049073,0|2,3:2|0:0,0:0:0:0:
219,361,48738,1,0,0:0:0:0:
219,361,48845,2,0,B|252:352|259:318|259:318|217:233,1,129.999994049073,10|2,0:0|0:0,0:0:0:0:
128,277,49167,1,2,0:0:0:0:
128,277,49274,6,0,P|140:239|155:185,1,64.9999970245363,0|0,3:2|0:0,0:0:0:0:
115,144,49488,1,0,0:0:0:0:
163,80,49595,1,0,0:0:0:0:
69,8,49703,2,0,L|95:94,1,64.9999970245363,10|0,0:0|0:0,0:0:0:0:
196,157,49917,1,2,0:0:0:0:
348,108,50024,6,0,L|204:156,1,129.999994049073,2|0,0:0|0:0,0:0:0:0:
177,296,50345,2,0,B|153:272|153:272|157:224,1,64.9999970245363,2|0,0:0|0:0,0:0:0:0:
52,158,50560,2,0,B|84:149|84:149|124:176,1,64.9999970245363,10|0,0:0|0:0,0:0:0:0:
233,111,50774,2,0,B|224:143|224:143|180:164,1,64.9999970245363,2|0,0:0|0:0,0:0:0:0:
93,350,50988,6,0,P|132:286|184:303,1,129.999994049073,2|0,3:2|0:0,0:0:0:0:
256,330,51310,2,0,P|317:332|340:276,1,129.999994049073,2|0,0:0|0:0,0:0:0:0:
392,192,51631,2,0,P|414:245|422:258,1,64.9999970245363,2|0,0:0|0:0,0:0:0:0:
431,113,51845,6,0,B|383:90|350:116|345:116|340:115|317:162|236:121,1,194.999991073609,0|0,3:2|0:0,0:0:0:0:
186,73,52274,2,0,B|213:6|213:6|256:169,1,194.999991073609,10|0,0:0|0:0,0:0:0:0:
236,265,52703,2,0,L|209:159,1,64.9999970245363,2|0,3:2|0:0,0:0:0:0:
289,2,52917,2,0,L|305:64,1,64.9999970245363,0|0,0:0|0:0,0:0:0:0:
179,348,53131,2,0,L|140:193,1,129.999994049073,10|2,0:0|0:0,0:0:0:0:
128,136,53453,1,0,0:0:0:0:
201,68,53560,6,0,P|176:137|113:124,1,129.999994049073,4|0,3:2|0:0,0:0:0:0:
52,45,53881,1,0,0:0:0:0:
14,110,53988,2,0,P|37:180|53:246,1,129.999994049073,8|2,0:0|0:0,0:0:0:0:
137,219,54310,1,0,0:0:0:0:
165,319,54417,6,0,P|134:302|72:282,1,64.9999970245363,2|0,3:2|0:0,0:0:0:0:
0,366,54631,2,0,P|28:332|49:298,1,64.9999970245363,2|2,0:0|0:0,0:0:0:0:
137,219,54845,2,0,B|195:238|195:238|213:259|213:259|296:283,1,129.999994049073,8|2,0:0|0:0,0:0:0:0:
301,338,55167,1,0,0:0:0:0:
407,203,55274,6,0,P|361:276|332:260,1,129.999994049073,2|0,3:2|0:0,0:0:0:0:
288,207,55595,1,2,0:0:0:0:
288,207,55703,2,0,B|251:170|251:170|299:109,1,129.999994049073,8|2,0:0|0:0,0:0:0:0:
362,35,56024,1,0,0:0:0:0:
362,35,56131,6,0,P|383:75|397:109,1,64.9999970245363,0|0,3:2|0:0,0:0:0:0:
447,152,56345,2,0,L|480:164,2,32.4999985122681,2|2|2,0:0|0:0|0:0,0:0:0:0:
299,109,56560,1,10,3:2:0:0:
502,22,56774,2,0,P|489:48|476:81,1,64.9999970245363,2|0,0:0|0:0,0:0:0:0:
443,265,56988,6,0,P|415:185|289:209,1,225.000008583069,6|0,3:2|0:0,0:0:0:0:
459,258,57417,2,0,P|429:173|269:202,1,255.000004863739,10|0,3:2|0:0,0:0:0:0:
152,331,57845,6,0,B|191:354|235:326|229:281|221:247|181:208,1,170.000003242493,6|0,3:2|0:0,0:0:0:0:
53,91,58167,2,0,B|13:113|15:165|57:182|91:192|145:177,1,170.000003242493,2|0,0:0|0:0,0:0:0:0:
276,125,58488,2,0,P|195:154|188:178,1,85.0000016212464,2|0,0:0|0:0,0:0:0:0:
152,331,58703,5,6,3:2:0:0:
219,365,58810,1,2,0:0:0:0:
294,350,58917,1,2,0:0:0:0:
332,284,59024,1,2,0:0:0:0:
309,190,59131,2,0,P|331:255|343:290,1,85.0000016212464,10|2,3:2|0:0,0:0:0:0:
316,19,59345,6,0,B|307:95|269:102|266:108|263:115|213:123|218:218,1,225.000008583069,6|0,0:0|0:0,0:0:0:0:
135,228,59774,2,0,P|179:286|194:293,1,75.0000028610231,0|0,0:0|0:0,0:0:0:0:
351,310,59988,2,0,P|278:319|263:314,1,75.0000028610231,2|0,3:2|0:0,0:0:0:0:
327,241,60203,1,2,3:2:0:0:
400,193,60310,1,2,3:2:0:0:
485,242,60417,6,0,B|514:233|511:199|511:199|469:117,1,129.999994049073,4|2,3:2|0:0,0:0:0:0:
417,56,60738,1,0,0:0:0:0:
339,82,60845,2,0,P|281:75|205:61,1,129.999994049073,10|2,0:0|0:0,0:0:0:0:
115,0,61167,1,2,0:0:0:0:
115,0,61274,2,0,P|129:42|143:70,1,64.9999970245363,0|0,3:2|0:0,0:0:0:0:
45,167,61488,2,0,P|59:140|74:87,1,64.9999970245363,0|0,0:0|0:0,0:0:0:0:
218,147,61703,2,0,P|147:156|152:220,1,129.999994049073,10|2,0:0|0:0,0:0:0:0:
210,254,62024,1,2,0:0:0:0:
146,342,62131,6,0,B|91:334|91:334|62:349|62:349|15:343,1,129.999994049073,0|2,3:2|0:0,0:0:0:0:
31,266,62452,1,0,0:0:0:0:
31,266,62559,2,0,B|64:257|71:223|71:223|29:138,1,129.999994049073,10|2,0:0|0:0,0:0:0:0:
88,84,62881,1,2,0:0:0:0:
88,84,62988,2,0,P|100:47|115:-8,1,64.9999970245363,0|0,3:2|0:0,0:0:0:0:
166,133,63202,1,0,0:0:0:0:
236,96,63309,1,0,0:0:0:0:
303,192,63417,2,0,P|264:176|233:171,1,64.9999970245363,10|0,0:0|0:0,0:0:0:0:
357,115,63631,1,2,0:0:0:0:
405,250,63738,6,0,L|376:110,1,129.999994049073,2|0,0:0|0:0,0:0:0:0:
506,48,64060,2,0,P|486:78|456:90,1,64.9999970245363,2|0,0:0|0:0,0:0:0:0:
316,18,64274,2,0,P|348:19|375:37,1,64.9999970245363,10|0,0:0|0:0,0:0:0:0:
391,182,64488,2,0,P|376:154|378:122,1,64.9999970245363,2|0,0:0|0:0,0:0:0:0:
483,302,64703,6,0,P|398:266|345:254,1,129.999994049073,2|0,3:2|0:0,0:0:0:0:
290,212,65024,2,0,P|228:235|142:250,1,129.999994049073,2|0,0:0|0:0,0:0:0:0:
130,318,65345,2,0,P|152:365|160:384,1,64.9999970245363,2|0,0:0|0:0,0:0:0:0:
226,320,65560,1,0,3:2:0:0:
43,278,65774,2,0,B|63:278|81:250|81:250|34:152,2,129.999994049073,2|10|2,0:0|3:2|0:0,0:0:0:0:
46,101,66417,6,0,B|98:118|98:118|127:175|127:175|223:196,1,179.999994506836,2|0,0:0|0:0,0:0:0:0:
249,142,66845,2,0,P|244:52|183:82,1,179.999994506836,8|0,3:2|0:0,0:0:0:0:
257,226,67274,5,6,3:2:0:0:
301,204,67381,1,2,0:0:0:0:
370,234,67488,1,2,0:0:0:0:
498,136,67595,2,0,P|467:189|422:175,1,110.000003356934,2|2,0:0|0:0,0:0:0:0:
366,88,67916,1,2,0:0:0:0:
421,26,68024,1,2,0:0:0:0:
255,4,68131,6,0,L|440:42,1,165.000005035401,2|0,3:2|0:0,0:0:0:0:
290,130,68559,1,10,0:0:0:0:
267,138,68666,1,2,0:0:0:0:
195,168,68774,1,2,0:0:0:0:
207,84,68881,1,2,0:0:0:0:
256,216,68988,5,2,3:2:0:0:
263,231,69095,1,2,0:0:0:0:
269,245,69202,1,2,0:0:0:0:
220,302,69310,2,0,L|200:375,1,55.0000016784668,2|8,0:0|0:0,0:0:0:0:
302,322,69524,2,0,L|335:328,2,27.5000008392334,2|2|2,0:0|0:0|0:0,0:0:0:0:
220,302,69738,1,2,0:0:0:0:
348,253,69845,5,2,3:2:0:0:
348,253,69952,1,2,0:0:0:0:
419,307,70059,1,2,0:0:0:0:
472,239,70167,2,0,L|442:347,1,110.000003356934,2|0,0:0|0:0,0:0:0:0:
402,203,70488,2,0,L|418:135,1,55.0000016784668,2|0,0:0|0:0,0:0:0:0:
467,77,70702,5,2,3:2:0:0:
424,53,70809,1,2,0:0:0:0:
358,89,70916,1,2,0:0:0:0:
288,29,71024,2,0,B|288:61|265:68|265:68|171:37,1,110.000003356934,2|2,0:0|0:0,0:0:0:0:
135,23,71345,1,2,0:0:0:0:
65,85,71452,1,2,0:0:0:0:
222,130,71560,6,0,B|159:111|159:111|129:127|129:127|43:105,1,165.000005035401,2|0,3:2|0:0,0:0:0:0:
174,197,71988,1,10,0:0:0:0:
174,197,72095,1,2,0:0:0:0:
93,252,72202,1,2,0:0:0:0:
22,212,72309,1,2,0:0:0:0:
174,291,72417,6,0,P|254:274|291:267,1,110.000003356934,2|2,3:2|0:0,0:0:0:0:
355,302,72738,2,0,P|413:321|447:337,1,55.0000016784668,2|0,3:2|0:0,0:0:0:0:
468,269,72953,2,0,P|466:252|457:227,2,27.5000008392334,2|2|2,0:0|0:0|0:0,0:0:0:0:
476,349,73167,1,2,0:0:0:0:
337,218,73274,6,0,B|315:164|315:164|377:97,1,110.000003356934,2|0,0:0|3:2,0:0:0:0:
505,138,73595,2,0,B|469:184|469:184|380:163,1,110.000003356934,2|0,3:2|0:0,0:0:0:0:
393,49,73917,2,0,B|419:69|419:69|422:124,1,55.0000016784668,2|0,0:0|0:0,0:0:0:0:
234,284,74131,6,0,B|255:278|269:251|269:251|236:155,1,129.999994049073,6|0,3:2|0:0,0:0:0:0:
292,38,74452,1,0,0:0:0:0:
292,38,74559,2,0,P|281:78|262:130,1,64.9999970245363,8|0,0:0|0:0,0:0:0:0:
330,169,74774,1,2,0:0:0:0:
203,103,74881,6,0,B|123:120|123:120|91:105|91:105|6:122,1,194.999991073609,2|0,0:0|0:0,0:0:0:0:
93,0,75309,1,2,0:0:0:0:
93,0,75416,2,0,P|143:56|145:73,1,64.9999970245363,8|0,0:0|0:0,0:0:0:0:
63,249,75631,2,0,P|82:183|99:174,1,64.9999970245363,0|0,0:0|0:0,0:0:0:0:
273,259,75845,6,0,L|118:233,1,129.999994049073,2|0,3:2|0:0,0:0:0:0:
63,249,76166,1,0,0:0:0:0:
60,384,76274,2,0,P|101:316|177:352,1,129.999994049073,12|0,0:0|0:0,0:0:0:0:
220,368,76595,1,0,0:0:0:0:
311,329,76702,5,0,3:2:0:0:
331,331,76810,1,0,3:2:0:0:
351,334,76917,1,0,3:2:0:0:
371,337,77024,1,0,3:2:0:0:
391,341,77131,5,8,3:2:0:0:
463,279,77238,1,2,3:2:0:0:
414,212,77345,1,2,3:2:0:0:
511,337,77452,1,2,3:2:0:0:
345,247,77560,6,0,P|269:203|279:134,1,139.999995727539,6|0,3:2|0:0,0:0:0:0:
391,9,77881,2,0,P|390:95|326:121,1,139.999995727539,0|0,3:2|0:0,0:0:0:0:
65,27,78203,2,0,B|147:16|154:67|160:114|268:89,1,209.999993591309,0|0,3:2|0:0,0:0:0:0:
108,173,78631,2,0,P|80:100|55:69,1,69.9999978637696,0|0,3:2|0:0,0:0:0:0:
200,183,78845,1,10,2:0:0:0:
156,247,78953,1,0,0:0:0:0:
203,307,79060,2,0,P|185:343|175:385,1,69.9999978637696,0|0,3:2|0:0,0:0:0:0:
387,197,79274,6,0,P|336:225|258:245,1,139.999995727539,0|0,3:2|0:0,0:0:0:0:
426,384,79595,2,0,P|427:325|448:248,1,139.999995727539,0|0,3:2|0:0,0:0:0:0:
405,27,79917,2,0,B|339:80|339:80|389:203,1,209.999993591309,0|0,3:2|0:0,0:0:0:0:
466,130,80345,2,0,L|488:64,1,69.9999978637696,0|0,3:2|0:0,0:0:0:0:
294,190,80560,1,8,0:0:0:0:
227,151,80667,1,0,3:2:0:0:
154,175,80774,2,0,L|141:215,2,34.9999989318848,2|2|2,3:2|0:0|0:0,0:0:0:0:
298,113,80988,5,6,3:2:0:0:
363,71,81095,2,0,P|350:34|340:-13,1,75.0000028610231,0|0,0:0|0:0,0:0:0:0:
459,206,81310,1,0,3:2:0:0:
371,241,81417,2,0,P|382:208|391:165,1,75.0000028610231,0|0,0:0|0:0,0:0:0:0:
207,359,81631,2,0,P|233:289|301:302,1,150.000005722046,0|0,3:2|0:0,0:0:0:0:
418,349,81953,1,0,3:2:0:0:
348,376,82060,6,0,L|448:339,1,75.0000028610231,0|0,3:2|0:0,0:0:0:0:
296,297,82274,1,0,3:2:0:0:
359,181,82381,1,0,3:2:0:0:
285,149,82488,2,0,B|273:189|273:189|317:264,1,75.0000028610231,0|0,3:2|0:0,0:0:0:0:
120,176,82703,5,0,3:2:0:0:
168,109,82810,2,0,P|205:99|249:80,1,75.0000028610231,0|0,0:0|0:0,0:0:0:0:
180,260,83024,1,0,3:2:0:0:
105,295,83131,2,0,P|70:280|34:271,1,75.0000028610231,0|0,0:0|0:0,0:0:0:0:
65,124,83345,2,0,B|71:87|105:67|105:67|140:73|168:109,1,150.000005722046,0|0,3:2|0:0,0:0:0:0:
218,171,83667,5,0,3:2:0:0:
317,72,83774,2,0,P|276:73|239:129,1,75.0000028610231,0|0,3:2|0:0,0:0:0:0:
298,227,83988,2,0,P|317:190|287:130,1,75.0000028610231,0|0,3:2|0:0,0:0:0:0:
218,171,84203,1,2,0:0:0:0:
312,158,84310,1,2,0:0:0:0:
178,102,84417,5,6,0:0:0:0:
256,192,84524,12,0,88220,0:0:0:0:
