osu file format v14

[General]
AudioFilename: audio.mp3
AudioLeadIn: 0
PreviewTime: 98494
Countdown: 0
SampleSet: Normal
StackLeniency: 0.7
Mode: 1
LetterboxInBreaks: 0
WidescreenStoryboard: 1

[Editor]
Bookmarks: 135494
DistanceSpacing: 0.5
BeatDivisor: 4
GridSize: 32
TimelineZoom: 2.799999

[Metadata]
Title:endleSSStation
TitleUnicode:endleSSStation
Artist:Yuuyu
ArtistUnicode:ゆうゆ
Creator:Vulkin
Version:Oni
Source:ゆめにっき
Tags:24CD-0001 STEREO M3-23 ☆24EFFECTS☆ 24EFFECTS Yume Nikki Dream Diary KikiyamaHP ききやま Electronic Instrumental Ulqui
BeatmapID:2173807
BeatmapSetID:602001

[Difficulty]
HPDrainRate:5
CircleSize:5
OverallDifficulty:5
ApproachRate:5
SliderMultiplier:1.4
SliderTickRate:1

[Events]
//Background and Video events
0,0,"train_passenger_by_asusilver-d883co6.jpg",0,0
//Break Periods
//Storyboard Layer 0 (Background)
//Storyboard Layer 1 (Fail)
//Storyboard Layer 2 (Pass)
//Storyboard Layer 3 (Foreground)
//Storyboard Layer 4 (Overlay)
//Storyboard Sound Samples

[TimingPoints]
495,333.333333333333,6,1,0,70,1,0
30494,-100,6,1,0,80,0,1
62494,-100,6,1,0,60,0,0
73411,-100,6,1,0,20,0,0
78328,-100,6,1,0,60,0,0
94494,-100,6,1,0,70,0,0
98494,-100,6,1,0,50,0,0
114494,-100,6,1,0,60,0,0
122494,-100,6,1,0,70,0,0
130828,-100,6,1,0,40,0,0
132411,-100,6,1,0,60,0,0
132494,333.333333333333,9,1,0,60,1,0
132994,-100,6,1,0,65,0,0
133328,-100,6,1,0,70,0,0
133661,-100,6,1,0,75,0,0
133994,-100,6,1,0,80,0,0
135495,333.333333333333,6,1,0,70,1,0
167161,-100,6,1,0,72,0,0
167244,-100,6,1,0,74,0,0
167328,-100,6,1,0,76,0,0
167411,-100,6,1,0,78,0,0
167494,-100,6,1,0,80,0,1
175494,-100,6,1,0,70,0,0
176494,-100,6,1,0,80,0,1
199494,-100,6,1,0,70,0,0
215494,-100,6,1,0,80,0,1
231494,-100,6,1,0,60,0,0
243494,-100,6,1,0,40,0,0
244078,-100,6,1,0,60,0,0
257494,-100,6,1,0,50,0,0
257828,-100,6,1,0,50,0,0
259828,-100,6,1,0,40,0,0

[HitObjects]
256,192,495,5,0,0:0:0:0:
256,192,828,1,8,0:0:0:0:
256,192,994,1,8,0:0:0:0:
256,192,1328,1,8,0:0:0:0:
256,192,1494,1,0,0:0:0:0:
256,192,1578,1,0,0:0:0:0:
256,192,1661,1,8,0:0:0:0:
256,192,1828,1,0,0:0:0:0:
256,192,1994,1,8,0:0:0:0:
256,192,2078,1,0,0:0:0:0:
256,192,2161,1,8,0:0:0:0:
256,192,2244,1,8,0:0:0:0:
256,192,2328,1,8,0:0:0:0:
256,192,2494,1,0,0:0:0:0:
256,192,2828,1,8,0:0:0:0:
256,192,2994,1,0,0:0:0:0:
256,192,3078,1,0,0:0:0:0:
256,192,3161,1,8,0:0:0:0:
256,192,3328,1,8,0:0:0:0:
256,192,3494,1,0,0:0:0:0:
256,192,3661,1,0,0:0:0:0:
256,192,3994,1,8,0:0:0:0:
256,192,4161,1,0,0:0:0:0:
256,192,4244,1,0,0:0:0:0:
256,192,4328,1,8,0:0:0:0:
256,192,4494,1,4,0:0:0:0:
256,192,4661,1,0,0:0:0:0:
256,192,4828,1,8,0:0:0:0:
256,192,4911,1,8,0:0:0:0:
256,192,4994,1,8,0:0:0:0:
256,192,5078,1,8,0:0:0:0:
256,192,5244,1,8,0:0:0:0:
256,192,5328,1,0,0:0:0:0:
256,192,5411,1,8,0:0:0:0:
256,192,5494,1,0,0:0:0:0:
256,192,5578,1,0,0:0:0:0:
256,192,5661,1,0,0:0:0:0:
256,192,5744,1,8,0:0:0:0:
256,192,6161,1,0,0:0:0:0:
256,192,6244,1,0,0:0:0:0:
256,192,6328,1,0,0:0:0:0:
256,192,6411,1,0,0:0:0:0:
256,192,6494,1,8,0:0:0:0:
256,192,6661,1,0,0:0:0:0:
256,192,6828,1,8,0:0:0:0:
256,192,6994,1,8,0:0:0:0:
256,192,7161,1,0,0:0:0:0:
256,192,7494,1,8,0:0:0:0:
256,192,7661,1,8,0:0:0:0:
256,192,7828,1,0,0:0:0:0:
256,192,8161,1,8,0:0:0:0:
256,192,8328,1,8,0:0:0:0:
256,192,8411,1,8,0:0:0:0:
256,192,8494,1,0,0:0:0:0:
256,192,8661,1,0,0:0:0:0:
256,192,8828,1,8,0:0:0:0:
256,192,8911,1,0,0:0:0:0:
256,192,8994,1,8,0:0:0:0:
256,192,9078,1,8,0:0:0:0:
256,192,9161,1,0,0:0:0:0:
256,192,9328,1,8,0:0:0:0:
256,192,9494,1,0,0:0:0:0:
256,192,9578,1,0,0:0:0:0:
256,192,9661,1,8,0:0:0:0:
256,192,9828,1,0,0:0:0:0:
256,192,9994,1,8,0:0:0:0:
256,192,10078,1,0,0:0:0:0:
256,192,10161,1,8,0:0:0:0:
256,192,10244,1,8,0:0:0:0:
256,192,10328,1,8,0:0:0:0:
256,192,10494,1,0,0:0:0:0:
256,192,10578,1,8,0:0:0:0:
256,192,10661,1,0,0:0:0:0:
256,192,10828,1,8,0:0:0:0:
256,192,11161,1,0,0:0:0:0:
256,192,11494,1,8,0:0:0:0:
256,192,11661,1,0,0:0:0:0:
256,192,11744,1,0,0:0:0:0:
256,192,11828,1,8,0:0:0:0:
256,192,11994,1,8,0:0:0:0:
256,192,12161,1,0,0:0:0:0:
256,192,12328,1,8,0:0:0:0:
256,192,12494,1,0,0:0:0:0:
256,192,12828,1,0,0:0:0:0:
256,192,13161,1,8,0:0:0:0:
256,192,13494,1,0,0:0:0:0:
256,192,13578,1,8,0:0:0:0:
256,192,13661,1,0,0:0:0:0:
256,192,13828,1,8,0:0:0:0:
256,192,13911,1,0,0:0:0:0:
256,192,13994,1,8,0:0:0:0:
256,192,14078,1,8,0:0:0:0:
256,192,14161,1,0,0:0:0:0:
256,192,14328,1,8,0:0:0:0:
256,192,14494,1,0,0:0:0:0:
256,192,14578,1,0,0:0:0:0:
256,192,14661,1,8,0:0:0:0:
256,192,14828,1,0,0:0:0:0:
256,192,14994,1,8,0:0:0:0:
256,192,15078,1,0,0:0:0:0:
256,192,15161,1,8,0:0:0:0:
256,192,15244,1,8,0:0:0:0:
256,192,15328,1,8,0:0:0:0:
256,192,15494,1,0,0:0:0:0:
256,192,15661,1,8,0:0:0:0:
256,192,15994,1,8,0:0:0:0:
256,192,16161,1,0,0:0:0:0:
256,192,16328,1,0,0:0:0:0:
256,192,16494,1,12,0:0:0:0:
256,192,16661,1,8,0:0:0:0:
256,192,16828,1,8,0:0:0:0:
256,192,16994,1,0,0:0:0:0:
256,192,17078,1,8,0:0:0:0:
256,192,17161,1,0,0:0:0:0:
256,192,17244,1,0,0:0:0:0:
256,192,17328,1,8,0:0:0:0:
256,192,17494,1,0,0:0:0:0:
256,192,17578,1,0,0:0:0:0:
256,192,17744,1,0,0:0:0:0:
256,192,17994,1,8,0:0:0:0:
256,192,18328,1,0,0:0:0:0:
256,192,18411,1,0,0:0:0:0:
256,192,18494,1,8,0:0:0:0:
256,192,18661,1,8,0:0:0:0:
256,192,18828,1,0,0:0:0:0:
256,192,18911,1,0,0:0:0:0:
256,192,18994,1,0,0:0:0:0:
256,192,19078,1,0,0:0:0:0:
256,192,19244,1,8,0:0:0:0:
256,192,19328,1,8,0:0:0:0:
256,192,19411,1,8,0:0:0:0:
256,192,19494,1,0,0:0:0:0:
256,192,19661,1,8,0:0:0:0:
256,192,19994,1,8,0:0:0:0:
256,192,20328,1,8,0:0:0:0:
256,192,20494,1,0,0:0:0:0:
256,192,20661,1,8,0:0:0:0:
256,192,20744,1,8,0:0:0:0:
256,192,20828,1,0,0:0:0:0:
256,192,21161,1,8,0:0:0:0:
256,192,21494,1,0,0:0:0:0:
256,192,21661,1,0,0:0:0:0:
256,192,21744,1,0,0:0:0:0:
256,192,21828,1,8,0:0:0:0:
256,192,21994,1,8,0:0:0:0:
256,192,22161,1,0,0:0:0:0:
256,192,22328,1,8,0:0:0:0:
256,192,22494,1,0,0:0:0:0:
256,192,22578,1,0,0:0:0:0:
256,192,22661,1,8,0:0:0:0:
256,192,22828,1,0,0:0:0:0:
256,192,22994,1,8,0:0:0:0:
256,192,23078,1,0,0:0:0:0:
256,192,23161,1,8,0:0:0:0:
256,192,23244,1,8,0:0:0:0:
256,192,23328,1,8,0:0:0:0:
256,192,23494,1,0,0:0:0:0:
256,192,23828,1,8,0:0:0:0:
256,192,24078,1,8,0:0:0:0:
256,192,24328,1,8,0:0:0:0:
256,192,24494,1,0,0:0:0:0:
256,192,25161,1,0,0:0:0:0:
256,192,25244,1,0,0:0:0:0:
256,192,25328,1,0,0:0:0:0:
256,192,25494,1,0,0:0:0:0:
256,192,25994,1,0,0:0:0:0:
256,192,26328,1,0,0:0:0:0:
256,192,26411,1,0,0:0:0:0:
256,192,26494,1,8,0:0:0:0:
256,192,26828,1,0,0:0:0:0:
256,192,27161,1,8,0:0:0:0:
256,192,27494,1,8,0:0:0:0:
256,192,27828,1,8,0:0:0:0:
256,192,28161,1,0,0:0:0:0:
256,192,28661,1,0,0:0:0:0:
256,192,28828,1,8,0:0:0:0:
256,192,29161,1,0,0:0:0:0:
256,192,29494,1,0,0:0:0:0:
256,192,29828,1,8,0:0:0:0:
256,192,29994,1,8,0:0:0:0:
256,192,30161,1,8,0:0:0:0:
256,192,30328,1,8,0:0:0:0:
256,192,30494,1,4,0:0:0:0:
256,192,30661,1,0,0:0:0:0:
256,192,30744,1,0,0:0:0:0:
256,192,30828,1,8,0:0:0:0:
256,192,30994,1,0,0:0:0:0:
256,192,31328,1,0,0:0:0:0:
256,192,31494,1,8,0:0:0:0:
256,192,31661,1,0,0:0:0:0:
256,192,31744,1,0,0:0:0:0:
256,192,31828,1,8,0:0:0:0:
256,192,31994,1,0,0:0:0:0:
256,192,32078,1,8,0:0:0:0:
256,192,32161,1,8,0:0:0:0:
256,192,32328,1,0,0:0:0:0:
256,192,32411,1,8,0:0:0:0:
256,192,32494,1,0,0:0:0:0:
256,192,32661,1,0,0:0:0:0:
256,192,32828,1,8,0:0:0:0:
256,192,32911,1,8,0:0:0:0:
256,192,32994,1,0,0:0:0:0:
256,192,33078,1,8,0:0:0:0:
256,192,33161,1,0,0:0:0:0:
256,192,33328,1,8,0:0:0:0:
256,192,33411,1,8,0:0:0:0:
256,192,33494,1,0,0:0:0:0:
256,192,33661,1,0,0:0:0:0:
256,192,33828,1,8,0:0:0:0:
256,192,33994,1,0,0:0:0:0:
256,192,34161,1,8,0:0:0:0:
256,192,34328,1,8,0:0:0:0:
256,192,34411,1,8,0:0:0:0:
256,192,34494,1,0,0:0:0:0:
256,192,34661,1,0,0:0:0:0:
256,192,34828,1,8,0:0:0:0:
256,192,34994,1,0,0:0:0:0:
256,192,35328,1,8,0:0:0:0:
256,192,35494,1,0,0:0:0:0:
256,192,35578,1,8,0:0:0:0:
256,192,35828,1,0,0:0:0:0:
256,192,35994,1,8,0:0:0:0:
256,192,36078,1,0,0:0:0:0:
256,192,36161,1,8,0:0:0:0:
256,192,36244,1,8,0:0:0:0:
256,192,36328,1,0,0:0:0:0:
256,192,36494,1,12,0:0:0:0:
256,192,36661,1,8,0:0:0:0:
256,192,36994,1,0,0:0:0:0:
256,192,37244,1,0,0:0:0:0:
256,192,37328,1,0,0:0:0:0:
256,192,37411,1,0,0:0:0:0:
256,192,37494,1,8,0:0:0:0:
256,192,37661,1,0,0:0:0:0:
256,192,37828,1,8,0:0:0:0:
256,192,37994,1,8,0:0:0:0:
256,192,38161,1,0,0:0:0:0:
256,192,38494,1,0,0:0:0:0:
256,192,38661,1,0,0:0:0:0:
256,192,38744,1,0,0:0:0:0:
256,192,38828,1,8,0:0:0:0:
256,192,38994,1,0,0:0:0:0:
256,192,39328,1,0,0:0:0:0:
256,192,39494,1,8,0:0:0:0:
256,192,39661,1,0,0:0:0:0:
256,192,39744,1,0,0:0:0:0:
256,192,39828,1,8,0:0:0:0:
256,192,39994,1,0,0:0:0:0:
256,192,40078,1,8,0:0:0:0:
256,192,40161,1,8,0:0:0:0:
256,192,40328,1,0,0:0:0:0:
256,192,40411,1,8,0:0:0:0:
256,192,40494,1,0,0:0:0:0:
256,192,40661,1,0,0:0:0:0:
256,192,40828,1,8,0:0:0:0:
256,192,40911,1,8,0:0:0:0:
256,192,40994,1,0,0:0:0:0:
256,192,41078,1,8,0:0:0:0:
256,192,41161,1,0,0:0:0:0:
256,192,41328,1,8,0:0:0:0:
256,192,41494,1,8,0:0:0:0:
256,192,41661,1,8,0:0:0:0:
256,192,41828,1,8,0:0:0:0:
256,192,41994,1,8,0:0:0:0:
256,192,42161,1,8,0:0:0:0:
256,192,42244,1,0,0:0:0:0:
256,192,42328,1,0,0:0:0:0:
256,192,42411,1,0,0:0:0:0:
256,192,42494,1,8,0:0:0:0:
256,192,42661,1,0,0:0:0:0:
256,192,42994,1,8,0:0:0:0:
256,192,43161,1,0,0:0:0:0:
256,192,43328,1,8,0:0:0:0:
256,192,43661,1,8,0:0:0:0:
256,192,43744,1,8,0:0:0:0:
256,192,44494,1,0,0:0:0:0:
256,192,44828,1,8,0:0:0:0:
256,192,44911,1,0,0:0:0:0:
256,192,44994,1,0,0:0:0:0:
256,192,45078,1,8,0:0:0:0:
256,192,45244,1,0,0:0:0:0:
256,192,45328,1,8,0:0:0:0:
256,192,45494,1,0,0:0:0:0:
256,192,45578,1,0,0:0:0:0:
256,192,45661,1,8,0:0:0:0:
256,192,45744,1,8,0:0:0:0:
256,192,45828,1,8,0:0:0:0:
256,192,45994,1,8,0:0:0:0:
256,192,46161,1,8,0:0:0:0:
256,192,46328,1,8,0:0:0:0:
256,192,46494,1,0,0:0:0:0:
256,192,46661,1,0,0:0:0:0:
256,192,46744,1,0,0:0:0:0:
256,192,46828,1,8,0:0:0:0:
256,192,46994,1,0,0:0:0:0:
256,192,47328,1,0,0:0:0:0:
256,192,47494,1,8,0:0:0:0:
256,192,47661,1,0,0:0:0:0:
256,192,47744,1,0,0:0:0:0:
256,192,47828,1,8,0:0:0:0:
256,192,47994,1,0,0:0:0:0:
256,192,48078,1,8,0:0:0:0:
256,192,48161,1,8,0:0:0:0:
256,192,48328,1,0,0:0:0:0:
256,192,48411,1,8,0:0:0:0:
256,192,48494,1,0,0:0:0:0:
256,192,48661,1,0,0:0:0:0:
256,192,48828,1,8,0:0:0:0:
256,192,48911,1,8,0:0:0:0:
256,192,48994,1,0,0:0:0:0:
256,192,49078,1,8,0:0:0:0:
256,192,49161,1,0,0:0:0:0:
256,192,49328,1,8,0:0:0:0:
256,192,49411,1,8,0:0:0:0:
256,192,49494,1,0,0:0:0:0:
256,192,49661,1,0,0:0:0:0:
256,192,49828,1,8,0:0:0:0:
256,192,49994,1,0,0:0:0:0:
256,192,50161,1,8,0:0:0:0:
256,192,50328,1,8,0:0:0:0:
256,192,50411,1,8,0:0:0:0:
256,192,50494,1,0,0:0:0:0:
256,192,50661,1,0,0:0:0:0:
256,192,50828,1,8,0:0:0:0:
256,192,50994,1,0,0:0:0:0:
256,192,51494,1,0,0:0:0:0:
256,192,51578,1,8,0:0:0:0:
256,192,51828,1,0,0:0:0:0:
256,192,51994,1,8,0:0:0:0:
256,192,52078,1,0,0:0:0:0:
256,192,52161,1,8,0:0:0:0:
256,192,52244,1,8,0:0:0:0:
256,192,52328,1,0,0:0:0:0:
256,192,52494,1,12,0:0:0:0:
256,192,52661,1,8,0:0:0:0:
256,192,52994,1,0,0:0:0:0:
256,192,53244,1,0,0:0:0:0:
256,192,53328,1,0,0:0:0:0:
256,192,53411,1,0,0:0:0:0:
256,192,53494,1,8,0:0:0:0:
256,192,53661,1,0,0:0:0:0:
256,192,53828,1,8,0:0:0:0:
256,192,53994,1,8,0:0:0:0:
256,192,54161,1,0,0:0:0:0:
256,192,54494,1,0,0:0:0:0:
256,192,54661,1,0,0:0:0:0:
256,192,54744,1,0,0:0:0:0:
256,192,54828,1,8,0:0:0:0:
256,192,54994,1,0,0:0:0:0:
256,192,55328,1,0,0:0:0:0:
256,192,55494,1,8,0:0:0:0:
256,192,55661,1,0,0:0:0:0:
256,192,55744,1,0,0:0:0:0:
256,192,55828,1,8,0:0:0:0:
256,192,55994,1,0,0:0:0:0:
256,192,56078,1,8,0:0:0:0:
256,192,56161,1,8,0:0:0:0:
256,192,56328,1,0,0:0:0:0:
256,192,56411,1,8,0:0:0:0:
256,192,56494,1,0,0:0:0:0:
256,192,56661,1,0,0:0:0:0:
256,192,56828,1,8,0:0:0:0:
256,192,56911,1,8,0:0:0:0:
256,192,56994,1,0,0:0:0:0:
256,192,57078,1,8,0:0:0:0:
256,192,57161,1,0,0:0:0:0:
256,192,57328,1,0,0:0:0:0:
256,192,57494,1,8,0:0:0:0:
256,192,57661,1,0,0:0:0:0:
256,192,57994,1,8,0:0:0:0:
256,192,58328,1,0,0:0:0:0:
256,192,58494,1,8,0:0:0:0:
256,192,58578,1,0,0:0:0:0:
256,192,58661,1,0,0:0:0:0:
256,192,58744,1,0,0:0:0:0:
256,192,58828,1,8,0:0:0:0:
256,192,58994,1,0,0:0:0:0:
256,192,59328,1,8,0:0:0:0:
256,192,59494,1,0,0:0:0:0:
256,192,59661,1,8,0:0:0:0:
256,192,59744,1,8,0:0:0:0:
256,192,60494,1,0,0:0:0:0:
256,192,60828,1,8,0:0:0:0:
256,192,60911,1,0,0:0:0:0:
256,192,60994,1,0,0:0:0:0:
256,192,61078,1,8,0:0:0:0:
256,192,61244,1,0,0:0:0:0:
256,192,61328,1,8,0:0:0:0:
256,192,61494,1,0,0:0:0:0:
256,192,61661,1,8,0:0:0:0:
256,192,61828,1,0,0:0:0:0:
256,192,62161,1,8,0:0:0:0:
256,192,62244,1,8,0:0:0:0:
256,192,62328,1,8,0:0:0:0:
256,192,62411,1,8,0:0:0:0:
256,192,62494,1,0,0:0:0:0:
256,192,62828,1,0,0:0:0:0:
256,192,63161,1,8,0:0:0:0:
256,192,63494,1,0,0:0:0:0:
256,192,63578,1,0,0:0:0:0:
256,192,63661,1,8,0:0:0:0:
256,192,63744,1,8,0:0:0:0:
256,192,63828,1,0,0:0:0:0:
256,192,63994,1,0,0:0:0:0:
256,192,64161,1,8,0:0:0:0:
256,192,64494,1,0,0:0:0:0:
256,192,64828,1,0,0:0:0:0:
256,192,65161,1,8,0:0:0:0:
256,192,65494,1,8,0:0:0:0:
256,192,65661,1,0,0:0:0:0:
256,192,65744,1,8,0:0:0:0:
256,192,65828,1,8,0:0:0:0:
256,192,65994,1,8,0:0:0:0:
256,192,66161,1,0,0:0:0:0:
256,192,66494,1,0,0:0:0:0:
256,192,66828,1,0,0:0:0:0:
256,192,67161,1,8,0:0:0:0:
256,192,67494,1,0,0:0:0:0:
256,192,67578,1,0,0:0:0:0:
256,192,67661,1,8,0:0:0:0:
256,192,67744,1,8,0:0:0:0:
256,192,67828,1,0,0:0:0:0:
256,192,67994,1,0,0:0:0:0:
256,192,68161,1,8,0:0:0:0:
256,192,68494,1,0,0:0:0:0:
256,192,68828,1,0,0:0:0:0:
256,192,69161,1,8,0:0:0:0:
256,192,69494,1,0,0:0:0:0:
256,192,69661,1,8,0:0:0:0:
256,192,69828,1,0,0:0:0:0:
256,192,69994,1,0,0:0:0:0:
256,192,70161,1,8,0:0:0:0:
256,192,70328,1,0,0:0:0:0:
256,192,70494,1,8,0:0:0:0:
256,192,70828,1,0,0:0:0:0:
256,192,71161,1,8,0:0:0:0:
256,192,71494,1,0,0:0:0:0:
256,192,71578,1,0,0:0:0:0:
256,192,71661,1,8,0:0:0:0:
256,192,71744,1,8,0:0:0:0:
256,192,71828,1,0,0:0:0:0:
256,192,71994,1,0,0:0:0:0:
256,192,72161,1,8,0:0:0:0:
256,192,72328,1,8,0:0:0:0:
256,192,72494,1,0,0:0:0:0:
256,192,72828,1,0,0:0:0:0:
256,192,73161,1,8,0:0:0:0:
256,192,73272,1,8,0:0:0:0:
256,192,73494,12,0,78161,0:0:0:0:
256,192,78494,5,0,0:0:0:0:
256,192,78828,1,0,0:0:0:0:
256,192,79161,1,8,0:0:0:0:
256,192,79494,1,0,0:0:0:0:
256,192,79661,1,0,0:0:0:0:
256,192,79744,1,0,0:0:0:0:
256,192,79828,1,8,0:0:0:0:
256,192,79994,1,0,0:0:0:0:
256,192,80161,1,8,0:0:0:0:
256,192,80494,1,0,0:0:0:0:
256,192,80828,1,0,0:0:0:0:
256,192,81161,1,8,0:0:0:0:
256,192,81494,1,8,0:0:0:0:
256,192,81828,1,0,0:0:0:0:
256,192,82494,1,0,0:0:0:0:
256,192,82828,1,0,0:0:0:0:
256,192,83161,1,8,0:0:0:0:
256,192,83494,1,0,0:0:0:0:
256,192,83661,1,0,0:0:0:0:
256,192,83744,1,0,0:0:0:0:
256,192,83828,1,8,0:0:0:0:
256,192,83994,1,0,0:0:0:0:
256,192,84161,1,8,0:0:0:0:
256,192,84494,1,0,0:0:0:0:
256,192,84828,1,8,0:0:0:0:
256,192,85161,1,8,0:0:0:0:
256,192,85494,1,0,0:0:0:0:
256,192,85828,1,8,0:0:0:0:
256,192,85994,1,8,0:0:0:0:
256,192,86161,1,8,0:0:0:0:
256,192,86495,1,0,0:0:0:0:
256,192,86828,1,0,0:0:0:0:
256,192,87161,1,8,0:0:0:0:
256,192,87495,1,0,0:0:0:0:
256,192,87661,1,0,0:0:0:0:
256,192,87745,1,0,0:0:0:0:
256,192,87828,1,8,0:0:0:0:
256,192,87995,1,0,0:0:0:0:
256,192,88161,1,8,0:0:0:0:
256,192,88495,1,0,0:0:0:0:
256,192,88828,1,0,0:0:0:0:
256,192,89161,1,8,0:0:0:0:
256,192,89495,1,8,0:0:0:0:
256,192,89828,1,0,0:0:0:0:
256,192,90495,1,0,0:0:0:0:
256,192,90828,1,0,0:0:0:0:
256,192,91161,1,8,0:0:0:0:
256,192,91495,1,0,0:0:0:0:
256,192,91661,1,0,0:0:0:0:
256,192,91745,1,0,0:0:0:0:
256,192,91828,1,8,0:0:0:0:
256,192,91995,1,0,0:0:0:0:
256,192,92161,1,8,0:0:0:0:
256,192,92495,1,0,0:0:0:0:
256,192,92828,1,8,0:0:0:0:
256,192,93161,1,8,0:0:0:0:
256,192,93495,1,0,0:0:0:0:
256,192,93828,1,8,0:0:0:0:
256,192,93994,1,0,0:0:0:0:
256,192,94161,1,8,0:0:0:0:
256,192,94494,1,0,0:0:0:0:
256,192,94661,1,0,0:0:0:0:
256,192,94828,1,8,0:0:0:0:
256,192,94994,1,8,0:0:0:0:
256,192,95328,1,8,0:0:0:0:
256,192,95494,1,0,0:0:0:0:
256,192,95578,1,0,0:0:0:0:
256,192,95661,1,8,0:0:0:0:
256,192,95828,1,0,0:0:0:0:
256,192,95994,1,8,0:0:0:0:
256,192,96078,1,0,0:0:0:0:
256,192,96161,1,8,0:0:0:0:
256,192,96244,1,8,0:0:0:0:
256,192,96328,1,8,0:0:0:0:
256,192,96494,1,0,0:0:0:0:
256,192,96828,1,8,0:0:0:0:
256,192,96994,1,0,0:0:0:0:
256,192,97078,1,0,0:0:0:0:
256,192,97161,1,8,0:0:0:0:
256,192,97328,1,0,0:0:0:0:
256,192,97494,1,8,0:0:0:0:
256,192,97578,1,8,0:0:0:0:
256,192,97661,1,0,0:0:0:0:
256,192,97744,1,0,0:0:0:0:
256,192,97828,1,8,0:0:0:0:
256,192,97911,1,8,0:0:0:0:
256,192,97994,1,8,0:0:0:0:
256,192,98078,1,8,0:0:0:0:
256,192,98494,1,0,0:0:0:0:
256,192,99828,1,8,0:0:0:0:
256,192,100494,1,0,0:0:0:0:
256,192,101161,1,0,0:0:0:0:
256,192,101494,1,0,0:0:0:0:
256,192,101828,1,8,0:0:0:0:
256,192,102494,1,0,0:0:0:0:
256,192,103828,1,8,0:0:0:0:
256,192,104494,1,0,0:0:0:0:
256,192,106494,1,0,0:0:0:0:
256,192,107161,1,0,0:0:0:0:
256,192,107828,1,8,0:0:0:0:
256,192,108494,1,0,0:0:0:0:
256,192,108828,1,0,0:0:0:0:
256,192,109161,1,0,0:0:0:0:
256,192,109494,1,0,0:0:0:0:
256,192,109828,1,8,0:0:0:0:
256,192,110494,1,0,0:0:0:0:
256,192,111161,1,0,0:0:0:0:
256,192,111828,1,8,0:0:0:0:
256,192,112494,1,0,0:0:0:0:
256,192,113161,1,0,0:0:0:0:
256,192,114494,1,8,0:0:0:0:
256,192,114828,1,0,0:0:0:0:
256,192,115161,1,8,0:0:0:0:
256,192,115828,1,8,0:0:0:0:
256,192,116494,1,0,0:0:0:0:
256,192,116828,1,8,0:0:0:0:
256,192,117161,1,0,0:0:0:0:
256,192,117828,1,0,0:0:0:0:
256,192,118494,1,0,0:0:0:0:
256,192,118828,1,0,0:0:0:0:
256,192,119161,1,8,0:0:0:0:
256,192,119828,1,0,0:0:0:0:
256,192,120494,1,8,0:0:0:0:
256,192,120828,1,0,0:0:0:0:
256,192,121161,1,0,0:0:0:0:
256,192,121828,1,0,0:0:0:0:
256,192,122494,1,0,0:0:0:0:
256,192,122828,1,8,0:0:0:0:
256,192,122994,1,8,0:0:0:0:
256,192,123161,1,0,0:0:0:0:
256,192,123328,1,8,0:0:0:0:
256,192,123494,1,0,0:0:0:0:
256,192,123578,1,0,0:0:0:0:
256,192,123661,1,8,0:0:0:0:
256,192,123828,1,0,0:0:0:0:
256,192,123994,1,8,0:0:0:0:
256,192,124078,1,0,0:0:0:0:
256,192,124161,1,8,0:0:0:0:
256,192,124244,1,8,0:0:0:0:
256,192,124328,1,8,0:0:0:0:
256,192,124494,1,0,0:0:0:0:
256,192,124994,1,0,0:0:0:0:
256,192,125078,1,0,0:0:0:0:
256,192,125161,1,8,0:0:0:0:
256,192,125328,1,8,0:0:0:0:
256,192,125494,1,0,0:0:0:0:
256,192,125828,1,8,0:0:0:0:
256,192,126494,1,0,0:0:0:0:
256,192,127161,1,8,0:0:0:0:
256,192,127494,1,0,0:0:0:0:
256,192,127661,1,8,0:0:0:0:
256,192,127744,1,0,0:0:0:0:
256,192,127828,1,8,0:0:0:0:
256,192,127994,1,0,0:0:0:0:
256,192,128161,1,8,0:0:0:0:
256,192,128328,1,8,0:0:0:0:
256,192,128494,1,0,0:0:0:0:
256,192,128661,1,8,0:0:0:0:
256,192,128828,1,0,0:0:0:0:
256,192,128994,1,8,0:0:0:0:
256,192,129078,1,0,0:0:0:0:
256,192,129161,1,8,0:0:0:0:
256,192,129244,1,8,0:0:0:0:
256,192,129328,1,8,0:0:0:0:
256,192,129494,1,0,0:0:0:0:
256,192,129828,1,8,0:0:0:0:
256,192,129994,1,0,0:0:0:0:
256,192,130078,1,0,0:0:0:0:
256,192,130161,1,8,0:0:0:0:
256,192,130244,1,8,0:0:0:0:
256,192,130328,1,0,0:0:0:0:
256,192,130494,1,8,0:0:0:0:
256,192,130828,12,0,132328,0:0:0:0:
256,192,132494,5,8,0:0:0:0:
256,192,132661,1,0,0:0:0:0:
256,192,132828,1,8,0:0:0:0:
256,192,132994,1,0,0:0:0:0:
256,192,133078,1,0,0:0:0:0:
256,192,133161,1,8,0:0:0:0:
256,192,133328,1,0,0:0:0:0:
256,192,133494,1,8,0:0:0:0:
256,192,133661,1,0,0:0:0:0:
256,192,133744,1,0,0:0:0:0:
256,192,133828,1,8,0:0:0:0:
256,192,133994,1,8,0:0:0:0:
256,192,134161,1,0,0:0:0:0:
256,192,134328,1,8,0:0:0:0:
256,192,134411,1,8,0:0:0:0:
256,192,134494,1,0,0:0:0:0:
256,192,135494,1,4,0:0:0:0:
256,192,135661,1,0,0:0:0:0:
256,192,135744,1,0,0:0:0:0:
256,192,135828,1,8,0:0:0:0:
256,192,135994,1,0,0:0:0:0:
256,192,136328,1,0,0:0:0:0:
256,192,136494,1,8,0:0:0:0:
256,192,136661,1,0,0:0:0:0:
256,192,136744,1,0,0:0:0:0:
256,192,136828,1,8,0:0:0:0:
256,192,136994,1,0,0:0:0:0:
256,192,137078,1,8,0:0:0:0:
256,192,137161,1,8,0:0:0:0:
256,192,137328,1,8,0:0:0:0:
256,192,137494,1,0,0:0:0:0:
256,192,137828,1,8,0:0:0:0:
256,192,137911,1,0,0:0:0:0:
256,192,137994,1,8,0:0:0:0:
256,192,138078,1,0,0:0:0:0:
256,192,138244,1,0,0:0:0:0:
256,192,138328,1,8,0:0:0:0:
256,192,138411,1,8,0:0:0:0:
256,192,138494,1,0,0:0:0:0:
256,192,138661,1,0,0:0:0:0:
256,192,138828,1,8,0:0:0:0:
256,192,138994,1,0,0:0:0:0:
256,192,139161,1,8,0:0:0:0:
256,192,139328,1,0,0:0:0:0:
256,192,139411,1,8,0:0:0:0:
256,192,139494,1,0,0:0:0:0:
256,192,139661,1,0,0:0:0:0:
256,192,139828,1,8,0:0:0:0:
256,192,139994,1,0,0:0:0:0:
256,192,140328,1,8,0:0:0:0:
256,192,140494,1,0,0:0:0:0:
256,192,140578,1,8,0:0:0:0:
256,192,140828,1,0,0:0:0:0:
256,192,140994,1,8,0:0:0:0:
256,192,141078,1,0,0:0:0:0:
256,192,141161,1,8,0:0:0:0:
256,192,141244,1,8,0:0:0:0:
256,192,141328,1,0,0:0:0:0:
256,192,141494,1,12,0:0:0:0:
256,192,141661,1,12,0:0:0:0:
256,192,141994,1,0,0:0:0:0:
256,192,142244,1,0,0:0:0:0:
256,192,142328,1,0,0:0:0:0:
256,192,142411,1,0,0:0:0:0:
256,192,142494,1,8,0:0:0:0:
256,192,142661,1,0,0:0:0:0:
256,192,142828,1,8,0:0:0:0:
256,192,142994,1,8,0:0:0:0:
256,192,143161,1,8,0:0:0:0:
256,192,143494,1,0,0:0:0:0:
256,192,143661,1,0,0:0:0:0:
256,192,143828,1,8,0:0:0:0:
256,192,143994,1,0,0:0:0:0:
256,192,144078,1,0,0:0:0:0:
256,192,144161,1,8,0:0:0:0:
256,192,144244,1,8,0:0:0:0:
256,192,144328,1,0,0:0:0:0:
256,192,144494,1,8,0:0:0:0:
256,192,144661,1,0,0:0:0:0:
256,192,144744,1,0,0:0:0:0:
256,192,144828,1,8,0:0:0:0:
256,192,144994,1,0,0:0:0:0:
256,192,145078,1,8,0:0:0:0:
256,192,145161,1,8,0:0:0:0:
256,192,145328,1,0,0:0:0:0:
256,192,145411,1,8,0:0:0:0:
256,192,145494,1,0,0:0:0:0:
256,192,145661,1,0,0:0:0:0:
256,192,145828,1,8,0:0:0:0:
256,192,145911,1,8,0:0:0:0:
256,192,145994,1,8,0:0:0:0:
256,192,146078,1,0,0:0:0:0:
256,192,146161,1,0,0:0:0:0:
256,192,146328,1,8,0:0:0:0:
256,192,146411,1,0,0:0:0:0:
256,192,146494,1,8,0:0:0:0:
256,192,146661,1,8,0:0:0:0:
256,192,146828,1,8,0:0:0:0:
256,192,146994,1,8,0:0:0:0:
256,192,147161,1,8,0:0:0:0:
256,192,147244,1,8,0:0:0:0:
256,192,147328,1,0,0:0:0:0:
256,192,147494,1,8,0:0:0:0:
256,192,147661,1,0,0:0:0:0:
256,192,147828,1,0,0:0:0:0:
256,192,147994,1,8,0:0:0:0:
256,192,148328,1,0,0:0:0:0:
256,192,148661,1,8,0:0:0:0:
256,192,149328,1,0,0:0:0:0:
256,192,149828,1,8,0:0:0:0:
256,192,149994,1,0,0:0:0:0:
256,192,150078,1,8,0:0:0:0:
256,192,150244,1,0,0:0:0:0:
256,192,150328,1,8,0:0:0:0:
256,192,150494,1,0,0:0:0:0:
256,192,150578,1,0,0:0:0:0:
256,192,150661,1,8,0:0:0:0:
256,192,150744,1,8,0:0:0:0:
256,192,150828,1,8,0:0:0:0:
256,192,150994,1,8,0:0:0:0:
256,192,151161,1,8,0:0:0:0:
256,192,151328,1,8,0:0:0:0:
256,192,151494,1,4,0:0:0:0:
256,192,151661,1,0,0:0:0:0:
256,192,151744,1,0,0:0:0:0:
256,192,151828,1,8,0:0:0:0:
256,192,151994,1,0,0:0:0:0:
256,192,152328,1,0,0:0:0:0:
256,192,152494,1,8,0:0:0:0:
256,192,152661,1,0,0:0:0:0:
256,192,152744,1,0,0:0:0:0:
256,192,152828,1,8,0:0:0:0:
256,192,152994,1,0,0:0:0:0:
256,192,153078,1,8,0:0:0:0:
256,192,153161,1,8,0:0:0:0:
256,192,153328,1,0,0:0:0:0:
256,192,153411,1,8,0:0:0:0:
256,192,153494,1,0,0:0:0:0:
256,192,153661,1,0,0:0:0:0:
256,192,153828,1,8,0:0:0:0:
256,192,153911,1,0,0:0:0:0:
256,192,153994,1,8,0:0:0:0:
256,192,154078,1,0,0:0:0:0:
256,192,154244,1,0,0:0:0:0:
256,192,154328,1,8,0:0:0:0:
256,192,154411,1,8,0:0:0:0:
256,192,154494,1,0,0:0:0:0:
256,192,154661,1,0,0:0:0:0:
256,192,154828,1,8,0:0:0:0:
256,192,154994,1,0,0:0:0:0:
256,192,155161,1,8,0:0:0:0:
256,192,155328,1,0,0:0:0:0:
256,192,155411,1,8,0:0:0:0:
256,192,155494,1,0,0:0:0:0:
256,192,155661,1,0,0:0:0:0:
256,192,155828,1,8,0:0:0:0:
256,192,155994,1,0,0:0:0:0:
256,192,156494,1,0,0:0:0:0:
256,192,156578,1,8,0:0:0:0:
256,192,156828,1,0,0:0:0:0:
256,192,156994,1,8,0:0:0:0:
256,192,157078,1,0,0:0:0:0:
256,192,157161,1,8,0:0:0:0:
256,192,157244,1,8,0:0:0:0:
256,192,157328,1,0,0:0:0:0:
256,192,157494,1,12,0:0:0:0:
256,192,157661,1,12,0:0:0:0:
256,192,157994,1,0,0:0:0:0:
256,192,158244,1,0,0:0:0:0:
256,192,158328,1,0,0:0:0:0:
256,192,158411,1,0,0:0:0:0:
256,192,158494,1,8,0:0:0:0:
256,192,158661,1,0,0:0:0:0:
256,192,158828,1,8,0:0:0:0:
256,192,158994,1,8,0:0:0:0:
256,192,159161,1,8,0:0:0:0:
256,192,159494,1,0,0:0:0:0:
256,192,159578,1,8,0:0:0:0:
256,192,159744,1,8,0:0:0:0:
256,192,159828,1,8,0:0:0:0:
256,192,159994,1,8,0:0:0:0:
256,192,160078,1,0,0:0:0:0:
256,192,160244,1,0,0:0:0:0:
256,192,160328,1,0,0:0:0:0:
256,192,160411,1,8,0:0:0:0:
256,192,160494,1,0,0:0:0:0:
256,192,160661,1,0,0:0:0:0:
256,192,160744,1,0,0:0:0:0:
256,192,160828,1,8,0:0:0:0:
256,192,160994,1,8,0:0:0:0:
256,192,161078,1,0,0:0:0:0:
256,192,161161,1,8,0:0:0:0:
256,192,161328,1,0,0:0:0:0:
256,192,161411,1,8,0:0:0:0:
256,192,161494,1,0,0:0:0:0:
256,192,161661,1,0,0:0:0:0:
256,192,161828,1,8,0:0:0:0:
256,192,161911,1,8,0:0:0:0:
256,192,161994,1,8,0:0:0:0:
256,192,162078,1,0,0:0:0:0:
256,192,162328,1,8,0:0:0:0:
256,192,162411,1,0,0:0:0:0:
256,192,162494,1,8,0:0:0:0:
256,192,162578,1,8,0:0:0:0:
256,192,162744,1,8,0:0:0:0:
256,192,162828,1,0,0:0:0:0:
256,192,163161,1,0,0:0:0:0:
256,192,163244,1,8,0:0:0:0:
256,192,163328,1,0,0:0:0:0:
256,192,163411,1,0,0:0:0:0:
256,192,163494,1,8,0:0:0:0:
256,192,163661,1,0,0:0:0:0:
256,192,163828,1,8,0:0:0:0:
256,192,163911,1,8,0:0:0:0:
256,192,163994,1,0,0:0:0:0:
256,192,164161,1,8,0:0:0:0:
256,192,164244,1,8,0:0:0:0:
256,192,164328,1,8,0:0:0:0:
256,192,164411,1,8,0:0:0:0:
256,192,164494,1,0,0:0:0:0:
256,192,164661,1,8,0:0:0:0:
256,192,165828,1,12,0:0:0:0:
256,192,166161,1,0,0:0:0:0:
256,192,166244,1,0,0:0:0:0:
256,192,166328,1,0,0:0:0:0:
256,192,166411,1,0,0:0:0:0:
256,192,166494,1,8,0:0:0:0:
256,192,166828,1,8,0:0:0:0:
256,192,166994,1,0,0:0:0:0:
256,192,167161,1,8,0:0:0:0:
256,192,167244,1,0,0:0:0:0:
256,192,167328,1,8,0:0:0:0:
256,192,167411,1,8,0:0:0:0:
256,192,167494,1,0,0:0:0:0:
256,192,167661,1,0,0:0:0:0:
256,192,167828,1,8,0:0:0:0:
256,192,167994,1,0,0:0:0:0:
256,192,168328,1,0,0:0:0:0:
256,192,168494,1,8,0:0:0:0:
256,192,168661,1,0,0:0:0:0:
256,192,168744,1,0,0:0:0:0:
256,192,168828,1,8,0:0:0:0:
256,192,168994,1,0,0:0:0:0:
256,192,169078,1,8,0:0:0:0:
256,192,169161,1,8,0:0:0:0:
256,192,169328,1,0,0:0:0:0:
256,192,169411,1,8,0:0:0:0:
256,192,169494,1,0,0:0:0:0:
256,192,169661,1,0,0:0:0:0:
256,192,169828,1,8,0:0:0:0:
256,192,169911,1,0,0:0:0:0:
256,192,169994,1,8,0:0:0:0:
256,192,170078,1,0,0:0:0:0:
256,192,170244,1,0,0:0:0:0:
256,192,170328,1,8,0:0:0:0:
256,192,170411,1,8,0:0:0:0:
256,192,170494,1,0,0:0:0:0:
256,192,170661,1,0,0:0:0:0:
256,192,170828,1,8,0:0:0:0:
256,192,170994,1,0,0:0:0:0:
256,192,171161,1,8,0:0:0:0:
256,192,171328,1,0,0:0:0:0:
256,192,171411,1,8,0:0:0:0:
256,192,171494,1,0,0:0:0:0:
256,192,171661,1,0,0:0:0:0:
256,192,171828,1,8,0:0:0:0:
256,192,171994,1,0,0:0:0:0:
256,192,172161,1,8,0:0:0:0:
256,192,172494,1,0,0:0:0:0:
256,192,172578,1,8,0:0:0:0:
256,192,172828,1,0,0:0:0:0:
256,192,172994,1,8,0:0:0:0:
256,192,173078,1,0,0:0:0:0:
256,192,173161,1,8,0:0:0:0:
256,192,173244,1,8,0:0:0:0:
256,192,173328,1,0,0:0:0:0:
256,192,173494,1,12,0:0:0:0:
256,192,173661,1,12,0:0:0:0:
256,192,173994,1,0,0:0:0:0:
256,192,174244,1,0,0:0:0:0:
256,192,174328,1,0,0:0:0:0:
256,192,174411,1,0,0:0:0:0:
256,192,174494,1,8,0:0:0:0:
256,192,174661,1,0,0:0:0:0:
256,192,174828,1,8,0:0:0:0:
256,192,174994,1,8,0:0:0:0:
256,192,175161,1,8,0:0:0:0:
256,192,175494,1,0,0:0:0:0:
256,192,175661,1,0,0:0:0:0:
256,192,175828,1,8,0:0:0:0:
256,192,175994,1,0,0:0:0:0:
256,192,176078,1,0,0:0:0:0:
256,192,176161,1,8,0:0:0:0:
256,192,176244,1,8,0:0:0:0:
256,192,176328,1,0,0:0:0:0:
256,192,176494,1,8,0:0:0:0:
256,192,176661,1,0,0:0:0:0:
256,192,176744,1,0,0:0:0:0:
256,192,176828,1,8,0:0:0:0:
256,192,176994,1,0,0:0:0:0:
256,192,177078,1,8,0:0:0:0:
256,192,177161,1,8,0:0:0:0:
256,192,177328,1,0,0:0:0:0:
256,192,177411,1,8,0:0:0:0:
256,192,177494,1,0,0:0:0:0:
256,192,177661,1,0,0:0:0:0:
256,192,177828,1,8,0:0:0:0:
256,192,177911,1,0,0:0:0:0:
256,192,177994,1,8,0:0:0:0:
256,192,178078,1,0,0:0:0:0:
256,192,178328,1,8,0:0:0:0:
256,192,178411,1,0,0:0:0:0:
256,192,178494,1,8,0:0:0:0:
256,192,178661,1,8,0:0:0:0:
256,192,178828,1,8,0:0:0:0:
256,192,178994,1,8,0:0:0:0:
256,192,179161,1,8,0:0:0:0:
256,192,179244,1,8,0:0:0:0:
256,192,179328,1,0,0:0:0:0:
256,192,179494,1,8,0:0:0:0:
256,192,179661,1,0,0:0:0:0:
256,192,179828,1,0,0:0:0:0:
256,192,179994,1,8,0:0:0:0:
256,192,180328,1,0,0:0:0:0:
256,192,180661,1,8,0:0:0:0:
256,192,181494,1,0,0:0:0:0:
256,192,181828,1,8,0:0:0:0:
256,192,181994,1,0,0:0:0:0:
256,192,182078,1,8,0:0:0:0:
256,192,182244,1,8,0:0:0:0:
256,192,182328,1,0,0:0:0:0:
256,192,182494,1,0,0:0:0:0:
256,192,182578,1,0,0:0:0:0:
256,192,182661,1,8,0:0:0:0:
256,192,182744,1,8,0:0:0:0:
256,192,182828,1,8,0:0:0:0:
256,192,182994,1,8,0:0:0:0:
256,192,183161,1,8,0:0:0:0:
256,192,183328,1,8,0:0:0:0:
256,192,183494,1,0,0:0:0:0:
256,192,183661,1,0,0:0:0:0:
256,192,183744,1,0,0:0:0:0:
256,192,183828,1,8,0:0:0:0:
256,192,183994,1,0,0:0:0:0:
256,192,184328,1,0,0:0:0:0:
256,192,184494,1,8,0:0:0:0:
256,192,184661,1,0,0:0:0:0:
256,192,184744,1,0,0:0:0:0:
256,192,184828,1,8,0:0:0:0:
256,192,184994,1,0,0:0:0:0:
256,192,185078,1,8,0:0:0:0:
256,192,185161,1,8,0:0:0:0:
256,192,185328,1,0,0:0:0:0:
256,192,185411,1,8,0:0:0:0:
256,192,185494,1,0,0:0:0:0:
256,192,185661,1,0,0:0:0:0:
256,192,185828,1,8,0:0:0:0:
256,192,185911,1,0,0:0:0:0:
256,192,185994,1,8,0:0:0:0:
256,192,186078,1,0,0:0:0:0:
256,192,186244,1,0,0:0:0:0:
256,192,186328,1,0,0:0:0:0:
256,192,186411,1,0,0:0:0:0:
256,192,186494,1,8,0:0:0:0:
256,192,186661,1,0,0:0:0:0:
256,192,186828,1,8,0:0:0:0:
256,192,186994,1,0,0:0:0:0:
256,192,187161,1,8,0:0:0:0:
256,192,187494,1,0,0:0:0:0:
256,192,187661,1,8,0:0:0:0:
256,192,187744,1,8,0:0:0:0:
256,192,187828,1,0,0:0:0:0:
256,192,188161,1,8,0:0:0:0:
256,192,188494,1,0,0:0:0:0:
256,192,188661,1,8,0:0:0:0:
256,192,188828,1,0,0:0:0:0:
256,192,188911,1,0,0:0:0:0:
256,192,188994,1,0,0:0:0:0:
256,192,189078,1,0,0:0:0:0:
256,192,189161,1,8,0:0:0:0:
256,192,189244,1,8,0:0:0:0:
256,192,189328,1,0,0:0:0:0:
256,192,189494,1,12,0:0:0:0:
256,192,189661,1,12,0:0:0:0:
256,192,189994,1,0,0:0:0:0:
256,192,190244,1,0,0:0:0:0:
256,192,190328,1,0,0:0:0:0:
256,192,190411,1,0,0:0:0:0:
256,192,190494,1,8,0:0:0:0:
256,192,190661,1,0,0:0:0:0:
256,192,190828,1,8,0:0:0:0:
256,192,190994,1,8,0:0:0:0:
256,192,191161,1,8,0:0:0:0:
256,192,191494,1,0,0:0:0:0:
256,192,191578,1,8,0:0:0:0:
256,192,191744,1,8,0:0:0:0:
256,192,191828,1,8,0:0:0:0:
256,192,191994,1,8,0:0:0:0:
256,192,192078,1,0,0:0:0:0:
256,192,192244,1,0,0:0:0:0:
256,192,192328,1,0,0:0:0:0:
256,192,192411,1,8,0:0:0:0:
256,192,192494,1,0,0:0:0:0:
256,192,192661,1,0,0:0:0:0:
256,192,192744,1,0,0:0:0:0:
256,192,192828,1,8,0:0:0:0:
256,192,192994,1,8,0:0:0:0:
256,192,193078,1,0,0:0:0:0:
256,192,193161,1,8,0:0:0:0:
256,192,193328,1,0,0:0:0:0:
256,192,193411,1,8,0:0:0:0:
256,192,193494,1,0,0:0:0:0:
256,192,193661,1,0,0:0:0:0:
256,192,193828,1,8,0:0:0:0:
256,192,193911,1,8,0:0:0:0:
256,192,193994,1,8,0:0:0:0:
256,192,194078,1,0,0:0:0:0:
256,192,194328,1,8,0:0:0:0:
256,192,194411,1,0,0:0:0:0:
256,192,194494,1,8,0:0:0:0:
256,192,194578,1,8,0:0:0:0:
256,192,194744,1,8,0:0:0:0:
256,192,194828,1,0,0:0:0:0:
256,192,195161,1,0,0:0:0:0:
256,192,195494,1,0,0:0:0:0:
256,192,195578,1,8,0:0:0:0:
256,192,195661,1,0,0:0:0:0:
256,192,195744,1,0,0:0:0:0:
256,192,195828,1,8,0:0:0:0:
256,192,195994,1,8,0:0:0:0:
256,192,196161,1,0,0:0:0:0:
256,192,196494,1,0,0:0:0:0:
256,192,196661,1,8,0:0:0:0:
256,192,197494,1,0,0:0:0:0:
256,192,197828,1,12,0:0:0:0:
256,192,198161,1,0,0:0:0:0:
256,192,198244,1,0,0:0:0:0:
256,192,198328,1,0,0:0:0:0:
256,192,198411,1,0,0:0:0:0:
256,192,198494,1,8,0:0:0:0:
256,192,198828,1,0,0:0:0:0:
256,192,199161,1,8,0:0:0:0:
256,192,199244,1,0,0:0:0:0:
256,192,199328,1,0,0:0:0:0:
256,192,199411,1,0,0:0:0:0:
256,192,199494,1,0,0:0:0:0:
256,192,199828,1,8,0:0:0:0:
256,192,199994,1,8,0:0:0:0:
256,192,200161,1,0,0:0:0:0:
256,192,200328,1,8,0:0:0:0:
256,192,200494,1,0,0:0:0:0:
256,192,200578,1,0,0:0:0:0:
256,192,200661,1,8,0:0:0:0:
256,192,200828,1,0,0:0:0:0:
256,192,200994,1,8,0:0:0:0:
256,192,201078,1,0,0:0:0:0:
256,192,201161,1,8,0:0:0:0:
256,192,201244,1,8,0:0:0:0:
256,192,201328,1,8,0:0:0:0:
256,192,201494,1,0,0:0:0:0:
256,192,201828,1,8,0:0:0:0:
256,192,201994,1,0,0:0:0:0:
256,192,202078,1,0,0:0:0:0:
256,192,202161,1,8,0:0:0:0:
256,192,202328,1,8,0:0:0:0:
256,192,202494,1,0,0:0:0:0:
256,192,202661,1,8,0:0:0:0:
256,192,202828,1,0,0:0:0:0:
256,192,202994,1,0,0:0:0:0:
256,192,203161,1,8,0:0:0:0:
256,192,203328,1,0,0:0:0:0:
256,192,203494,1,4,0:0:0:0:
256,192,203661,1,8,0:0:0:0:
256,192,203744,1,0,0:0:0:0:
256,192,203994,1,0,0:0:0:0:
256,192,204161,1,8,0:0:0:0:
256,192,204494,1,0,0:0:0:0:
256,192,204578,1,0,0:0:0:0:
256,192,204661,1,8,0:0:0:0:
256,192,204744,1,8,0:0:0:0:
256,192,204828,1,8,0:0:0:0:
256,192,205161,1,0,0:0:0:0:
256,192,205244,1,0,0:0:0:0:
256,192,205328,1,0,0:0:0:0:
256,192,205411,1,0,0:0:0:0:
256,192,205494,1,0,0:0:0:0:
256,192,205828,1,0,0:0:0:0:
256,192,206161,1,8,0:0:0:0:
256,192,206328,1,8,0:0:0:0:
256,192,206494,1,0,0:0:0:0:
256,192,206661,1,8,0:0:0:0:
256,192,206828,1,0,0:0:0:0:
256,192,206994,1,0,0:0:0:0:
256,192,207161,1,8,0:0:0:0:
256,192,207328,1,8,0:0:0:0:
256,192,207411,1,8,0:0:0:0:
256,192,207494,1,0,0:0:0:0:
256,192,207828,1,8,0:0:0:0:
256,192,207994,1,8,0:0:0:0:
256,192,208161,1,0,0:0:0:0:
256,192,208328,1,8,0:0:0:0:
256,192,208494,1,0,0:0:0:0:
256,192,208578,1,0,0:0:0:0:
256,192,208661,1,8,0:0:0:0:
256,192,208828,1,0,0:0:0:0:
256,192,208994,1,8,0:0:0:0:
256,192,209078,1,0,0:0:0:0:
256,192,209161,1,8,0:0:0:0:
256,192,209244,1,8,0:0:0:0:
256,192,209328,1,8,0:0:0:0:
256,192,209494,1,8,0:0:0:0:
256,192,209578,1,8,0:0:0:0:
256,192,209661,1,0,0:0:0:0:
256,192,209828,1,8,0:0:0:0:
256,192,210161,1,0,0:0:0:0:
256,192,210494,1,0,0:0:0:0:
256,192,210661,1,0,0:0:0:0:
256,192,210744,1,0,0:0:0:0:
256,192,210828,1,8,0:0:0:0:
256,192,210994,1,8,0:0:0:0:
256,192,211161,1,0,0:0:0:0:
256,192,211328,1,8,0:0:0:0:
256,192,211494,1,0,0:0:0:0:
256,192,212161,1,8,0:0:0:0:
256,192,212244,1,8,0:0:0:0:
256,192,212328,1,8,0:0:0:0:
256,192,212494,1,0,0:0:0:0:
256,192,212661,1,0,0:0:0:0:
256,192,212744,1,0,0:0:0:0:
256,192,212828,1,8,0:0:0:0:
256,192,212994,1,0,0:0:0:0:
256,192,213078,1,8,0:0:0:0:
256,192,213161,1,0,0:0:0:0:
256,192,213328,1,8,0:0:0:0:
256,192,213494,1,0,0:0:0:0:
256,192,213578,1,0,0:0:0:0:
256,192,213661,1,8,0:0:0:0:
256,192,213828,1,0,0:0:0:0:
256,192,214161,1,8,0:0:0:0:
256,192,214244,1,8,0:0:0:0:
256,192,214328,1,8,0:0:0:0:
256,192,214494,1,0,0:0:0:0:
256,192,214828,1,8,0:0:0:0:
256,192,214994,1,0,0:0:0:0:
256,192,215161,1,8,0:0:0:0:
256,192,215244,1,8,0:0:0:0:
256,192,215328,1,8,0:0:0:0:
256,192,215494,1,4,0:0:0:0:
256,192,215661,1,0,0:0:0:0:
256,192,215828,1,8,0:0:0:0:
256,192,215994,1,0,0:0:0:0:
256,192,216078,1,0,0:0:0:0:
256,192,216161,1,8,0:0:0:0:
256,192,216328,1,8,0:0:0:0:
256,192,216494,1,0,0:0:0:0:
256,192,216578,1,0,0:0:0:0:
256,192,216744,1,0,0:0:0:0:
256,192,216828,1,8,0:0:0:0:
256,192,216994,1,8,0:0:0:0:
256,192,217161,1,0,0:0:0:0:
256,192,217328,1,8,0:0:0:0:
256,192,217494,1,12,0:0:0:0:
256,192,217661,1,12,0:0:0:0:
256,192,217828,1,0,0:0:0:0:
256,192,218161,1,8,0:0:0:0:
256,192,218244,1,0,0:0:0:0:
256,192,218328,1,0,0:0:0:0:
256,192,218411,1,0,0:0:0:0:
256,192,218494,1,8,0:0:0:0:
256,192,218661,1,0,0:0:0:0:
256,192,218828,1,8,0:0:0:0:
256,192,218994,1,8,0:0:0:0:
256,192,219161,1,8,0:0:0:0:
256,192,219494,1,0,0:0:0:0:
256,192,219661,1,0,0:0:0:0:
256,192,219828,1,8,0:0:0:0:
256,192,219994,1,0,0:0:0:0:
256,192,220078,1,0,0:0:0:0:
256,192,220161,1,8,0:0:0:0:
256,192,220328,1,8,0:0:0:0:
256,192,220494,1,0,0:0:0:0:
256,192,220661,1,8,0:0:0:0:
256,192,220744,1,8,0:0:0:0:
256,192,220828,1,0,0:0:0:0:
256,192,220994,1,8,0:0:0:0:
256,192,221161,1,8,0:0:0:0:
256,192,221494,1,0,0:0:0:0:
256,192,221661,1,8,0:0:0:0:
256,192,221828,1,0,0:0:0:0:
256,192,221994,1,8,0:0:0:0:
256,192,222078,1,0,0:0:0:0:
256,192,222161,1,8,0:0:0:0:
256,192,222244,1,8,0:0:0:0:
256,192,222328,1,8,0:0:0:0:
256,192,222494,1,0,0:0:0:0:
256,192,222661,1,0,0:0:0:0:
256,192,222744,1,0,0:0:0:0:
256,192,222828,1,8,0:0:0:0:
256,192,222994,1,0,0:0:0:0:
256,192,223161,1,8,0:0:0:0:
256,192,223494,1,0,0:0:0:0:
256,192,223661,1,8,0:0:0:0:
256,192,223828,1,0,0:0:0:0:
256,192,223911,1,0,0:0:0:0:
256,192,223994,1,8,0:0:0:0:
256,192,224161,1,8,0:0:0:0:
256,192,224328,1,0,0:0:0:0:
256,192,224494,1,8,0:0:0:0:
256,192,224661,1,0,0:0:0:0:
256,192,224744,1,8,0:0:0:0:
256,192,224828,1,0,0:0:0:0:
256,192,224994,1,8,0:0:0:0:
256,192,225078,1,0,0:0:0:0:
256,192,225161,1,8,0:0:0:0:
256,192,225244,1,8,0:0:0:0:
256,192,225328,1,8,0:0:0:0:
256,192,225494,1,0,0:0:0:0:
256,192,225828,1,0,0:0:0:0:
256,192,225994,1,0,0:0:0:0:
256,192,226078,1,0,0:0:0:0:
256,192,226161,1,8,0:0:0:0:
256,192,226494,1,0,0:0:0:0:
256,192,226661,1,8,0:0:0:0:
256,192,226828,1,8,0:0:0:0:
256,192,226994,1,0,0:0:0:0:
256,192,227161,1,8,0:0:0:0:
256,192,227494,1,0,0:0:0:0:
256,192,227661,1,0,0:0:0:0:
256,192,227828,1,8,0:0:0:0:
256,192,228161,1,0,0:0:0:0:
256,192,228244,1,0,0:0:0:0:
256,192,228328,1,0,0:0:0:0:
256,192,228411,1,0,0:0:0:0:
256,192,228494,1,8,0:0:0:0:
256,192,228661,1,0,0:0:0:0:
256,192,228744,1,0,0:0:0:0:
256,192,228828,1,8,0:0:0:0:
256,192,228994,1,0,0:0:0:0:
256,192,229078,1,8,0:0:0:0:
256,192,229161,1,8,0:0:0:0:
256,192,229328,1,8,0:0:0:0:
256,192,229494,1,0,0:0:0:0:
256,192,229661,1,8,0:0:0:0:
256,192,229828,1,0,0:0:0:0:
256,192,230161,1,8,0:0:0:0:
256,192,230244,1,8,0:0:0:0:
256,192,230328,1,8,0:0:0:0:
256,192,230411,1,8,0:0:0:0:
256,192,230494,1,0,0:0:0:0:
256,192,230828,1,8,0:0:0:0:
256,192,230994,1,0,0:0:0:0:
256,192,231161,1,8,0:0:0:0:
256,192,231244,1,0,0:0:0:0:
256,192,231328,1,8,0:0:0:0:
256,192,231411,1,8,0:0:0:0:
256,192,231494,1,0,0:0:0:0:
256,192,231828,1,8,0:0:0:0:
256,192,231994,1,8,0:0:0:0:
256,192,232328,1,8,0:0:0:0:
256,192,232494,1,0,0:0:0:0:
256,192,232578,1,0,0:0:0:0:
256,192,232661,1,8,0:0:0:0:
256,192,232828,1,0,0:0:0:0:
256,192,232994,1,8,0:0:0:0:
256,192,233078,1,0,0:0:0:0:
256,192,233161,1,8,0:0:0:0:
256,192,233244,1,8,0:0:0:0:
256,192,233328,1,8,0:0:0:0:
256,192,233494,1,0,0:0:0:0:
256,192,233661,1,0,0:0:0:0:
256,192,233828,1,8,0:0:0:0:
256,192,233994,1,0,0:0:0:0:
256,192,234078,1,0,0:0:0:0:
256,192,234161,1,0,0:0:0:0:
256,192,234328,1,8,0:0:0:0:
256,192,234494,1,8,0:0:0:0:
256,192,234661,1,0,0:0:0:0:
256,192,234994,1,8,0:0:0:0:
256,192,235328,1,0,0:0:0:0:
256,192,235494,1,8,0:0:0:0:
256,192,235661,1,0,0:0:0:0:
256,192,235828,1,8,0:0:0:0:
256,192,235911,1,8,0:0:0:0:
256,192,235994,1,8,0:0:0:0:
256,192,236078,1,8,0:0:0:0:
256,192,236244,1,8,0:0:0:0:
256,192,236328,1,0,0:0:0:0:
256,192,236411,1,8,0:0:0:0:
256,192,236494,1,0,0:0:0:0:
256,192,236661,1,0,0:0:0:0:
256,192,236744,1,0,0:0:0:0:
256,192,237161,1,8,0:0:0:0:
256,192,237244,1,8,0:0:0:0:
256,192,237328,1,0,0:0:0:0:
256,192,237411,1,0,0:0:0:0:
256,192,237494,1,0,0:0:0:0:
256,192,237828,1,0,0:0:0:0:
256,192,238161,1,8,0:0:0:0:
256,192,238494,1,0,0:0:0:0:
256,192,238661,1,8,0:0:0:0:
256,192,238744,1,8,0:0:0:0:
256,192,238828,1,0,0:0:0:0:
256,192,238994,1,0,0:0:0:0:
256,192,239161,1,8,0:0:0:0:
256,192,239328,1,0,0:0:0:0:
256,192,239411,1,0,0:0:0:0:
256,192,239494,1,0,0:0:0:0:
256,192,239661,1,0,0:0:0:0:
256,192,239828,1,8,0:0:0:0:
256,192,239994,1,8,0:0:0:0:
256,192,240161,1,0,0:0:0:0:
256,192,240328,1,0,0:0:0:0:
256,192,240494,1,8,0:0:0:0:
256,192,240828,1,0,0:0:0:0:
256,192,241078,1,0,0:0:0:0:
256,192,241328,1,8,0:0:0:0:
256,192,241494,1,0,0:0:0:0:
256,192,241994,1,0,0:0:0:0:
256,192,242078,1,0,0:0:0:0:
256,192,242161,1,8,0:0:0:0:
256,192,242244,1,8,0:0:0:0:
256,192,242328,1,0,0:0:0:0:
256,192,242494,1,0,0:0:0:0:
256,192,242828,1,8,0:0:0:0:
256,192,243161,1,8,0:0:0:0:
256,192,243328,1,0,0:0:0:0:
256,192,243661,1,0,0:0:0:0:
256,192,243994,1,0,0:0:0:0:
256,192,244161,1,8,0:0:0:0:
256,192,244328,1,8,0:0:0:0:
256,192,244411,1,8,0:0:0:0:
256,192,244494,1,0,0:0:0:0:
256,192,244828,1,8,0:0:0:0:
256,192,244911,1,0,0:0:0:0:
256,192,244994,1,8,0:0:0:0:
256,192,245161,1,0,0:0:0:0:
256,192,245244,1,0,0:0:0:0:
256,192,245328,1,8,0:0:0:0:
256,192,245494,1,0,0:0:0:0:
256,192,245578,1,0,0:0:0:0:
256,192,245828,1,0,0:0:0:0:
256,192,245994,1,8,0:0:0:0:
256,192,246078,1,8,0:0:0:0:
256,192,246161,1,8,0:0:0:0:
256,192,246244,1,8,0:0:0:0:
256,192,246411,1,8,0:0:0:0:
256,192,246661,1,0,0:0:0:0:
256,192,246828,1,8,0:0:0:0:
256,192,246994,1,0,0:0:0:0:
256,192,247161,1,8,0:0:0:0:
256,192,247328,1,0,0:0:0:0:
256,192,247411,1,0,0:0:0:0:
256,192,247828,1,8,0:0:0:0:
256,192,247994,1,0,0:0:0:0:
256,192,248161,1,8,0:0:0:0:
256,192,248328,1,8,0:0:0:0:
256,192,248494,1,0,0:0:0:0:
256,192,248578,1,0,0:0:0:0:
256,192,248744,1,0,0:0:0:0:
256,192,248994,1,8,0:0:0:0:
256,192,249328,1,0,0:0:0:0:
256,192,249661,1,0,0:0:0:0:
256,192,249911,1,8,0:0:0:0:
256,192,249994,1,8,0:0:0:0:
256,192,250078,1,8,0:0:0:0:
256,192,250161,1,0,0:0:0:0:
256,192,250328,1,8,0:0:0:0:
256,192,250411,1,8,0:0:0:0:
256,192,250494,1,0,0:0:0:0:
256,192,250828,1,0,0:0:0:0:
256,192,251161,1,8,0:0:0:0:
256,192,251328,1,0,0:0:0:0:
256,192,251494,1,0,0:0:0:0:
256,192,251661,1,8,0:0:0:0:
256,192,251744,1,8,0:0:0:0:
256,192,251828,1,0,0:0:0:0:
256,192,252161,1,0,0:0:0:0:
256,192,252328,1,8,0:0:0:0:
256,192,252411,1,8,0:0:0:0:
256,192,252494,1,0,0:0:0:0:
256,192,252828,1,8,0:0:0:0:
256,192,252994,1,8,0:0:0:0:
256,192,253161,1,0,0:0:0:0:
256,192,253328,1,8,0:0:0:0:
256,192,253494,1,0,0:0:0:0:
256,192,253578,1,0,0:0:0:0:
256,192,253661,1,8,0:0:0:0:
256,192,253828,1,0,0:0:0:0:
256,192,253994,1,8,0:0:0:0:
256,192,254078,1,0,0:0:0:0:
256,192,254161,1,8,0:0:0:0:
256,192,254244,1,8,0:0:0:0:
256,192,254411,1,8,0:0:0:0:
256,192,254494,1,0,0:0:0:0:
256,192,254828,1,8,0:0:0:0:
256,192,255078,1,8,0:0:0:0:
256,192,255328,1,8,0:0:0:0:
256,192,255494,1,0,0:0:0:0:
256,192,255828,1,8,0:0:0:0:
256,192,256161,1,0,0:0:0:0:
256,192,256244,1,0,0:0:0:0:
256,192,256328,1,8,0:0:0:0:
256,192,256661,1,0,0:0:0:0:
256,192,257328,1,0,0:0:0:0:
256,192,257411,1,0,0:0:0:0:
256,192,257494,1,8,0:0:0:0:
256,192,257828,1,0,0:0:0:0:
256,192,258161,1,8,0:0:0:0:
256,192,258494,1,8,0:0:0:0:
256,192,258661,1,0,0:0:0:0:
256,192,258828,1,8,0:0:0:0:
256,192,258994,1,8,0:0:0:0:
256,192,259161,1,0,0:0:0:0:
256,192,259494,1,8,0:0:0:0:
256,192,259828,12,0,265494,0:0:0:0:
