osu file format v14

[General]
AudioFilename: audio.mp3
AudioLeadIn: 0
PreviewTime: 98494
Countdown: 0
SampleSet: Normal
StackLeniency: 0.7
Mode: 1
LetterboxInBreaks: 0
WidescreenStoryboard: 0

[Editor]
Bookmarks: 135494
DistanceSpacing: 0.5
BeatDivisor: 4
GridSize: 32
TimelineZoom: 2.1

[Metadata]
Title:endleSSStation
TitleUnicode:endleSSStation
Artist:Yuuyu
ArtistUnicode:ゆうゆ
Creator:Vulkin
Version:Dreamlapse
Source:ゆめにっき
Tags:24CD-0001 STEREO M3-23 ☆24EFFECTS☆ 24EFFECTS Yume Nikki Dream Diary KikiyamaHP ききやま Electronic Instrumental Ulqui
BeatmapID:1304009
BeatmapSetID:602001

[Difficulty]
HPDrainRate:6
CircleSize:6
OverallDifficulty:6
ApproachRate:6
SliderMultiplier:1.4
SliderTickRate:1

[Events]
//Background and Video events
0,0,"train_passenger_by_asusilver-d883co6.jpg",0,0
//Break Periods
//Storyboard Layer 0 (Background)
//Storyboard Layer 1 (Fail)
//Storyboard Layer 2 (Pass)
//Storyboard Layer 3 (Foreground)
//Storyboard Layer 4 (Overlay)
//Storyboard Sound Samples

[TimingPoints]
495,333.333333333333,6,1,0,70,1,0
6494,-100,6,1,0,70,0,0
6661,-105.263157894737,6,1,0,70,0,0
6828,-111.111111111111,6,1,0,70,0,0
6994,-117.647058823529,6,1,0,70,0,0
7161,-125,6,1,0,70,0,0
8161,-125,6,1,0,70,0,0
8328,-117.647058823529,6,1,0,70,0,0
8494,-111.111111111111,6,1,0,70,0,0
8661,-105.263157894737,6,1,0,70,0,0
8828,-100,6,1,0,70,0,0
12494,-66.6666666666667,6,1,0,70,0,0
13494,-100,6,1,0,70,0,0
19494,-100,6,1,0,70,0,0
19661,-105.263157894737,6,1,0,70,0,0
19828,-111.111111111111,6,1,0,70,0,0
19994,-117.647058823529,6,1,0,70,0,0
20161,-125,6,1,0,70,0,0
20494,-125,6,1,0,70,0,0
20661,-111.111111111111,6,1,0,70,0,0
20828,-100,6,1,0,70,0,0
24828,-111.111111111111,6,1,0,70,0,0
26828,-125,6,1,0,70,0,0
30494,-100,6,1,0,80,0,1
34161,-83.3333333333333,6,1,0,80,0,1
34328,-90.9090909090909,6,1,0,80,0,1
34411,-95.2380952380952,6,1,0,80,0,1
34494,-100,6,1,0,80,0,1
50161,-83.3333333333333,6,1,0,80,0,1
50328,-90.9090909090909,6,1,0,80,0,1
50411,-95.2380952380952,6,1,0,80,0,1
50494,-100,6,1,0,80,0,1
62161,-102.040816326531,6,1,0,80,0,1
62244,-104.166666666667,6,1,0,80,0,1
62328,-106.382978723404,6,1,0,80,0,1
62411,-108.695652173913,6,1,0,80,0,1
62494,-111.111111111111,6,1,0,60,0,0
64494,-117.647058823529,6,1,0,60,0,0
66494,-125,6,1,0,60,0,0
68494,-133.333333333333,6,1,0,60,0,0
70494,-111.111111111111,6,1,0,60,0,0
94494,-100,6,1,0,70,0,0
98494,-166.666666666667,6,1,0,50,0,0
114494,-125,6,1,0,60,0,0
122494,-100,6,1,0,70,0,0
130828,-66.6666666666667,6,1,0,40,0,0
132411,-142.857142857143,6,1,0,60,0,0
132494,333.333333333333,9,1,0,60,1,0
132494,-142.857142857143,6,1,0,60,0,0
132661,-125,6,1,0,60,0,0
132994,-111.111111111111,6,1,0,65,0,0
133328,-100,6,1,0,70,0,0
133661,-90.9090909090909,6,1,0,75,0,0
133994,-83.3333333333333,6,1,0,80,0,0
135494,-100,6,1,0,70,0,0
135495,333.333333333333,6,1,0,70,1,0
146328,-98.0392156862745,6,1,0,70,0,0
146411,-96.1538461538461,6,1,0,70,0,0
146494,-94.3396226415094,6,1,0,70,0,0
146578,-92.5925925925926,6,1,0,70,0,0
146661,-90.9090909090909,6,1,0,70,0,0
146744,-89.2857142857143,6,1,0,70,0,0
146828,-87.719298245614,6,1,0,70,0,0
146911,-86.2068965517241,6,1,0,70,0,0
146994,-84.7457627118644,6,1,0,70,0,0
147078,-83.3333333333333,6,1,0,70,0,0
147161,-81.9672131147541,6,1,0,70,0,0
147244,-80.6451612903226,6,1,0,70,0,0
147328,-79.3650793650794,6,1,0,70,0,0
149328,-90.9090909090909,6,1,0,70,0,0
149828,-83.3333333333333,6,1,0,70,0,0
150744,-84.7457627118644,6,1,0,70,0,0
150828,-86.2068965517241,6,1,0,70,0,0
150911,-87.719298245614,6,1,0,70,0,0
150994,-89.2857142857143,6,1,0,70,0,0
151078,-90.9090909090909,6,1,0,70,0,0
151161,-92.5925925925926,6,1,0,70,0,0
151244,-94.3396226415094,6,1,0,70,0,0
151328,-96.1538461538461,6,1,0,70,0,0
151411,-98.0392156862745,6,1,0,70,0,0
151494,-100,6,1,0,70,0,0
167161,-98.0392156862745,6,1,0,72,0,0
167244,-96.1538461538461,6,1,0,74,0,0
167328,-94.3396226415094,6,1,0,76,0,0
167411,-92.5925925925926,6,1,0,78,0,0
167494,-90.9090909090909,6,1,0,80,0,1
174828,-86.9565217391304,6,1,0,80,0,1
174994,-83.3333333333333,6,1,0,80,0,1
175161,-80,6,1,0,80,0,1
175494,-108.695652173913,6,1,0,70,0,0
175661,-106.382978723404,6,1,0,70,0,0
175828,-104.166666666667,6,1,0,70,0,0
175994,-100,6,1,0,70,0,0
176078,-98.0392156862745,6,1,0,70,0,0
176161,-96.1538461538461,6,1,0,70,0,0
176244,-94.3396226415094,6,1,0,70,0,0
176328,-92.5925925925926,6,1,0,70,0,0
176494,-90.9090909090909,6,1,0,80,0,1
178328,-89.2857142857143,6,1,0,80,0,1
178411,-87.719298245614,6,1,0,80,0,1
178494,-86.2068965517241,6,1,0,80,0,1
178578,-84.7457627118644,6,1,0,80,0,1
178661,-83.3333333333333,6,1,0,80,0,1
178744,-81.9672131147541,6,1,0,80,0,1
178828,-80.6451612903226,6,1,0,80,0,1
178911,-79.3650793650794,6,1,0,80,0,1
178994,-78.125,6,1,0,80,0,1
179078,-76.9230769230769,6,1,0,80,0,1
179161,-75.7575757575758,6,1,0,80,0,1
179244,-74.6268656716418,6,1,0,80,0,1
179328,-73.5294117647059,6,1,0,80,0,1
179494,-83.3333333333333,6,1,0,80,0,1
180994,-84.7457627118644,6,1,0,80,0,1
181078,-86.2068965517241,6,1,0,80,0,1
181161,-87.719298245614,6,1,0,80,0,1
181244,-89.2857142857143,6,1,0,80,0,1
181328,-90.9090909090909,6,1,0,80,0,1
181411,-92.5925925925926,6,1,0,80,0,1
181494,-94.3396226415094,6,1,0,80,0,1
181828,-83.3333333333333,6,1,0,80,0,1
182744,-84.0336134453781,6,1,0,80,0,1
182828,-84.7457627118644,6,1,0,80,0,1
182911,-85.4700854700855,6,1,0,80,0,1
182994,-86.2068965517241,6,1,0,80,0,1
183078,-86.9565217391304,6,1,0,80,0,1
183161,-87.719298245614,6,1,0,80,0,1
183244,-88.4955752212389,6,1,0,80,0,1
183328,-89.2857142857143,6,1,0,80,0,1
183411,-90.0900900900901,6,1,0,80,0,1
183494,-90.9090909090909,6,1,0,80,0,1
188883,-90.0900900900901,6,1,0,80,0,1
188939,-89.2857142857143,6,1,0,80,0,1
188994,-88.4955752212389,6,1,0,80,0,1
189050,-87.719298245614,6,1,0,80,0,1
189106,-86.9565217391304,6,1,0,80,0,1
189161,-86.2068965517241,6,1,0,80,0,1
189244,-85.4700854700855,6,1,0,80,0,1
189328,-84.7457627118644,6,1,0,80,0,1
189411,-84.0336134453781,6,1,0,80,0,1
189494,-83.3333333333333,6,1,0,80,0,1
189828,-90.9090909090909,6,1,0,80,0,1
192494,-90.0900900900901,6,1,0,80,0,1
192578,-89.2857142857143,6,1,0,80,0,1
192661,-88.4955752212389,6,1,0,80,0,1
192744,-87.719298245614,6,1,0,80,0,1
192828,-86.9565217391304,6,1,0,80,0,1
192911,-86.2068965517241,6,1,0,80,0,1
192994,-85.4700854700855,6,1,0,80,0,1
193078,-84.7457627118644,6,1,0,80,0,1
193161,-84.0336134453781,6,1,0,80,0,1
193244,-83.3333333333333,6,1,0,80,0,1
193328,-82.6446280991736,6,1,0,80,0,1
193411,-81.9672131147541,6,1,0,80,0,1
193494,-81.3008130081301,6,1,0,80,0,1
193661,-90.9090909090909,6,1,0,80,0,1
196217,-90.0900900900901,6,1,0,80,0,1
196272,-89.2857142857143,6,1,0,80,0,1
196328,-88.4955752212389,6,1,0,80,0,1
196383,-87.719298245614,6,1,0,80,0,1
196439,-86.9565217391304,6,1,0,80,0,1
196494,-86.2068965517241,6,1,0,80,0,1
196661,-83.3333333333333,6,1,0,80,0,1
196828,-90.9090909090909,6,1,0,80,0,1
199161,-102.040816326531,6,1,0,80,0,1
199244,-104.166666666667,6,1,0,80,0,1
199328,-106.382978723404,6,1,0,80,0,1
199411,-108.695652173913,6,1,0,80,0,1
199494,-111.111111111111,6,1,0,70,0,0
214244,-108.695652173913,6,1,0,70,0,0
214328,-106.382978723404,6,1,0,70,0,0
214411,-104.166666666667,6,1,0,70,0,0
214494,-102.040816326531,6,1,0,70,0,0
214828,-100,6,1,0,70,0,0
214994,-98.0392156862745,6,1,0,70,0,0
215078,-96.1538461538461,6,1,0,70,0,0
215161,-94.3396226415094,6,1,0,70,0,0
215244,-92.5925925925926,6,1,0,70,0,0
215328,-90.9090909090909,6,1,0,70,0,0
215494,-90.9090909090909,6,1,0,80,0,1
231494,-90.9090909090909,6,1,0,60,0,0
231661,-92.5925925925926,6,1,0,60,0,0
231828,-94.3396226415094,6,1,0,60,0,0
231994,-96.1538461538461,6,1,0,60,0,0
232161,-98.0392156862745,6,1,0,60,0,0
232328,-100,6,1,0,60,0,0
237661,-105.263157894737,6,1,0,60,0,0
237828,-111.111111111111,6,1,0,60,0,0
237994,-117.647058823529,6,1,0,60,0,0
238161,-125,6,1,0,60,0,0
238328,-133.333333333333,6,1,0,60,0,0
238411,-131.578947368421,6,1,0,60,0,0
238494,-129.87012987013,6,1,0,60,0,0
238577,-128.205128205128,6,1,0,60,0,0
238661,-126.582278481013,6,1,0,60,0,0
238744,-125,6,1,0,60,0,0
238994,-125,6,1,0,60,0,0
239161,-117.647058823529,6,1,0,60,0,0
239328,-111.111111111111,6,1,0,60,0,0
239411,-105.263157894737,6,1,0,60,0,0
239494,-100,6,1,0,60,0,0
243494,-100,6,1,0,40,0,0
244078,-100,6,1,0,60,0,0
257328,-101.010101010101,6,1,0,60,0,0
257383,-102.040816326531,6,1,0,60,0,0
257439,-103.092783505155,6,1,0,60,0,0
257494,-104.166666666667,6,1,0,50,0,0
257828,-111.111111111111,6,1,0,50,0,0
259828,-117.647058823529,6,1,0,40,0,0

[HitObjects]
160,160,495,5,0,0:0:0:0:
160,96,661,5,0,0:0:0:0:
160,160,828,5,8,0:0:0:0:
160,160,994,5,8,0:0:0:0:
192,64,1328,5,0,0:0:0:0:
192,64,1494,5,0,0:0:0:0:
192,64,1578,5,0,0:0:0:0:
192,64,1661,5,8,0:0:0:0:
192,64,1828,5,0,0:0:0:0:
192,64,1994,5,8,0:0:0:0:
256,96,2036,5,0,0:0:0:0:
256,96,2161,5,8,0:0:0:0:
288,96,2244,5,8,0:0:0:0:
288,96,2328,5,8,0:0:0:0:
288,96,2411,5,8,0:0:0:0:
288,96,2494,5,0,0:0:0:0:
160,96,2661,5,0,0:0:0:0:
160,96,2828,5,8,0:0:0:0:
160,96,2994,5,0,0:0:0:0:
96,128,3078,5,0,0:0:0:0:
160,96,3161,5,8,0:0:0:0:
96,128,3244,5,0,0:0:0:0:
96,128,3328,5,8,0:0:0:0:
96,128,3411,5,8,0:0:0:0:
96,128,3494,5,0,0:0:0:0:
192,64,3661,5,0,0:0:0:0:
192,64,3994,5,8,0:0:0:0:
160,64,4161,5,0,0:0:0:0:
224,128,4217,5,8,0:0:0:0:
224,128,4272,5,8,0:0:0:0:
224,128,4328,5,0,0:0:0:0:
224,64,4494,5,4,0:0:0:0:
192,64,4661,5,8,0:0:0:0:
192,64,4744,5,0,0:0:0:0:
160,64,4828,5,8,0:0:0:0:
192,64,4911,5,8,0:0:0:0:
192,64,4994,5,0,0:0:0:0:
160,32,5078,5,8,0:0:0:0:
160,64,5244,5,8,0:0:0:0:
160,64,5328,5,0,0:0:0:0:
160,64,5411,5,0,0:0:0:0:
160,64,5494,5,8,0:0:0:0:
160,64,5578,5,0,0:0:0:0:
160,64,5661,5,8,0:0:0:0:
160,64,5744,5,8,0:0:0:0:
160,64,5828,5,0,0:0:0:0:
192,32,5994,5,8,0:0:0:0:
192,32,6161,5,0,0:0:0:0:
192,32,6244,5,0,0:0:0:0:
192,32,6328,5,0,0:0:0:0:
192,32,6411,5,0,0:0:0:0:
192,32,6494,5,0,0:0:0:0:
192,64,6661,5,0,0:0:0:0:
192,64,6828,5,0,0:0:0:0:
192,64,6994,5,0,0:0:0:0:
192,64,7161,5,0,0:0:0:0:
192,64,7494,5,0,0:0:0:0:
192,64,7661,5,8,0:0:0:0:
192,64,7828,5,0,0:0:0:0:
192,64,8161,5,8,0:0:0:0:
192,64,8328,5,8,0:0:0:0:
192,64,8494,5,0,0:0:0:0:
160,128,8661,5,0,0:0:0:0:
192,64,8828,5,8,0:0:0:0:
160,128,8911,5,0,0:0:0:0:
160,128,8994,5,8,0:0:0:0:
160,128,9078,5,8,0:0:0:0:
192,64,9161,5,0,0:0:0:0:
192,64,9328,5,8,0:0:0:0:
192,64,9494,5,0,0:0:0:0:
192,64,9578,5,0,0:0:0:0:
192,64,9661,5,8,0:0:0:0:
96,128,9744,5,8,0:0:0:0:
96,160,9828,5,0,0:0:0:0:
160,64,9994,5,8,0:0:0:0:
288,128,10036,5,0,0:0:0:0:
160,64,10161,5,8,0:0:0:0:
256,192,10244,5,8,0:0:0:0:
256,192,10328,5,8,0:0:0:0:
256,192,10411,5,8,0:0:0:0:
256,192,10494,5,0,0:0:0:0:
128,96,10578,5,8,0:0:0:0:
192,96,10661,5,0,0:0:0:0:
192,0,10744,5,0,0:0:0:0:
192,64,10828,5,8,0:0:0:0:
192,64,10994,5,0,0:0:0:0:
192,64,11078,5,0,0:0:0:0:
192,64,11161,5,8,0:0:0:0:
192,64,11244,5,0,0:0:0:0:
192,64,11411,5,8,0:0:0:0:
192,96,11494,5,0,0:0:0:0:
192,64,11661,5,0,0:0:0:0:
192,64,11744,5,0,0:0:0:0:
192,64,11828,5,8,0:0:0:0:
160,96,11994,5,8,0:0:0:0:
192,96,12161,5,0,0:0:0:0:
192,64,12244,5,8,0:0:0:0:
192,96,12328,5,8,0:0:0:0:
192,96,12494,5,0,0:0:0:0:
192,64,12828,5,0,0:0:0:0:
192,64,13161,5,8,0:0:0:0:
192,64,13494,5,0,0:0:0:0:
160,32,13578,5,8,0:0:0:0:
160,32,13661,5,0,0:0:0:0:
160,64,13744,5,0,0:0:0:0:
160,64,13828,5,8,0:0:0:0:
160,64,13911,5,8,0:0:0:0:
160,64,13994,5,0,0:0:0:0:
160,64,14078,5,8,0:0:0:0:
160,64,14161,5,0,0:0:0:0:
192,96,14217,5,0,0:0:0:0:
192,96,14272,5,0,0:0:0:0:
192,96,14328,5,0,0:0:0:0:
192,96,14383,5,0,0:0:0:0:
192,96,14439,5,0,0:0:0:0:
160,64,14494,5,8,0:0:0:0:
160,64,14578,5,8,0:0:0:0:
192,64,14661,5,0,0:0:0:0:
192,64,14828,5,0,0:0:0:0:
224,128,14994,5,8,0:0:0:0:
288,128,15036,5,0,0:0:0:0:
224,128,15161,5,8,0:0:0:0:
224,128,15244,5,8,0:0:0:0:
224,128,15328,5,8,0:0:0:0:
224,128,15411,5,8,0:0:0:0:
224,128,15494,5,0,0:0:0:0:
160,128,15661,5,0,0:0:0:0:
160,128,15828,5,8,0:0:0:0:
160,128,15994,5,0,0:0:0:0:
214,39,16078,5,0,0:0:0:0:
160,128,16161,5,8,0:0:0:0:
192,20,16244,5,8,0:0:0:0:
160,128,16328,5,0,0:0:0:0:
160,128,16494,5,12,0:0:0:0:
160,64,16661,5,0,0:0:0:0:
160,32,16744,5,0,0:0:0:0:
160,64,16828,5,8,0:0:0:0:
160,64,16994,5,0,0:0:0:0:
160,64,17078,5,8,0:0:0:0:
160,64,17161,5,0,0:0:0:0:
160,64,17244,5,0,0:0:0:0:
160,64,17328,5,8,0:0:0:0:
224,64,17411,5,0,0:0:0:0:
192,64,17494,5,8,0:0:0:0:
192,64,17536,5,8,0:0:0:0:
192,96,17578,5,0,0:0:0:0:
192,64,17744,5,0,0:0:0:0:
192,32,17994,5,8,0:0:0:0:
192,32,18328,5,0,0:0:0:0:
192,32,18411,5,8,0:0:0:0:
192,32,18494,5,8,0:0:0:0:
192,32,18661,5,8,0:0:0:0:
192,32,18828,5,8,0:0:0:0:
192,64,18911,5,0,0:0:0:0:
192,32,18994,5,8,0:0:0:0:
192,64,19078,5,8,0:0:0:0:
192,32,19161,5,0,0:0:0:0:
192,32,19244,5,8,0:0:0:0:
192,32,19328,5,8,0:0:0:0:
192,32,19411,5,8,0:0:0:0:
192,32,19494,5,0,0:0:0:0:
192,32,19661,5,0,0:0:0:0:
192,32,19828,5,0,0:0:0:0:
192,32,19994,5,0,0:0:0:0:
192,32,20161,5,0,0:0:0:0:
192,32,20494,5,0,0:0:0:0:
224,64,20661,5,8,0:0:0:0:
192,64,20828,5,0,0:0:0:0:
220,28,20911,5,0,0:0:0:0:
192,64,20994,5,0,0:0:0:0:
192,64,21161,5,8,0:0:0:0:
192,64,21328,5,0,0:0:0:0:
184,38,21411,5,8,0:0:0:0:
192,64,21494,5,0,0:0:0:0:
192,96,21661,5,0,0:0:0:0:
192,96,21828,5,8,0:0:0:0:
192,32,21994,5,8,0:0:0:0:
192,32,22161,5,0,0:0:0:0:
160,32,22328,5,8,0:0:0:0:
160,32,22494,5,0,0:0:0:0:
230,48,22578,5,0,0:0:0:0:
192,64,22661,5,8,0:0:0:0:
192,64,22828,5,0,0:0:0:0:
160,32,22994,5,8,0:0:0:0:
288,32,23036,5,0,0:0:0:0:
256,128,23161,5,8,0:0:0:0:
256,128,23244,5,8,0:0:0:0:
192,64,23328,5,8,0:0:0:0:
256,128,23411,5,8,0:0:0:0:
256,128,23494,5,0,0:0:0:0:
224,32,23661,5,0,0:0:0:0:
192,128,23828,5,8,0:0:0:0:
192,0,23911,5,0,0:0:0:0:
192,128,23994,5,0,0:0:0:0:
192,128,24078,5,8,0:0:0:0:
192,128,24161,5,0,0:0:0:0:
192,128,24244,5,0,0:0:0:0:
224,32,24328,5,8,0:0:0:0:
192,128,24411,5,8,0:0:0:0:
192,128,24494,5,0,0:0:0:0:
192,128,24828,5,0,0:0:0:0:
224,64,24994,5,0,0:0:0:0:
160,64,25161,5,0,0:0:0:0:
352,128,25217,5,0,0:0:0:0:
352,128,25272,5,8,0:0:0:0:
160,64,25328,5,0,0:0:0:0:
192,128,25494,5,8,0:0:0:0:
192,64,25828,5,0,0:0:0:0:
224,64,25994,5,0,0:0:0:0:
192,64,26161,5,8,0:0:0:0:
160,96,26328,5,0,0:0:0:0:
160,96,26383,5,8,0:0:0:0:
192,32,26439,5,0,0:0:0:0:
160,96,26494,5,0,0:0:0:0:
192,64,26828,5,0,0:0:0:0:
192,64,27161,5,0,0:0:0:0:
192,64,27494,5,8,0:0:0:0:
192,96,27828,5,0,0:0:0:0:
192,96,28161,5,8,0:0:0:0:
224,64,28661,5,0,0:0:0:0:
192,64,28828,5,0,0:0:0:0:
192,64,29161,5,0,0:0:0:0:
160,96,29494,5,0,0:0:0:0:
192,128,29828,5,8,0:0:0:0:
192,128,29994,5,8,0:0:0:0:
192,128,30161,5,8,0:0:0:0:
192,128,30328,5,8,0:0:0:0:
192,128,30494,5,4,0:0:0:0:
160,128,30661,5,0,0:0:0:0:
160,128,30744,5,0,0:0:0:0:
160,128,30828,5,8,0:0:0:0:
192,64,30994,5,0,0:0:0:0:
192,64,31328,5,0,0:0:0:0:
192,64,31494,5,8,0:0:0:0:
192,96,31578,5,8,0:0:0:0:
192,96,31661,5,0,0:0:0:0:
192,96,31744,5,0,0:0:0:0:
192,96,31828,5,8,0:0:0:0:
160,96,31994,5,0,0:0:0:0:
160,96,32078,5,0,0:0:0:0:
160,96,32161,5,8,0:0:0:0:
192,64,32328,5,0,0:0:0:0:
192,64,32411,5,8,0:0:0:0:
192,64,32494,5,0,0:0:0:0:
192,64,32661,5,0,0:0:0:0:
192,64,32828,5,8,0:0:0:0:
192,96,32911,5,8,0:0:0:0:
192,96,32994,5,0,0:0:0:0:
192,96,33078,5,8,0:0:0:0:
192,96,33161,5,0,0:0:0:0:
192,96,33244,5,0,0:0:0:0:
192,96,33328,5,8,0:0:0:0:
192,96,33411,5,8,0:0:0:0:
192,96,33494,5,0,0:0:0:0:
160,64,33661,5,0,0:0:0:0:
160,64,33828,5,8,0:0:0:0:
160,64,33994,5,0,0:0:0:0:
160,64,34161,5,8,0:0:0:0:
192,64,34328,5,0,0:0:0:0:
192,64,34411,5,8,0:0:0:0:
192,32,34494,5,0,0:0:0:0:
160,128,34661,5,0,0:0:0:0:
160,128,34744,5,0,0:0:0:0:
160,128,34828,5,8,0:0:0:0:
192,96,34911,5,8,0:0:0:0:
192,96,34994,5,0,0:0:0:0:
160,64,35161,5,8,0:0:0:0:
160,96,35328,5,0,0:0:0:0:
160,96,35494,5,0,0:0:0:0:
160,64,35578,5,0,0:0:0:0:
160,64,35661,5,8,0:0:0:0:
160,32,35828,5,0,0:0:0:0:
160,32,35911,5,0,0:0:0:0:
160,32,35994,5,8,0:0:0:0:
160,32,36078,5,0,0:0:0:0:
160,32,36161,5,8,0:0:0:0:
160,64,36244,5,8,0:0:0:0:
160,64,36328,5,8,0:0:0:0:
160,64,36411,5,8,0:0:0:0:
160,64,36494,5,4,0:0:0:0:
128,64,36661,5,0,0:0:0:0:
128,64,36828,5,8,0:0:0:0:
160,64,36994,5,0,0:0:0:0:
128,64,37244,5,0,0:0:0:0:
128,64,37328,5,0,0:0:0:0:
128,64,37411,5,0,0:0:0:0:
128,64,37494,5,8,0:0:0:0:
192,64,37661,5,0,0:0:0:0:
192,64,37828,5,8,0:0:0:0:
192,64,37994,5,0,0:0:0:0:
192,64,38161,5,8,0:0:0:0:
192,64,38244,5,0,0:0:0:0:
192,64,38328,5,8,0:0:0:0:
192,64,38411,5,8,0:0:0:0:
192,64,38494,5,0,0:0:0:0:
160,64,38661,5,0,0:0:0:0:
160,64,38744,5,0,0:0:0:0:
160,64,38828,5,8,0:0:0:0:
160,64,38994,5,0,0:0:0:0:
160,64,39328,5,0,0:0:0:0:
160,64,39494,5,8,0:0:0:0:
160,64,39578,5,8,0:0:0:0:
160,64,39661,5,0,0:0:0:0:
160,64,39744,5,0,0:0:0:0:
160,64,39828,5,8,0:0:0:0:
192,64,39994,5,0,0:0:0:0:
192,64,40078,5,0,0:0:0:0:
192,64,40161,5,8,0:0:0:0:
192,64,40244,5,8,0:0:0:0:
192,64,40328,5,0,0:0:0:0:
192,64,40411,5,8,0:0:0:0:
192,64,40494,5,0,0:0:0:0:
192,64,40661,5,0,0:0:0:0:
192,64,40744,5,0,0:0:0:0:
160,64,40828,5,8,0:0:0:0:
160,96,40911,5,8,0:0:0:0:
160,64,40994,5,0,0:0:0:0:
160,64,41078,5,8,0:0:0:0:
192,32,41161,5,0,0:0:0:0:
192,64,41244,5,0,0:0:0:0:
192,32,41328,5,8,0:0:0:0:
192,32,41411,5,0,0:0:0:0:
192,32,41494,5,8,0:0:0:0:
192,64,41578,5,0,0:0:0:0:
192,64,41661,5,8,0:0:0:0:
192,64,41744,5,0,0:0:0:0:
192,64,41828,5,8,0:0:0:0:
192,32,41911,5,0,0:0:0:0:
192,64,41994,5,8,0:0:0:0:
192,64,42078,5,8,0:0:0:0:
192,64,42161,5,0,0:0:0:0:
192,32,42244,5,8,0:0:0:0:
192,32,42328,5,0,0:0:0:0:
216,36,42411,5,0,0:0:0:0:
196,52,42494,5,8,0:0:0:0:
196,52,42578,5,8,0:0:0:0:
161,27,42661,5,0,0:0:0:0:
219,142,42717,5,0,0:0:0:0:
219,142,42772,5,0,0:0:0:0:
161,27,42828,5,8,0:0:0:0:
192,128,42994,5,8,0:0:0:0:
192,128,43161,5,0,0:0:0:0:
192,64,43328,5,8,0:0:0:0:
192,32,43494,5,0,0:0:0:0:
192,32,43661,5,0,0:0:0:0:
288,96,43717,5,8,0:0:0:0:
288,96,43772,5,8,0:0:0:0:
192,32,43828,5,0,0:0:0:0:
192,96,44494,5,0,0:0:0:0:
192,96,44828,5,8,0:0:0:0:
192,96,44911,5,0,0:0:0:0:
192,96,44994,5,0,0:0:0:0:
192,96,45078,5,8,0:0:0:0:
192,96,45161,5,0,0:0:0:0:
192,96,45244,5,0,0:0:0:0:
192,96,45328,5,8,0:0:0:0:
192,96,45411,5,0,0:0:0:0:
192,96,45494,5,8,0:0:0:0:
192,64,45578,5,8,0:0:0:0:
192,64,45661,5,8,0:0:0:0:
192,64,45744,5,8,0:0:0:0:
192,64,45828,5,0,0:0:0:0:
192,32,45911,5,0,0:0:0:0:
160,32,45994,5,0,0:0:0:0:
192,32,46078,5,0,0:0:0:0:
160,32,46161,5,8,0:0:0:0:
160,32,46244,5,0,0:0:0:0:
160,32,46328,5,8,0:0:0:0:
160,32,46411,5,8,0:0:0:0:
160,32,46494,5,0,0:0:0:0:
192,192,46661,5,0,0:0:0:0:
192,32,46744,5,0,0:0:0:0:
192,192,46828,5,8,0:0:0:0:
192,128,46994,5,0,0:0:0:0:
192,128,47161,5,0,0:0:0:0:
192,128,47244,5,8,0:0:0:0:
192,128,47328,5,0,0:0:0:0:
192,128,47411,5,0,0:0:0:0:
192,128,47494,5,8,0:0:0:0:
192,96,47578,5,8,0:0:0:0:
192,96,47661,5,0,0:0:0:0:
192,96,47744,5,8,0:0:0:0:
192,96,47828,5,0,0:0:0:0:
192,32,47994,5,0,0:0:0:0:
192,32,48078,5,8,0:0:0:0:
192,32,48161,5,8,0:0:0:0:
192,64,48328,5,0,0:0:0:0:
192,64,48411,5,8,0:0:0:0:
192,64,48494,5,0,0:0:0:0:
192,64,48661,5,0,0:0:0:0:
192,64,48828,5,0,0:0:0:0:
192,64,48911,5,8,0:0:0:0:
192,64,48994,5,8,0:0:0:0:
192,64,49078,5,0,0:0:0:0:
192,64,49161,5,8,0:0:0:0:
192,96,49244,5,8,0:0:0:0:
224,96,49328,5,0,0:0:0:0:
224,96,49411,5,8,0:0:0:0:
224,96,49494,5,0,0:0:0:0:
224,64,49661,5,0,0:0:0:0:
224,64,49828,5,8,0:0:0:0:
256,64,49994,5,0,0:0:0:0:
256,64,50161,5,8,0:0:0:0:
224,32,50328,5,8,0:0:0:0:
224,32,50411,5,8,0:0:0:0:
192,64,50494,5,0,0:0:0:0:
192,160,50661,5,0,0:0:0:0:
192,160,50744,5,0,0:0:0:0:
192,160,50828,5,8,0:0:0:0:
192,128,50994,5,0,0:0:0:0:
192,96,51494,5,0,0:0:0:0:
192,96,51578,5,0,0:0:0:0:
192,96,51661,5,8,0:0:0:0:
192,96,51828,5,0,0:0:0:0:
192,96,51994,5,0,0:0:0:0:
192,96,52078,5,0,0:0:0:0:
192,96,52161,5,8,0:0:0:0:
192,96,52244,5,8,0:0:0:0:
192,96,52328,5,8,0:0:0:0:
192,96,52411,5,0,0:0:0:0:
192,96,52494,5,8,0:0:0:0:
224,96,52661,5,8,0:0:0:0:
192,96,52828,5,0,0:0:0:0:
160,64,53161,5,0,0:0:0:0:
160,64,53244,5,0,0:0:0:0:
160,64,53328,5,0,0:0:0:0:
160,64,53411,5,0,0:0:0:0:
160,64,53494,5,8,0:0:0:0:
192,64,53661,5,0,0:0:0:0:
192,64,53828,5,8,0:0:0:0:
192,64,53994,5,8,0:0:0:0:
192,64,54161,5,8,0:0:0:0:
160,64,54328,5,0,0:0:0:0:
160,64,54494,5,8,0:0:0:0:
160,64,54578,5,8,0:0:0:0:
160,32,54661,5,0,0:0:0:0:
192,64,54744,5,0,0:0:0:0:
160,32,54828,5,8,0:0:0:0:
160,32,54994,5,0,0:0:0:0:
160,64,55328,5,0,0:0:0:0:
160,64,55494,5,8,0:0:0:0:
160,96,55661,5,0,0:0:0:0:
160,96,55744,5,0,0:0:0:0:
160,96,55828,5,8,0:0:0:0:
192,64,55911,5,0,0:0:0:0:
160,96,55994,5,0,0:0:0:0:
160,96,56078,5,8,0:0:0:0:
160,96,56161,5,8,0:0:0:0:
192,64,56328,5,8,0:0:0:0:
192,64,56411,5,0,0:0:0:0:
192,32,56494,5,0,0:0:0:0:
192,96,56661,5,0,0:0:0:0:
192,96,56828,5,8,0:0:0:0:
160,96,56911,5,8,0:0:0:0:
160,96,56994,5,0,0:0:0:0:
160,96,57078,5,8,0:0:0:0:
160,96,57161,5,0,0:0:0:0:
192,32,57244,5,0,0:0:0:0:
192,32,57328,5,8,0:0:0:0:
192,32,57411,5,0,0:0:0:0:
192,64,57494,5,8,0:0:0:0:
192,128,57578,5,8,0:0:0:0:
192,128,57661,5,0,0:0:0:0:
192,128,57744,5,0,0:0:0:0:
192,128,57828,5,8,0:0:0:0:
192,64,57911,5,8,0:0:0:0:
192,64,57994,5,0,0:0:0:0:
192,64,58078,5,8,0:0:0:0:
192,64,58161,5,0,0:0:0:0:
192,32,58244,5,8,0:0:0:0:
192,32,58328,5,0,0:0:0:0:
201,24,58411,5,0,0:0:0:0:
224,96,58494,5,8,0:0:0:0:
224,96,58578,5,8,0:0:0:0:
224,96,58661,5,0,0:0:0:0:
85,162,58717,5,0,0:0:0:0:
85,162,58772,5,0,0:0:0:0:
224,96,58828,5,8,0:0:0:0:
224,96,58994,5,8,0:0:0:0:
224,96,59161,5,0,0:0:0:0:
192,32,59328,5,8,0:0:0:0:
224,64,59494,5,0,0:0:0:0:
224,64,59661,5,8,0:0:0:0:
192,96,59717,5,0,0:0:0:0:
192,96,59772,5,0,0:0:0:0:
192,96,59828,5,8,0:0:0:0:
160,128,60828,5,8,0:0:0:0:
160,128,60911,5,8,0:0:0:0:
160,128,60994,5,0,0:0:0:0:
160,128,61078,5,8,0:0:0:0:
160,128,61161,5,0,0:0:0:0:
160,128,61244,5,0,0:0:0:0:
160,128,61328,5,8,0:0:0:0:
160,128,61411,5,0,0:0:0:0:
160,128,61494,5,0,0:0:0:0:
160,128,61578,5,0,0:0:0:0:
160,128,61661,5,8,0:0:0:0:
160,128,61744,5,8,0:0:0:0:
160,128,61828,5,0,0:0:0:0:
192,32,61994,5,0,0:0:0:0:
192,32,62161,5,8,0:0:0:0:
192,32,62244,5,8,0:0:0:0:
192,32,62328,5,8,0:0:0:0:
192,32,62411,5,8,0:0:0:0:
231,39,62494,5,0,0:0:0:0:
116,152,62828,5,0,0:0:0:0:
116,152,63161,5,8,0:0:0:0:
121,150,63494,5,0,0:0:0:0:
167,70,63578,5,0,0:0:0:0:
151,77,63744,5,0,0:0:0:0:
122,150,63828,5,8,0:0:0:0:
166,83,63994,5,0,0:0:0:0:
166,83,64161,5,8,0:0:0:0:
205,69,64494,5,0,0:0:0:0:
199,79,64661,5,8,0:0:0:0:
199,76,64828,5,0,0:0:0:0:
199,77,65161,5,8,0:0:0:0:
196,81,65494,5,0,0:0:0:0:
199,79,65661,5,0,0:0:0:0:
196,82,65828,5,8,0:0:0:0:
180,57,65994,5,8,0:0:0:0:
180,57,66161,5,0,0:0:0:0:
171,72,66494,5,0,0:0:0:0:
157,82,66828,5,0,0:0:0:0:
157,84,67161,5,8,0:0:0:0:
161,85,67494,5,0,0:0:0:0:
161,84,67578,5,8,0:0:0:0:
161,85,67661,5,0,0:0:0:0:
162,52,67744,5,8,0:0:0:0:
173,47,67828,5,0,0:0:0:0:
173,47,67994,5,8,0:0:0:0:
173,47,68161,5,0,0:0:0:0:
163,57,68494,5,0,0:0:0:0:
164,57,68828,5,8,0:0:0:0:
179,71,68994,5,0,0:0:0:0:
163,57,69161,5,8,0:0:0:0:
180,72,69494,5,0,0:0:0:0:
180,72,69661,5,0,0:0:0:0:
179,73,69828,5,8,0:0:0:0:
145,107,69994,5,8,0:0:0:0:
145,107,70161,5,0,0:0:0:0:
145,107,70494,5,0,0:0:0:0:
145,107,70828,5,0,0:0:0:0:
149,109,71161,5,8,0:0:0:0:
150,108,71494,5,0,0:0:0:0:
150,108,71578,5,0,0:0:0:0:
150,108,71661,5,8,0:0:0:0:
162,67,71828,5,0,0:0:0:0:
162,67,71994,5,8,0:0:0:0:
162,67,72161,5,0,0:0:0:0:
176,45,72494,5,0,0:0:0:0:
176,46,72828,5,0,0:0:0:0:
176,46,73161,5,8,0:0:0:0:
176,45,73272,5,8,0:0:0:0:
256,192,73494,12,0,78328,0:0:0:0:
222,107,78494,5,0,0:0:0:0:
167,173,78661,5,0,0:0:0:0:
167,173,78828,5,8,0:0:0:0:
204,97,79161,5,8,0:0:0:0:
207,122,79494,5,0,0:0:0:0:
207,122,79578,5,0,0:0:0:0:
207,122,79661,5,0,0:0:0:0:
198,43,79744,5,0,0:0:0:0:
207,122,79828,5,8,0:0:0:0:
194,107,79994,5,0,0:0:0:0:
178,47,80078,5,0,0:0:0:0:
194,107,80161,5,8,0:0:0:0:
195,72,80494,5,0,0:0:0:0:
178,91,80661,5,0,0:0:0:0:
178,91,80828,5,8,0:0:0:0:
177,92,81161,5,8,0:0:0:0:
178,91,81494,5,0,0:0:0:0:
150,109,81661,5,0,0:0:0:0:
150,109,81828,5,8,0:0:0:0:
150,109,81994,5,8,0:0:0:0:
150,109,82161,5,0,0:0:0:0:
167,85,82494,5,0,0:0:0:0:
167,85,82661,5,0,0:0:0:0:
167,85,82828,5,8,0:0:0:0:
178,82,83161,5,8,0:0:0:0:
163,111,83494,5,0,0:0:0:0:
170,107,83578,5,0,0:0:0:0:
163,111,83661,5,8,0:0:0:0:
170,107,83744,5,0,0:0:0:0:
163,111,83828,5,8,0:0:0:0:
183,52,83994,5,0,0:0:0:0:
183,52,84078,5,8,0:0:0:0:
183,52,84161,5,8,0:0:0:0:
199,59,84494,5,0,0:0:0:0:
151,82,84661,5,0,0:0:0:0:
151,82,84828,5,8,0:0:0:0:
151,82,84994,5,0,0:0:0:0:
176,65,85161,5,8,0:0:0:0:
179,107,85494,5,0,0:0:0:0:
179,107,85661,5,0,0:0:0:0:
179,107,85828,5,8,0:0:0:0:
203,75,85994,5,8,0:0:0:0:
203,75,86161,5,0,0:0:0:0:
187,64,86494,5,0,0:0:0:0:
206,69,86661,5,0,0:0:0:0:
188,66,86828,5,8,0:0:0:0:
188,66,87161,5,8,0:0:0:0:
206,91,87494,5,0,0:0:0:0:
206,90,87578,5,0,0:0:0:0:
206,90,87661,5,0,0:0:0:0:
178,68,87744,5,0,0:0:0:0:
206,91,87828,5,8,0:0:0:0:
187,58,87994,5,0,0:0:0:0:
186,48,88078,5,8,0:0:0:0:
187,58,88161,5,8,0:0:0:0:
187,70,88494,5,0,0:0:0:0:
186,82,88661,5,0,0:0:0:0:
186,82,88828,5,8,0:0:0:0:
168,89,89161,5,8,0:0:0:0:
173,90,89494,5,0,0:0:0:0:
173,90,89661,5,0,0:0:0:0:
173,90,89828,5,8,0:0:0:0:
187,70,89994,5,8,0:0:0:0:
187,70,90161,5,0,0:0:0:0:
186,82,90494,5,0,0:0:0:0:
176,79,90661,5,0,0:0:0:0:
187,82,90828,5,8,0:0:0:0:
187,82,91161,5,8,0:0:0:0:
181,90,91494,5,0,0:0:0:0:
194,87,91578,5,0,0:0:0:0:
194,87,91661,5,8,0:0:0:0:
194,87,91744,5,0,0:0:0:0:
181,90,91828,5,8,0:0:0:0:
178,47,91994,5,0,0:0:0:0:
178,47,92078,5,0,0:0:0:0:
178,47,92161,5,8,0:0:0:0:
192,75,92494,5,0,0:0:0:0:
177,84,92661,5,0,0:0:0:0:
177,84,92828,5,8,0:0:0:0:
196,27,92994,5,0,0:0:0:0:
197,55,93161,5,8,0:0:0:0:
179,72,93494,5,0,0:0:0:0:
179,72,93661,5,0,0:0:0:0:
179,72,93828,5,8,0:0:0:0:
195,92,93994,5,8,0:0:0:0:
195,92,94161,5,0,0:0:0:0:
178,66,94494,5,0,0:0:0:0:
122,107,94661,5,0,0:0:0:0:
122,107,94828,5,8,0:0:0:0:
122,107,94994,5,8,0:0:0:0:
167,115,95328,5,8,0:0:0:0:
167,115,95494,5,0,0:0:0:0:
167,115,95578,5,0,0:0:0:0:
167,115,95661,5,8,0:0:0:0:
181,82,95828,5,0,0:0:0:0:
181,82,95994,5,8,0:0:0:0:
199,67,96036,5,0,0:0:0:0:
177,67,96161,5,8,0:0:0:0:
173,55,96244,5,8,0:0:0:0:
174,55,96328,5,8,0:0:0:0:
173,55,96411,5,8,0:0:0:0:
173,55,96494,5,0,0:0:0:0:
180,48,96661,5,0,0:0:0:0:
180,48,96828,5,8,0:0:0:0:
204,59,96994,5,0,0:0:0:0:
204,59,97078,5,0,0:0:0:0:
204,59,97161,5,8,0:0:0:0:
176,49,97328,5,0,0:0:0:0:
173,55,97494,5,8,0:0:0:0:
175,68,97578,5,0,0:0:0:0:
175,68,97661,5,8,0:0:0:0:
175,68,97744,5,0,0:0:0:0:
175,68,97828,5,8,0:0:0:0:
175,68,97911,5,8,0:0:0:0:
200,32,97994,5,8,0:0:0:0:
200,32,98078,5,0,0:0:0:0:
102,65,98494,5,8,0:0:0:0:
145,157,99161,5,0,0:0:0:0:
145,157,99828,5,0,0:0:0:0:
145,157,100494,5,8,0:0:0:0:
145,157,100828,5,0,0:0:0:0:
145,157,101161,5,0,0:0:0:0:
145,157,101494,5,0,0:0:0:0:
145,157,101828,5,0,0:0:0:0:
145,157,102161,5,0,0:0:0:0:
145,157,102494,5,8,0:0:0:0:
168,92,103161,5,0,0:0:0:0:
168,92,103828,5,0,0:0:0:0:
168,92,104494,5,8,0:0:0:0:
181,88,106494,5,8,0:0:0:0:
181,88,107161,5,0,0:0:0:0:
181,88,107828,5,0,0:0:0:0:
181,88,108494,5,8,0:0:0:0:
181,88,108828,5,0,0:0:0:0:
181,88,109161,5,0,0:0:0:0:
181,88,109494,5,0,0:0:0:0:
181,88,109828,5,8,0:0:0:0:
181,68,110494,5,8,0:0:0:0:
166,102,111161,5,0,0:0:0:0:
166,102,111828,5,0,0:0:0:0:
166,102,112494,5,8,0:0:0:0:
166,102,113161,5,0,0:0:0:0:
138,87,114494,5,8,0:0:0:0:
132,100,114828,5,0,0:0:0:0:
207,105,115161,5,8,0:0:0:0:
207,105,115328,5,8,0:0:0:0:
201,119,115661,5,0,0:0:0:0:
201,119,115828,5,8,0:0:0:0:
201,112,115994,5,8,0:0:0:0:
196,64,116161,5,0,0:0:0:0:
200,87,116494,5,8,0:0:0:0:
166,107,116828,5,0,0:0:0:0:
166,107,117161,5,8,0:0:0:0:
166,107,117328,5,8,0:0:0:0:
176,95,117661,5,8,0:0:0:0:
176,95,117828,5,0,0:0:0:0:
167,92,117994,5,0,0:0:0:0:
167,92,118161,5,8,0:0:0:0:
166,82,118494,5,8,0:0:0:0:
183,119,118828,5,0,0:0:0:0:
183,119,119161,5,8,0:0:0:0:
183,119,119328,5,8,0:0:0:0:
185,72,119661,5,0,0:0:0:0:
185,72,119828,5,8,0:0:0:0:
185,72,119994,5,8,0:0:0:0:
185,72,120161,5,0,0:0:0:0:
168,87,120494,5,8,0:0:0:0:
168,87,120828,5,0,0:0:0:0:
168,87,121161,5,8,0:0:0:0:
168,87,121328,5,8,0:0:0:0:
171,95,121661,5,8,0:0:0:0:
171,95,121828,5,0,0:0:0:0:
171,95,121994,5,0,0:0:0:0:
171,95,122161,5,8,0:0:0:0:
224,64,122494,5,0,0:0:0:0:
192,160,122661,5,0,0:0:0:0:
192,160,122828,5,8,0:0:0:0:
192,160,122994,5,8,0:0:0:0:
192,160,123161,5,0,0:0:0:0:
224,64,123328,5,8,0:0:0:0:
224,64,123494,5,0,0:0:0:0:
224,128,123578,5,0,0:0:0:0:
224,128,123661,5,8,0:0:0:0:
224,96,123828,5,0,0:0:0:0:
224,96,123994,5,8,0:0:0:0:
224,96,124036,5,0,0:0:0:0:
224,96,124161,5,8,0:0:0:0:
224,96,124244,5,8,0:0:0:0:
224,96,124328,5,8,0:0:0:0:
224,96,124411,5,8,0:0:0:0:
224,96,124494,5,0,0:0:0:0:
192,96,124994,5,0,0:0:0:0:
192,96,125078,5,0,0:0:0:0:
192,96,125161,5,8,0:0:0:0:
192,64,125328,5,8,0:0:0:0:
192,64,125494,5,0,0:0:0:0:
192,96,125828,5,8,0:0:0:0:
192,96,125994,5,8,0:0:0:0:
192,96,126161,5,0,0:0:0:0:
160,64,126328,5,0,0:0:0:0:
160,64,126494,5,8,0:0:0:0:
160,192,126994,5,0,0:0:0:0:
160,192,127161,5,8,0:0:0:0:
160,192,127328,5,8,0:0:0:0:
160,192,127494,5,0,0:0:0:0:
192,96,127578,5,8,0:0:0:0:
160,64,127661,5,0,0:0:0:0:
160,64,127828,5,8,0:0:0:0:
160,64,127994,5,8,0:0:0:0:
160,64,128161,5,0,0:0:0:0:
160,64,128328,5,8,0:0:0:0:
160,64,128494,5,0,0:0:0:0:
192,96,128661,5,8,0:0:0:0:
192,96,128744,5,8,0:0:0:0:
192,96,128828,5,0,0:0:0:0:
320,96,128994,5,8,0:0:0:0:
320,96,129036,5,0,0:0:0:0:
288,64,129161,5,8,0:0:0:0:
288,64,129244,5,8,0:0:0:0:
288,64,129328,5,8,0:0:0:0:
288,64,129411,5,8,0:0:0:0:
288,64,129494,5,0,0:0:0:0:
192,64,129661,5,0,0:0:0:0:
192,64,129828,5,8,0:0:0:0:
192,96,129994,5,0,0:0:0:0:
192,96,130078,5,0,0:0:0:0:
192,96,130161,5,8,0:0:0:0:
192,64,130244,5,8,0:0:0:0:
160,96,130328,5,0,0:0:0:0:
192,64,130411,5,8,0:0:0:0:
256,192,130828,12,0,132328,0:0:0:0:
192,64,132494,5,8,0:0:0:0:
192,64,132661,5,0,0:0:0:0:
192,64,132744,5,0,0:0:0:0:
192,64,132828,5,8,0:0:0:0:
192,64,132994,5,0,0:0:0:0:
192,64,133078,5,0,0:0:0:0:
192,64,133161,5,8,0:0:0:0:
192,64,133328,5,0,0:0:0:0:
192,64,133411,5,0,0:0:0:0:
192,64,133494,5,8,0:0:0:0:
192,64,133661,5,0,0:0:0:0:
192,64,133744,5,0,0:0:0:0:
192,64,133828,5,8,0:0:0:0:
192,64,133994,5,8,0:0:0:0:
192,64,134161,5,0,0:0:0:0:
224,96,134244,5,0,0:0:0:0:
193,42,134328,5,8,0:0:0:0:
193,42,134369,5,0,0:0:0:0:
249,25,134411,5,0,0:0:0:0:
192,64,134494,5,8,0:0:0:0:
256,192,135494,5,4,0:0:0:0:
256,192,135661,5,8,0:0:0:0:
256,192,135744,5,0,0:0:0:0:
256,192,135828,5,8,0:0:0:0:
256,192,135994,5,0,0:0:0:0:
256,192,136328,5,0,0:0:0:0:
256,192,136494,5,8,0:0:0:0:
256,192,136661,5,0,0:0:0:0:
256,192,136744,5,8,0:0:0:0:
256,192,136828,5,8,0:0:0:0:
256,192,136994,5,0,0:0:0:0:
256,192,137078,5,8,0:0:0:0:
256,192,137161,5,8,0:0:0:0:
256,192,137328,5,8,0:0:0:0:
256,192,137411,5,0,0:0:0:0:
256,192,137494,5,0,0:0:0:0:
256,192,137661,5,0,0:0:0:0:
256,192,137828,5,8,0:0:0:0:
256,192,137911,5,8,0:0:0:0:
256,192,137994,5,0,0:0:0:0:
256,192,138078,5,8,0:0:0:0:
256,192,138161,5,0,0:0:0:0:
256,192,138244,5,0,0:0:0:0:
256,192,138328,5,8,0:0:0:0:
256,192,138411,5,8,0:0:0:0:
256,192,138494,5,0,0:0:0:0:
256,192,138661,5,0,0:0:0:0:
256,192,138828,5,8,0:0:0:0:
256,192,138994,5,0,0:0:0:0:
256,192,139161,5,8,0:0:0:0:
256,192,139328,5,8,0:0:0:0:
256,192,139411,5,8,0:0:0:0:
256,192,139494,5,0,0:0:0:0:
256,192,139661,5,0,0:0:0:0:
256,192,139828,5,8,0:0:0:0:
256,192,139994,5,0,0:0:0:0:
256,192,140328,5,8,0:0:0:0:
256,192,140494,5,0,0:0:0:0:
256,192,140578,5,8,0:0:0:0:
256,192,140744,5,8,0:0:0:0:
256,192,140828,5,0,0:0:0:0:
256,192,140994,5,8,0:0:0:0:
256,192,141078,5,0,0:0:0:0:
256,192,141161,5,8,0:0:0:0:
256,192,141244,5,8,0:0:0:0:
256,192,141328,5,0,0:0:0:0:
256,192,141411,5,0,0:0:0:0:
256,192,141494,5,12,0:0:0:0:
256,192,141661,5,12,0:0:0:0:
256,192,141828,5,0,0:0:0:0:
256,192,141994,5,8,0:0:0:0:
256,192,142161,5,0,0:0:0:0:
256,192,142244,5,0,0:0:0:0:
256,192,142328,5,0,0:0:0:0:
256,192,142411,5,0,0:0:0:0:
256,192,142494,5,8,0:0:0:0:
256,192,142661,5,0,0:0:0:0:
256,192,142828,5,8,0:0:0:0:
256,192,142994,5,8,0:0:0:0:
256,192,143161,5,8,0:0:0:0:
256,192,143494,5,0,0:0:0:0:
256,192,143661,5,0,0:0:0:0:
256,192,143828,5,8,0:0:0:0:
256,192,143994,5,0,0:0:0:0:
256,192,144078,5,8,0:0:0:0:
256,192,144161,5,8,0:0:0:0:
256,192,144244,5,8,0:0:0:0:
256,192,144328,5,0,0:0:0:0:
256,192,144494,5,8,0:0:0:0:
256,192,144661,5,0,0:0:0:0:
256,192,144744,5,8,0:0:0:0:
256,192,144828,5,8,0:0:0:0:
256,192,144994,5,0,0:0:0:0:
256,192,145078,5,8,0:0:0:0:
256,192,145161,5,8,0:0:0:0:
256,192,145328,5,8,0:0:0:0:
256,192,145411,5,8,0:0:0:0:
256,192,145494,5,0,0:0:0:0:
256,192,145661,5,0,0:0:0:0:
256,192,145828,5,8,0:0:0:0:
256,192,145911,5,8,0:0:0:0:
256,192,145994,5,0,0:0:0:0:
256,192,146078,5,8,0:0:0:0:
256,192,146161,5,0,0:0:0:0:
256,192,146244,5,0,0:0:0:0:
256,192,146328,5,8,0:0:0:0:
256,192,146411,5,0,0:0:0:0:
256,192,146494,5,8,0:0:0:0:
256,192,146578,5,0,0:0:0:0:
256,192,146661,5,8,0:0:0:0:
256,192,146744,5,0,0:0:0:0:
256,192,146828,5,8,0:0:0:0:
256,192,146911,5,0,0:0:0:0:
256,192,146994,5,8,0:0:0:0:
256,192,147078,5,0,0:0:0:0:
256,192,147161,5,8,0:0:0:0:
256,192,147244,5,8,0:0:0:0:
256,192,147328,5,0,0:0:0:0:
256,192,147494,5,8,0:0:0:0:
256,192,147578,5,8,0:0:0:0:
256,192,147661,5,0,0:0:0:0:
256,192,147703,5,0,0:0:0:0:
256,192,147744,5,0,0:0:0:0:
256,192,147828,5,8,0:0:0:0:
256,192,147994,5,8,0:0:0:0:
256,192,148161,5,0,0:0:0:0:
256,192,148328,5,8,0:0:0:0:
256,192,148411,5,8,0:0:0:0:
256,192,148494,5,0,0:0:0:0:
256,192,148661,5,8,0:0:0:0:
256,192,148703,5,8,0:0:0:0:
256,192,148744,5,8,0:0:0:0:
256,192,149328,5,0,0:0:0:0:
256,192,149828,5,8,0:0:0:0:
256,192,149911,5,8,0:0:0:0:
256,192,149994,5,0,0:0:0:0:
256,192,150078,5,8,0:0:0:0:
256,192,150161,5,8,0:0:0:0:
256,192,150244,5,0,0:0:0:0:
256,192,150328,5,8,0:0:0:0:
256,192,150411,5,8,0:0:0:0:
256,192,150494,5,0,0:0:0:0:
256,192,150536,5,0,0:0:0:0:
256,192,150578,5,0,0:0:0:0:
256,192,150661,5,8,0:0:0:0:
256,192,150744,5,8,0:0:0:0:
256,192,150828,5,8,0:0:0:0:
256,192,150911,5,8,0:0:0:0:
256,192,150994,5,8,0:0:0:0:
256,192,151078,5,8,0:0:0:0:
256,192,151161,5,8,0:0:0:0:
256,192,151244,5,8,0:0:0:0:
256,192,151328,5,8,0:0:0:0:
256,192,151411,5,8,0:0:0:0:
256,192,151494,5,4,0:0:0:0:
256,192,151661,5,0,0:0:0:0:
256,192,151744,5,0,0:0:0:0:
256,192,151828,5,8,0:0:0:0:
256,192,151994,5,0,0:0:0:0:
256,192,152161,5,0,0:0:0:0:
256,192,152244,5,8,0:0:0:0:
256,192,152328,5,0,0:0:0:0:
256,192,152411,5,0,0:0:0:0:
256,192,152494,5,8,0:0:0:0:
256,192,152578,5,8,0:0:0:0:
256,192,152661,5,0,0:0:0:0:
256,192,152744,5,8,0:0:0:0:
256,192,152828,5,8,0:0:0:0:
256,192,152911,5,0,0:0:0:0:
256,192,152994,5,0,0:0:0:0:
256,192,153078,5,8,0:0:0:0:
256,192,153161,5,8,0:0:0:0:
256,192,153328,5,8,0:0:0:0:
256,192,153411,5,8,0:0:0:0:
256,192,153494,5,0,0:0:0:0:
256,192,153661,5,0,0:0:0:0:
256,192,153828,5,8,0:0:0:0:
256,192,153911,5,8,0:0:0:0:
256,192,153994,5,0,0:0:0:0:
256,192,154078,5,8,0:0:0:0:
256,192,154161,5,0,0:0:0:0:
256,192,154244,5,0,0:0:0:0:
256,192,154328,5,8,0:0:0:0:
256,192,154411,5,8,0:0:0:0:
256,192,154494,5,0,0:0:0:0:
256,192,154661,5,0,0:0:0:0:
256,192,154828,5,8,0:0:0:0:
256,192,154994,5,0,0:0:0:0:
256,192,155161,5,8,0:0:0:0:
256,192,155328,5,0,0:0:0:0:
256,192,155411,5,8,0:0:0:0:
256,192,155494,5,0,0:0:0:0:
256,192,155661,5,0,0:0:0:0:
256,192,155828,5,8,0:0:0:0:
256,192,155994,5,0,0:0:0:0:
256,192,156494,5,0,0:0:0:0:
256,192,156578,5,8,0:0:0:0:
256,192,156828,5,0,0:0:0:0:
256,192,156994,5,8,0:0:0:0:
256,192,157078,5,0,0:0:0:0:
256,192,157161,5,8,0:0:0:0:
256,192,157244,5,8,0:0:0:0:
256,192,157328,5,8,0:0:0:0:
256,192,157411,5,0,0:0:0:0:
256,192,157494,5,12,0:0:0:0:
256,192,157661,5,12,0:0:0:0:
256,192,157994,5,0,0:0:0:0:
256,192,158244,5,0,0:0:0:0:
256,192,158328,5,0,0:0:0:0:
256,192,158411,5,0,0:0:0:0:
256,192,158494,5,8,0:0:0:0:
256,192,158661,5,0,0:0:0:0:
256,192,158828,5,8,0:0:0:0:
256,192,158994,5,8,0:0:0:0:
256,192,159161,5,8,0:0:0:0:
256,192,159494,5,0,0:0:0:0:
256,192,159578,5,8,0:0:0:0:
256,192,159661,5,0,0:0:0:0:
256,192,159744,5,8,0:0:0:0:
256,192,159828,5,8,0:0:0:0:
256,192,159911,5,0,0:0:0:0:
256,192,159994,5,8,0:0:0:0:
256,192,160078,5,8,0:0:0:0:
256,192,160161,5,0,0:0:0:0:
256,192,160244,5,0,0:0:0:0:
256,192,160328,5,8,0:0:0:0:
256,192,160369,5,8,0:0:0:0:
256,192,160411,5,0,0:0:0:0:
256,192,160494,5,8,0:0:0:0:
256,192,160578,5,8,0:0:0:0:
256,192,160661,5,8,0:0:0:0:
256,192,160744,5,0,0:0:0:0:
256,192,160828,5,8,0:0:0:0:
256,192,160994,5,0,0:0:0:0:
256,192,161078,5,8,0:0:0:0:
256,192,161161,5,8,0:0:0:0:
256,192,161328,5,8,0:0:0:0:
256,192,161411,5,8,0:0:0:0:
256,192,161494,5,0,0:0:0:0:
256,192,161661,5,0,0:0:0:0:
256,192,161828,5,8,0:0:0:0:
256,192,161911,5,8,0:0:0:0:
256,192,161994,5,0,0:0:0:0:
256,192,162078,5,8,0:0:0:0:
256,192,162161,5,0,0:0:0:0:
256,192,162328,5,8,0:0:0:0:
256,192,162411,5,0,0:0:0:0:
256,192,162494,5,8,0:0:0:0:
256,192,162578,5,8,0:0:0:0:
256,192,162744,5,8,0:0:0:0:
256,192,162828,5,0,0:0:0:0:
256,192,163161,5,8,0:0:0:0:
256,192,163244,5,8,0:0:0:0:
256,192,163328,5,0,0:0:0:0:
256,192,163411,5,0,0:0:0:0:
256,192,163494,5,8,0:0:0:0:
256,192,163578,5,8,0:0:0:0:
256,192,163661,5,0,0:0:0:0:
256,192,163703,5,0,0:0:0:0:
256,192,163744,5,0,0:0:0:0:
256,192,163828,5,8,0:0:0:0:
256,192,163994,5,8,0:0:0:0:
256,192,164161,5,0,0:0:0:0:
256,192,164217,5,0,0:0:0:0:
256,192,164272,5,0,0:0:0:0:
256,192,164328,5,8,0:0:0:0:
256,192,164383,5,8,0:0:0:0:
256,192,164439,5,8,0:0:0:0:
256,192,164494,5,0,0:0:0:0:
256,192,164661,5,8,0:0:0:0:
256,192,164703,5,8,0:0:0:0:
256,192,164744,5,8,0:0:0:0:
256,192,165494,5,0,0:0:0:0:
256,192,165828,5,12,0:0:0:0:
256,192,166161,5,0,0:0:0:0:
256,192,166244,5,0,0:0:0:0:
256,192,166328,5,0,0:0:0:0:
256,192,166411,5,0,0:0:0:0:
256,192,166494,5,8,0:0:0:0:
256,192,166828,5,0,0:0:0:0:
256,192,167161,5,8,0:0:0:0:
256,192,167244,5,0,0:0:0:0:
256,192,167328,5,8,0:0:0:0:
256,192,167411,5,8,0:0:0:0:
256,192,167494,5,4,0:0:0:0:
256,192,167661,5,0,0:0:0:0:
256,192,167744,5,0,0:0:0:0:
256,192,167828,5,8,0:0:0:0:
256,192,167994,5,0,0:0:0:0:
256,192,168328,5,0,0:0:0:0:
256,192,168494,5,8,0:0:0:0:
256,192,168578,5,0,0:0:0:0:
256,192,168661,5,0,0:0:0:0:
256,192,168744,5,8,0:0:0:0:
256,192,168828,5,8,0:0:0:0:
256,192,168911,5,0,0:0:0:0:
256,192,168994,5,0,0:0:0:0:
256,192,169078,5,8,0:0:0:0:
256,192,169161,5,8,0:0:0:0:
256,192,169328,5,8,0:0:0:0:
256,192,169411,5,0,0:0:0:0:
256,192,169494,5,0,0:0:0:0:
256,192,169661,5,0,0:0:0:0:
256,192,169828,5,8,0:0:0:0:
256,192,169911,5,0,0:0:0:0:
256,192,169994,5,8,0:0:0:0:
256,192,170078,5,8,0:0:0:0:
256,192,170161,5,0,0:0:0:0:
256,192,170244,5,0,0:0:0:0:
256,192,170328,5,8,0:0:0:0:
256,192,170411,5,0,0:0:0:0:
256,192,170494,5,0,0:0:0:0:
256,192,170661,5,0,0:0:0:0:
256,192,170828,5,8,0:0:0:0:
256,192,170994,5,0,0:0:0:0:
256,192,171161,5,8,0:0:0:0:
256,192,171328,5,0,0:0:0:0:
256,192,171411,5,8,0:0:0:0:
256,192,171494,5,0,0:0:0:0:
256,192,171661,5,0,0:0:0:0:
256,192,171744,5,0,0:0:0:0:
256,192,171828,5,8,0:0:0:0:
256,192,171994,5,0,0:0:0:0:
256,192,172161,5,0,0:0:0:0:
256,192,172244,5,8,0:0:0:0:
256,192,172328,5,8,0:0:0:0:
256,192,172494,5,0,0:0:0:0:
256,192,172578,5,8,0:0:0:0:
256,192,172744,5,8,0:0:0:0:
256,192,172828,5,0,0:0:0:0:
256,192,172994,5,8,0:0:0:0:
256,192,173078,5,0,0:0:0:0:
256,192,173161,5,8,0:0:0:0:
256,192,173244,5,8,0:0:0:0:
256,192,173328,5,0,0:0:0:0:
256,192,173411,5,0,0:0:0:0:
256,192,173494,5,12,0:0:0:0:
256,192,173661,5,12,0:0:0:0:
256,192,173828,5,0,0:0:0:0:
256,192,173994,5,8,0:0:0:0:
256,192,174161,5,0,0:0:0:0:
256,192,174244,5,0,0:0:0:0:
256,192,174328,5,0,0:0:0:0:
256,192,174411,5,0,0:0:0:0:
256,192,174494,5,8,0:0:0:0:
256,192,174661,5,0,0:0:0:0:
256,192,174828,5,8,0:0:0:0:
256,192,174994,5,8,0:0:0:0:
256,192,175161,5,8,0:0:0:0:
256,192,175494,5,0,0:0:0:0:
256,192,175661,5,0,0:0:0:0:
256,192,175828,5,8,0:0:0:0:
256,192,175994,5,0,0:0:0:0:
256,192,176078,5,8,0:0:0:0:
256,192,176161,5,8,0:0:0:0:
256,192,176244,5,8,0:0:0:0:
256,192,176328,5,0,0:0:0:0:
256,192,176494,5,8,0:0:0:0:
256,192,176578,5,0,0:0:0:0:
256,192,176661,5,0,0:0:0:0:
256,192,176744,5,8,0:0:0:0:
256,192,176828,5,8,0:0:0:0:
256,192,176911,5,0,0:0:0:0:
256,192,176994,5,0,0:0:0:0:
256,192,177078,5,8,0:0:0:0:
256,192,177161,5,8,0:0:0:0:
256,192,177328,5,8,0:0:0:0:
256,192,177411,5,8,0:0:0:0:
256,192,177494,5,0,0:0:0:0:
256,192,177661,5,0,0:0:0:0:
256,192,177828,5,8,0:0:0:0:
256,192,177911,5,0,0:0:0:0:
256,192,177994,5,8,0:0:0:0:
256,192,178078,5,8,0:0:0:0:
256,192,178161,5,0,0:0:0:0:
256,192,178244,5,0,0:0:0:0:
256,192,178328,5,8,0:0:0:0:
256,192,178411,5,0,0:0:0:0:
256,192,178494,5,8,0:0:0:0:
256,192,178578,5,0,0:0:0:0:
256,192,178661,5,8,0:0:0:0:
256,192,178744,5,0,0:0:0:0:
256,192,178828,5,8,0:0:0:0:
256,192,178911,5,0,0:0:0:0:
256,192,178994,5,8,0:0:0:0:
256,192,179078,5,0,0:0:0:0:
256,192,179161,5,8,0:0:0:0:
256,192,179244,5,0,0:0:0:0:
256,192,179328,5,0,0:0:0:0:
256,192,179494,5,8,0:0:0:0:
256,192,179578,5,8,0:0:0:0:
256,192,179661,5,0,0:0:0:0:
256,192,179703,5,0,0:0:0:0:
256,192,179744,5,0,0:0:0:0:
256,192,179828,5,8,0:0:0:0:
256,192,179911,5,0,0:0:0:0:
256,192,179994,5,8,0:0:0:0:
256,192,180161,5,0,0:0:0:0:
256,192,180328,5,8,0:0:0:0:
256,192,180494,5,0,0:0:0:0:
256,192,180661,5,8,0:0:0:0:
256,192,180703,5,8,0:0:0:0:
256,192,180744,5,8,0:0:0:0:
256,192,180994,5,8,0:0:0:0:
256,192,181078,5,0,0:0:0:0:
256,192,181161,5,8,0:0:0:0:
256,192,181244,5,8,0:0:0:0:
256,192,181328,5,0,0:0:0:0:
256,192,181411,5,8,0:0:0:0:
256,192,181494,5,0,0:0:0:0:
256,192,181828,5,8,0:0:0:0:
256,192,181911,5,8,0:0:0:0:
256,192,181994,5,0,0:0:0:0:
256,192,182078,5,8,0:0:0:0:
256,192,182161,5,8,0:0:0:0:
256,192,182244,5,0,0:0:0:0:
256,192,182328,5,8,0:0:0:0:
256,192,182411,5,8,0:0:0:0:
256,192,182494,5,0,0:0:0:0:
256,192,182536,5,0,0:0:0:0:
256,192,182578,5,8,0:0:0:0:
256,192,182661,5,8,0:0:0:0:
256,192,182744,5,8,0:0:0:0:
256,192,182828,5,8,0:0:0:0:
256,192,182911,5,8,0:0:0:0:
256,192,182994,5,8,0:0:0:0:
256,192,183078,5,8,0:0:0:0:
256,192,183161,5,8,0:0:0:0:
256,192,183244,5,8,0:0:0:0:
256,192,183328,5,8,0:0:0:0:
256,192,183411,5,8,0:0:0:0:
256,192,183494,5,0,0:0:0:0:
256,192,183661,5,8,0:0:0:0:
256,192,183744,5,0,0:0:0:0:
256,192,183828,5,8,0:0:0:0:
256,192,183994,5,0,0:0:0:0:
256,192,184161,5,0,0:0:0:0:
256,192,184244,5,8,0:0:0:0:
256,192,184328,5,0,0:0:0:0:
256,192,184411,5,0,0:0:0:0:
256,192,184494,5,8,0:0:0:0:
256,192,184578,5,8,0:0:0:0:
256,192,184661,5,0,0:0:0:0:
256,192,184744,5,8,0:0:0:0:
256,192,184828,5,8,0:0:0:0:
256,192,184911,5,0,0:0:0:0:
256,192,184994,5,0,0:0:0:0:
256,192,185078,5,8,0:0:0:0:
256,192,185161,5,8,0:0:0:0:
256,192,185328,5,8,0:0:0:0:
256,192,185411,5,8,0:0:0:0:
256,192,185494,5,0,0:0:0:0:
256,192,185661,5,0,0:0:0:0:
256,192,185828,5,8,0:0:0:0:
256,192,185911,5,8,0:0:0:0:
256,192,185994,5,0,0:0:0:0:
256,192,186078,5,8,0:0:0:0:
256,192,186161,5,0,0:0:0:0:
256,192,186244,5,8,0:0:0:0:
256,192,186328,5,0,0:0:0:0:
256,192,186494,5,0,0:0:0:0:
256,192,186661,5,0,0:0:0:0:
256,192,186828,5,8,0:0:0:0:
256,192,186994,5,0,0:0:0:0:
256,192,187161,5,8,0:0:0:0:
256,192,187203,5,8,0:0:0:0:
256,192,187244,5,8,0:0:0:0:
256,192,187494,5,0,0:0:0:0:
256,192,187661,5,0,0:0:0:0:
256,192,187744,5,0,0:0:0:0:
256,192,187828,5,8,0:0:0:0:
256,192,188161,5,0,0:0:0:0:
256,192,188494,5,8,0:0:0:0:
256,192,188578,5,0,0:0:0:0:
256,192,188661,5,8,0:0:0:0:
256,192,188744,5,8,0:0:0:0:
256,192,188828,5,0,0:0:0:0:
256,192,188883,5,0,0:0:0:0:
256,192,188939,5,0,0:0:0:0:
256,192,188994,5,0,0:0:0:0:
256,192,189050,5,0,0:0:0:0:
256,192,189106,5,0,0:0:0:0:
256,192,189161,5,8,0:0:0:0:
256,192,189244,5,8,0:0:0:0:
256,192,189328,5,0,0:0:0:0:
256,192,189411,5,0,0:0:0:0:
256,192,189494,5,12,0:0:0:0:
256,192,189661,5,12,0:0:0:0:
256,192,189828,5,0,0:0:0:0:
256,192,189994,5,8,0:0:0:0:
256,192,190161,5,0,0:0:0:0:
256,192,190244,5,0,0:0:0:0:
256,192,190328,5,0,0:0:0:0:
256,192,190411,5,0,0:0:0:0:
256,192,190494,5,8,0:0:0:0:
256,192,190661,5,0,0:0:0:0:
256,192,190828,5,8,0:0:0:0:
256,192,190994,5,8,0:0:0:0:
256,192,191161,5,8,0:0:0:0:
256,192,191494,5,0,0:0:0:0:
256,192,191578,5,8,0:0:0:0:
256,192,191661,5,0,0:0:0:0:
256,192,191744,5,8,0:0:0:0:
256,192,191828,5,8,0:0:0:0:
256,192,191911,5,0,0:0:0:0:
256,192,191994,5,8,0:0:0:0:
256,192,192078,5,8,0:0:0:0:
256,192,192161,5,0,0:0:0:0:
256,192,192244,5,0,0:0:0:0:
256,192,192328,5,8,0:0:0:0:
256,192,192369,5,8,0:0:0:0:
256,192,192411,5,0,0:0:0:0:
256,192,192494,5,8,0:0:0:0:
256,192,192578,5,0,0:0:0:0:
256,192,192661,5,8,0:0:0:0:
256,192,192744,5,0,0:0:0:0:
256,192,192828,5,8,0:0:0:0:
256,192,192994,5,0,0:0:0:0:
256,192,193078,5,0,0:0:0:0:
256,192,193161,5,8,0:0:0:0:
256,192,193328,5,8,0:0:0:0:
256,192,193411,5,8,0:0:0:0:
256,192,193494,5,0,0:0:0:0:
256,192,193661,5,0,0:0:0:0:
256,192,193828,5,8,0:0:0:0:
256,192,193911,5,8,0:0:0:0:
256,192,193994,5,0,0:0:0:0:
256,192,194078,5,8,0:0:0:0:
256,192,194161,5,0,0:0:0:0:
256,192,194244,5,0,0:0:0:0:
256,192,194328,5,8,0:0:0:0:
256,192,194494,5,8,0:0:0:0:
256,192,194578,5,8,0:0:0:0:
256,192,194661,5,0,0:0:0:0:
256,192,194828,5,8,0:0:0:0:
256,192,195161,5,8,0:0:0:0:
256,192,195244,5,0,0:0:0:0:
256,192,195328,5,0,0:0:0:0:
256,192,195411,5,0,0:0:0:0:
256,192,195494,5,8,0:0:0:0:
256,192,195578,5,8,0:0:0:0:
256,192,195661,5,0,0:0:0:0:
256,192,195703,5,0,0:0:0:0:
256,192,195744,5,0,0:0:0:0:
256,192,195828,5,8,0:0:0:0:
256,192,195994,5,8,0:0:0:0:
256,192,196161,5,0,0:0:0:0:
256,192,196217,5,0,0:0:0:0:
256,192,196272,5,0,0:0:0:0:
256,192,196328,5,0,0:0:0:0:
256,192,196383,5,0,0:0:0:0:
256,192,196439,5,0,0:0:0:0:
256,192,196494,5,8,0:0:0:0:
256,192,196661,5,8,0:0:0:0:
256,192,196703,5,8,0:0:0:0:
256,192,196744,5,8,0:0:0:0:
256,192,197828,5,12,0:0:0:0:
256,192,198161,5,0,0:0:0:0:
256,192,198244,5,0,0:0:0:0:
256,192,198328,5,0,0:0:0:0:
256,192,198411,5,0,0:0:0:0:
256,192,198494,5,8,0:0:0:0:
256,192,198606,5,8,0:0:0:0:
256,192,198717,5,8,0:0:0:0:
256,192,198828,5,0,0:0:0:0:
256,192,198994,5,0,0:0:0:0:
256,192,199161,5,8,0:0:0:0:
256,192,199244,5,0,0:0:0:0:
256,192,199328,5,8,0:0:0:0:
256,192,199411,5,8,0:0:0:0:
256,192,199494,5,0,0:0:0:0:
256,192,199828,5,8,0:0:0:0:
256,192,199994,5,8,0:0:0:0:
256,192,200161,5,0,0:0:0:0:
256,192,200328,5,8,0:0:0:0:
256,192,200494,5,0,0:0:0:0:
256,192,200578,5,0,0:0:0:0:
256,192,200661,5,8,0:0:0:0:
256,192,200828,5,0,0:0:0:0:
256,192,200994,5,8,0:0:0:0:
256,192,201036,5,8,0:0:0:0:
256,192,201078,5,8,0:0:0:0:
256,192,201161,5,8,0:0:0:0:
256,192,201244,5,8,0:0:0:0:
256,192,201328,5,8,0:0:0:0:
256,192,201411,5,8,0:0:0:0:
256,192,201494,5,0,0:0:0:0:
256,192,201661,5,0,0:0:0:0:
256,192,201828,5,8,0:0:0:0:
256,192,201994,5,0,0:0:0:0:
256,192,202078,5,0,0:0:0:0:
256,192,202161,5,8,0:0:0:0:
256,192,202328,5,8,0:0:0:0:
256,192,202494,5,0,0:0:0:0:
256,192,202661,5,0,0:0:0:0:
256,192,202828,5,8,0:0:0:0:
256,192,203161,5,0,0:0:0:0:
256,192,203217,5,0,0:0:0:0:
256,192,203272,5,0,0:0:0:0:
256,192,203328,5,8,0:0:0:0:
256,192,203494,5,4,0:0:0:0:
256,192,203661,5,8,0:0:0:0:
256,192,203744,5,0,0:0:0:0:
256,192,203994,5,0,0:0:0:0:
256,192,204161,5,8,0:0:0:0:
256,192,204244,5,0,0:0:0:0:
256,192,204328,5,8,0:0:0:0:
256,192,204494,5,0,0:0:0:0:
256,192,204578,5,8,0:0:0:0:
256,192,204661,5,8,0:0:0:0:
256,192,204744,5,0,0:0:0:0:
256,192,204828,5,8,0:0:0:0:
256,192,205161,5,0,0:0:0:0:
256,192,205244,5,0,0:0:0:0:
256,192,205328,5,0,0:0:0:0:
256,192,205411,5,0,0:0:0:0:
256,192,205494,5,0,0:0:0:0:
256,192,205661,5,0,0:0:0:0:
256,192,205828,5,8,0:0:0:0:
256,192,206161,5,8,0:0:0:0:
256,192,206328,5,0,0:0:0:0:
256,192,206494,5,8,0:0:0:0:
256,192,206661,5,8,0:0:0:0:
256,192,206744,5,8,0:0:0:0:
256,192,206828,5,0,0:0:0:0:
256,192,206994,5,0,0:0:0:0:
256,192,207161,5,8,0:0:0:0:
256,192,207328,5,0,0:0:0:0:
256,192,207411,5,8,0:0:0:0:
256,192,207494,5,0,0:0:0:0:
256,192,207828,5,8,0:0:0:0:
256,192,207994,5,8,0:0:0:0:
256,192,208161,5,0,0:0:0:0:
256,192,208328,5,8,0:0:0:0:
256,192,208494,5,0,0:0:0:0:
256,192,208578,5,0,0:0:0:0:
256,192,208661,5,8,0:0:0:0:
256,192,208828,5,0,0:0:0:0:
256,192,208994,5,8,0:0:0:0:
256,192,209036,5,8,0:0:0:0:
256,192,209078,5,8,0:0:0:0:
256,192,209161,5,8,0:0:0:0:
256,192,209244,5,8,0:0:0:0:
256,192,209328,5,0,0:0:0:0:
256,192,209411,5,0,0:0:0:0:
256,192,209494,5,8,0:0:0:0:
256,192,209578,5,8,0:0:0:0:
256,192,209661,5,0,0:0:0:0:
256,192,209828,5,8,0:0:0:0:
256,192,209994,5,0,0:0:0:0:
256,192,210078,5,0,0:0:0:0:
256,192,210161,5,8,0:0:0:0:
256,192,210244,5,0,0:0:0:0:
256,192,210328,5,0,0:0:0:0:
256,192,210494,5,0,0:0:0:0:
256,192,210661,5,8,0:0:0:0:
256,192,210744,5,8,0:0:0:0:
256,192,210828,5,8,0:0:0:0:
256,192,210911,5,0,0:0:0:0:
256,192,210994,5,8,0:0:0:0:
256,192,211161,5,0,0:0:0:0:
256,192,211328,5,8,0:0:0:0:
256,192,211494,5,0,0:0:0:0:
256,192,212161,5,8,0:0:0:0:
256,192,212217,5,8,0:0:0:0:
256,192,212272,5,8,0:0:0:0:
256,192,212328,5,8,0:0:0:0:
256,192,212383,5,8,0:0:0:0:
256,192,212439,5,8,0:0:0:0:
256,192,212494,5,0,0:0:0:0:
256,192,212578,5,0,0:0:0:0:
256,192,212661,5,0,0:0:0:0:
256,192,212744,5,0,0:0:0:0:
256,192,212828,5,8,0:0:0:0:
256,192,212911,5,8,0:0:0:0:
256,192,212994,5,0,0:0:0:0:
256,192,213078,5,8,0:0:0:0:
256,192,213161,5,0,0:0:0:0:
256,192,213328,5,8,0:0:0:0:
256,192,213494,5,0,0:0:0:0:
256,192,213578,5,0,0:0:0:0:
256,192,213661,5,8,0:0:0:0:
256,192,213828,5,0,0:0:0:0:
256,192,214161,5,8,0:0:0:0:
256,192,214244,5,8,0:0:0:0:
256,192,214328,5,8,0:0:0:0:
256,192,214411,5,8,0:0:0:0:
256,192,214494,5,0,0:0:0:0:
256,192,214828,5,8,0:0:0:0:
256,192,214994,5,0,0:0:0:0:
256,192,215078,5,0,0:0:0:0:
256,192,215161,5,8,0:0:0:0:
256,192,215244,5,0,0:0:0:0:
256,192,215328,5,8,0:0:0:0:
256,192,215494,5,4,0:0:0:0:
256,192,215661,5,0,0:0:0:0:
256,192,215828,5,8,0:0:0:0:
256,192,215994,5,8,0:0:0:0:
256,192,216078,5,0,0:0:0:0:
256,192,216161,5,8,0:0:0:0:
256,192,216244,5,8,0:0:0:0:
256,192,216328,5,0,0:0:0:0:
256,192,216494,5,8,0:0:0:0:
256,192,216536,5,8,0:0:0:0:
256,192,216578,5,8,0:0:0:0:
256,192,216661,5,0,0:0:0:0:
256,192,216744,5,0,0:0:0:0:
256,192,216828,5,8,0:0:0:0:
256,192,216994,5,0,0:0:0:0:
256,192,217328,5,8,0:0:0:0:
256,192,217411,5,0,0:0:0:0:
256,192,217494,5,12,0:0:0:0:
256,192,217661,5,12,0:0:0:0:
256,192,217828,5,8,0:0:0:0:
256,192,218161,5,8,0:0:0:0:
256,192,218244,5,0,0:0:0:0:
256,192,218328,5,0,0:0:0:0:
256,192,218411,5,0,0:0:0:0:
256,192,218494,5,8,0:0:0:0:
256,192,218661,5,0,0:0:0:0:
256,192,218828,5,8,0:0:0:0:
256,192,218994,5,8,0:0:0:0:
256,192,219161,5,0,0:0:0:0:
256,192,219328,5,8,0:0:0:0:
256,192,219411,5,8,0:0:0:0:
256,192,219494,5,0,0:0:0:0:
256,192,219661,5,8,0:0:0:0:
256,192,219828,5,0,0:0:0:0:
256,192,219911,5,0,0:0:0:0:
256,192,219994,5,8,0:0:0:0:
256,192,220161,5,8,0:0:0:0:
256,192,220328,5,8,0:0:0:0:
256,192,220411,5,8,0:0:0:0:
256,192,220494,5,0,0:0:0:0:
256,192,220578,5,8,0:0:0:0:
256,192,220661,5,0,0:0:0:0:
256,192,220744,5,0,0:0:0:0:
256,192,220828,5,8,0:0:0:0:
256,192,220994,5,8,0:0:0:0:
256,192,221078,5,0,0:0:0:0:
256,192,221161,5,8,0:0:0:0:
256,192,221328,5,8,0:0:0:0:
256,192,221494,5,0,0:0:0:0:
256,192,221578,5,0,0:0:0:0:
256,192,221661,5,8,0:0:0:0:
256,192,221828,5,0,0:0:0:0:
256,192,221994,5,8,0:0:0:0:
256,192,222036,5,8,0:0:0:0:
256,192,222078,5,8,0:0:0:0:
256,192,222161,5,8,0:0:0:0:
256,192,222244,5,8,0:0:0:0:
256,192,222328,5,8,0:0:0:0:
256,192,222411,5,8,0:0:0:0:
256,192,222494,5,0,0:0:0:0:
256,192,222661,5,0,0:0:0:0:
256,192,222828,5,8,0:0:0:0:
256,192,222994,5,0,0:0:0:0:
256,192,223078,5,0,0:0:0:0:
256,192,223161,5,8,0:0:0:0:
256,192,223328,5,0,0:0:0:0:
256,192,223411,5,8,0:0:0:0:
256,192,223494,5,0,0:0:0:0:
256,192,223828,5,8,0:0:0:0:
256,192,223994,5,8,0:0:0:0:
256,192,224161,5,0,0:0:0:0:
256,192,224328,5,8,0:0:0:0:
256,192,224494,5,0,0:0:0:0:
256,192,224578,5,8,0:0:0:0:
256,192,224661,5,0,0:0:0:0:
256,192,224744,5,0,0:0:0:0:
256,192,224828,5,8,0:0:0:0:
256,192,224994,5,8,0:0:0:0:
256,192,225036,5,8,0:0:0:0:
256,192,225078,5,8,0:0:0:0:
256,192,225161,5,8,0:0:0:0:
256,192,225244,5,8,0:0:0:0:
256,192,225328,5,8,0:0:0:0:
256,192,225411,5,8,0:0:0:0:
256,192,225494,5,0,0:0:0:0:
256,192,225828,5,8,0:0:0:0:
256,192,225994,5,0,0:0:0:0:
256,192,226078,5,0,0:0:0:0:
256,192,226161,5,8,0:0:0:0:
256,192,226244,5,0,0:0:0:0:
256,192,226328,5,8,0:0:0:0:
256,192,226494,5,0,0:0:0:0:
256,192,226661,5,8,0:0:0:0:
256,192,226744,5,8,0:0:0:0:
256,192,226828,5,8,0:0:0:0:
256,192,226994,5,8,0:0:0:0:
256,192,227161,5,0,0:0:0:0:
256,192,227328,5,0,0:0:0:0:
256,192,227411,5,8,0:0:0:0:
256,192,227494,5,0,0:0:0:0:
256,192,227828,5,0,0:0:0:0:
256,192,228161,5,8,0:0:0:0:
256,192,228217,5,8,0:0:0:0:
256,192,228272,5,8,0:0:0:0:
256,192,228328,5,8,0:0:0:0:
256,192,228383,5,8,0:0:0:0:
256,192,228439,5,8,0:0:0:0:
256,192,228494,5,0,0:0:0:0:
256,192,228578,5,0,0:0:0:0:
256,192,228661,5,8,0:0:0:0:
256,192,228744,5,0,0:0:0:0:
256,192,228828,5,8,0:0:0:0:
256,192,228994,5,8,0:0:0:0:
256,192,229078,5,0,0:0:0:0:
256,192,229161,5,8,0:0:0:0:
256,192,229328,5,8,0:0:0:0:
256,192,229494,5,0,0:0:0:0:
256,192,229578,5,0,0:0:0:0:
256,192,229661,5,8,0:0:0:0:
256,192,229828,5,0,0:0:0:0:
256,192,230161,5,8,0:0:0:0:
256,192,230244,5,8,0:0:0:0:
256,192,230328,5,8,0:0:0:0:
256,192,230411,5,8,0:0:0:0:
256,192,230494,5,0,0:0:0:0:
256,192,230828,5,8,0:0:0:0:
256,192,230994,5,0,0:0:0:0:
256,192,231161,5,8,0:0:0:0:
256,192,231244,5,0,0:0:0:0:
256,192,231328,5,8,0:0:0:0:
256,192,231411,5,8,0:0:0:0:
256,192,231494,5,0,0:0:0:0:
256,192,231661,5,0,0:0:0:0:
256,192,231828,5,8,0:0:0:0:
256,192,231994,5,8,0:0:0:0:
256,192,232328,5,8,0:0:0:0:
256,192,232494,5,0,0:0:0:0:
256,192,232578,5,0,0:0:0:0:
256,192,232661,5,8,0:0:0:0:
256,192,232828,5,0,0:0:0:0:
256,192,232994,5,8,0:0:0:0:
256,192,233036,5,8,0:0:0:0:
256,192,233161,5,8,0:0:0:0:
256,192,233244,5,8,0:0:0:0:
256,192,233328,5,8,0:0:0:0:
256,192,233411,5,8,0:0:0:0:
256,192,233494,5,0,0:0:0:0:
256,192,233661,5,0,0:0:0:0:
256,192,233828,5,8,0:0:0:0:
256,192,233994,5,0,0:0:0:0:
256,192,234078,5,0,0:0:0:0:
256,192,234161,5,8,0:0:0:0:
256,192,234244,5,0,0:0:0:0:
256,192,234328,5,8,0:0:0:0:
256,192,234494,5,0,0:0:0:0:
256,192,234661,5,0,0:0:0:0:
256,192,234994,5,8,0:0:0:0:
256,192,235161,5,0,0:0:0:0:
256,192,235244,5,0,0:0:0:0:
256,192,235328,5,8,0:0:0:0:
256,192,235494,5,0,0:0:0:0:
256,192,235744,5,0,0:0:0:0:
256,192,235828,5,8,0:0:0:0:
256,192,235911,5,8,0:0:0:0:
256,192,235994,5,0,0:0:0:0:
256,192,236078,5,8,0:0:0:0:
256,192,236244,5,8,0:0:0:0:
256,192,236328,5,8,0:0:0:0:
256,192,236411,5,0,0:0:0:0:
256,192,236494,5,8,0:0:0:0:
256,192,236661,5,0,0:0:0:0:
256,192,236744,5,8,0:0:0:0:
256,192,237161,5,0,0:0:0:0:
256,192,237244,5,0,0:0:0:0:
256,192,237328,5,0,0:0:0:0:
256,192,237411,5,0,0:0:0:0:
256,192,237494,5,0,0:0:0:0:
256,192,237661,5,0,0:0:0:0:
256,192,237828,5,8,0:0:0:0:
256,192,237994,5,0,0:0:0:0:
256,192,238161,5,0,0:0:0:0:
256,192,238328,5,0,0:0:0:0:
256,192,238411,5,0,0:0:0:0:
256,192,238494,5,8,0:0:0:0:
256,192,238578,5,0,0:0:0:0:
256,192,238661,5,8,0:0:0:0:
256,192,238744,5,8,0:0:0:0:
256,192,238828,5,0,0:0:0:0:
256,192,238994,5,0,0:0:0:0:
256,192,239161,5,8,0:0:0:0:
256,192,239328,5,8,0:0:0:0:
256,192,239411,5,8,0:0:0:0:
256,192,239494,5,0,0:0:0:0:
256,192,239661,5,0,0:0:0:0:
256,192,239828,5,8,0:0:0:0:
256,192,239911,5,8,0:0:0:0:
256,192,239994,5,8,0:0:0:0:
256,192,240078,5,0,0:0:0:0:
256,192,240161,5,8,0:0:0:0:
256,192,240328,5,8,0:0:0:0:
256,192,240494,5,0,0:0:0:0:
256,192,240578,5,0,0:0:0:0:
256,192,240661,5,8,0:0:0:0:
256,192,240828,5,0,0:0:0:0:
256,192,240994,5,8,0:0:0:0:
256,192,241036,5,8,0:0:0:0:
256,192,241161,5,8,0:0:0:0:
256,192,241244,5,8,0:0:0:0:
256,192,241328,5,8,0:0:0:0:
256,192,241411,5,8,0:0:0:0:
256,192,241494,5,0,0:0:0:0:
256,192,241661,5,0,0:0:0:0:
256,192,241994,5,0,0:0:0:0:
256,192,242078,5,0,0:0:0:0:
256,192,242161,5,8,0:0:0:0:
256,192,242244,5,8,0:0:0:0:
256,192,242328,5,0,0:0:0:0:
256,192,242411,5,8,0:0:0:0:
256,192,242494,5,0,0:0:0:0:
256,192,242661,5,0,0:0:0:0:
256,192,242744,5,0,0:0:0:0:
256,192,242828,5,8,0:0:0:0:
256,192,242994,5,0,0:0:0:0:
256,192,243078,5,8,0:0:0:0:
256,192,243161,5,8,0:0:0:0:
256,192,243217,5,0,0:0:0:0:
256,192,243272,5,0,0:0:0:0:
256,192,243328,5,8,0:0:0:0:
256,192,243411,5,8,0:0:0:0:
256,192,243661,5,0,0:0:0:0:
256,192,243994,5,0,0:0:0:0:
256,192,244161,5,8,0:0:0:0:
256,192,244328,5,0,0:0:0:0:
256,192,244383,5,8,0:0:0:0:
256,192,244439,5,8,0:0:0:0:
256,192,244494,5,0,0:0:0:0:
256,192,244828,5,8,0:0:0:0:
256,192,244994,5,8,0:0:0:0:
256,192,245078,5,0,0:0:0:0:
256,192,245161,5,8,0:0:0:0:
256,192,245217,5,8,0:0:0:0:
256,192,245272,5,8,0:0:0:0:
256,192,245328,5,0,0:0:0:0:
256,192,245383,5,8,0:0:0:0:
256,192,245439,5,8,0:0:0:0:
256,192,245494,5,0,0:0:0:0:
256,192,245578,5,8,0:0:0:0:
256,192,245828,5,0,0:0:0:0:
256,192,245994,5,8,0:0:0:0:
256,192,246036,5,8,0:0:0:0:
256,192,246161,5,8,0:0:0:0:
256,192,246244,5,8,0:0:0:0:
256,192,246411,5,8,0:0:0:0:
256,192,246661,5,0,0:0:0:0:
256,192,246828,5,8,0:0:0:0:
256,192,246994,5,0,0:0:0:0:
256,192,247161,5,8,0:0:0:0:
256,192,247328,5,0,0:0:0:0:
256,192,247411,5,0,0:0:0:0:
256,192,247828,5,8,0:0:0:0:
256,192,247994,5,0,0:0:0:0:
256,192,248161,5,0,0:0:0:0:
256,192,248217,5,0,0:0:0:0:
256,192,248272,5,0,0:0:0:0:
256,192,248328,5,8,0:0:0:0:
256,192,248494,5,0,0:0:0:0:
256,192,248744,5,0,0:0:0:0:
256,192,248994,5,8,0:0:0:0:
256,192,249328,5,8,0:0:0:0:
256,192,249661,5,0,0:0:0:0:
256,192,249911,5,8,0:0:0:0:
256,192,249994,5,8,0:0:0:0:
256,192,250078,5,8,0:0:0:0:
256,192,250161,5,0,0:0:0:0:
256,192,250244,5,0,0:0:0:0:
256,192,250328,5,8,0:0:0:0:
256,192,250411,5,8,0:0:0:0:
256,192,250494,5,0,0:0:0:0:
256,192,250828,5,0,0:0:0:0:
256,192,251161,5,8,0:0:0:0:
256,192,251328,5,0,0:0:0:0:
256,192,251494,5,0,0:0:0:0:
256,192,251661,5,8,0:0:0:0:
256,192,251744,5,0,0:0:0:0:
256,192,251828,5,0,0:0:0:0:
256,192,252161,5,0,0:0:0:0:
256,192,252328,5,0,0:0:0:0:
256,192,252411,5,0,0:0:0:0:
256,192,252494,5,8,0:0:0:0:
256,192,252661,5,0,0:0:0:0:
256,192,252744,5,8,0:0:0:0:
256,192,252828,5,8,0:0:0:0:
256,192,252994,5,8,0:0:0:0:
256,192,253161,5,0,0:0:0:0:
256,192,253328,5,8,0:0:0:0:
256,192,253494,5,0,0:0:0:0:
256,192,253578,5,8,0:0:0:0:
256,192,253661,5,8,0:0:0:0:
256,192,253828,5,0,0:0:0:0:
256,192,253994,5,8,0:0:0:0:
256,192,254036,5,8,0:0:0:0:
256,192,254161,5,8,0:0:0:0:
256,192,254244,5,8,0:0:0:0:
256,192,254328,5,0,0:0:0:0:
256,192,254411,5,8,0:0:0:0:
256,192,254494,5,0,0:0:0:0:
256,192,254661,5,0,0:0:0:0:
256,192,254744,5,0,0:0:0:0:
256,192,254828,5,8,0:0:0:0:
256,192,254911,5,8,0:0:0:0:
256,192,255078,5,0,0:0:0:0:
256,192,255161,5,8,0:0:0:0:
256,192,255328,5,8,0:0:0:0:
256,192,255494,5,0,0:0:0:0:
256,192,255828,5,8,0:0:0:0:
256,192,256161,5,0,0:0:0:0:
256,192,256217,5,0,0:0:0:0:
256,192,256272,5,0,0:0:0:0:
256,192,256328,5,8,0:0:0:0:
256,192,256661,5,0,0:0:0:0:
256,192,257328,5,0,0:0:0:0:
256,192,257383,5,0,0:0:0:0:
256,192,257439,5,0,0:0:0:0:
256,192,257494,5,8,0:0:0:0:
256,192,257828,5,8,0:0:0:0:
256,192,257994,5,0,0:0:0:0:
256,192,258161,5,8,0:0:0:0:
256,192,258328,5,8,0:0:0:0:
256,192,258494,5,0,0:0:0:0:
256,192,258661,5,0,0:0:0:0:
256,192,258828,5,8,0:0:0:0:
256,192,258994,5,0,0:0:0:0:
256,192,259161,5,8,0:0:0:0:
256,192,259494,5,0,0:0:0:0:
256,192,259828,12,0,265494,0:0:0:0:
