osu file format v14

[General]
AudioFilename: audio.mp3
AudioLeadIn: 0
PreviewTime: 55839
Countdown: 0
SampleSet: Soft
StackLeniency: 0.7
Mode: 3
LetterboxInBreaks: 0
SpecialStyle: 0
WidescreenStoryboard: 1

[Editor]
Bookmarks: 21034,27034,41434,52234,70234,84634,99034
DistanceSpacing: 1
BeatDivisor: 4
GridSize: 16
TimelineZoom: 3.4

[Metadata]
Title:Scrap Syndrome (Cut Ver.)
TitleUnicode:Scrap Syndrome (Cut Ver.)
Artist:Yuuyu
ArtistUnicode:Yuuyu
Creator:hna
Version:Normal
Source:
Tags:famoss vortex- electronic instrumental hardcore breakcore glitch yuya* yuuyu_ssry yuuyup frugelel technical jacks
BeatmapID:2855409
BeatmapSetID:1378602

[Difficulty]
HPDrainRate:7.2
CircleSize:4
OverallDifficulty:7
ApproachRate:9
SliderMultiplier:1.6
SliderTickRate:1

[Events]
//Background and Video events
0,0,"bg.jpeg",0,0
//Break Periods
//Storyboard Layer 0 (Background)
//Storyboard Layer 1 (Fail)
//Storyboard Layer 2 (Pass)
//Storyboard Layer 3 (Foreground)
//Storyboard Layer 4 (Overlay)
//Storyboard Sound Samples

[TimingPoints]
934,300,6,2,1,70,1,0
19834,300,6,2,1,70,1,0
55834,-100,4,2,1,70,0,1
62134,-100,4,2,1,70,0,0
63034,-100,4,2,1,70,0,1
69334,-100,4,2,1,70,0,0
99034,-100,4,2,1,70,0,1
105334,-100,4,2,1,70,0,0
106234,-100,4,2,1,70,0,1
112534,-100,4,2,1,70,0,0

[HitObjects]
320,192,934,128,2,1084:0:0:0:0:
64,192,1234,1,0,0:0:0:0:
448,192,1384,1,0,0:0:0:0:
64,192,1534,1,0,0:0:0:0:
448,192,1684,128,0,1834:0:0:0:0:
64,192,1834,1,0,0:0:0:0:
448,192,1984,1,0,0:0:0:0:
64,192,2134,1,0,0:0:0:0:
448,192,2284,1,0,0:0:0:0:
192,192,2434,1,0,0:0:0:0:
64,192,2584,1,0,0:0:0:0:
320,192,2734,128,2,2884:0:0:0:0:
448,192,3034,1,10,0:0:0:0:
64,192,3184,1,0,0:0:0:0:
448,192,3334,1,0,0:0:0:0:
64,192,3484,1,0,0:0:0:0:
448,192,3634,1,0,0:0:0:0:
64,192,3784,1,0,0:0:0:0:
448,192,3934,1,0,0:0:0:0:
64,192,4084,1,0,0:0:0:0:
320,192,4234,1,0,0:0:0:0:
448,192,4384,1,0,0:0:0:0:
192,192,4534,128,2,4684:0:0:0:0:
64,192,4834,1,0,0:0:0:0:
448,192,4984,1,0,0:0:0:0:
64,192,5134,1,0,0:0:0:0:
448,192,5284,128,0,5434:0:0:0:0:
64,192,5434,1,0,0:0:0:0:
448,192,5584,1,0,0:0:0:0:
64,192,5734,1,0,0:0:0:0:
448,192,5884,1,0,0:0:0:0:
192,192,6034,1,0,0:0:0:0:
64,192,6184,1,0,0:0:0:0:
320,192,6334,128,2,6484:0:0:0:0:
448,192,6634,1,10,0:0:0:0:
64,192,6784,1,0,0:0:0:0:
448,192,6934,1,0,0:0:0:0:
64,192,7084,1,0,0:0:0:0:
448,192,7234,1,0,0:0:0:0:
192,192,7384,1,0,0:0:0:0:
320,192,7534,128,2,7684:0:0:0:0:
64,192,7684,1,0,0:0:0:0:
320,192,7834,128,0,7984:0:0:0:0:
192,192,8134,128,2,8284:0:0:0:0:
64,192,8434,1,0,0:0:0:0:
448,192,8584,1,0,0:0:0:0:
64,192,8734,1,0,0:0:0:0:
448,192,8884,128,0,9034:0:0:0:0:
64,192,9034,1,0,0:0:0:0:
448,192,9184,1,0,0:0:0:0:
448,192,9521,1,0,0:0:0:0:
192,192,9634,1,0,0:0:0:0:
64,192,9784,1,0,0:0:0:0:
320,192,9934,128,2,10084:0:0:0:0:
448,192,10234,1,10,0:0:0:0:
64,192,10384,1,0,0:0:0:0:
448,192,10534,1,0,0:0:0:0:
64,192,10684,1,0,0:0:0:0:
448,192,10834,1,0,0:0:0:0:
64,192,10984,1,0,0:0:0:0:
448,192,11134,1,0,0:0:0:0:
64,192,11284,1,0,0:0:0:0:
320,192,11434,1,0,0:0:0:0:
448,192,11584,1,0,0:0:0:0:
192,192,11734,128,2,11884:0:0:0:0:
64,192,12034,1,0,0:0:0:0:
448,192,12184,1,0,0:0:0:0:
64,192,12334,1,0,0:0:0:0:
448,192,12484,128,0,12634:0:0:0:0:
64,192,12634,1,0,0:0:0:0:
448,192,12784,1,0,0:0:0:0:
64,192,12934,1,0,0:0:0:0:
448,192,13084,1,0,0:0:0:0:
192,192,13234,1,0,0:0:0:0:
64,192,13384,1,0,0:0:0:0:
320,192,13534,128,2,13684:0:0:0:0:
448,192,13834,1,10,0:0:0:0:
64,192,13984,1,0,0:0:0:0:
448,192,14134,1,0,0:0:0:0:
64,192,14284,1,0,0:0:0:0:
448,192,14434,1,0,0:0:0:0:
192,192,14584,1,0,0:0:0:0:
320,192,14734,128,2,14884:0:0:0:0:
320,192,15034,128,0,15184:0:0:0:0:
192,192,15334,128,2,15634:0:0:0:0:
64,192,15821,128,0,19534:0:0:0:0:
448,192,19609,1,0,0:0:0:0:
320,192,19834,128,2,20134:0:0:0:0:
64,192,20434,128,0,20884:0:0:0:0:
448,192,20884,128,0,22984:0:0:0:0:
192,192,22984,128,0,24634:0:0:0:0:
320,192,24634,128,0,26734:0:0:0:0:
64,192,26734,128,0,27034:0:0:0:0:
320,192,27034,1,2,0:0:0:0:
192,192,27184,1,0,0:0:0:0:
448,192,27334,1,10,0:0:0:0:
192,192,27484,1,0,0:0:0:0:
320,192,27634,1,2,0:0:0:0:
64,192,27784,1,10,0:0:0:0:
320,192,27934,1,2,0:0:0:0:
192,192,28084,1,0,0:0:0:0:
448,192,28234,1,8,0:0:0:0:
192,192,28384,1,0,0:0:0:0:
448,192,28534,1,2,0:0:0:0:
64,192,28684,1,10,0:0:0:0:
320,192,28834,1,2,0:0:0:0:
192,192,28984,1,0,0:0:0:0:
448,192,29134,1,10,0:0:0:0:
192,192,29284,1,0,0:0:0:0:
320,192,29434,1,2,0:0:0:0:
64,192,29584,1,10,0:0:0:0:
320,192,29734,1,2,0:0:0:0:
192,192,29884,1,0,0:0:0:0:
448,192,30034,1,8,0:0:0:0:
192,192,30184,1,0,0:0:0:0:
320,192,30334,128,2,30634:0:0:0:0:
192,192,30634,1,2,0:0:0:0:
320,192,30784,1,0,0:0:0:0:
64,192,30934,1,10,0:0:0:0:
320,192,31084,1,0,0:0:0:0:
192,192,31234,1,2,0:0:0:0:
448,192,31384,1,10,0:0:0:0:
192,192,31534,1,2,0:0:0:0:
320,192,31684,1,0,0:0:0:0:
64,192,31834,1,8,0:0:0:0:
320,192,31984,1,0,0:0:0:0:
64,192,32134,1,2,0:0:0:0:
448,192,32284,1,10,0:0:0:0:
192,192,32434,1,2,0:0:0:0:
320,192,32584,1,0,0:0:0:0:
64,192,32734,1,10,0:0:0:0:
320,192,32884,1,0,0:0:0:0:
192,192,33034,1,2,0:0:0:0:
448,192,33184,1,10,0:0:0:0:
192,192,33334,1,2,0:0:0:0:
320,192,33484,1,0,0:0:0:0:
64,192,33634,1,8,0:0:0:0:
320,192,33784,1,0,0:0:0:0:
192,192,33934,128,2,34234:0:0:0:0:
320,192,34234,1,2,0:0:0:0:
192,192,34384,1,0,0:0:0:0:
448,192,34534,1,10,0:0:0:0:
192,192,34684,1,0,0:0:0:0:
320,192,34834,1,2,0:0:0:0:
64,192,34984,1,10,0:0:0:0:
320,192,35134,1,2,0:0:0:0:
192,192,35284,1,0,0:0:0:0:
448,192,35434,1,8,0:0:0:0:
192,192,35584,1,0,0:0:0:0:
448,192,35734,1,2,0:0:0:0:
64,192,35884,1,10,0:0:0:0:
320,192,36034,1,2,0:0:0:0:
192,192,36184,1,0,0:0:0:0:
448,192,36334,1,10,0:0:0:0:
192,192,36484,1,0,0:0:0:0:
320,192,36634,1,2,0:0:0:0:
64,192,36784,1,10,0:0:0:0:
320,192,36934,1,2,0:0:0:0:
192,192,37084,1,0,0:0:0:0:
448,192,37234,1,8,0:0:0:0:
192,192,37384,1,0,0:0:0:0:
320,192,37534,128,2,37834:0:0:0:0:
192,192,37834,1,2,0:0:0:0:
320,192,37984,1,0,0:0:0:0:
64,192,38134,1,10,0:0:0:0:
320,192,38284,1,0,0:0:0:0:
192,192,38434,1,2,0:0:0:0:
448,192,38584,1,10,0:0:0:0:
192,192,38734,1,2,0:0:0:0:
320,192,38884,1,0,0:0:0:0:
64,192,39034,1,8,0:0:0:0:
320,192,39184,1,0,0:0:0:0:
64,192,39334,1,2,0:0:0:0:
448,192,39484,1,10,0:0:0:0:
192,192,39634,1,2,0:0:0:0:
320,192,39784,1,0,0:0:0:0:
64,192,39934,1,10,0:0:0:0:
320,192,40084,1,0,0:0:0:0:
192,192,40234,1,2,0:0:0:0:
448,192,40384,1,10,0:0:0:0:
192,192,40534,1,2,0:0:0:0:
320,192,40684,1,0,0:0:0:0:
448,192,40834,128,0,41134:0:0:0:70:Drumstart_040_d.wav
64,192,41134,128,0,41434:0:0:0:70:Drumstart_040_b.wav
320,192,41434,1,2,0:0:0:0:
192,192,41584,1,0,0:0:0:0:
448,192,41734,1,10,0:0:0:0:
192,192,41884,1,0,0:0:0:0:
320,192,42034,1,2,0:0:0:0:
64,192,42184,1,10,0:0:0:0:
320,192,42334,1,2,0:0:0:0:
192,192,42484,1,0,0:0:0:0:
448,192,42634,1,8,0:0:0:0:
192,192,42784,1,0,0:0:0:0:
320,192,42934,1,2,0:0:0:0:
192,192,43084,1,10,0:0:0:0:
320,192,43234,1,2,0:0:0:0:
192,192,43384,1,0,0:0:0:0:
448,192,43534,1,10,0:0:0:0:
192,192,43684,1,0,0:0:0:0:
320,192,43834,1,2,0:0:0:0:
64,192,43984,1,10,0:0:0:0:
320,192,44134,1,2,0:0:0:0:
192,192,44284,1,0,0:0:0:0:
448,192,44434,1,8,0:0:0:0:
192,192,44584,1,0,0:0:0:0:
320,192,44734,128,2,45034:0:0:0:0:
192,192,45034,1,2,0:0:0:0:
320,192,45184,1,0,0:0:0:0:
64,192,45334,1,10,0:0:0:0:
320,192,45484,1,0,0:0:0:0:
192,192,45634,1,2,0:0:0:0:
448,192,45784,1,10,0:0:0:0:
192,192,45934,1,2,0:0:0:0:
320,192,46084,1,0,0:0:0:0:
64,192,46234,1,8,0:0:0:0:
320,192,46384,1,0,0:0:0:0:
192,192,46534,1,2,0:0:0:0:
320,192,46684,1,10,0:0:0:0:
192,192,46834,1,2,0:0:0:0:
320,192,46984,1,0,0:0:0:0:
64,192,47134,1,10,0:0:0:0:
320,192,47284,1,0,0:0:0:0:
192,192,47434,1,2,0:0:0:0:
448,192,47584,1,10,0:0:0:0:
192,192,47734,1,2,0:0:0:0:
320,192,47884,1,0,0:0:0:0:
64,192,48034,1,8,0:0:0:0:
320,192,48184,1,0,0:0:0:0:
192,192,48334,128,2,48634:0:0:0:0:
320,192,48634,1,2,0:0:0:0:
192,192,48784,1,0,0:0:0:0:
448,192,48934,1,10,0:0:0:0:
192,192,49084,1,0,0:0:0:0:
320,192,49234,1,2,0:0:0:0:
64,192,49384,1,10,0:0:0:0:
320,192,49534,1,2,0:0:0:0:
192,192,49684,1,0,0:0:0:0:
448,192,49834,1,8,0:0:0:0:
192,192,49984,1,0,0:0:0:0:
320,192,50134,1,2,0:0:0:0:
192,192,50284,1,10,0:0:0:0:
320,192,50434,1,2,0:0:0:0:
192,192,50584,1,0,0:0:0:0:
448,192,50734,1,10,0:0:0:0:
192,192,50884,1,0,0:0:0:0:
320,192,51034,1,2,0:0:0:0:
64,192,51184,1,10,0:0:0:0:
320,192,51334,1,2,0:0:0:0:
192,192,51484,1,0,0:0:0:0:
448,192,51634,1,8,0:0:0:0:
192,192,51784,1,0,0:0:0:0:
320,192,51934,128,2,52234:0:0:0:0:
192,192,52234,1,2,0:0:0:0:
320,192,52384,1,0,0:0:0:0:
64,192,52534,1,10,0:0:0:0:
448,192,52684,128,0,52834:0:0:0:0:
192,192,52984,128,10,53134:0:0:0:0:
320,192,53284,1,0,0:0:0:0:
64,192,53434,1,8,0:0:0:0:
320,192,53584,1,0,0:0:0:0:
192,192,53734,1,2,0:0:0:0:
320,192,53884,1,10,0:0:0:0:
192,192,54034,1,2,0:0:0:0:
320,192,54184,128,0,54334:0:0:0:0:
192,192,54484,1,0,0:0:0:0:
320,192,54634,1,2,0:0:0:0:
64,192,54784,128,10,54934:0:0:0:0:
448,192,55084,128,0,55384:0:0:0:0:
64,192,55534,128,0,55834:0:0:0:0:
320,192,55834,128,2,56134:0:0:0:0:
64,192,56134,1,10,0:0:0:0:
192,192,56284,128,2,56584:0:0:0:0:
448,192,56584,1,10,0:0:0:0:
320,192,56734,128,2,57034:0:0:0:0:
64,192,57034,1,10,0:0:0:0:
192,192,57184,1,2,0:0:0:0:
320,192,57334,1,0,0:0:0:0:
192,192,57484,1,10,0:0:0:0:
320,192,57634,128,2,57934:0:0:0:0:
64,192,57934,1,10,0:0:0:0:
192,192,58084,128,2,58384:0:0:0:0:
448,192,58384,1,10,0:0:0:0:
320,192,58534,128,2,58834:0:0:0:0:
64,192,58834,1,10,0:0:0:0:
192,192,58984,1,2,0:0:0:0:
320,192,59134,1,2,0:0:0:0:
64,192,59284,1,8,0:0:0:0:
320,192,59434,128,2,59734:0:0:0:0:
64,192,59734,1,10,0:0:0:0:
192,192,59884,128,2,60184:0:0:0:0:
448,192,60184,1,10,0:0:0:0:
320,192,60334,128,2,60634:0:0:0:0:
64,192,60634,1,10,0:0:0:0:
192,192,60784,1,2,0:0:0:0:
320,192,60934,1,0,0:0:0:0:
192,192,61084,1,10,0:0:0:0:
320,192,61234,128,2,61534:0:0:0:0:
64,192,61534,1,10,0:0:0:0:
192,192,61684,128,2,61984:0:0:0:0:
448,192,61984,1,10,0:0:0:0:
64,192,62134,128,2,63034:0:0:0:0:
320,192,63034,128,2,63334:0:0:0:0:
64,192,63334,1,10,0:0:0:0:
192,192,63484,128,2,63784:0:0:0:0:
448,192,63784,1,10,0:0:0:0:
320,192,63934,128,2,64234:0:0:0:0:
64,192,64234,1,10,0:0:0:0:
192,192,64384,1,2,0:0:0:0:
320,192,64534,1,0,0:0:0:0:
192,192,64684,1,10,0:0:0:0:
320,192,64834,128,2,65134:0:0:0:0:
64,192,65134,1,10,0:0:0:0:
192,192,65284,128,2,65584:0:0:0:0:
448,192,65584,1,10,0:0:0:0:
320,192,65734,128,2,66034:0:0:0:0:
64,192,66034,1,10,0:0:0:0:
192,192,66184,1,2,0:0:0:0:
320,192,66334,1,2,0:0:0:0:
64,192,66484,1,8,0:0:0:0:
320,192,66634,128,2,66934:0:0:0:0:
64,192,66934,1,10,0:0:0:0:
192,192,67084,128,2,67384:0:0:0:0:
448,192,67384,1,10,0:0:0:0:
320,192,67534,128,2,67834:0:0:0:0:
64,192,67834,1,10,0:0:0:0:
192,192,67984,1,2,0:0:0:0:
320,192,68134,1,0,0:0:0:0:
192,192,68284,1,10,0:0:0:0:
320,192,68434,128,2,68734:0:0:0:0:
64,192,68734,1,10,0:0:0:0:
192,192,68884,128,2,69184:0:0:0:0:
448,192,69184,1,10,0:0:0:0:
320,192,69334,1,2,0:0:0:0:
192,192,69484,1,0,0:0:0:0:
448,192,69634,128,0,70234:0:0:0:70:Drumstart_040_a.wav
192,192,70234,1,0,0:0:0:70:amenbreak_kick1.wav
320,192,70384,1,0,0:0:0:70:amenbreak_kick1.wav
64,192,70534,1,0,0:0:0:70:amenbreak_snare1.wav
320,192,70684,1,0,0:0:0:70:amenbreak_kick1.wav
192,192,70834,1,0,0:0:0:70:amenbreak_kick1.wav
448,192,70984,1,0,0:0:0:70:amenbreak_snare1.wav
64,192,71134,1,0,0:0:0:0:
448,192,71284,1,0,0:0:0:70:amenbreak_kick1.wav
64,192,71434,1,0,0:0:0:70:amenbreak_kick1.wav
320,192,71584,1,0,0:0:0:70:amenbreak_kick1.wav
192,192,71734,1,0,0:0:0:70:amenbreak_snare1.wav
448,192,71884,1,0,0:0:0:0:
192,192,72034,1,0,0:0:0:70:amenbreak_kick1.wav
320,192,72184,1,0,0:0:0:70:amenbreak_kick1.wav
192,192,72334,1,0,0:0:0:70:amenbreak_kick1.wav
320,192,72484,1,0,0:0:0:0:
64,192,72634,1,0,0:0:0:70:amenbreak_snare1.wav
448,192,72784,1,0,0:0:0:70:amenbreak_snare1.wav
64,192,72934,1,0,0:0:0:70:amenbreak_snare1.wav
320,192,73084,1,0,0:0:0:70:amenbreak_kick1.wav
192,192,73234,1,0,0:0:0:70:amenbreak_kick1.wav
448,192,73384,1,0,0:0:0:70:amenbreak_kick1.wav
64,192,73534,1,0,0:0:0:70:amenbreak_kick1.wav
320,192,73684,1,0,0:0:0:70:amenbreak_snare1.wav
192,192,73834,1,0,0:0:0:70:amenbreak_kick1.wav
448,192,73984,1,0,0:0:0:70:amenbreak_kick1.wav
64,192,74134,1,0,0:0:0:70:amenbreak_snare1.wav
320,192,74284,1,0,0:0:0:70:amenbreak_kick1.wav
448,192,74434,1,0,0:0:0:70:amenbreak_snare1.wav
192,192,74584,1,0,0:0:0:70:amenbreak_kick1.wav
448,192,74659,1,0,0:0:0:70:amenbreak_snare1.wav
64,192,74734,1,0,0:0:0:70:amenbreak_snare1.wav
320,192,74884,1,0,0:0:0:70:amenbreak_kick1.wav
192,192,75034,1,0,0:0:0:0:
64,192,75184,1,0,0:0:0:70:amenbreak_kick1.wav
320,192,75334,1,0,0:0:0:70:amenbreak_snare1.wav
64,192,75484,1,0,0:0:0:0:
192,192,75634,1,0,0:0:0:70:amenbreak_kick1.wav
448,192,75784,1,0,0:0:0:70:amenbreak_snare1.wav
64,192,75934,1,0,0:0:0:70:amenbreak_snare1.wav
320,192,76084,1,0,0:0:0:70:amenbreak_kick1.wav
64,192,76234,1,0,0:0:0:70:amenbreak_snare1.wav
448,192,76384,1,0,0:0:0:70:amenbreak_snare1.wav
192,192,76534,1,0,0:0:0:70:amenbreak_snare1.wav
320,192,76684,1,0,0:0:0:70:amenbreak_kick1.wav
192,192,76834,1,0,0:0:0:70:amenbreak_kick1.wav
448,192,76984,1,0,0:0:0:70:amenbreak_snare1.wav
192,192,77134,1,0,0:0:0:0:
320,192,77284,1,0,0:0:0:0:
64,192,77434,128,0,77734:0:0:0:70:amenbreak_snare1.wav
320,192,77734,1,0,0:0:0:70:amenbreak_kick1.wav
448,192,77884,128,0,78184:0:0:0:70:amenbreak_snare1.wav
192,192,78184,1,0,0:0:0:70:amenbreak_kick1.wav
64,192,78334,128,0,78634:0:0:0:70:amenbreak_snare1.wav
320,192,78634,1,0,0:0:0:70:amenbreak_kick1.wav
448,192,78784,1,0,0:0:0:70:amenbreak_snare1.wav
320,192,79009,1,0,0:0:0:70:amenbreak_kick1.wav
64,192,79084,1,0,0:0:0:70:amenbreak_snare1.wav
448,192,79234,128,0,79534:0:0:0:70:amenbreak_snare1.wav
192,192,79534,1,0,0:0:0:70:amenbreak_kick1.wav
64,192,79684,128,0,79984:0:0:0:70:amenbreak_snare1.wav
320,192,79984,1,0,0:0:0:70:amenbreak_kick1.wav
448,192,80134,128,0,80434:0:0:0:70:amenbreak_snare1.wav
192,192,80434,1,0,0:0:0:70:amenbreak_kick1.wav
64,192,80584,1,0,0:0:0:70:amenbreak_snare1.wav
192,192,80809,1,0,0:0:0:70:amenbreak_kick1.wav
448,192,80884,1,0,0:0:0:70:amenbreak_snare1.wav
64,192,81034,128,0,81334:0:0:0:70:amenbreak_snare1.wav
320,192,81334,1,0,0:0:0:70:amenbreak_kick1.wav
448,192,81484,128,0,81784:0:0:0:70:amenbreak_snare1.wav
192,192,81784,1,0,0:0:0:70:amenbreak_kick1.wav
64,192,81934,128,0,82234:0:0:0:70:amenbreak_snare1.wav
320,192,82234,1,0,0:0:0:70:amenbreak_kick1.wav
448,192,82384,1,0,0:0:0:70:amenbreak_snare1.wav
320,192,82609,1,0,0:0:0:70:amenbreak_kick1.wav
64,192,82684,1,0,0:0:0:70:amenbreak_snare1.wav
448,192,82834,1,0,0:0:0:70:amenbreak_snare1.wav
64,192,83059,1,0,0:0:0:70:amenbreak_snare1.wav
448,192,83284,1,0,0:0:0:70:amenbreak_snare1.wav
64,192,83509,1,0,0:0:0:0:
320,192,84634,128,2,84784:0:0:0:0:
64,192,84934,1,0,0:0:0:0:
448,192,85084,1,0,0:0:0:0:
64,192,85234,1,0,0:0:0:0:
448,192,85384,128,0,85534:0:0:0:0:
64,192,85534,1,0,0:0:0:0:
448,192,85684,1,0,0:0:0:0:
64,192,85834,1,0,0:0:0:0:
448,192,85984,1,0,0:0:0:0:
192,192,86134,1,0,0:0:0:0:
64,192,86284,1,0,0:0:0:0:
320,192,86434,128,2,86584:0:0:0:0:
448,192,86734,1,10,0:0:0:0:
64,192,86884,1,0,0:0:0:0:
448,192,87034,1,0,0:0:0:0:
64,192,87184,1,0,0:0:0:0:
448,192,87334,1,0,0:0:0:0:
64,192,87484,1,0,0:0:0:0:
448,192,87634,1,0,0:0:0:0:
64,192,87784,1,0,0:0:0:0:
320,192,87934,1,0,0:0:0:0:
448,192,88084,1,0,0:0:0:0:
192,192,88234,128,2,88384:0:0:0:0:
64,192,88534,1,0,0:0:0:0:
448,192,88684,1,0,0:0:0:0:
64,192,88834,1,0,0:0:0:0:
448,192,88984,128,0,89134:0:0:0:0:
64,192,89134,1,0,0:0:0:0:
448,192,89284,1,0,0:0:0:0:
64,192,89434,1,0,0:0:0:0:
448,192,89584,1,0,0:0:0:0:
192,192,89734,1,0,0:0:0:0:
64,192,89884,1,0,0:0:0:0:
320,192,90034,128,2,90184:0:0:0:0:
448,192,90334,1,10,0:0:0:0:
64,192,90484,1,0,0:0:0:0:
448,192,90634,1,0,0:0:0:0:
64,192,90784,1,0,0:0:0:0:
448,192,90934,1,0,0:0:0:0:
192,192,91084,1,0,0:0:0:0:
320,192,91234,128,2,91384:0:0:0:0:
64,192,91384,1,0,0:0:0:0:
320,192,91534,128,0,91684:0:0:0:0:
192,192,91834,128,2,91984:0:0:0:0:
64,192,92134,1,0,0:0:0:0:
448,192,92284,1,0,0:0:0:0:
64,192,92434,1,0,0:0:0:0:
448,192,92584,128,0,92734:0:0:0:0:
64,192,92734,1,0,0:0:0:0:
448,192,92884,1,0,0:0:0:0:
192,192,93034,1,0,0:0:0:0:
448,192,93221,1,0,0:0:0:0:
192,192,93334,1,0,0:0:0:0:
64,192,93484,1,0,0:0:0:0:
320,192,93634,128,2,93784:0:0:0:0:
448,192,93934,1,10,0:0:0:0:
64,192,94084,1,0,0:0:0:0:
448,192,94234,1,0,0:0:0:0:
64,192,94384,1,0,0:0:0:0:
448,192,94534,1,0,0:0:0:0:
64,192,94684,1,0,0:0:0:0:
448,192,94834,1,0,0:0:0:0:
64,192,94984,1,0,0:0:0:0:
320,192,95134,1,0,0:0:0:0:
448,192,95284,1,0,0:0:0:0:
192,192,95434,128,2,95584:0:0:0:0:
64,192,95734,1,0,0:0:0:0:
448,192,95884,1,0,0:0:0:0:
64,192,96034,1,0,0:0:0:0:
448,192,96184,128,0,96334:0:0:0:0:
64,192,96334,1,0,0:0:0:0:
448,192,96484,1,0,0:0:0:0:
64,192,96634,1,0,0:0:0:0:
448,192,96784,1,0,0:0:0:0:
192,192,96934,1,0,0:0:0:0:
64,192,97084,1,0,0:0:0:0:
320,192,97234,128,2,97384:0:0:0:0:
448,192,97534,1,10,0:0:0:0:
64,192,97684,1,0,0:0:0:0:
448,192,97834,1,0,0:0:0:0:
64,192,97984,1,0,0:0:0:0:
448,192,98134,1,0,0:0:0:0:
192,192,98284,1,0,0:0:0:0:
320,192,98434,128,2,98584:0:0:0:0:
320,192,98734,128,0,98884:0:0:0:0:
320,192,99034,128,2,99334:0:0:0:0:
64,192,99334,1,10,0:0:0:0:
192,192,99484,128,2,99784:0:0:0:0:
448,192,99784,1,10,0:0:0:0:
320,192,99934,128,2,100234:0:0:0:0:
64,192,100234,1,10,0:0:0:0:
192,192,100384,1,2,0:0:0:0:
320,192,100534,1,0,0:0:0:0:
192,192,100684,1,10,0:0:0:0:
320,192,100834,128,2,101134:0:0:0:0:
64,192,101134,1,10,0:0:0:0:
192,192,101284,128,2,101584:0:0:0:0:
448,192,101584,1,10,0:0:0:0:
320,192,101734,128,2,102034:0:0:0:0:
64,192,102034,1,10,0:0:0:0:
192,192,102184,1,2,0:0:0:0:
320,192,102334,1,2,0:0:0:0:
64,192,102484,1,8,0:0:0:0:
320,192,102634,128,2,102934:0:0:0:0:
64,192,102934,1,10,0:0:0:0:
192,192,103084,128,2,103384:0:0:0:0:
448,192,103384,1,10,0:0:0:0:
320,192,103534,128,2,103834:0:0:0:0:
64,192,103834,1,10,0:0:0:0:
192,192,103984,1,2,0:0:0:0:
320,192,104134,1,0,0:0:0:0:
192,192,104284,1,10,0:0:0:0:
320,192,104434,128,2,104734:0:0:0:0:
64,192,104734,1,10,0:0:0:0:
192,192,104884,128,2,105184:0:0:0:0:
448,192,105184,1,10,0:0:0:0:
320,192,105334,1,2,0:0:0:0:
192,192,105484,1,2,0:0:0:0:
448,192,105634,128,0,106234:0:0:0:70:Drumstart_040_a.wav
192,192,106234,128,2,106534:0:0:0:0:
448,192,106534,1,10,0:0:0:0:
320,192,106684,128,2,106984:0:0:0:0:
64,192,106984,1,10,0:0:0:0:
192,192,107134,128,2,107434:0:0:0:0:
448,192,107434,1,10,0:0:0:0:
320,192,107584,1,2,0:0:0:0:
192,192,107734,1,0,0:0:0:0:
320,192,107884,1,10,0:0:0:0:
192,192,108034,128,2,108334:0:0:0:0:
448,192,108334,1,10,0:0:0:0:
320,192,108484,128,2,108784:0:0:0:0:
64,192,108784,1,10,0:0:0:0:
192,192,108934,128,2,109234:0:0:0:0:
448,192,109234,1,10,0:0:0:0:
320,192,109384,1,2,0:0:0:0:
192,192,109534,1,2,0:0:0:0:
448,192,109684,1,8,0:0:0:0:
192,192,109834,128,2,110134:0:0:0:0:
448,192,110134,1,10,0:0:0:0:
320,192,110284,128,2,110584:0:0:0:0:
64,192,110584,1,10,0:0:0:0:
192,192,110734,128,2,111034:0:0:0:0:
448,192,111034,1,10,0:0:0:0:
320,192,111184,1,2,0:0:0:0:
192,192,111334,1,0,0:0:0:0:
320,192,111484,1,10,0:0:0:0:
192,192,111634,128,2,111934:0:0:0:0:
448,192,111934,1,10,0:0:0:0:
320,192,112084,128,2,112384:0:0:0:0:
64,192,112384,1,10,0:0:0:0:
448,192,112534,128,2,113584:0:0:0:0:
