osu file format v14

[General]
AudioFilename: audio.mp3
AudioLeadIn: 0
PreviewTime: 55839
Countdown: 0
SampleSet: Soft
StackLeniency: 0.7
Mode: 3
LetterboxInBreaks: 0
SpecialStyle: 0
WidescreenStoryboard: 1

[Editor]
Bookmarks: 21034,27034,41434,52234,70234,84634,99034
DistanceSpacing: 1
BeatDivisor: 4
GridSize: 16
TimelineZoom: 2.6

[Metadata]
Title:Scrap Syndrome (Cut Ver.)
TitleUnicode:Scrap Syndrome (Cut Ver.)
Artist:Yuuyu
ArtistUnicode:Yuuyu
Creator:hna
Version:Mechanical
Source:
Tags:famoss vortex- electronic instrumental hardcore breakcore glitch yuya* yuuyu_ssry yuuyup frugelel technical jacks
BeatmapID:2848697
BeatmapSetID:1378602

[Difficulty]
HPDrainRate:8.5
CircleSize:4
OverallDifficulty:8.5
ApproachRate:9
SliderMultiplier:1.6
SliderTickRate:1

[Events]
//Background and Video events
0,0,"bg.jpeg",0,0
//Break Periods
//Storyboard Layer 0 (Background)
//Storyboard Layer 1 (Fail)
//Storyboard Layer 2 (Pass)
//Storyboard Layer 3 (Foreground)
//Storyboard Layer 4 (Overlay)
//Storyboard Sound Samples

[TimingPoints]
934,300,6,2,1,70,1,0
19834,300,6,2,1,70,1,0
55834,-100,4,2,1,70,0,1
62134,-100,4,2,1,70,0,0
63034,-100,4,2,1,70,0,1
69334,-100,4,2,1,70,0,0
99034,-100,4,2,1,70,0,1
105334,-100,4,2,1,70,0,0
106234,-100,4,2,1,70,0,1
112534,-100,4,2,1,70,0,0

[HitObjects]
192,192,934,5,2,0:0:0:0:
320,192,934,1,0,0:0:0:0:
448,192,934,1,0,0:0:0:0:
64,192,1009,1,0,0:0:0:0:
320,192,1084,1,0,0:0:0:0:
320,192,1234,1,0,0:0:0:0:
320,192,1384,1,0,0:0:0:0:
320,192,1534,1,0,0:0:0:0:
320,192,1684,1,0,0:0:0:0:
192,192,1721,1,0,0:0:0:0:
64,192,1759,1,0,0:0:0:0:
448,192,1796,1,0,0:0:0:0:
320,192,1834,1,0,0:0:0:0:
320,192,1984,1,0,0:0:0:0:
320,192,2134,1,0,0:0:0:0:
320,192,2284,1,0,0:0:0:0:
64,192,2434,1,0,0:0:0:0:
320,192,2509,1,0,0:0:0:0:
448,192,2584,1,0,0:0:0:0:
192,192,2621,1,0,0:0:0:0:
64,192,2659,1,0,0:0:0:0:
192,192,2734,1,2,0:0:0:0:
320,192,2734,1,0,0:0:0:0:
448,192,2734,1,0,0:0:0:0:
64,192,2809,1,0,0:0:0:0:
320,192,2884,1,0,0:0:0:0:
64,192,3034,1,2,0:0:0:0:
192,192,3034,1,8,0:0:0:0:
448,192,3034,1,0,0:0:0:0:
320,192,3184,1,0,0:0:0:0:
320,192,3334,1,0,0:0:0:0:
320,192,3484,1,0,0:0:0:0:
64,192,3559,1,0,0:0:0:0:
320,192,3634,1,0,0:0:0:0:
320,192,3784,1,0,0:0:0:0:
320,192,3934,1,0,0:0:0:0:
320,192,4084,1,0,0:0:0:0:
64,192,4234,1,0,0:0:0:0:
320,192,4309,128,0,4384:0:0:0:0:
192,192,4421,1,0,0:0:0:0:
64,192,4459,1,0,0:0:0:0:
192,192,4534,1,2,0:0:0:0:
320,192,4534,1,0,0:0:0:0:
448,192,4534,1,0,0:0:0:0:
64,192,4609,1,0,0:0:0:0:
320,192,4684,1,0,0:0:0:0:
320,192,4834,1,0,0:0:0:0:
320,192,4984,1,0,0:0:0:0:
320,192,5134,1,0,0:0:0:0:
320,192,5284,1,0,0:0:0:0:
192,192,5321,1,0,0:0:0:0:
64,192,5359,1,0,0:0:0:0:
448,192,5396,1,0,0:0:0:0:
320,192,5434,1,0,0:0:0:0:
320,192,5584,1,0,0:0:0:0:
320,192,5734,1,0,0:0:0:0:
320,192,5884,1,0,0:0:0:0:
64,192,6034,1,0,0:0:0:0:
320,192,6109,1,0,0:0:0:0:
448,192,6184,1,0,0:0:0:0:
192,192,6221,1,0,0:0:0:0:
64,192,6259,1,0,0:0:0:0:
192,192,6334,1,2,0:0:0:0:
320,192,6334,1,0,0:0:0:0:
448,192,6334,1,0,0:0:0:0:
64,192,6409,1,0,0:0:0:0:
320,192,6484,1,0,0:0:0:0:
64,192,6634,1,8,0:0:0:0:
192,192,6634,1,2,0:0:0:0:
448,192,6634,1,0,0:0:0:0:
320,192,6784,1,0,0:0:0:0:
320,192,6934,1,0,0:0:0:0:
320,192,7084,1,0,0:0:0:0:
64,192,7159,1,0,0:0:0:0:
320,192,7234,1,0,0:0:0:0:
64,192,7384,1,0,0:0:0:0:
448,192,7384,1,0,0:0:0:0:
192,192,7534,1,2,0:0:0:0:
320,192,7534,1,0,0:0:0:0:
448,192,7534,1,0,0:0:0:0:
64,192,7684,1,0,0:0:0:0:
448,192,7759,1,0,0:0:0:0:
64,192,7834,1,0,0:0:0:0:
320,192,7834,1,0,0:0:0:0:
192,192,7909,1,0,0:0:0:0:
448,192,7984,128,10,8059:0:0:0:0:
64,192,8059,1,0,0:0:0:0:
192,192,8134,1,2,0:0:0:0:
320,192,8134,1,0,0:0:0:0:
448,192,8134,1,0,0:0:0:0:
64,192,8209,1,0,0:0:0:0:
320,192,8284,1,0,0:0:0:0:
192,192,8321,1,0,0:0:0:0:
320,192,8434,1,0,0:0:0:0:
192,192,8509,1,0,0:0:0:0:
320,192,8584,1,0,0:0:0:0:
64,192,8621,1,0,0:0:0:0:
320,192,8734,1,0,0:0:0:0:
448,192,8809,1,0,0:0:0:0:
320,192,8884,1,0,0:0:0:0:
192,192,8921,1,0,0:0:0:0:
64,192,8959,1,0,0:0:0:0:
448,192,8996,1,0,0:0:0:0:
320,192,9034,1,0,0:0:0:0:
192,192,9084,1,0,0:0:0:0:
448,192,9134,1,0,0:0:0:0:
320,192,9184,1,0,0:0:0:0:
64,192,9234,1,0,0:0:0:0:
192,192,9284,1,0,0:0:0:0:
448,192,9334,1,0,0:0:0:0:
192,192,9521,128,0,9634:0:0:0:0:
64,192,9634,1,0,0:0:0:0:
320,192,9709,1,0,0:0:0:0:
448,192,9784,1,0,0:0:0:0:
192,192,9821,1,0,0:0:0:0:
64,192,9859,1,0,0:0:0:0:
192,192,9934,1,2,0:0:0:0:
320,192,9934,1,0,0:0:0:0:
448,192,9934,1,0,0:0:0:0:
64,192,10009,1,0,0:0:0:0:
320,192,10084,1,0,0:0:0:0:
64,192,10234,1,2,0:0:0:0:
192,192,10234,1,8,0:0:0:0:
448,192,10234,1,0,0:0:0:0:
320,192,10384,1,0,0:0:0:0:
192,192,10421,1,0,0:0:0:0:
320,192,10534,1,0,0:0:0:0:
320,192,10684,1,0,0:0:0:0:
448,192,10721,1,0,0:0:0:0:
64,192,10759,1,0,0:0:0:0:
320,192,10834,1,0,0:0:0:0:
64,192,10884,1,0,0:0:0:0:
448,192,10934,1,0,0:0:0:0:
320,192,10984,1,0,0:0:0:0:
64,192,11034,1,0,0:0:0:0:
192,192,11084,1,0,0:0:0:0:
320,192,11134,1,0,0:0:0:0:
320,192,11284,1,0,0:0:0:0:
192,192,11321,1,0,0:0:0:0:
64,192,11434,1,0,0:0:0:0:
320,192,11509,128,0,11584:0:0:0:0:
192,192,11621,1,0,0:0:0:0:
64,192,11659,1,0,0:0:0:0:
192,192,11734,1,2,0:0:0:0:
320,192,11734,1,0,0:0:0:0:
448,192,11734,1,0,0:0:0:0:
64,192,11809,1,0,0:0:0:0:
320,192,11884,1,0,0:0:0:0:
448,192,11934,1,0,0:0:0:0:
64,192,11984,1,0,0:0:0:0:
320,192,12034,1,0,0:0:0:0:
320,192,12184,1,0,0:0:0:0:
448,192,12234,1,0,0:0:0:0:
64,192,12284,1,0,0:0:0:0:
320,192,12334,1,0,0:0:0:0:
192,192,12384,1,0,0:0:0:0:
448,192,12434,1,0,0:0:0:0:
320,192,12484,1,0,0:0:0:0:
192,192,12521,1,0,0:0:0:0:
64,192,12559,1,0,0:0:0:0:
448,192,12596,1,0,0:0:0:0:
320,192,12634,1,0,0:0:0:0:
320,192,12784,1,0,0:0:0:0:
192,192,12859,1,0,0:0:0:0:
320,192,12934,1,0,0:0:0:0:
192,192,12971,1,0,0:0:0:0:
320,192,13084,1,0,0:0:0:0:
448,192,13109,1,0,0:0:0:0:
64,192,13234,1,0,0:0:0:0:
320,192,13309,1,0,0:0:0:0:
448,192,13384,1,0,0:0:0:0:
192,192,13421,1,0,0:0:0:0:
64,192,13459,1,0,0:0:0:0:
192,192,13534,1,2,0:0:0:0:
320,192,13534,1,0,0:0:0:0:
448,192,13534,1,0,0:0:0:0:
64,192,13609,1,0,0:0:0:0:
320,192,13684,1,0,0:0:0:0:
64,192,13834,1,8,0:0:0:0:
320,192,13834,1,2,0:0:0:0:
448,192,13834,1,0,0:0:0:0:
192,192,13909,1,0,0:0:0:0:
320,192,13984,1,0,0:0:0:0:
64,192,14059,1,0,0:0:0:0:
320,192,14134,1,0,0:0:0:0:
192,192,14209,1,0,0:0:0:0:
320,192,14284,1,0,0:0:0:0:
64,192,14359,1,0,0:0:0:0:
320,192,14434,1,0,0:0:0:0:
192,192,14546,1,0,0:0:0:0:
64,192,14584,1,0,0:0:0:0:
448,192,14584,1,0,0:0:0:0:
192,192,14734,1,2,0:0:0:0:
320,192,14734,1,0,0:0:0:0:
448,192,14734,1,0,0:0:0:0:
64,192,14809,1,0,0:0:0:0:
192,192,14884,1,0,0:0:0:0:
448,192,14959,1,0,0:0:0:0:
64,192,15034,1,0,0:0:0:0:
320,192,15034,1,0,0:0:0:0:
192,192,15109,1,0,0:0:0:0:
448,192,15184,128,10,15259:0:0:0:0:
64,192,15259,1,0,0:0:0:0:
192,192,15334,1,2,0:0:0:0:
320,192,15334,1,0,0:0:0:0:
448,192,15334,1,0,0:0:0:0:
64,192,15409,1,0,0:0:0:0:
448,192,15484,1,0,0:0:0:0:
192,192,15559,1,0,0:0:0:0:
64,192,15821,128,0,19534:0:0:0:0:
64,192,19609,1,0,0:0:0:0:
192,192,19834,1,2,0:0:0:0:
320,192,19834,1,0,0:0:0:0:
448,192,19834,1,0,0:0:0:0:
64,192,19909,1,0,0:0:0:0:
448,192,19984,128,0,20434:0:0:0:0:
64,192,20434,128,0,20884:0:0:0:0:
320,192,20884,1,0,0:0:0:0:
64,192,20959,1,0,0:0:0:0:
320,192,21034,1,0,0:0:0:0:
192,192,21109,1,0,0:0:0:0:
448,192,21184,1,0,0:0:0:0:
192,192,21259,1,0,0:0:0:0:
320,192,21334,1,0,0:0:0:0:
64,192,21409,1,0,0:0:0:0:
320,192,21484,1,0,0:0:0:0:
192,192,21559,1,0,0:0:0:0:
448,192,21634,1,0,0:0:0:0:
192,192,21709,1,0,0:0:0:0:
320,192,21784,1,0,0:0:0:0:
64,192,21859,1,0,0:0:0:0:
320,192,21934,1,0,0:0:0:0:
192,192,22009,1,0,0:0:0:0:
448,192,22084,1,0,0:0:0:0:
192,192,22159,1,0,0:0:0:0:
320,192,22234,1,0,0:0:0:0:
64,192,22309,1,0,0:0:0:0:
320,192,22384,1,0,0:0:0:0:
192,192,22459,1,0,0:0:0:0:
448,192,22534,1,0,0:0:0:0:
192,192,22609,1,0,0:0:0:0:
320,192,22684,1,0,0:0:0:0:
64,192,22759,1,0,0:0:0:0:
320,192,22834,1,0,0:0:0:0:
192,192,22909,1,0,0:0:0:0:
320,192,22984,1,0,0:0:0:0:
192,192,23059,1,0,0:0:0:0:
448,192,23134,1,0,0:0:0:0:
64,192,23209,1,0,0:0:0:0:
448,192,23284,1,0,0:0:0:0:
64,192,23359,1,0,0:0:0:0:
320,192,23434,1,0,0:0:0:0:
192,192,23509,1,0,0:0:0:0:
320,192,23584,1,0,0:0:0:0:
192,192,23659,1,0,0:0:0:0:
448,192,23734,1,0,0:0:0:0:
64,192,23809,1,0,0:0:0:0:
448,192,23884,1,0,0:0:0:0:
64,192,23959,1,0,0:0:0:0:
320,192,24034,1,0,0:0:0:0:
192,192,24109,1,0,0:0:0:0:
320,192,24184,1,0,0:0:0:0:
192,192,24259,1,0,0:0:0:0:
448,192,24334,1,0,0:0:0:0:
64,192,24409,1,0,0:0:0:0:
448,192,24484,1,0,0:0:0:0:
64,192,24559,1,0,0:0:0:0:
320,192,24634,1,0,0:0:0:0:
320,192,24709,1,0,0:0:0:0:
64,192,24784,1,0,0:0:0:0:
64,192,24859,1,0,0:0:0:0:
320,192,24934,1,0,0:0:0:0:
320,192,25009,1,0,0:0:0:0:
192,192,25084,1,0,0:0:0:0:
192,192,25159,1,0,0:0:0:0:
448,192,25234,1,0,0:0:0:0:
448,192,25309,1,0,0:0:0:0:
64,192,25384,1,0,0:0:0:0:
64,192,25459,1,0,0:0:0:0:
320,192,25534,1,0,0:0:0:0:
320,192,25609,1,0,0:0:0:0:
192,192,25684,1,0,0:0:0:0:
192,192,25759,1,0,0:0:0:0:
448,192,25834,1,0,0:0:0:0:
448,192,25909,1,0,0:0:0:0:
192,192,25984,1,0,0:0:0:0:
192,192,26059,1,0,0:0:0:0:
320,192,26134,1,0,0:0:0:0:
320,192,26209,1,0,0:0:0:0:
64,192,26284,1,0,0:0:0:0:
64,192,26359,1,0,0:0:0:0:
448,192,26434,1,0,0:0:0:0:
448,192,26509,1,0,0:0:0:0:
192,192,26584,1,0,0:0:0:0:
192,192,26659,1,0,0:0:0:0:
320,192,26734,1,0,0:0:0:0:
448,192,26759,1,0,0:0:0:0:
192,192,26809,1,0,0:0:0:0:
64,192,26834,1,0,0:0:0:0:
320,192,26884,1,0,0:0:0:0:
448,192,26909,1,0,0:0:0:0:
192,192,26959,1,0,0:0:0:0:
64,192,26984,1,0,0:0:0:0:
320,192,27034,1,2,0:0:0:0:
448,192,27034,1,0,0:0:0:0:
64,192,27109,1,0,0:0:0:0:
192,192,27184,1,0,0:0:0:0:
448,192,27259,1,0,0:0:0:0:
64,192,27334,1,8,0:0:0:0:
192,192,27334,1,2,0:0:0:0:
320,192,27334,1,0,0:0:0:0:
448,192,27484,1,0,0:0:0:0:
64,192,27559,1,0,0:0:0:0:
320,192,27634,1,2,0:0:0:0:
448,192,27634,1,0,0:0:0:0:
64,192,27784,1,8,0:0:0:0:
320,192,27784,1,2,0:0:0:0:
448,192,27784,1,0,0:0:0:0:
64,192,27934,1,2,0:0:0:0:
192,192,27934,1,0,0:0:0:0:
320,192,28009,1,0,0:0:0:0:
64,192,28084,1,0,0:0:0:0:
448,192,28159,1,0,0:0:0:0:
64,192,28234,1,8,0:0:0:0:
192,192,28234,1,0,0:0:0:0:
320,192,28234,1,0,0:0:0:0:
448,192,28384,1,0,0:0:0:0:
64,192,28459,1,0,0:0:0:0:
320,192,28534,1,2,0:0:0:0:
448,192,28534,1,0,0:0:0:0:
192,192,28609,128,0,28684:0:0:0:0:
64,192,28684,1,2,0:0:0:0:
320,192,28684,1,8,0:0:0:0:
192,192,28759,128,0,28834:0:0:0:0:
320,192,28834,1,2,0:0:0:0:
448,192,28834,1,0,0:0:0:0:
64,192,28909,1,0,0:0:0:0:
320,192,28984,1,0,0:0:0:0:
192,192,29059,1,0,0:0:0:0:
64,192,29134,1,2,0:0:0:0:
320,192,29134,1,8,0:0:0:0:
448,192,29134,1,0,0:0:0:0:
448,192,29284,1,0,0:0:0:0:
64,192,29359,1,0,0:0:0:0:
320,192,29434,1,2,0:0:0:0:
448,192,29434,1,0,0:0:0:0:
64,192,29584,1,2,0:0:0:0:
320,192,29584,1,8,0:0:0:0:
448,192,29584,1,0,0:0:0:0:
64,192,29734,1,2,0:0:0:0:
192,192,29734,1,0,0:0:0:0:
320,192,29809,1,0,0:0:0:0:
448,192,29884,1,0,0:0:0:0:
192,192,29959,1,0,0:0:0:0:
64,192,30034,1,8,0:0:0:0:
320,192,30034,1,0,0:0:0:0:
448,192,30034,1,0,0:0:0:0:
64,192,30184,1,0,0:0:0:0:
320,192,30259,1,0,0:0:0:0:
64,192,30334,1,2,0:0:0:0:
192,192,30334,1,0,0:0:0:0:
320,192,30409,1,2,0:0:0:0:
448,192,30409,1,0,0:0:0:0:
64,192,30484,1,8,0:0:0:0:
320,192,30559,1,2,0:0:0:0:
448,192,30559,1,0,0:0:0:0:
64,192,30634,1,2,0:0:0:0:
192,192,30634,1,0,0:0:0:0:
320,192,30709,1,0,0:0:0:0:
192,192,30784,1,0,0:0:0:0:
448,192,30859,1,0,0:0:0:0:
64,192,30934,1,2,0:0:0:0:
192,192,30934,1,8,0:0:0:0:
320,192,30934,1,0,0:0:0:0:
448,192,31084,1,0,0:0:0:0:
64,192,31159,1,0,0:0:0:0:
320,192,31234,1,2,0:0:0:0:
448,192,31234,1,0,0:0:0:0:
64,192,31384,1,2,0:0:0:0:
320,192,31384,1,8,0:0:0:0:
448,192,31384,1,0,0:0:0:0:
64,192,31534,1,2,0:0:0:0:
192,192,31534,1,0,0:0:0:0:
320,192,31609,1,0,0:0:0:0:
64,192,31684,1,0,0:0:0:0:
448,192,31759,1,0,0:0:0:0:
64,192,31834,1,8,0:0:0:0:
192,192,31834,1,0,0:0:0:0:
320,192,31834,1,0,0:0:0:0:
448,192,31984,1,0,0:0:0:0:
64,192,32059,1,0,0:0:0:0:
320,192,32134,1,2,0:0:0:0:
448,192,32134,1,0,0:0:0:0:
192,192,32209,128,0,32284:0:0:0:0:
64,192,32284,1,8,0:0:0:0:
320,192,32284,1,2,0:0:0:0:
192,192,32359,128,0,32434:0:0:0:0:
320,192,32434,1,2,0:0:0:0:
448,192,32434,1,0,0:0:0:0:
64,192,32509,1,0,0:0:0:0:
320,192,32584,1,0,0:0:0:0:
192,192,32659,1,0,0:0:0:0:
64,192,32734,1,8,0:0:0:0:
320,192,32734,1,2,0:0:0:0:
448,192,32734,1,0,0:0:0:0:
448,192,32884,1,0,0:0:0:0:
64,192,32959,1,0,0:0:0:0:
320,192,33034,1,2,0:0:0:0:
448,192,33034,1,0,0:0:0:0:
64,192,33184,1,8,0:0:0:0:
320,192,33184,1,2,0:0:0:0:
448,192,33184,1,0,0:0:0:0:
64,192,33334,1,2,0:0:0:0:
192,192,33334,1,0,0:0:0:0:
320,192,33409,1,0,0:0:0:0:
448,192,33484,1,0,0:0:0:0:
192,192,33559,1,0,0:0:0:0:
64,192,33634,1,8,0:0:0:0:
320,192,33634,1,0,0:0:0:0:
448,192,33634,1,0,0:0:0:0:
64,192,33784,1,0,0:0:0:0:
320,192,33859,1,0,0:0:0:0:
64,192,33934,1,2,0:0:0:0:
192,192,33934,1,0,0:0:0:0:
320,192,34009,1,2,0:0:0:0:
448,192,34009,1,0,0:0:0:0:
192,192,34084,1,8,0:0:0:0:
320,192,34159,1,2,0:0:0:0:
448,192,34159,1,0,0:0:0:0:
64,192,34234,1,2,0:0:0:0:
192,192,34234,1,0,0:0:0:0:
448,192,34309,1,0,0:0:0:0:
320,192,34384,1,0,0:0:0:0:
64,192,34459,1,0,0:0:0:0:
192,192,34534,1,8,0:0:0:0:
320,192,34534,1,2,0:0:0:0:
448,192,34534,1,0,0:0:0:0:
64,192,34609,1,0,0:0:0:0:
320,192,34684,1,0,0:0:0:0:
448,192,34759,1,0,0:0:0:0:
64,192,34834,1,2,0:0:0:0:
192,192,34834,1,0,0:0:0:0:
320,192,34909,1,0,0:0:0:0:
64,192,34984,1,8,0:0:0:0:
192,192,34984,1,2,0:0:0:0:
448,192,34984,1,0,0:0:0:0:
320,192,35134,1,2,0:0:0:0:
448,192,35134,1,0,0:0:0:0:
192,192,35209,1,0,0:0:0:0:
448,192,35284,1,0,0:0:0:0:
64,192,35359,1,0,0:0:0:0:
192,192,35434,1,8,0:0:0:0:
320,192,35434,1,0,0:0:0:0:
448,192,35434,1,0,0:0:0:0:
64,192,35584,1,0,0:0:0:0:
448,192,35659,1,0,0:0:0:0:
64,192,35734,1,2,0:0:0:0:
192,192,35734,1,0,0:0:0:0:
320,192,35809,128,0,35884:0:0:0:0:
192,192,35884,1,2,0:0:0:0:
448,192,35884,1,8,0:0:0:0:
320,192,35959,128,0,36034:0:0:0:0:
64,192,36034,1,2,0:0:0:0:
192,192,36034,1,0,0:0:0:0:
448,192,36109,1,0,0:0:0:0:
192,192,36184,1,0,0:0:0:0:
320,192,36259,1,0,0:0:0:0:
64,192,36334,1,2,0:0:0:0:
192,192,36334,1,8,0:0:0:0:
448,192,36334,1,0,0:0:0:0:
320,192,36409,1,0,0:0:0:0:
64,192,36484,1,0,0:0:0:0:
448,192,36559,1,0,0:0:0:0:
64,192,36634,1,2,0:0:0:0:
192,192,36634,1,0,0:0:0:0:
64,192,36784,1,2,0:0:0:0:
192,192,36784,1,8,0:0:0:0:
448,192,36784,1,0,0:0:0:0:
320,192,36934,1,2,0:0:0:0:
448,192,36934,1,0,0:0:0:0:
192,192,37009,1,0,0:0:0:0:
64,192,37084,1,0,0:0:0:0:
320,192,37159,1,0,0:0:0:0:
64,192,37234,1,8,0:0:0:0:
192,192,37234,1,0,0:0:0:0:
448,192,37234,1,0,0:0:0:0:
448,192,37384,1,0,0:0:0:0:
192,192,37459,1,0,0:0:0:0:
320,192,37534,1,2,0:0:0:0:
448,192,37534,1,0,0:0:0:0:
64,192,37609,1,2,0:0:0:0:
192,192,37609,1,0,0:0:0:0:
448,192,37684,1,8,0:0:0:0:
64,192,37759,1,2,0:0:0:0:
192,192,37759,1,0,0:0:0:0:
320,192,37834,1,2,0:0:0:0:
448,192,37834,1,0,0:0:0:0:
192,192,37909,1,0,0:0:0:0:
320,192,37984,1,0,0:0:0:0:
64,192,38059,1,0,0:0:0:0:
192,192,38134,1,2,0:0:0:0:
320,192,38134,1,8,0:0:0:0:
448,192,38134,1,0,0:0:0:0:
64,192,38209,1,0,0:0:0:0:
320,192,38284,1,0,0:0:0:0:
448,192,38359,1,0,0:0:0:0:
64,192,38434,1,2,0:0:0:0:
192,192,38434,1,0,0:0:0:0:
320,192,38509,1,0,0:0:0:0:
64,192,38584,1,2,0:0:0:0:
192,192,38584,1,8,0:0:0:0:
448,192,38584,1,0,0:0:0:0:
320,192,38734,1,2,0:0:0:0:
448,192,38734,1,0,0:0:0:0:
192,192,38809,1,0,0:0:0:0:
448,192,38884,1,0,0:0:0:0:
64,192,38959,1,0,0:0:0:0:
192,192,39034,1,8,0:0:0:0:
320,192,39034,1,0,0:0:0:0:
448,192,39034,1,0,0:0:0:0:
64,192,39184,1,0,0:0:0:0:
448,192,39259,1,0,0:0:0:0:
64,192,39334,1,2,0:0:0:0:
192,192,39334,1,0,0:0:0:0:
320,192,39409,128,0,39484:0:0:0:0:
192,192,39484,1,8,0:0:0:0:
448,192,39484,1,2,0:0:0:0:
320,192,39559,128,0,39634:0:0:0:0:
64,192,39634,1,2,0:0:0:0:
192,192,39634,1,0,0:0:0:0:
448,192,39709,1,0,0:0:0:0:
192,192,39784,1,0,0:0:0:0:
320,192,39859,1,0,0:0:0:0:
64,192,39934,1,8,0:0:0:0:
192,192,39934,1,2,0:0:0:0:
448,192,39934,1,0,0:0:0:0:
320,192,40009,1,0,0:0:0:0:
64,192,40084,1,0,0:0:0:0:
448,192,40159,1,0,0:0:0:0:
64,192,40234,1,2,0:0:0:0:
192,192,40234,1,0,0:0:0:0:
64,192,40384,1,8,0:0:0:0:
192,192,40384,1,2,0:0:0:0:
448,192,40384,1,0,0:0:0:0:
320,192,40534,1,2,0:0:0:0:
448,192,40534,1,0,0:0:0:0:
192,192,40609,1,0,0:0:0:0:
320,192,40684,1,0,0:0:0:0:
64,192,40759,1,0,0:0:0:0:
448,192,40834,1,0,0:0:0:70:Drumstart_040_d.wav
448,192,40909,1,0,0:0:0:70:Drumstart_040_d.wav
192,192,40984,1,0,0:0:0:70:Drumstart_040_c.wav
192,192,41059,1,0,0:0:0:70:Drumstart_040_c.wav
320,192,41134,1,0,0:0:0:70:Drumstart_040_b.wav
320,192,41209,1,0,0:0:0:70:Drumstart_040_b.wav
64,192,41284,1,0,0:0:0:70:Drumstart_040_a.wav
64,192,41359,1,0,0:0:0:70:Drumstart_040_a.wav
192,192,41434,1,2,0:0:0:0:
320,192,41434,1,0,0:0:0:0:
448,192,41434,1,0,0:0:0:0:
64,192,41509,1,0,0:0:0:0:
448,192,41584,1,0,0:0:0:0:
192,192,41659,1,0,0:0:0:0:
64,192,41734,1,2,0:0:0:0:
320,192,41734,1,8,0:0:0:0:
448,192,41734,1,0,0:0:0:0:
64,192,41884,1,0,0:0:0:0:
320,192,41959,1,0,0:0:0:0:
64,192,42034,1,2,0:0:0:0:
192,192,42034,1,0,0:0:0:0:
64,192,42184,1,2,0:0:0:0:
448,192,42184,1,8,0:0:0:0:
320,192,42221,1,0,0:0:0:0:
192,192,42259,1,0,0:0:0:0:
64,192,42296,1,0,0:0:0:0:
320,192,42334,1,2,0:0:0:0:
192,192,42409,1,0,0:0:0:0:
448,192,42484,1,0,0:0:0:0:
64,192,42559,1,0,0:0:0:0:
192,192,42634,1,8,0:0:0:0:
320,192,42634,1,0,0:0:0:0:
448,192,42634,1,0,0:0:0:0:
64,192,42784,1,0,0:0:0:0:
320,192,42859,1,0,0:0:0:0:
64,192,42934,1,2,0:0:0:0:
192,192,42934,1,0,0:0:0:0:
320,192,43009,128,0,43084:0:0:0:0:
64,192,43084,1,8,0:0:0:0:
448,192,43084,1,2,0:0:0:0:
192,192,43159,128,0,43234:0:0:0:0:
320,192,43234,1,2,0:0:0:0:
448,192,43234,1,0,0:0:0:0:
64,192,43309,1,0,0:0:0:0:
448,192,43384,1,0,0:0:0:0:
192,192,43459,1,0,0:0:0:0:
64,192,43534,1,8,0:0:0:0:
320,192,43534,1,2,0:0:0:0:
448,192,43534,1,0,0:0:0:0:
192,192,43684,1,0,0:0:0:0:
320,192,43759,1,0,0:0:0:0:
64,192,43834,1,2,0:0:0:0:
192,192,43834,1,0,0:0:0:0:
64,192,43984,1,8,0:0:0:0:
448,192,43984,1,2,0:0:0:0:
320,192,44021,1,0,0:0:0:0:
192,192,44059,1,0,0:0:0:0:
64,192,44096,1,0,0:0:0:0:
320,192,44134,1,2,0:0:0:0:
192,192,44209,1,0,0:0:0:0:
448,192,44284,1,0,0:0:0:0:
64,192,44359,1,0,0:0:0:0:
192,192,44434,1,8,0:0:0:0:
320,192,44434,1,0,0:0:0:0:
448,192,44434,1,0,0:0:0:0:
64,192,44584,1,0,0:0:0:0:
320,192,44659,1,0,0:0:0:0:
64,192,44734,1,2,0:0:0:0:
192,192,44734,1,0,0:0:0:0:
320,192,44809,1,2,0:0:0:0:
448,192,44809,1,0,0:0:0:0:
192,192,44884,1,8,0:0:0:0:
320,192,44959,1,2,0:0:0:0:
448,192,44959,1,0,0:0:0:0:
64,192,45034,1,2,0:0:0:0:
192,192,45034,1,0,0:0:0:0:
448,192,45109,1,0,0:0:0:0:
320,192,45184,1,0,0:0:0:0:
64,192,45259,1,0,0:0:0:0:
192,192,45334,1,8,0:0:0:0:
320,192,45334,1,2,0:0:0:0:
448,192,45334,1,0,0:0:0:0:
64,192,45484,1,0,0:0:0:0:
320,192,45559,1,0,0:0:0:0:
64,192,45634,1,2,0:0:0:0:
192,192,45634,1,0,0:0:0:0:
64,192,45784,1,8,0:0:0:0:
448,192,45784,1,2,0:0:0:0:
320,192,45821,1,0,0:0:0:0:
192,192,45859,1,0,0:0:0:0:
64,192,45896,1,0,0:0:0:0:
320,192,45934,1,2,0:0:0:0:
192,192,46009,1,0,0:0:0:0:
448,192,46084,1,0,0:0:0:0:
64,192,46159,1,0,0:0:0:0:
192,192,46234,1,8,0:0:0:0:
320,192,46234,1,0,0:0:0:0:
448,192,46234,1,0,0:0:0:0:
64,192,46384,1,0,0:0:0:0:
320,192,46459,1,0,0:0:0:0:
64,192,46534,1,2,0:0:0:0:
192,192,46534,1,0,0:0:0:0:
320,192,46609,128,0,46684:0:0:0:0:
64,192,46684,1,2,0:0:0:0:
448,192,46684,1,8,0:0:0:0:
192,192,46759,128,0,46834:0:0:0:0:
320,192,46834,1,2,0:0:0:0:
448,192,46834,1,0,0:0:0:0:
64,192,46909,1,0,0:0:0:0:
448,192,46984,1,0,0:0:0:0:
192,192,47059,1,0,0:0:0:0:
64,192,47134,1,2,0:0:0:0:
320,192,47134,1,8,0:0:0:0:
448,192,47134,1,0,0:0:0:0:
192,192,47284,1,0,0:0:0:0:
320,192,47359,1,0,0:0:0:0:
64,192,47434,1,2,0:0:0:0:
192,192,47434,1,0,0:0:0:0:
64,192,47584,1,2,0:0:0:0:
448,192,47584,1,8,0:0:0:0:
320,192,47621,1,0,0:0:0:0:
192,192,47659,1,0,0:0:0:0:
64,192,47696,1,0,0:0:0:0:
320,192,47734,1,2,0:0:0:0:
192,192,47809,1,0,0:0:0:0:
448,192,47884,1,0,0:0:0:0:
64,192,47959,1,0,0:0:0:0:
192,192,48034,1,8,0:0:0:0:
320,192,48034,1,0,0:0:0:0:
448,192,48034,1,0,0:0:0:0:
64,192,48184,1,0,0:0:0:0:
320,192,48259,1,0,0:0:0:0:
64,192,48334,1,2,0:0:0:0:
192,192,48334,1,0,0:0:0:0:
320,192,48409,1,2,0:0:0:0:
448,192,48409,1,0,0:0:0:0:
64,192,48484,1,8,0:0:0:0:
320,192,48559,1,2,0:0:0:0:
448,192,48559,1,0,0:0:0:0:
64,192,48634,1,2,0:0:0:0:
192,192,48634,1,0,0:0:0:0:
448,192,48709,1,0,0:0:0:0:
320,192,48784,1,0,0:0:0:0:
64,192,48859,1,0,0:0:0:0:
192,192,48934,1,2,0:0:0:0:
320,192,48934,1,8,0:0:0:0:
448,192,48934,1,0,0:0:0:0:
64,192,49084,1,0,0:0:0:0:
320,192,49159,1,0,0:0:0:0:
64,192,49234,1,2,0:0:0:0:
192,192,49234,1,0,0:0:0:0:
64,192,49384,1,2,0:0:0:0:
448,192,49384,1,8,0:0:0:0:
320,192,49421,1,0,0:0:0:0:
192,192,49459,1,0,0:0:0:0:
64,192,49496,1,0,0:0:0:0:
320,192,49534,1,2,0:0:0:0:
192,192,49609,1,0,0:0:0:0:
448,192,49684,1,0,0:0:0:0:
64,192,49759,1,0,0:0:0:0:
192,192,49834,1,8,0:0:0:0:
320,192,49834,1,0,0:0:0:0:
448,192,49834,1,0,0:0:0:0:
64,192,49984,1,0,0:0:0:0:
320,192,50059,1,0,0:0:0:0:
64,192,50134,1,2,0:0:0:0:
192,192,50134,1,0,0:0:0:0:
320,192,50209,128,0,50284:0:0:0:0:
64,192,50284,1,8,0:0:0:0:
448,192,50284,1,2,0:0:0:0:
192,192,50359,128,0,50434:0:0:0:0:
320,192,50434,1,2,0:0:0:0:
448,192,50434,1,0,0:0:0:0:
64,192,50509,1,0,0:0:0:0:
448,192,50584,1,0,0:0:0:0:
192,192,50659,1,0,0:0:0:0:
64,192,50734,1,8,0:0:0:0:
320,192,50734,1,2,0:0:0:0:
448,192,50734,1,0,0:0:0:0:
192,192,50884,1,0,0:0:0:0:
320,192,50959,1,0,0:0:0:0:
64,192,51034,1,2,0:0:0:0:
192,192,51034,1,0,0:0:0:0:
64,192,51184,1,8,0:0:0:0:
448,192,51184,1,2,0:0:0:0:
320,192,51221,1,0,0:0:0:0:
192,192,51259,1,0,0:0:0:0:
64,192,51296,1,0,0:0:0:0:
320,192,51334,1,2,0:0:0:0:
192,192,51409,1,0,0:0:0:0:
448,192,51484,1,0,0:0:0:0:
64,192,51559,1,0,0:0:0:0:
192,192,51634,1,8,0:0:0:0:
320,192,51634,1,0,0:0:0:0:
448,192,51634,1,0,0:0:0:0:
64,192,51784,1,0,0:0:0:0:
320,192,51859,1,0,0:0:0:0:
64,192,51934,1,2,0:0:0:0:
192,192,51934,1,0,0:0:0:0:
320,192,52009,1,2,0:0:0:0:
448,192,52009,1,0,0:0:0:0:
192,192,52084,1,8,0:0:0:0:
320,192,52159,1,2,0:0:0:0:
448,192,52159,1,0,0:0:0:0:
64,192,52234,1,2,0:0:0:0:
192,192,52234,1,0,0:0:0:0:
448,192,52309,1,0,0:0:0:0:
320,192,52384,1,0,0:0:0:0:
64,192,52459,1,0,0:0:0:0:
192,192,52534,1,8,0:0:0:0:
320,192,52534,1,2,0:0:0:0:
448,192,52534,1,0,0:0:0:0:
64,192,52684,1,0,0:0:0:0:
192,192,52721,1,0,0:0:0:0:
448,192,52759,1,0,0:0:0:0:
320,192,52796,1,0,0:0:0:0:
64,192,52834,1,2,0:0:0:0:
192,192,52834,1,0,0:0:0:0:
64,192,52984,1,8,0:0:0:0:
448,192,52984,1,2,0:0:0:0:
320,192,53021,1,0,0:0:0:0:
192,192,53059,1,0,0:0:0:0:
64,192,53096,1,0,0:0:0:0:
192,192,53209,1,0,0:0:0:0:
448,192,53284,1,0,0:0:0:0:
64,192,53309,1,0,0:0:0:0:
192,192,53434,1,8,0:0:0:0:
320,192,53434,1,0,0:0:0:0:
448,192,53434,1,0,0:0:0:0:
64,192,53584,1,0,0:0:0:0:
320,192,53659,1,0,0:0:0:0:
64,192,53734,1,2,0:0:0:0:
192,192,53734,1,0,0:0:0:0:
320,192,53809,128,0,53884:0:0:0:0:
64,192,53884,1,2,0:0:0:0:
448,192,53884,1,8,0:0:0:0:
192,192,53959,128,0,54034:0:0:0:0:
320,192,54034,1,2,0:0:0:0:
448,192,54034,1,0,0:0:0:0:
64,192,54109,1,0,0:0:0:0:
448,192,54184,1,0,0:0:0:0:
320,192,54221,1,0,0:0:0:0:
64,192,54259,1,0,0:0:0:0:
192,192,54334,1,10,0:0:0:0:
320,192,54371,1,0,0:0:0:0:
448,192,54409,1,0,0:0:0:0:
192,192,54484,1,0,0:0:0:0:
320,192,54559,1,0,0:0:0:0:
64,192,54634,1,2,0:0:0:0:
192,192,54634,1,0,0:0:0:0:
64,192,54784,1,2,0:0:0:0:
448,192,54784,1,8,0:0:0:0:
320,192,54821,1,0,0:0:0:0:
192,192,54859,1,0,0:0:0:0:
64,192,54896,1,0,0:0:0:0:
192,192,55009,1,0,0:0:0:0:
448,192,55084,1,0,0:0:0:0:
320,192,55121,1,0,0:0:0:0:
64,192,55159,1,0,0:0:0:0:
192,192,55234,1,0,0:0:0:0:
320,192,55271,1,0,0:0:0:0:
448,192,55309,1,0,0:0:0:0:
64,192,55384,1,0,0:0:0:0:
320,192,55459,1,0,0:0:0:0:
64,192,55534,1,0,0:0:0:0:
192,192,55571,1,0,0:0:0:0:
448,192,55609,1,0,0:0:0:0:
64,192,55646,1,0,0:0:0:0:
320,192,55684,1,0,0:0:0:0:
192,192,55721,1,0,0:0:0:0:
448,192,55759,1,0,0:0:0:0:
64,192,55834,1,2,0:0:0:0:
192,192,55834,1,0,0:0:0:0:
320,192,55909,1,0,0:0:0:0:
448,192,55984,1,0,0:0:0:0:
64,192,56059,1,0,0:0:0:0:
192,192,56134,1,8,0:0:0:0:
320,192,56134,1,2,0:0:0:0:
448,192,56134,1,0,0:0:0:0:
64,192,56284,1,2,0:0:0:0:
192,192,56284,1,0,0:0:0:0:
320,192,56359,1,0,0:0:0:0:
448,192,56434,1,0,0:0:0:0:
64,192,56509,1,0,0:0:0:0:
192,192,56584,1,8,0:0:0:0:
320,192,56584,1,2,0:0:0:0:
448,192,56584,1,0,0:0:0:0:
64,192,56734,1,2,0:0:0:0:
192,192,56734,1,0,0:0:0:0:
320,192,56809,1,0,0:0:0:0:
448,192,56884,1,0,0:0:0:0:
64,192,56959,1,0,0:0:0:0:
192,192,57034,1,2,0:0:0:0:
320,192,57034,1,8,0:0:0:0:
448,192,57034,1,0,0:0:0:0:
192,192,57184,1,2,0:0:0:0:
320,192,57184,1,0,0:0:0:0:
64,192,57259,1,2,0:0:0:0:
448,192,57259,1,0,0:0:0:0:
192,192,57334,1,0,0:0:0:0:
320,192,57334,1,0,0:0:0:0:
64,192,57409,1,2,0:0:0:0:
448,192,57409,1,0,0:0:0:0:
192,192,57484,1,8,0:0:0:0:
320,192,57484,1,2,0:0:0:0:
64,192,57559,1,0,0:0:0:0:
320,192,57634,1,2,0:0:0:0:
448,192,57634,1,0,0:0:0:0:
192,192,57709,1,0,0:0:0:0:
64,192,57784,1,0,0:0:0:0:
320,192,57859,1,0,0:0:0:0:
64,192,57934,1,8,0:0:0:0:
192,192,57934,1,2,0:0:0:0:
448,192,57934,1,0,0:0:0:0:
320,192,58084,1,2,0:0:0:0:
448,192,58084,1,0,0:0:0:0:
192,192,58159,1,0,0:0:0:0:
64,192,58234,1,0,0:0:0:0:
320,192,58309,1,0,0:0:0:0:
64,192,58384,1,8,0:0:0:0:
192,192,58384,1,2,0:0:0:0:
448,192,58384,1,0,0:0:0:0:
320,192,58534,128,2,58609:0:0:0:0:
448,192,58534,128,0,58609:0:0:0:0:
192,192,58609,1,0,0:0:0:0:
64,192,58684,1,0,0:0:0:0:
320,192,58759,1,0,0:0:0:0:
64,192,58834,1,2,0:0:0:0:
192,192,58834,1,8,0:0:0:0:
448,192,58834,1,0,0:0:0:0:
320,192,58984,1,2,0:0:0:0:
448,192,58984,1,0,0:0:0:0:
192,192,59059,1,2,0:0:0:0:
320,192,59096,1,2,0:0:0:0:
64,192,59134,1,2,0:0:0:0:
448,192,59134,1,0,0:0:0:0:
192,192,59209,1,2,0:0:0:0:
448,192,59284,1,8,0:0:0:0:
448,192,59359,1,0,0:0:0:0:
64,192,59434,1,2,0:0:0:0:
192,192,59434,1,0,0:0:0:0:
320,192,59509,1,0,0:0:0:0:
448,192,59584,1,0,0:0:0:0:
320,192,59659,1,0,0:0:0:0:
64,192,59734,1,2,0:0:0:0:
192,192,59734,1,8,0:0:0:0:
448,192,59734,1,0,0:0:0:0:
64,192,59884,1,2,0:0:0:0:
192,192,59884,1,0,0:0:0:0:
320,192,59959,1,0,0:0:0:0:
448,192,60034,1,0,0:0:0:0:
320,192,60109,1,0,0:0:0:0:
64,192,60184,1,2,0:0:0:0:
192,192,60184,1,8,0:0:0:0:
448,192,60184,1,0,0:0:0:0:
64,192,60334,1,2,0:0:0:0:
192,192,60334,1,0,0:0:0:0:
320,192,60409,1,0,0:0:0:0:
448,192,60484,1,0,0:0:0:0:
320,192,60559,1,0,0:0:0:0:
64,192,60634,1,8,0:0:0:0:
192,192,60634,1,2,0:0:0:0:
448,192,60634,1,0,0:0:0:0:
192,192,60784,1,2,0:0:0:0:
320,192,60784,1,0,0:0:0:0:
64,192,60859,1,2,0:0:0:0:
448,192,60859,1,0,0:0:0:0:
192,192,60934,1,0,0:0:0:0:
320,192,60934,1,0,0:0:0:0:
64,192,61009,1,2,0:0:0:0:
448,192,61009,1,0,0:0:0:0:
192,192,61084,1,2,0:0:0:0:
320,192,61084,1,8,0:0:0:0:
64,192,61159,1,0,0:0:0:0:
320,192,61234,1,2,0:0:0:0:
448,192,61234,1,0,0:0:0:0:
192,192,61309,1,0,0:0:0:0:
64,192,61384,1,0,0:0:0:0:
192,192,61459,1,0,0:0:0:0:
64,192,61534,1,2,0:0:0:0:
320,192,61534,1,8,0:0:0:0:
448,192,61534,1,0,0:0:0:0:
320,192,61684,1,2,0:0:0:0:
448,192,61684,1,0,0:0:0:0:
192,192,61759,1,0,0:0:0:0:
64,192,61834,1,0,0:0:0:0:
192,192,61909,1,0,0:0:0:0:
64,192,61984,1,2,0:0:0:0:
320,192,61984,1,8,0:0:0:0:
448,192,61984,1,0,0:0:0:0:
64,192,62134,128,2,62959:0:0:0:0:
320,192,62134,1,0,0:0:0:0:
448,192,62134,1,0,0:0:0:0:
192,192,62209,128,0,62959:0:0:0:0:
320,192,62284,128,0,62959:0:0:0:0:
448,192,62434,128,0,62959:0:0:0:0:
320,192,63034,1,2,0:0:0:0:
448,192,63034,1,0,0:0:0:0:
192,192,63109,1,0,0:0:0:0:
320,192,63184,1,0,0:0:0:0:
192,192,63259,1,0,0:0:0:0:
64,192,63334,1,8,0:0:0:0:
320,192,63334,1,2,0:0:0:0:
448,192,63334,1,0,0:0:0:0:
320,192,63484,1,2,0:0:0:0:
448,192,63484,1,0,0:0:0:0:
192,192,63559,1,0,0:0:0:0:
320,192,63634,1,0,0:0:0:0:
192,192,63709,1,0,0:0:0:0:
64,192,63784,1,8,0:0:0:0:
320,192,63784,1,2,0:0:0:0:
448,192,63784,1,0,0:0:0:0:
320,192,63934,1,2,0:0:0:0:
448,192,63934,1,0,0:0:0:0:
192,192,64009,1,0,0:0:0:0:
320,192,64084,1,0,0:0:0:0:
192,192,64159,1,0,0:0:0:0:
64,192,64234,1,2,0:0:0:0:
320,192,64234,1,8,0:0:0:0:
448,192,64234,1,0,0:0:0:0:
192,192,64384,1,2,0:0:0:0:
320,192,64384,1,0,0:0:0:0:
64,192,64459,1,2,0:0:0:0:
448,192,64459,1,0,0:0:0:0:
192,192,64534,1,0,0:0:0:0:
320,192,64534,1,0,0:0:0:0:
64,192,64609,1,2,0:0:0:0:
448,192,64609,1,0,0:0:0:0:
192,192,64684,1,8,0:0:0:0:
320,192,64684,1,2,0:0:0:0:
448,192,64759,1,0,0:0:0:0:
64,192,64834,1,2,0:0:0:0:
192,192,64834,1,0,0:0:0:0:
320,192,64909,1,0,0:0:0:0:
64,192,64984,1,0,0:0:0:0:
448,192,65059,1,0,0:0:0:0:
64,192,65134,1,8,0:0:0:0:
192,192,65134,1,2,0:0:0:0:
320,192,65134,1,0,0:0:0:0:
64,192,65284,1,2,0:0:0:0:
192,192,65284,1,0,0:0:0:0:
320,192,65359,1,0,0:0:0:0:
64,192,65434,1,0,0:0:0:0:
448,192,65509,1,0,0:0:0:0:
64,192,65584,1,8,0:0:0:0:
192,192,65584,1,2,0:0:0:0:
320,192,65584,1,0,0:0:0:0:
64,192,65734,128,2,65809:0:0:0:0:
192,192,65734,128,0,65809:0:0:0:0:
320,192,65809,1,0,0:0:0:0:
64,192,65884,1,0,0:0:0:0:
448,192,65959,1,0,0:0:0:0:
64,192,66034,1,2,0:0:0:0:
192,192,66034,1,8,0:0:0:0:
320,192,66034,1,0,0:0:0:0:
320,192,66184,1,2,0:0:0:0:
448,192,66184,1,0,0:0:0:0:
192,192,66259,1,2,0:0:0:0:
320,192,66296,1,2,0:0:0:0:
64,192,66334,1,2,0:0:0:0:
448,192,66334,1,0,0:0:0:0:
192,192,66409,1,2,0:0:0:0:
448,192,66484,1,8,0:0:0:0:
448,192,66559,1,0,0:0:0:0:
64,192,66634,1,2,0:0:0:0:
192,192,66634,1,0,0:0:0:0:
320,192,66709,1,0,0:0:0:0:
192,192,66784,1,0,0:0:0:0:
448,192,66859,1,0,0:0:0:0:
64,192,66934,1,2,0:0:0:0:
192,192,66934,1,8,0:0:0:0:
320,192,66934,1,0,0:0:0:0:
64,192,67084,1,2,0:0:0:0:
192,192,67084,1,0,0:0:0:0:
320,192,67159,1,0,0:0:0:0:
192,192,67234,1,0,0:0:0:0:
448,192,67309,1,0,0:0:0:0:
64,192,67384,1,2,0:0:0:0:
192,192,67384,1,8,0:0:0:0:
320,192,67384,1,0,0:0:0:0:
64,192,67534,1,2,0:0:0:0:
192,192,67534,1,0,0:0:0:0:
320,192,67609,1,0,0:0:0:0:
192,192,67684,1,0,0:0:0:0:
448,192,67759,1,0,0:0:0:0:
64,192,67834,1,8,0:0:0:0:
192,192,67834,1,2,0:0:0:0:
320,192,67834,1,0,0:0:0:0:
192,192,67984,1,2,0:0:0:0:
320,192,67984,1,0,0:0:0:0:
64,192,68059,1,2,0:0:0:0:
448,192,68059,1,0,0:0:0:0:
192,192,68134,1,0,0:0:0:0:
320,192,68134,1,0,0:0:0:0:
64,192,68209,1,2,0:0:0:0:
448,192,68209,1,0,0:0:0:0:
192,192,68284,1,2,0:0:0:0:
320,192,68284,1,8,0:0:0:0:
64,192,68359,1,0,0:0:0:0:
320,192,68434,1,2,0:0:0:0:
448,192,68434,1,0,0:0:0:0:
64,192,68509,1,0,0:0:0:0:
448,192,68584,1,0,0:0:0:0:
64,192,68659,1,0,0:0:0:0:
192,192,68734,1,2,0:0:0:0:
320,192,68734,1,8,0:0:0:0:
448,192,68734,1,0,0:0:0:0:
320,192,68884,1,2,0:0:0:0:
448,192,68884,1,0,0:0:0:0:
64,192,68959,1,0,0:0:0:0:
448,192,69034,1,0,0:0:0:0:
64,192,69109,1,0,0:0:0:0:
192,192,69184,1,2,0:0:0:0:
320,192,69184,1,8,0:0:0:0:
448,192,69184,1,0,0:0:0:0:
320,192,69334,128,2,69409:0:0:0:0:
448,192,69334,128,0,69409:0:0:0:0:
192,192,69484,1,0,0:0:0:0:
320,192,69484,1,0,0:0:0:0:
448,192,69559,1,0,0:0:0:0:
64,192,69634,1,0,0:0:0:70:Drumstart_040_a.wav
64,192,69709,1,0,0:0:0:70:Drumstart_040_a.wav
320,192,69784,1,0,0:0:0:70:Drumstart_040_b.wav
320,192,69859,1,0,0:0:0:70:Drumstart_040_b.wav
192,192,69934,1,0,0:0:0:70:Drumstart_040_c.wav
192,192,70009,1,0,0:0:0:70:Drumstart_040_c.wav
448,192,70084,1,0,0:0:0:70:Drumstart_040_d.wav
448,192,70159,1,0,0:0:0:70:Drumstart_040_d.wav
192,192,70234,1,0,0:0:0:70:amenbreak_kick1.wav
192,192,70384,1,0,0:0:0:70:amenbreak_kick1.wav
64,192,70459,1,0,0:0:0:0:
320,192,70534,1,0,0:0:0:70:amenbreak_snare1.wav
448,192,70534,1,0,0:0:0:0:
192,192,70684,1,0,0:0:0:70:amenbreak_kick1.wav
192,192,70834,1,0,0:0:0:70:amenbreak_kick1.wav
64,192,70909,1,0,0:0:0:0:
320,192,70984,1,0,0:0:0:70:amenbreak_snare1.wav
448,192,70984,1,0,0:0:0:0:
448,192,71134,1,0,0:0:0:0:
192,192,71209,1,0,0:0:0:70:amenbreak_kick1.wav
320,192,71284,1,0,0:0:0:70:amenbreak_kick1.wav
64,192,71359,1,0,0:0:0:70:amenbreak_snare1.wav
192,192,71359,1,0,0:0:0:0:
320,192,71434,1,0,0:0:0:70:amenbreak_kick1.wav
64,192,71509,1,0,0:0:0:70:amenbreak_snare1.wav
192,192,71509,1,0,0:0:0:0:
320,192,71584,1,0,0:0:0:70:amenbreak_kick1.wav
448,192,71659,1,0,0:0:0:0:
64,192,71734,1,0,0:0:0:70:amenbreak_snare1.wav
192,192,71734,1,0,0:0:0:0:
320,192,71809,1,0,0:0:0:70:amenbreak_kick1.wav
64,192,71884,1,0,0:0:0:0:
448,192,71959,1,0,0:0:0:0:
192,192,72034,1,0,0:0:0:70:amenbreak_kick1.wav
448,192,72084,1,0,0:0:0:0:
192,192,72184,1,0,0:0:0:70:amenbreak_kick1.wav
320,192,72259,1,0,0:0:0:70:amenbreak_kick1.wav
192,192,72334,1,0,0:0:0:70:amenbreak_kick1.wav
448,192,72484,1,0,0:0:0:0:
64,192,72559,1,0,0:0:0:0:
192,192,72634,1,0,0:0:0:70:amenbreak_snare1.wav
320,192,72634,1,0,0:0:0:0:
192,192,72784,1,0,0:0:0:70:amenbreak_snare1.wav
320,192,72784,1,0,0:0:0:0:
192,192,72934,1,0,0:0:0:70:amenbreak_snare1.wav
320,192,72934,1,0,0:0:0:0:
64,192,73084,1,0,0:0:0:70:amenbreak_kick1.wav
448,192,73084,1,0,0:0:0:0:
192,192,73159,1,0,0:0:0:0:
320,192,73234,1,0,0:0:0:70:amenbreak_kick1.wav
64,192,73309,1,0,0:0:0:70:amenbreak_kick1.wav
320,192,73384,1,0,0:0:0:70:amenbreak_kick1.wav
192,192,73459,1,0,0:0:0:0:
64,192,73534,1,0,0:0:0:70:amenbreak_kick1.wav
448,192,73534,1,0,0:0:0:0:
320,192,73584,1,0,0:0:0:0:
64,192,73684,1,0,0:0:0:70:amenbreak_snare1.wav
192,192,73684,1,0,0:0:0:0:
320,192,73759,1,0,0:0:0:70:amenbreak_kick1.wav
192,192,73834,1,0,0:0:0:70:amenbreak_kick1.wav
320,192,73984,1,0,0:0:0:70:amenbreak_kick1.wav
192,192,74059,1,0,0:0:0:0:
320,192,74134,1,0,0:0:0:70:amenbreak_snare1.wav
448,192,74134,1,0,0:0:0:0:
192,192,74284,1,0,0:0:0:70:amenbreak_kick1.wav
320,192,74359,1,0,0:0:0:0:
64,192,74434,1,0,0:0:0:70:amenbreak_snare1.wav
192,192,74434,1,0,0:0:0:0:
320,192,74509,1,0,0:0:0:70:amenbreak_kick1.wav
192,192,74584,1,0,0:0:0:70:amenbreak_kick1.wav
320,192,74659,1,0,0:0:0:70:amenbreak_snare1.wav
448,192,74659,1,0,0:0:0:0:
64,192,74734,1,0,0:0:0:70:amenbreak_snare1.wav
192,192,74734,1,0,0:0:0:0:
64,192,74809,1,0,0:0:0:70:amenbreak_snare1.wav
192,192,74809,1,0,0:0:0:0:
320,192,74884,1,0,0:0:0:70:amenbreak_kick1.wav
64,192,74959,1,0,0:0:0:70:amenbreak_kick1.wav
320,192,75034,1,0,0:0:0:0:
192,192,75109,1,0,0:0:0:70:amenbreak_kick1.wav
64,192,75184,1,0,0:0:0:70:amenbreak_kick1.wav
448,192,75184,1,0,0:0:0:0:
320,192,75334,1,0,0:0:0:70:amenbreak_snare1.wav
192,192,75409,1,0,0:0:0:70:amenbreak_kick1.wav
448,192,75484,1,0,0:0:0:0:
64,192,75559,1,0,0:0:0:70:amenbreak_snare1.wav
320,192,75634,1,0,0:0:0:70:amenbreak_kick1.wav
64,192,75709,1,0,0:0:0:70:amenbreak_snare1.wav
192,192,75709,1,0,0:0:0:0:
64,192,75784,1,0,0:0:0:70:amenbreak_snare1.wav
192,192,75784,1,0,0:0:0:0:
320,192,75934,1,0,0:0:0:70:amenbreak_snare1.wav
448,192,75934,1,0,0:0:0:0:
320,192,76009,1,0,0:0:0:70:amenbreak_snare1.wav
448,192,76009,1,0,0:0:0:0:
192,192,76084,1,0,0:0:0:70:amenbreak_kick1.wav
320,192,76159,1,0,0:0:0:70:amenbreak_snare1.wav
448,192,76159,1,0,0:0:0:0:
320,192,76234,1,0,0:0:0:70:amenbreak_snare1.wav
448,192,76234,1,0,0:0:0:0:
64,192,76384,1,0,0:0:0:70:amenbreak_snare1.wav
192,192,76384,1,0,0:0:0:0:
320,192,76459,1,0,0:0:0:0:
64,192,76534,1,0,0:0:0:70:amenbreak_snare1.wav
192,192,76534,1,0,0:0:0:0:
448,192,76609,1,0,0:0:0:0:
64,192,76684,1,0,0:0:0:70:amenbreak_kick1.wav
448,192,76759,1,0,0:0:0:0:
192,192,76834,1,0,0:0:0:70:amenbreak_kick1.wav
320,192,76909,1,0,0:0:0:70:amenbreak_kick1.wav
64,192,76984,1,0,0:0:0:70:amenbreak_snare1.wav
192,192,76984,1,0,0:0:0:0:
448,192,77059,1,0,0:0:0:0:
64,192,77134,1,0,0:0:0:0:
192,192,77284,1,0,0:0:0:0:
320,192,77359,1,0,0:0:0:0:
64,192,77434,1,0,0:0:0:70:amenbreak_snare1.wav
192,192,77434,1,0,0:0:0:0:
64,192,77509,1,0,0:0:0:70:amenbreak_snare1.wav
192,192,77509,1,0,0:0:0:0:
320,192,77584,1,0,0:0:0:70:amenbreak_snare1.wav
448,192,77584,1,0,0:0:0:0:
320,192,77659,1,0,0:0:0:70:amenbreak_snare1.wav
448,192,77659,1,0,0:0:0:0:
192,192,77734,1,0,0:0:0:70:amenbreak_kick1.wav
320,192,77884,1,0,0:0:0:70:amenbreak_snare1.wav
448,192,77884,1,0,0:0:0:0:
320,192,77959,1,0,0:0:0:70:amenbreak_snare1.wav
448,192,77959,1,0,0:0:0:0:
64,192,78034,1,0,0:0:0:70:amenbreak_snare1.wav
192,192,78034,1,0,0:0:0:0:
64,192,78109,1,0,0:0:0:70:amenbreak_snare1.wav
192,192,78109,1,0,0:0:0:0:
320,192,78184,1,0,0:0:0:70:amenbreak_kick1.wav
64,192,78334,1,0,0:0:0:70:amenbreak_snare1.wav
192,192,78334,1,0,0:0:0:0:
64,192,78409,1,0,0:0:0:70:amenbreak_snare1.wav
192,192,78409,1,0,0:0:0:0:
320,192,78484,1,0,0:0:0:70:amenbreak_snare1.wav
448,192,78484,1,0,0:0:0:0:
320,192,78559,1,0,0:0:0:70:amenbreak_snare1.wav
448,192,78559,1,0,0:0:0:0:
192,192,78634,1,0,0:0:0:70:amenbreak_kick1.wav
448,192,78709,1,0,0:0:0:0:
64,192,78784,1,0,0:0:0:70:amenbreak_snare1.wav
192,192,78784,1,0,0:0:0:0:
448,192,78859,1,0,0:0:0:0:
64,192,78934,1,0,0:0:0:0:
320,192,79009,1,0,0:0:0:70:amenbreak_kick1.wav
64,192,79084,1,0,0:0:0:70:amenbreak_snare1.wav
192,192,79084,1,0,0:0:0:0:
448,192,79159,1,0,0:0:0:0:
64,192,79234,1,0,0:0:0:70:amenbreak_snare1.wav
192,192,79234,1,0,0:0:0:0:
64,192,79309,1,0,0:0:0:70:amenbreak_snare1.wav
192,192,79309,1,0,0:0:0:0:
320,192,79384,1,0,0:0:0:70:amenbreak_snare1.wav
448,192,79384,1,0,0:0:0:0:
320,192,79459,1,0,0:0:0:70:amenbreak_snare1.wav
448,192,79459,1,0,0:0:0:0:
192,192,79534,1,0,0:0:0:70:amenbreak_kick1.wav
320,192,79684,1,0,0:0:0:70:amenbreak_snare1.wav
448,192,79684,1,0,0:0:0:0:
320,192,79759,1,0,0:0:0:70:amenbreak_snare1.wav
448,192,79759,1,0,0:0:0:0:
64,192,79834,1,0,0:0:0:70:amenbreak_snare1.wav
192,192,79834,1,0,0:0:0:0:
64,192,79909,1,0,0:0:0:70:amenbreak_snare1.wav
192,192,79909,1,0,0:0:0:0:
320,192,79984,1,0,0:0:0:70:amenbreak_kick1.wav
64,192,80134,1,0,0:0:0:70:amenbreak_snare1.wav
192,192,80134,1,0,0:0:0:0:
64,192,80209,1,0,0:0:0:70:amenbreak_snare1.wav
192,192,80209,1,0,0:0:0:0:
320,192,80284,1,0,0:0:0:70:amenbreak_snare1.wav
448,192,80284,1,0,0:0:0:0:
320,192,80359,1,0,0:0:0:70:amenbreak_snare1.wav
448,192,80359,1,0,0:0:0:0:
192,192,80434,1,0,0:0:0:70:amenbreak_kick1.wav
320,192,80584,1,0,0:0:0:70:amenbreak_snare1.wav
448,192,80584,1,0,0:0:0:0:
64,192,80659,1,0,0:0:0:0:
448,192,80734,1,0,0:0:0:0:
192,192,80809,1,0,0:0:0:70:amenbreak_kick1.wav
320,192,80884,1,0,0:0:0:70:amenbreak_snare1.wav
448,192,80884,1,0,0:0:0:0:
64,192,80959,1,0,0:0:0:0:
320,192,81034,1,0,0:0:0:70:amenbreak_snare1.wav
448,192,81034,1,0,0:0:0:0:
320,192,81109,1,0,0:0:0:70:amenbreak_snare1.wav
448,192,81109,1,0,0:0:0:0:
64,192,81184,1,0,0:0:0:70:amenbreak_snare1.wav
192,192,81184,1,0,0:0:0:0:
64,192,81259,1,0,0:0:0:70:amenbreak_snare1.wav
192,192,81259,1,0,0:0:0:0:
320,192,81334,1,0,0:0:0:70:amenbreak_kick1.wav
64,192,81484,1,0,0:0:0:70:amenbreak_snare1.wav
192,192,81484,1,0,0:0:0:0:
64,192,81559,1,0,0:0:0:70:amenbreak_snare1.wav
192,192,81559,1,0,0:0:0:0:
320,192,81634,1,0,0:0:0:70:amenbreak_snare1.wav
448,192,81634,1,0,0:0:0:0:
320,192,81709,1,0,0:0:0:70:amenbreak_snare1.wav
448,192,81709,1,0,0:0:0:0:
192,192,81784,1,0,0:0:0:70:amenbreak_kick1.wav
320,192,81934,1,0,0:0:0:70:amenbreak_snare1.wav
448,192,81934,1,0,0:0:0:0:
320,192,82009,1,0,0:0:0:70:amenbreak_snare1.wav
448,192,82009,1,0,0:0:0:0:
64,192,82084,1,0,0:0:0:70:amenbreak_snare1.wav
192,192,82084,1,0,0:0:0:0:
64,192,82159,1,0,0:0:0:70:amenbreak_snare1.wav
192,192,82159,1,0,0:0:0:0:
320,192,82234,1,0,0:0:0:70:amenbreak_kick1.wav
64,192,82384,1,0,0:0:0:70:amenbreak_snare1.wav
192,192,82384,1,0,0:0:0:0:
448,192,82459,1,0,0:0:0:0:
64,192,82534,1,0,0:0:0:0:
320,192,82609,1,0,0:0:0:70:amenbreak_kick1.wav
64,192,82684,1,0,0:0:0:70:amenbreak_snare1.wav
192,192,82684,1,0,0:0:0:0:
320,192,82834,1,0,0:0:0:70:amenbreak_snare1.wav
448,192,82834,1,0,0:0:0:0:
320,192,83059,1,0,0:0:0:70:amenbreak_snare1.wav
448,192,83059,1,0,0:0:0:0:
448,192,83284,1,0,0:0:0:70:amenbreak_snare1.wav
448,192,83509,1,0,0:0:0:0:
192,192,84634,1,2,0:0:0:0:
320,192,84634,1,0,0:0:0:0:
448,192,84634,1,0,0:0:0:0:
64,192,84709,1,0,0:0:0:0:
320,192,84784,1,0,0:0:0:0:
320,192,84934,1,0,0:0:0:0:
320,192,85084,1,0,0:0:0:0:
320,192,85234,1,0,0:0:0:0:
320,192,85384,1,0,0:0:0:0:
192,192,85421,1,0,0:0:0:0:
64,192,85459,1,0,0:0:0:0:
448,192,85496,1,0,0:0:0:0:
320,192,85534,1,0,0:0:0:0:
320,192,85684,1,0,0:0:0:0:
320,192,85834,1,0,0:0:0:0:
320,192,85984,1,0,0:0:0:0:
64,192,86134,1,0,0:0:0:0:
320,192,86209,1,0,0:0:0:0:
448,192,86284,1,0,0:0:0:0:
192,192,86321,1,0,0:0:0:0:
64,192,86359,1,0,0:0:0:0:
192,192,86434,1,2,0:0:0:0:
320,192,86434,1,0,0:0:0:0:
448,192,86434,1,0,0:0:0:0:
64,192,86509,1,0,0:0:0:0:
320,192,86584,1,0,0:0:0:0:
64,192,86734,1,2,0:0:0:0:
192,192,86734,1,8,0:0:0:0:
448,192,86734,1,0,0:0:0:0:
320,192,86884,1,0,0:0:0:0:
320,192,87034,1,0,0:0:0:0:
320,192,87184,1,0,0:0:0:0:
64,192,87259,1,0,0:0:0:0:
320,192,87334,1,0,0:0:0:0:
320,192,87484,1,0,0:0:0:0:
320,192,87634,1,0,0:0:0:0:
320,192,87784,1,0,0:0:0:0:
64,192,87934,1,0,0:0:0:0:
320,192,88009,128,0,88084:0:0:0:0:
192,192,88121,1,0,0:0:0:0:
64,192,88159,1,0,0:0:0:0:
192,192,88234,1,2,0:0:0:0:
320,192,88234,1,0,0:0:0:0:
448,192,88234,1,0,0:0:0:0:
64,192,88309,1,0,0:0:0:0:
320,192,88384,1,0,0:0:0:0:
320,192,88534,1,0,0:0:0:0:
320,192,88684,1,0,0:0:0:0:
320,192,88834,1,0,0:0:0:0:
320,192,88984,1,0,0:0:0:0:
192,192,89021,1,0,0:0:0:0:
64,192,89059,1,0,0:0:0:0:
448,192,89096,1,0,0:0:0:0:
320,192,89134,1,0,0:0:0:0:
320,192,89284,1,0,0:0:0:0:
320,192,89434,1,0,0:0:0:0:
320,192,89584,1,0,0:0:0:0:
64,192,89734,1,0,0:0:0:0:
320,192,89809,1,0,0:0:0:0:
448,192,89884,1,0,0:0:0:0:
192,192,89921,1,0,0:0:0:0:
64,192,89959,1,0,0:0:0:0:
192,192,90034,1,2,0:0:0:0:
320,192,90034,1,0,0:0:0:0:
448,192,90034,1,0,0:0:0:0:
64,192,90109,1,0,0:0:0:0:
320,192,90184,1,0,0:0:0:0:
64,192,90334,1,8,0:0:0:0:
192,192,90334,1,2,0:0:0:0:
448,192,90334,1,0,0:0:0:0:
320,192,90484,1,0,0:0:0:0:
320,192,90634,1,0,0:0:0:0:
320,192,90784,1,0,0:0:0:0:
64,192,90859,1,0,0:0:0:0:
320,192,90934,1,0,0:0:0:0:
64,192,91084,1,0,0:0:0:0:
448,192,91084,1,0,0:0:0:0:
192,192,91234,1,2,0:0:0:0:
320,192,91234,1,0,0:0:0:0:
448,192,91234,1,0,0:0:0:0:
64,192,91384,1,0,0:0:0:0:
448,192,91459,1,0,0:0:0:0:
64,192,91534,1,0,0:0:0:0:
320,192,91534,1,0,0:0:0:0:
192,192,91609,1,0,0:0:0:0:
448,192,91684,128,10,91759:0:0:0:0:
64,192,91759,1,0,0:0:0:0:
192,192,91834,1,2,0:0:0:0:
320,192,91834,1,0,0:0:0:0:
448,192,91834,1,0,0:0:0:0:
64,192,91909,1,0,0:0:0:0:
320,192,91984,1,0,0:0:0:0:
192,192,92021,1,0,0:0:0:0:
320,192,92134,1,0,0:0:0:0:
192,192,92209,1,0,0:0:0:0:
320,192,92284,1,0,0:0:0:0:
64,192,92321,1,0,0:0:0:0:
320,192,92434,1,0,0:0:0:0:
448,192,92509,1,0,0:0:0:0:
320,192,92584,1,0,0:0:0:0:
192,192,92621,1,0,0:0:0:0:
64,192,92659,1,0,0:0:0:0:
448,192,92696,1,0,0:0:0:0:
320,192,92734,1,0,0:0:0:0:
192,192,92784,1,0,0:0:0:0:
448,192,92834,1,0,0:0:0:0:
320,192,92884,1,0,0:0:0:0:
64,192,92934,1,0,0:0:0:0:
192,192,92984,1,0,0:0:0:0:
448,192,93034,1,0,0:0:0:0:
192,192,93221,128,0,93334:0:0:0:0:
64,192,93334,1,0,0:0:0:0:
320,192,93409,1,0,0:0:0:0:
448,192,93484,1,0,0:0:0:0:
192,192,93521,1,0,0:0:0:0:
64,192,93559,1,0,0:0:0:0:
192,192,93634,1,2,0:0:0:0:
320,192,93634,1,0,0:0:0:0:
448,192,93634,1,0,0:0:0:0:
64,192,93709,1,0,0:0:0:0:
320,192,93784,1,0,0:0:0:0:
64,192,93934,1,2,0:0:0:0:
192,192,93934,1,8,0:0:0:0:
448,192,93934,1,0,0:0:0:0:
320,192,94084,1,0,0:0:0:0:
192,192,94121,1,0,0:0:0:0:
320,192,94234,1,0,0:0:0:0:
320,192,94384,1,0,0:0:0:0:
448,192,94421,1,0,0:0:0:0:
64,192,94459,1,0,0:0:0:0:
320,192,94534,1,0,0:0:0:0:
64,192,94584,1,0,0:0:0:0:
448,192,94634,1,0,0:0:0:0:
320,192,94684,1,0,0:0:0:0:
64,192,94734,1,0,0:0:0:0:
192,192,94784,1,0,0:0:0:0:
320,192,94834,1,0,0:0:0:0:
320,192,94984,1,0,0:0:0:0:
192,192,95021,1,0,0:0:0:0:
64,192,95134,1,0,0:0:0:0:
320,192,95209,128,0,95284:0:0:0:0:
192,192,95321,1,0,0:0:0:0:
64,192,95359,1,0,0:0:0:0:
192,192,95434,1,2,0:0:0:0:
320,192,95434,1,0,0:0:0:0:
448,192,95434,1,0,0:0:0:0:
64,192,95509,1,0,0:0:0:0:
320,192,95584,1,0,0:0:0:0:
448,192,95634,1,0,0:0:0:0:
64,192,95684,1,0,0:0:0:0:
320,192,95734,1,0,0:0:0:0:
320,192,95884,1,0,0:0:0:0:
448,192,95934,1,0,0:0:0:0:
64,192,95984,1,0,0:0:0:0:
320,192,96034,1,0,0:0:0:0:
192,192,96084,1,0,0:0:0:0:
448,192,96134,1,0,0:0:0:0:
320,192,96184,1,0,0:0:0:0:
192,192,96221,1,0,0:0:0:0:
64,192,96259,1,0,0:0:0:0:
448,192,96296,1,0,0:0:0:0:
320,192,96334,1,0,0:0:0:0:
320,192,96484,1,0,0:0:0:0:
192,192,96559,1,0,0:0:0:0:
320,192,96634,1,0,0:0:0:0:
192,192,96671,1,0,0:0:0:0:
320,192,96784,1,0,0:0:0:0:
448,192,96809,1,0,0:0:0:0:
64,192,96934,1,0,0:0:0:0:
320,192,97009,1,0,0:0:0:0:
448,192,97084,1,0,0:0:0:0:
192,192,97121,1,0,0:0:0:0:
64,192,97159,1,0,0:0:0:0:
192,192,97234,1,2,0:0:0:0:
320,192,97234,1,0,0:0:0:0:
448,192,97234,1,0,0:0:0:0:
64,192,97309,1,0,0:0:0:0:
320,192,97384,1,0,0:0:0:0:
64,192,97534,1,8,0:0:0:0:
320,192,97534,1,2,0:0:0:0:
448,192,97534,1,0,0:0:0:0:
192,192,97609,1,0,0:0:0:0:
320,192,97684,1,0,0:0:0:0:
64,192,97759,1,0,0:0:0:0:
320,192,97834,1,0,0:0:0:0:
320,192,97984,1,0,0:0:0:0:
64,192,98059,1,0,0:0:0:0:
320,192,98134,1,0,0:0:0:0:
192,192,98246,1,0,0:0:0:0:
64,192,98284,1,0,0:0:0:0:
448,192,98284,1,0,0:0:0:0:
192,192,98434,1,2,0:0:0:0:
320,192,98434,1,0,0:0:0:0:
448,192,98434,1,0,0:0:0:0:
64,192,98509,1,0,0:0:0:0:
192,192,98584,1,0,0:0:0:0:
448,192,98659,1,0,0:0:0:0:
64,192,98734,1,0,0:0:0:0:
320,192,98734,1,0,0:0:0:0:
192,192,98809,1,0,0:0:0:0:
448,192,98884,128,10,98959:0:0:0:0:
64,192,98959,1,0,0:0:0:0:
320,192,99034,1,2,0:0:0:0:
448,192,99034,1,0,0:0:0:0:
192,192,99109,1,0,0:0:0:0:
320,192,99184,1,0,0:0:0:0:
192,192,99259,1,0,0:0:0:0:
64,192,99334,1,8,0:0:0:0:
320,192,99334,1,2,0:0:0:0:
448,192,99334,1,0,0:0:0:0:
320,192,99484,1,2,0:0:0:0:
448,192,99484,1,0,0:0:0:0:
192,192,99559,1,0,0:0:0:0:
320,192,99634,1,0,0:0:0:0:
192,192,99709,1,0,0:0:0:0:
64,192,99784,1,8,0:0:0:0:
320,192,99784,1,2,0:0:0:0:
448,192,99784,1,0,0:0:0:0:
320,192,99934,1,2,0:0:0:0:
448,192,99934,1,0,0:0:0:0:
192,192,100009,1,0,0:0:0:0:
320,192,100084,1,0,0:0:0:0:
192,192,100159,1,0,0:0:0:0:
64,192,100234,1,2,0:0:0:0:
320,192,100234,1,8,0:0:0:0:
448,192,100234,1,0,0:0:0:0:
192,192,100384,1,2,0:0:0:0:
320,192,100384,1,0,0:0:0:0:
64,192,100459,1,2,0:0:0:0:
448,192,100459,1,0,0:0:0:0:
192,192,100534,1,0,0:0:0:0:
320,192,100534,1,0,0:0:0:0:
64,192,100609,1,2,0:0:0:0:
448,192,100609,1,0,0:0:0:0:
192,192,100684,1,8,0:0:0:0:
320,192,100684,1,2,0:0:0:0:
448,192,100759,1,0,0:0:0:0:
64,192,100834,1,2,0:0:0:0:
192,192,100834,1,0,0:0:0:0:
320,192,100909,1,0,0:0:0:0:
64,192,100984,1,0,0:0:0:0:
448,192,101059,1,0,0:0:0:0:
64,192,101134,1,8,0:0:0:0:
192,192,101134,1,2,0:0:0:0:
320,192,101134,1,0,0:0:0:0:
64,192,101284,1,2,0:0:0:0:
192,192,101284,1,0,0:0:0:0:
320,192,101359,1,0,0:0:0:0:
64,192,101434,1,0,0:0:0:0:
448,192,101509,1,0,0:0:0:0:
64,192,101584,1,8,0:0:0:0:
192,192,101584,1,2,0:0:0:0:
320,192,101584,1,0,0:0:0:0:
64,192,101734,128,2,101809:0:0:0:0:
192,192,101734,128,0,101809:0:0:0:0:
320,192,101809,1,0,0:0:0:0:
64,192,101884,1,0,0:0:0:0:
448,192,101959,1,0,0:0:0:0:
64,192,102034,1,2,0:0:0:0:
192,192,102034,1,8,0:0:0:0:
320,192,102034,1,0,0:0:0:0:
320,192,102184,1,2,0:0:0:0:
448,192,102184,1,0,0:0:0:0:
192,192,102259,1,2,0:0:0:0:
320,192,102296,1,2,0:0:0:0:
64,192,102334,1,2,0:0:0:0:
448,192,102334,1,0,0:0:0:0:
192,192,102409,1,2,0:0:0:0:
448,192,102484,1,8,0:0:0:0:
448,192,102559,1,0,0:0:0:0:
64,192,102634,1,2,0:0:0:0:
192,192,102634,1,0,0:0:0:0:
320,192,102709,1,0,0:0:0:0:
192,192,102784,1,0,0:0:0:0:
448,192,102859,1,0,0:0:0:0:
64,192,102934,1,2,0:0:0:0:
192,192,102934,1,8,0:0:0:0:
320,192,102934,1,0,0:0:0:0:
64,192,103084,1,2,0:0:0:0:
192,192,103084,1,0,0:0:0:0:
320,192,103159,1,0,0:0:0:0:
192,192,103234,1,0,0:0:0:0:
448,192,103309,1,0,0:0:0:0:
64,192,103384,1,2,0:0:0:0:
192,192,103384,1,8,0:0:0:0:
320,192,103384,1,0,0:0:0:0:
64,192,103534,1,2,0:0:0:0:
192,192,103534,1,0,0:0:0:0:
320,192,103609,1,0,0:0:0:0:
192,192,103684,1,0,0:0:0:0:
448,192,103759,1,0,0:0:0:0:
64,192,103834,1,8,0:0:0:0:
192,192,103834,1,2,0:0:0:0:
320,192,103834,1,0,0:0:0:0:
192,192,103984,1,2,0:0:0:0:
320,192,103984,1,0,0:0:0:0:
64,192,104059,1,2,0:0:0:0:
448,192,104059,1,0,0:0:0:0:
192,192,104134,1,0,0:0:0:0:
320,192,104134,1,0,0:0:0:0:
64,192,104209,1,2,0:0:0:0:
448,192,104209,1,0,0:0:0:0:
192,192,104284,1,2,0:0:0:0:
320,192,104284,1,8,0:0:0:0:
64,192,104359,1,0,0:0:0:0:
320,192,104434,1,2,0:0:0:0:
448,192,104434,1,0,0:0:0:0:
64,192,104509,1,0,0:0:0:0:
448,192,104584,1,0,0:0:0:0:
64,192,104659,1,0,0:0:0:0:
192,192,104734,1,2,0:0:0:0:
320,192,104734,1,8,0:0:0:0:
448,192,104734,1,0,0:0:0:0:
320,192,104884,1,2,0:0:0:0:
448,192,104884,1,0,0:0:0:0:
64,192,104959,1,0,0:0:0:0:
448,192,105034,1,0,0:0:0:0:
64,192,105109,1,0,0:0:0:0:
192,192,105184,1,2,0:0:0:0:
320,192,105184,1,8,0:0:0:0:
448,192,105184,1,0,0:0:0:0:
320,192,105334,128,2,105409:0:0:0:0:
448,192,105334,128,0,105409:0:0:0:0:
192,192,105484,1,2,0:0:0:0:
320,192,105484,1,0,0:0:0:0:
448,192,105559,1,0,0:0:0:0:
64,192,105634,1,0,0:0:0:70:Drumstart_040_a.wav
64,192,105709,1,0,0:0:0:70:Drumstart_040_a.wav
320,192,105784,1,0,0:0:0:70:Drumstart_040_b.wav
320,192,105859,1,0,0:0:0:70:Drumstart_040_b.wav
192,192,105934,1,0,0:0:0:70:Drumstart_040_c.wav
192,192,106009,1,0,0:0:0:70:Drumstart_040_c.wav
448,192,106084,1,0,0:0:0:70:Drumstart_040_d.wav
448,192,106159,1,0,0:0:0:70:Drumstart_040_d.wav
64,192,106234,1,2,0:0:0:0:
192,192,106234,1,0,0:0:0:0:
320,192,106309,1,0,0:0:0:0:
448,192,106384,1,0,0:0:0:0:
64,192,106459,1,0,0:0:0:0:
192,192,106534,1,8,0:0:0:0:
320,192,106534,1,2,0:0:0:0:
448,192,106534,1,0,0:0:0:0:
64,192,106684,1,2,0:0:0:0:
192,192,106684,1,0,0:0:0:0:
320,192,106759,1,0,0:0:0:0:
448,192,106834,1,0,0:0:0:0:
64,192,106909,1,0,0:0:0:0:
192,192,106984,1,8,0:0:0:0:
320,192,106984,1,2,0:0:0:0:
448,192,106984,1,0,0:0:0:0:
64,192,107134,1,2,0:0:0:0:
192,192,107134,1,0,0:0:0:0:
320,192,107209,1,0,0:0:0:0:
448,192,107284,1,0,0:0:0:0:
64,192,107359,1,0,0:0:0:0:
192,192,107434,1,2,0:0:0:0:
320,192,107434,1,8,0:0:0:0:
448,192,107434,1,0,0:0:0:0:
192,192,107584,1,2,0:0:0:0:
320,192,107584,1,0,0:0:0:0:
64,192,107659,1,2,0:0:0:0:
448,192,107659,1,0,0:0:0:0:
192,192,107734,1,0,0:0:0:0:
320,192,107734,1,0,0:0:0:0:
64,192,107809,1,2,0:0:0:0:
448,192,107809,1,0,0:0:0:0:
192,192,107884,1,8,0:0:0:0:
320,192,107884,1,2,0:0:0:0:
64,192,107959,1,0,0:0:0:0:
320,192,108034,1,2,0:0:0:0:
448,192,108034,1,0,0:0:0:0:
192,192,108109,1,0,0:0:0:0:
64,192,108184,1,0,0:0:0:0:
320,192,108259,1,0,0:0:0:0:
64,192,108334,1,8,0:0:0:0:
192,192,108334,1,2,0:0:0:0:
448,192,108334,1,0,0:0:0:0:
320,192,108484,1,2,0:0:0:0:
448,192,108484,1,0,0:0:0:0:
192,192,108559,1,0,0:0:0:0:
64,192,108634,1,0,0:0:0:0:
320,192,108709,1,0,0:0:0:0:
64,192,108784,1,8,0:0:0:0:
192,192,108784,1,2,0:0:0:0:
448,192,108784,1,0,0:0:0:0:
320,192,108934,128,2,109009:0:0:0:0:
448,192,108934,128,0,109009:0:0:0:0:
192,192,109009,1,0,0:0:0:0:
64,192,109084,1,0,0:0:0:0:
320,192,109159,1,0,0:0:0:0:
64,192,109234,1,2,0:0:0:0:
192,192,109234,1,8,0:0:0:0:
448,192,109234,1,0,0:0:0:0:
320,192,109384,1,2,0:0:0:0:
448,192,109384,1,0,0:0:0:0:
192,192,109459,1,2,0:0:0:0:
320,192,109496,1,2,0:0:0:0:
64,192,109534,1,2,0:0:0:0:
448,192,109534,1,0,0:0:0:0:
192,192,109609,1,2,0:0:0:0:
448,192,109684,1,8,0:0:0:0:
448,192,109759,1,0,0:0:0:0:
64,192,109834,1,2,0:0:0:0:
192,192,109834,1,0,0:0:0:0:
320,192,109909,1,0,0:0:0:0:
448,192,109984,1,0,0:0:0:0:
320,192,110059,1,0,0:0:0:0:
64,192,110134,1,2,0:0:0:0:
192,192,110134,1,8,0:0:0:0:
448,192,110134,1,0,0:0:0:0:
64,192,110284,1,2,0:0:0:0:
192,192,110284,1,0,0:0:0:0:
320,192,110359,1,0,0:0:0:0:
448,192,110434,1,0,0:0:0:0:
320,192,110509,1,0,0:0:0:0:
64,192,110584,1,2,0:0:0:0:
192,192,110584,1,8,0:0:0:0:
448,192,110584,1,0,0:0:0:0:
64,192,110734,1,2,0:0:0:0:
192,192,110734,1,0,0:0:0:0:
320,192,110809,1,0,0:0:0:0:
448,192,110884,1,0,0:0:0:0:
320,192,110959,1,0,0:0:0:0:
64,192,111034,1,8,0:0:0:0:
192,192,111034,1,2,0:0:0:0:
448,192,111034,1,0,0:0:0:0:
192,192,111184,1,2,0:0:0:0:
320,192,111184,1,0,0:0:0:0:
64,192,111259,1,2,0:0:0:0:
448,192,111259,1,0,0:0:0:0:
192,192,111334,1,0,0:0:0:0:
320,192,111334,1,0,0:0:0:0:
64,192,111409,1,2,0:0:0:0:
448,192,111409,1,0,0:0:0:0:
192,192,111484,1,2,0:0:0:0:
320,192,111484,1,8,0:0:0:0:
64,192,111559,1,0,0:0:0:0:
320,192,111634,1,2,0:0:0:0:
448,192,111634,1,0,0:0:0:0:
192,192,111709,1,0,0:0:0:0:
64,192,111784,1,0,0:0:0:0:
192,192,111859,1,0,0:0:0:0:
64,192,111934,1,2,0:0:0:0:
320,192,111934,1,8,0:0:0:0:
448,192,111934,1,0,0:0:0:0:
320,192,112084,1,2,0:0:0:0:
448,192,112084,1,0,0:0:0:0:
192,192,112159,1,0,0:0:0:0:
64,192,112234,1,0,0:0:0:0:
192,192,112309,1,0,0:0:0:0:
64,192,112384,1,2,0:0:0:0:
320,192,112384,1,8,0:0:0:0:
448,192,112384,1,0,0:0:0:0:
64,192,112534,128,2,113584:0:0:0:0:
320,192,112534,1,0,0:0:0:0:
448,192,112534,1,0,0:0:0:0:
192,192,112609,128,0,113584:0:0:0:0:
320,192,112684,128,0,113584:0:0:0:0:
448,192,112834,128,0,113584:0:0:0:0:
