osu file format v14

[General]
AudioFilename: audio.mp3
AudioLeadIn: 0
PreviewTime: 229081
Countdown: 0
SampleSet: Normal
StackLeniency: 0.7
Mode: 1
LetterboxInBreaks: 0
WidescreenStoryboard: 1

[Editor]
DistanceSpacing: 0.8
BeatDivisor: 4
GridSize: 32
TimelineZoom: 2.899999

[Metadata]
Title:Iki o Koroshita Stokesia
TitleUnicode:息を殺したストケシア
Artist:Yuuyu
ArtistUnicode:ゆうゆ
Creator:yea
Version:Breathless
Source:
Tags:Electronic Breakcore
BeatmapID:1796228
BeatmapSetID:859611

[Difficulty]
HPDrainRate:6
CircleSize:5
OverallDifficulty:7
ApproachRate:5
SliderMultiplier:1.4
SliderTickRate:1

[Events]
//Background and Video events
0,0,"background.jpg",0,0
//Break Periods
2,219797,224784
//Storyboard Layer 0 (Background)
//Storyboard Layer 1 (Fail)
//Storyboard Layer 2 (Pass)
//Storyboard Layer 3 (Foreground)
//Storyboard Sound Samples

[TimingPoints]
3018,387.096774193548,4,1,0,75,1,0
51888,-99.009900990099,4,1,0,75,0,0
51985,-98.0392156862745,4,1,0,75,0,0
52082,-97.0873786407767,4,1,0,75,0,0
52179,-96.1538461538461,4,1,0,75,0,0
52276,-95.2380952380952,4,1,0,75,0,0
52372,-94.3396226415094,4,1,0,75,0,0
52469,-93.4579439252336,4,1,0,75,0,0
52566,-92.5925925925926,4,1,0,90,0,1
76372,-94.3396226415094,4,1,0,90,0,1
76469,-96.1538461538461,4,1,0,90,0,1
76517,-97.0873786407767,4,1,0,90,0,1
76566,-98.0392156862745,4,1,0,90,0,1
76663,-100,4,1,0,90,0,1
76759,-102.040816326531,4,1,0,90,0,1
76856,-104.166666666667,4,1,0,90,0,1
76953,-106.382978723404,4,1,0,90,0,1
77050,-108.695652173913,4,1,0,90,0,1
77147,-111.111111111111,4,1,0,90,0,1
77243,-113.636363636364,4,1,0,90,0,1
77340,-116.279069767442,4,1,0,60,0,0
77727,-135.135135135135,4,1,0,60,0,0
89727,-117.647058823529,4,1,0,60,0,0
102114,387.096774193548,3,1,0,75,1,0
102114,-86.9565217391304,3,1,0,75,0,0
102307,-100,3,1,0,75,0,0
120113,-99.009900990099,3,1,0,75,0,0
120178,-98.0392156862745,3,1,0,75,0,0
120243,-97.0873786407767,3,1,0,75,0,0
120307,-96.1538461538461,3,1,0,75,0,0
120404,-95.2380952380952,3,1,0,75,0,0
120501,-94.3396226415094,3,1,0,75,0,0
120597,-93.4579439252336,3,1,0,75,0,0
120694,387.096774193548,4,1,0,90,1,0
120694,-92.5925925925926,4,1,0,90,0,0
142952,-84.7457627118644,4,1,0,90,0,0
143145,-92.5925925925926,4,1,0,90,0,0
144887,-91.743119266055,4,1,0,90,0,0
144952,-90.9090909090909,4,1,0,90,0,0
145016,-90.0900900900901,4,1,0,90,0,0
145081,-89.2857142857143,4,1,0,90,0,0
145177,-88.4955752212389,4,1,0,90,0,0
145274,-87.719298245614,4,1,0,90,0,0
145371,-86.9565217391304,4,1,0,90,0,0
145468,-86.2068965517241,4,1,0,90,0,1
167726,-79.3650793650794,4,1,0,90,0,1
167919,-86.2068965517241,4,1,0,90,0,1
168597,-87.719298245614,4,1,0,90,0,1
168693,-89.2857142857143,4,1,0,90,0,1
168790,-90.9090909090909,4,1,0,90,0,1
168887,-92.5925925925926,4,1,0,90,0,1
168984,-94.3396226415094,4,1,0,90,0,1
169081,-96.1538461538461,4,1,0,90,0,1
169177,-98.0392156862745,4,1,0,90,0,1
169274,-100,4,1,0,90,0,1
169371,-102.040816326531,4,1,0,90,0,1
169468,-104.166666666667,4,1,0,90,0,1
169532,-105.263157894737,4,1,0,90,0,1
169597,-106.382978723404,4,1,0,90,0,1
169661,-107.52688172043,4,1,0,90,0,1
169758,-108.695652173913,4,1,0,90,0,1
169855,-111.111111111111,4,1,0,90,0,1
169952,-113.636363636364,4,1,0,90,0,1
170048,-116.279069767442,4,1,0,90,0,1
170145,-119.047619047619,4,1,0,90,0,1
170242,-121.951219512195,4,1,0,90,0,1
170339,-125,4,1,0,60,0,0
170629,-135.135135135135,4,1,0,60,0,0
182629,-117.647058823529,4,1,0,60,0,0
194919,-100,4,1,0,75,0,0
219693,-100,4,1,0,60,0,0
221339,-133.333333333333,4,1,0,60,0,0
225984,-100,4,1,0,60,0,0
229081,-92.5925925925926,4,1,0,90,0,1
253564,-90.9090909090909,4,1,0,90,0,1
253661,-89.2857142857143,4,1,0,90,0,1
253758,-87.719298245614,4,1,0,90,0,1
253855,-86.2068965517241,4,1,0,90,0,1
277564,-87.719298245614,4,1,0,90,0,1
277661,-89.2857142857143,4,1,0,90,0,1
277758,-90.9090909090909,4,1,0,90,0,1
277855,-92.5925925925926,4,1,0,90,0,1
277952,-94.3396226415094,4,1,0,90,0,1
278048,-96.1538461538461,4,1,0,90,0,1
278097,-97.0873786407767,4,1,0,90,0,1
278145,-98.0392156862745,4,1,0,90,0,1
278242,-100,4,1,0,90,0,1
278339,-102.040816326531,4,1,0,90,0,1
278435,-104.166666666667,4,1,0,90,0,1
278532,-106.382978723404,4,1,0,90,0,1
278629,-108.695652173913,4,1,0,60,0,0
279016,-119.047619047619,4,1,0,60,0,0
303306,-100,4,1,0,75,0,0
328177,-90.9090909090909,4,1,0,75,0,0

[HitObjects]
256,192,3018,5,0,0:0:0:0:
256,192,3308,1,8,0:0:0:0:
256,192,3598,1,0,0:0:0:0:
256,192,3695,1,8,0:0:0:0:
256,192,3888,1,8,0:0:0:0:
256,192,3985,1,0,0:0:0:0:
256,192,4082,1,8,0:0:0:0:
256,192,4179,1,8,0:0:0:0:
256,192,4243,1,8,0:0:0:0:
256,192,4308,1,8,0:0:0:0:
256,192,4372,1,8,0:0:0:0:
256,192,4469,1,0,0:0:0:0:
256,192,4663,1,8,0:0:0:0:
256,192,4759,1,0,0:0:0:0:
256,192,4953,1,8,0:0:0:0:
256,192,5001,1,8,0:0:0:0:
256,192,5050,1,0,0:0:0:0:
256,192,5243,1,0,0:0:0:0:
256,192,5437,1,8,0:0:0:0:
256,192,5485,1,8,0:0:0:0:
256,192,5727,1,8,0:0:0:0:
256,192,5824,1,0,0:0:0:0:
256,192,5921,1,0,0:0:0:0:
256,192,6017,1,0,0:0:0:0:
256,192,6114,1,0,0:0:0:0:
256,192,6405,1,8,0:0:0:0:
256,192,6695,1,0,0:0:0:0:
256,192,6792,1,8,0:0:0:0:
256,192,6985,1,8,0:0:0:0:
256,192,7179,1,0,0:0:0:0:
256,192,7276,1,8,0:0:0:0:
256,192,7340,1,8,0:0:0:0:
256,192,7405,1,8,0:0:0:0:
256,192,7469,1,8,0:0:0:0:
256,192,7566,1,0,0:0:0:0:
256,192,7759,1,8,0:0:0:0:
256,192,7856,1,0,0:0:0:0:
256,192,8050,1,8,0:0:0:0:
256,192,8098,1,8,0:0:0:0:
256,192,8147,1,0,0:0:0:0:
256,192,8340,1,0,0:0:0:0:
256,192,8437,1,8,0:0:0:0:
256,192,8501,1,8,0:0:0:0:
256,192,8566,1,8,0:0:0:0:
256,192,8630,1,0,0:0:0:0:
256,192,8727,1,0,0:0:0:0:
256,192,8824,1,8,0:0:0:0:
256,192,8921,1,0,0:0:0:0:
256,192,9017,1,8,0:0:0:0:
256,192,9211,1,8,0:0:0:0:
256,192,9501,1,8,0:0:0:0:
256,192,9792,1,0,0:0:0:0:
256,192,9888,1,8,0:0:0:0:
256,192,10082,1,8,0:0:0:0:
256,192,10179,1,0,0:0:0:0:
256,192,10276,1,8,0:0:0:0:
256,192,10372,1,8,0:0:0:0:
256,192,10437,1,8,0:0:0:0:
256,192,10501,1,8,0:0:0:0:
256,192,10566,1,8,0:0:0:0:
256,192,10663,1,0,0:0:0:0:
256,192,10856,1,8,0:0:0:0:
256,192,10953,1,0,0:0:0:0:
256,192,11147,1,8,0:0:0:0:
256,192,11195,1,8,0:0:0:0:
256,192,11243,1,0,0:0:0:0:
256,192,11437,1,0,0:0:0:0:
256,192,11630,1,8,0:0:0:0:
256,192,11679,1,8,0:0:0:0:
256,192,11921,1,8,0:0:0:0:
256,192,12017,1,0,0:0:0:0:
256,192,12114,1,0,0:0:0:0:
256,192,12211,1,0,0:0:0:0:
256,192,12308,1,0,0:0:0:0:
256,192,12598,1,8,0:0:0:0:
256,192,12792,1,8,0:0:0:0:
256,192,12888,1,0,0:0:0:0:
256,192,12985,1,8,0:0:0:0:
256,192,13179,1,8,0:0:0:0:
256,192,13372,1,0,0:0:0:0:
256,192,13469,1,8,0:0:0:0:
256,192,13534,1,8,0:0:0:0:
256,192,13598,1,8,0:0:0:0:
256,192,13663,1,8,0:0:0:0:
256,192,13759,1,0,0:0:0:0:
256,192,13953,1,8,0:0:0:0:
256,192,14050,1,0,0:0:0:0:
256,192,14243,1,8,0:0:0:0:
256,192,14340,1,0,0:0:0:0:
256,192,14437,1,0,0:0:0:0:
256,192,14501,1,0,0:0:0:0:
256,192,14566,1,0,0:0:0:0:
256,192,14630,1,8,0:0:0:0:
256,192,14727,1,8,0:0:0:0:
256,192,14824,1,0,0:0:0:0:
256,192,14921,1,8,0:0:0:0:
256,192,15017,1,0,0:0:0:0:
256,192,15114,1,0,0:0:0:0:
256,192,15211,1,8,0:0:0:0:
256,192,15405,1,0,0:0:0:0:
256,192,15695,1,8,0:0:0:0:
256,192,15985,1,0,0:0:0:0:
256,192,16082,1,8,0:0:0:0:
256,192,16276,1,8,0:0:0:0:
256,192,16372,1,0,0:0:0:0:
256,192,16566,1,8,0:0:0:0:
256,192,16630,1,8,0:0:0:0:
256,192,16695,1,8,0:0:0:0:
256,192,16759,1,8,0:0:0:0:
256,192,16856,1,0,0:0:0:0:
256,192,17050,1,8,0:0:0:0:
256,192,17147,1,0,0:0:0:0:
256,192,17340,1,8,0:0:0:0:
256,192,17388,1,8,0:0:0:0:
256,192,17437,1,0,0:0:0:0:
256,192,17630,1,0,0:0:0:0:
256,192,17824,1,8,0:0:0:0:
256,192,17872,1,8,0:0:0:0:
256,192,18114,1,8,0:0:0:0:
256,192,18211,1,0,0:0:0:0:
256,192,18308,1,0,0:0:0:0:
256,192,18405,1,0,0:0:0:0:
256,192,18501,1,0,0:0:0:0:
256,192,18792,1,8,0:0:0:0:
256,192,18985,1,8,0:0:0:0:
256,192,19082,1,0,0:0:0:0:
256,192,19179,1,8,0:0:0:0:
256,192,19372,1,8,0:0:0:0:
256,192,19566,1,0,0:0:0:0:
256,192,19663,1,8,0:0:0:0:
256,192,19727,1,8,0:0:0:0:
256,192,19792,1,8,0:0:0:0:
256,192,19856,1,8,0:0:0:0:
256,192,19953,1,0,0:0:0:0:
256,192,20147,1,8,0:0:0:0:
256,192,20243,1,0,0:0:0:0:
256,192,20437,1,8,0:0:0:0:
256,192,20534,1,0,0:0:0:0:
256,192,20727,1,0,0:0:0:0:
256,192,20824,1,0,0:0:0:0:
256,192,20888,1,0,0:0:0:0:
256,192,20953,1,0,0:0:0:0:
256,192,21017,1,8,0:0:0:0:
256,192,21114,1,8,0:0:0:0:
256,192,21211,1,0,0:0:0:0:
256,192,21308,1,8,0:0:0:0:
256,192,21405,1,0,0:0:0:0:
256,192,21501,1,0,0:0:0:0:
256,192,21598,1,8,0:0:0:0:
256,192,21695,1,8,0:0:0:0:
256,192,21792,1,0,0:0:0:0:
256,192,21888,1,8,0:0:0:0:
256,192,22179,1,0,0:0:0:0:
256,192,22276,1,8,0:0:0:0:
256,192,22469,1,8,0:0:0:0:
256,192,22566,1,0,0:0:0:0:
256,192,22663,1,8,0:0:0:0:
256,192,22759,1,8,0:0:0:0:
256,192,22824,1,8,0:0:0:0:
256,192,22888,1,8,0:0:0:0:
256,192,22953,1,8,0:0:0:0:
256,192,23050,1,0,0:0:0:0:
256,192,23243,1,8,0:0:0:0:
256,192,23340,1,0,0:0:0:0:
256,192,23534,1,8,0:0:0:0:
256,192,23582,1,8,0:0:0:0:
256,192,23630,1,0,0:0:0:0:
256,192,23824,1,0,0:0:0:0:
256,192,24017,1,8,0:0:0:0:
256,192,24066,1,8,0:0:0:0:
256,192,24308,1,8,0:0:0:0:
256,192,24405,1,0,0:0:0:0:
256,192,24501,1,0,0:0:0:0:
256,192,24598,1,0,0:0:0:0:
256,192,24695,1,0,0:0:0:0:
256,192,24985,1,8,0:0:0:0:
256,192,25276,1,0,0:0:0:0:
256,192,25372,1,8,0:0:0:0:
256,192,25566,1,8,0:0:0:0:
256,192,25759,1,0,0:0:0:0:
256,192,25856,1,8,0:0:0:0:
256,192,25921,1,8,0:0:0:0:
256,192,25985,1,8,0:0:0:0:
256,192,26050,1,8,0:0:0:0:
256,192,26147,1,0,0:0:0:0:
256,192,26340,1,8,0:0:0:0:
256,192,26437,1,0,0:0:0:0:
256,192,26630,1,8,0:0:0:0:
256,192,26727,1,8,0:0:0:0:
256,192,26824,1,0,0:0:0:0:
256,192,26888,1,0,0:0:0:0:
256,192,26953,1,0,0:0:0:0:
256,192,27017,1,8,0:0:0:0:
256,192,27114,1,8,0:0:0:0:
256,192,27211,1,0,0:0:0:0:
256,192,27308,1,0,0:0:0:0:
256,192,27405,1,0,0:0:0:0:
256,192,27501,1,0,0:0:0:0:
256,192,27598,1,0,0:0:0:0:
256,192,27792,1,8,0:0:0:0:
256,192,28082,1,8,0:0:0:0:
256,192,28179,1,0,0:0:0:0:
256,192,28276,1,8,0:0:0:0:
256,192,28372,1,8,0:0:0:0:
256,192,28469,1,0,0:0:0:0:
256,192,28663,1,8,0:0:0:0:
256,192,28759,1,0,0:0:0:0:
256,192,28953,1,8,0:0:0:0:
256,192,29017,1,8,0:0:0:0:
256,192,29082,1,8,0:0:0:0:
256,192,29147,1,8,0:0:0:0:
256,192,29243,1,0,0:0:0:0:
256,192,29437,1,8,0:0:0:0:
256,192,29534,1,0,0:0:0:0:
256,192,29727,1,8,0:0:0:0:
256,192,29824,1,0,0:0:0:0:
256,192,30017,1,0,0:0:0:0:
256,192,30211,1,8,0:0:0:0:
256,192,30259,1,8,0:0:0:0:
256,192,30501,1,8,0:0:0:0:
256,192,30598,1,0,0:0:0:0:
256,192,30695,1,8,0:0:0:0:
256,192,30792,1,8,0:0:0:0:
256,192,30888,1,0,0:0:0:0:
256,192,31179,1,0,0:0:0:0:
256,192,31276,1,8,0:0:0:0:
256,192,31324,1,8,0:0:0:0:
256,192,31469,1,0,0:0:0:0:
256,192,31566,1,8,0:0:0:0:
256,192,31759,1,8,0:0:0:0:
256,192,31856,1,0,0:0:0:0:
256,192,31921,1,0,0:0:0:0:
256,192,31985,1,0,0:0:0:0:
256,192,32050,1,8,0:0:0:0:
256,192,32114,1,8,0:0:0:0:
256,192,32179,1,8,0:0:0:0:
256,192,32243,1,0,0:0:0:0:
256,192,32340,1,8,0:0:0:0:
256,192,32534,1,8,0:0:0:0:
256,192,32630,1,0,0:0:0:0:
256,192,32824,1,8,0:0:0:0:
256,192,32872,1,8,0:0:0:0:
256,192,32921,1,0,0:0:0:0:
256,192,33114,1,0,0:0:0:0:
256,192,33211,1,0,0:0:0:0:
256,192,33276,1,0,0:0:0:0:
256,192,33340,1,0,0:0:0:0:
256,192,33405,1,8,0:0:0:0:
256,192,33501,1,0,0:0:0:0:
256,192,33598,1,8,0:0:0:0:
256,192,33695,1,8,0:0:0:0:
256,192,33792,1,0,0:0:0:0:
256,192,33985,1,0,0:0:0:0:
256,192,34276,1,8,0:0:0:0:
256,192,34372,1,0,0:0:0:0:
256,192,34566,1,0,0:0:0:0:
256,192,34663,1,8,0:0:0:0:
256,192,34856,1,8,0:0:0:0:
256,192,34953,1,0,0:0:0:0:
256,192,35147,1,8,0:0:0:0:
256,192,35211,1,8,0:0:0:0:
256,192,35276,1,8,0:0:0:0:
256,192,35340,1,8,0:0:0:0:
256,192,35437,1,0,0:0:0:0:
256,192,35630,1,8,0:0:0:0:
256,192,35727,1,0,0:0:0:0:
256,192,35921,1,8,0:0:0:0:
256,192,35969,1,8,0:0:0:0:
256,192,36017,1,0,0:0:0:0:
256,192,36211,1,0,0:0:0:0:
256,192,36405,1,8,0:0:0:0:
256,192,36453,1,8,0:0:0:0:
256,192,36695,1,8,0:0:0:0:
256,192,36792,1,0,0:0:0:0:
256,192,36888,1,0,0:0:0:0:
256,192,36985,1,0,0:0:0:0:
256,192,37082,1,0,0:0:0:0:
256,192,37372,1,8,0:0:0:0:
256,192,37566,1,8,0:0:0:0:
256,192,37663,1,0,0:0:0:0:
256,192,37759,1,8,0:0:0:0:
256,192,37953,1,8,0:0:0:0:
256,192,38147,1,0,0:0:0:0:
256,192,38243,1,8,0:0:0:0:
256,192,38340,1,0,0:0:0:0:
256,192,38437,1,0,0:0:0:0:
256,192,38534,1,8,0:0:0:0:
256,192,38727,1,8,0:0:0:0:
256,192,38824,1,0,0:0:0:0:
256,192,39017,1,8,0:0:0:0:
256,192,39114,1,0,0:0:0:0:
256,192,39211,1,0,0:0:0:0:
256,192,39276,1,0,0:0:0:0:
256,192,39340,1,0,0:0:0:0:
256,192,39405,1,8,0:0:0:0:
256,192,39501,1,8,0:0:0:0:
256,192,39598,1,0,0:0:0:0:
256,192,39695,1,0,0:0:0:0:
256,192,39792,1,8,0:0:0:0:
256,192,39888,1,8,0:0:0:0:
256,192,39985,1,0,0:0:0:0:
256,192,40082,1,8,0:0:0:0:
256,192,40179,1,0,0:0:0:0:
256,192,40469,1,8,0:0:0:0:
256,192,40759,1,0,0:0:0:0:
256,192,40856,1,0,0:0:0:0:
256,192,41050,1,0,0:0:0:0:
256,192,41147,1,8,0:0:0:0:
256,192,41243,1,8,0:0:0:0:
256,192,41340,1,8,0:0:0:0:
256,192,41630,1,0,0:0:0:0:
256,192,41824,1,8,0:0:0:0:
256,192,41921,1,0,0:0:0:0:
256,192,42114,1,8,0:0:0:0:
256,192,42211,1,0,0:0:0:0:
256,192,42405,1,0,0:0:0:0:
256,192,42598,1,8,0:0:0:0:
256,192,42647,1,8,0:0:0:0:
256,192,42888,1,8,0:0:0:0:
256,192,42985,1,0,0:0:0:0:
256,192,43082,1,0,0:0:0:0:
256,192,43179,1,0,0:0:0:0:
256,192,43276,1,0,0:0:0:0:
256,192,43566,1,8,0:0:0:0:
256,192,43856,1,0,0:0:0:0:
256,192,43953,1,8,0:0:0:0:
256,192,44147,1,8,0:0:0:0:
256,192,44340,1,0,0:0:0:0:
256,192,44437,1,8,0:0:0:0:
256,192,44501,1,8,0:0:0:0:
256,192,44566,1,8,0:0:0:0:
256,192,44630,1,8,0:0:0:0:
256,192,44727,1,0,0:0:0:0:
256,192,44921,1,8,0:0:0:0:
256,192,45017,1,0,0:0:0:0:
256,192,45211,1,8,0:0:0:0:
256,192,45308,1,0,0:0:0:0:
256,192,45405,1,0,0:0:0:0:
256,192,45501,1,8,0:0:0:0:
256,192,45695,1,0,0:0:0:0:
256,192,45743,1,0,0:0:0:0:
256,192,45792,1,0,0:0:0:0:
256,192,45888,1,8,0:0:0:0:
256,192,45985,1,8,0:0:0:0:
256,192,46082,1,0,0:0:0:0:
256,192,46179,1,8,0:0:0:0:
256,192,46372,1,0,0:0:0:0:
256,192,46469,1,0,0:0:0:0:
256,192,46566,1,0,0:0:0:0:
256,192,46663,1,8,0:0:0:0:
256,192,46953,1,0,0:0:0:0:
256,192,47147,1,8,0:0:0:0:
256,192,47340,1,0,0:0:0:0:
256,192,47534,1,8,0:0:0:0:
256,192,47598,1,8,0:0:0:0:
256,192,47663,1,8,0:0:0:0:
256,192,47727,1,8,0:0:0:0:
256,192,47824,1,0,0:0:0:0:
256,192,48017,1,8,0:0:0:0:
256,192,48114,1,0,0:0:0:0:
256,192,48308,1,8,0:0:0:0:
256,192,48405,1,0,0:0:0:0:
256,192,48598,1,0,0:0:0:0:
256,192,48792,1,8,0:0:0:0:
256,192,48840,1,8,0:0:0:0:
256,192,49082,1,8,0:0:0:0:
256,192,49179,1,0,0:0:0:0:
256,192,49276,1,0,0:0:0:0:
256,192,49372,1,0,0:0:0:0:
256,192,49469,1,0,0:0:0:0:
256,192,49663,1,0,0:0:0:0:
256,192,49759,1,8,0:0:0:0:
256,192,50050,1,8,0:0:0:0:
256,192,50098,1,8,0:0:0:0:
256,192,50340,1,8,0:0:0:0:
256,192,50437,1,8,0:0:0:0:
256,192,50534,1,0,0:0:0:0:
256,192,50630,1,8,0:0:0:0:
256,192,50695,1,0,0:0:0:0:
256,192,50759,1,0,0:0:0:0:
256,192,50824,1,8,0:0:0:0:
256,192,50921,1,0,0:0:0:0:
256,192,51017,1,8,0:0:0:0:
256,192,51114,1,8,0:0:0:0:
256,192,51211,1,0,0:0:0:0:
256,192,51405,1,8,0:0:0:0:
256,192,51501,1,0,0:0:0:0:
256,192,51598,1,8,0:0:0:0:
256,192,51663,1,8,0:0:0:0:
256,192,51727,1,8,0:0:0:0:
256,192,51792,1,0,0:0:0:0:
256,192,51888,1,8,0:0:0:0:
256,192,51985,1,0,0:0:0:0:
256,192,52082,1,0,0:0:0:0:
256,192,52179,1,0,0:0:0:0:
256,192,52276,1,0,0:0:0:0:
256,192,52372,1,0,0:0:0:0:
256,192,52469,1,0,0:0:0:0:
256,192,52566,1,8,0:0:0:0:
256,192,52759,1,8,0:0:0:0:
256,192,52856,1,0,0:0:0:0:
256,192,52953,1,8,0:0:0:0:
256,192,53001,1,8,0:0:0:0:
256,192,53050,1,0,0:0:0:0:
256,192,53147,1,0,0:0:0:0:
256,192,53243,1,0,0:0:0:0:
256,192,53340,1,8,0:0:0:0:
256,192,53534,1,8,0:0:0:0:
256,192,53630,1,0,0:0:0:0:
256,192,53824,1,8,0:0:0:0:
256,192,53921,1,0,0:0:0:0:
256,192,54017,1,8,0:0:0:0:
256,192,54114,1,8,0:0:0:0:
256,192,54211,1,0,0:0:0:0:
256,192,54308,1,0,0:0:0:0:
256,192,54405,1,8,0:0:0:0:
256,192,54501,1,0,0:0:0:0:
256,192,54598,1,8,0:0:0:0:
256,192,54695,1,0,0:0:0:0:
256,192,54792,1,0,0:0:0:0:
256,192,54888,1,8,0:0:0:0:
256,192,54985,1,8,0:0:0:0:
256,192,55082,1,8,0:0:0:0:
256,192,55179,1,8,0:0:0:0:
256,192,55276,1,0,0:0:0:0:
256,192,55469,1,8,0:0:0:0:
256,192,55566,1,0,0:0:0:0:
256,192,55663,1,8,0:0:0:0:
256,192,55711,1,8,0:0:0:0:
256,192,55759,1,0,0:0:0:0:
256,192,55856,1,8,0:0:0:0:
256,192,55953,1,0,0:0:0:0:
256,192,56050,1,8,0:0:0:0:
256,192,56147,1,8,0:0:0:0:
256,192,56243,1,0,0:0:0:0:
256,192,56340,1,0,0:0:0:0:
256,192,56388,1,0,0:0:0:0:
256,192,56437,1,8,0:0:0:0:
256,192,56630,1,8,0:0:0:0:
256,192,56727,1,0,0:0:0:0:
256,192,56824,1,8,0:0:0:0:
256,192,56888,1,8,0:0:0:0:
256,192,56953,1,8,0:0:0:0:
256,192,57017,1,0,0:0:0:0:
256,192,57211,1,0,0:0:0:0:
256,192,57308,1,0,0:0:0:0:
256,192,57405,1,8,0:0:0:0:
256,192,57453,1,8,0:0:0:0:
256,192,57501,1,0,0:0:0:0:
256,192,57598,1,8,0:0:0:0:
256,192,57695,1,0,0:0:0:0:
256,192,57888,1,8,0:0:0:0:
256,192,57985,1,0,0:0:0:0:
256,192,58082,1,8,0:0:0:0:
256,192,58130,1,8,0:0:0:0:
256,192,58179,1,0,0:0:0:0:
256,192,58276,1,8,0:0:0:0:
256,192,58372,1,0,0:0:0:0:
256,192,58469,1,0,0:0:0:0:
256,192,58566,1,8,0:0:0:0:
256,192,58663,1,8,0:0:0:0:
256,192,58759,1,0,0:0:0:0:
256,192,58856,1,8,0:0:0:0:
256,192,59050,1,8,0:0:0:0:
256,192,59098,1,8,0:0:0:0:
256,192,59340,1,8,0:0:0:0:
256,192,59388,1,8,0:0:0:0:
256,192,59727,1,0,0:0:0:0:
256,192,59824,1,8,0:0:0:0:
256,192,59921,1,0,0:0:0:0:
256,192,59985,1,0,0:0:0:0:
256,192,60050,1,0,0:0:0:0:
256,192,60114,1,0,0:0:0:0:
256,192,60211,1,8,0:0:0:0:
256,192,60308,1,0,0:0:0:0:
256,192,60405,1,0,0:0:0:0:
256,192,60501,1,8,0:0:0:0:
256,192,60598,1,8,0:0:0:0:
256,192,60695,1,0,0:0:0:0:
256,192,60792,1,8,0:0:0:0:
256,192,60888,1,0,0:0:0:0:
256,192,60985,1,0,0:0:0:0:
256,192,61082,1,8,0:0:0:0:
256,192,61130,1,8,0:0:0:0:
256,192,61179,1,0,0:0:0:0:
256,192,61469,1,8,0:0:0:0:
256,192,61566,1,0,0:0:0:0:
256,192,61663,1,8,0:0:0:0:
256,192,61759,1,8,0:0:0:0:
256,192,61856,1,0,0:0:0:0:
256,192,61953,1,8,0:0:0:0:
256,192,62001,1,8,0:0:0:0:
256,192,62050,1,0,0:0:0:0:
256,192,62147,1,8,0:0:0:0:
256,192,62340,1,0,0:0:0:0:
256,192,62437,1,8,0:0:0:0:
256,192,62630,1,8,0:0:0:0:
256,192,62824,1,8,0:0:0:0:
256,192,62921,1,0,0:0:0:0:
256,192,63017,1,8,0:0:0:0:
256,192,63211,1,8,0:0:0:0:
256,192,63276,1,8,0:0:0:0:
256,192,63340,1,8,0:0:0:0:
256,192,63405,1,0,0:0:0:0:
256,192,63501,1,8,0:0:0:0:
256,192,63598,1,0,0:0:0:0:
256,192,63695,1,8,0:0:0:0:
256,192,63792,1,8,0:0:0:0:
256,192,63888,1,8,0:0:0:0:
256,192,63985,1,0,0:0:0:0:
256,192,64082,1,0,0:0:0:0:
256,192,64130,1,0,0:0:0:0:
256,192,64179,1,8,0:0:0:0:
256,192,64276,1,8,0:0:0:0:
256,192,64372,1,0,0:0:0:0:
256,192,64469,1,8,0:0:0:0:
256,192,64566,1,8,0:0:0:0:
256,192,64663,1,0,0:0:0:0:
256,192,64759,1,8,0:0:0:0:
256,192,64808,1,8,0:0:0:0:
256,192,64856,1,0,0:0:0:0:
256,192,64953,1,8,0:0:0:0:
256,192,65147,1,8,0:0:0:0:
256,192,65243,1,8,0:0:0:0:
256,192,65340,1,0,0:0:0:0:
256,192,65405,1,8,0:0:0:0:
256,192,65469,1,8,0:0:0:0:
256,192,65534,1,0,0:0:0:0:
256,192,65727,1,8,0:0:0:0:
256,192,65824,1,0,0:0:0:0:
256,192,65921,1,8,0:0:0:0:
256,192,66017,1,0,0:0:0:0:
256,192,66114,1,8,0:0:0:0:
256,192,66179,1,8,0:0:0:0:
256,192,66243,1,8,0:0:0:0:
256,192,66308,1,8,0:0:0:0:
256,192,66372,1,8,0:0:0:0:
256,192,66437,1,8,0:0:0:0:
256,192,66501,1,0,0:0:0:0:
256,192,66598,1,0,0:0:0:0:
256,192,66695,1,8,0:0:0:0:
256,192,66743,1,0,0:0:0:0:
256,192,66792,1,8,0:0:0:0:
256,192,66888,1,0,0:0:0:0:
256,192,66985,1,8,0:0:0:0:
256,192,67082,1,0,0:0:0:0:
256,192,67147,1,8,0:0:0:0:
256,192,67211,1,8,0:0:0:0:
256,192,67276,1,0,0:0:0:0:
256,192,67372,1,8,0:0:0:0:
256,192,67663,1,8,0:0:0:0:
256,192,67759,1,0,0:0:0:0:
256,192,67856,1,8,0:0:0:0:
256,192,67921,1,8,0:0:0:0:
256,192,67985,1,8,0:0:0:0:
256,192,68050,1,0,0:0:0:0:
256,192,68243,1,8,0:0:0:0:
256,192,68340,1,0,0:0:0:0:
256,192,68437,1,8,0:0:0:0:
256,192,68534,1,8,0:0:0:0:
256,192,68630,1,0,0:0:0:0:
256,192,68824,1,8,0:0:0:0:
256,192,68872,1,8,0:0:0:0:
256,192,69017,1,8,0:0:0:0:
256,192,69066,1,8,0:0:0:0:
256,192,69211,1,8,0:0:0:0:
256,192,69308,1,0,0:0:0:0:
256,192,69405,1,8,0:0:0:0:
256,192,69469,1,8,0:0:0:0:
256,192,69534,1,8,0:0:0:0:
256,192,69598,1,0,0:0:0:0:
256,192,69695,1,0,0:0:0:0:
256,192,69792,1,8,0:0:0:0:
256,192,69856,1,8,0:0:0:0:
256,192,69921,1,8,0:0:0:0:
256,192,69985,1,0,0:0:0:0:
256,192,70082,1,8,0:0:0:0:
256,192,70179,1,0,0:0:0:0:
256,192,70276,1,0,0:0:0:0:
256,192,70372,1,8,0:0:0:0:
256,192,70469,1,0,0:0:0:0:
256,192,70566,1,8,0:0:0:0:
256,192,70663,1,8,0:0:0:0:
256,192,70759,1,0,0:0:0:0:
256,192,70856,1,0,0:0:0:0:
256,192,70953,1,8,0:0:0:0:
256,192,71050,1,8,0:0:0:0:
256,192,71147,1,0,0:0:0:0:
256,192,71437,1,8,0:0:0:0:
256,192,71485,1,8,0:0:0:0:
256,192,71727,1,8,0:0:0:0:
256,192,71776,1,8,0:0:0:0:
256,192,72017,1,0,0:0:0:0:
256,192,72114,1,8,0:0:0:0:
256,192,72211,1,0,0:0:0:0:
256,192,72308,1,8,0:0:0:0:
256,192,72372,1,8,0:0:0:0:
256,192,72437,1,8,0:0:0:0:
256,192,72501,1,0,0:0:0:0:
256,192,72598,1,8,0:0:0:0:
256,192,72695,1,0,0:0:0:0:
256,192,72759,1,0,0:0:0:0:
256,192,72824,1,0,0:0:0:0:
256,192,72888,1,8,0:0:0:0:
256,192,72953,1,8,0:0:0:0:
256,192,73017,1,8,0:0:0:0:
256,192,73082,1,0,0:0:0:0:
256,192,73179,1,8,0:0:0:0:
256,192,73276,1,0,0:0:0:0:
256,192,73372,1,8,0:0:0:0:
256,192,73469,1,0,0:0:0:0:
256,192,73534,1,8,0:0:0:0:
256,192,73598,1,8,0:0:0:0:
256,192,73663,1,0,0:0:0:0:
256,192,73727,1,8,0:0:0:0:
256,192,73792,1,8,0:0:0:0:
256,192,73856,1,0,0:0:0:0:
256,192,74050,1,0,0:0:0:0:
256,192,74147,1,8,0:0:0:0:
256,192,74243,1,0,0:0:0:0:
256,192,74340,1,8,0:0:0:0:
256,192,74437,1,8,0:0:0:0:
256,192,74534,1,8,0:0:0:0:
256,192,74727,1,0,0:0:0:0:
256,192,74824,1,8,0:0:0:0:
256,192,75017,1,0,0:0:0:0:
256,192,75114,1,0,0:0:0:0:
256,192,75308,1,8,0:0:0:0:
256,192,75405,1,0,0:0:0:0:
256,192,75598,1,8,0:0:0:0:
256,192,75647,1,8,0:0:0:0:
256,192,75695,1,0,0:0:0:0:
256,192,75792,1,8,0:0:0:0:
256,192,75888,1,0,0:0:0:0:
256,192,75937,1,0,0:0:0:0:
256,192,75985,1,0,0:0:0:0:
256,192,76082,1,8,0:0:0:0:
256,192,76179,1,8,0:0:0:0:
256,192,76276,1,0,0:0:0:0:
256,192,76372,1,8,0:0:0:0:
256,192,76469,1,0,0:0:0:0:
256,192,76517,1,0,0:0:0:0:
256,192,76566,1,8,0:0:0:0:
256,192,76663,1,8,0:0:0:0:
256,192,76759,1,0,0:0:0:0:
256,192,76856,1,8,0:0:0:0:
256,192,76953,1,8,0:0:0:0:
256,192,77050,1,0,0:0:0:0:
256,192,77147,1,0,0:0:0:0:
256,192,77243,1,8,0:0:0:0:
256,192,77921,1,8,0:0:0:0:
256,192,78501,1,0,0:0:0:0:
256,192,79082,1,8,0:0:0:0:
256,192,79663,1,8,0:0:0:0:
256,192,80243,1,0,0:0:0:0:
256,192,80437,1,0,0:0:0:0:
256,192,81017,1,8,0:0:0:0:
256,192,81598,1,0,0:0:0:0:
256,192,82759,1,0,0:0:0:0:
256,192,83147,1,8,0:0:0:0:
256,192,83534,1,0,0:0:0:0:
256,192,84114,1,8,0:0:0:0:
256,192,84695,1,8,0:0:0:0:
256,192,85276,1,0,0:0:0:0:
256,192,85856,1,8,0:0:0:0:
256,192,86437,1,8,0:0:0:0:
256,192,86630,1,8,0:0:0:0:
256,192,87211,1,0,0:0:0:0:
256,192,87792,1,8,0:0:0:0:
256,192,89727,1,0,0:0:0:0:
256,192,90114,1,0,0:0:0:0:
256,192,90308,1,8,0:0:0:0:
256,192,90888,1,0,0:0:0:0:
256,192,91469,1,8,0:0:0:0:
256,192,91663,1,8,0:0:0:0:
256,192,92050,1,8,0:0:0:0:
256,192,92630,1,8,0:0:0:0:
256,192,92824,1,0,0:0:0:0:
256,192,93405,1,8,0:0:0:0:
256,192,93985,1,8,0:0:0:0:
256,192,94469,1,8,0:0:0:0:
256,192,94759,1,0,0:0:0:0:
256,192,95147,1,8,0:0:0:0:
256,192,95534,1,8,0:0:0:0:
256,192,95921,1,0,0:0:0:0:
256,192,96501,1,8,0:0:0:0:
256,192,97082,1,8,0:0:0:0:
256,192,97663,1,0,0:0:0:0:
256,192,98243,1,8,0:0:0:0:
256,192,98824,1,0,0:0:0:0:
256,192,99017,1,8,0:0:0:0:
256,192,99598,1,0,0:0:0:0:
256,192,100179,1,8,0:0:0:0:
256,128,102114,1,4,0:0:0:0:
256,192,102404,1,0,0:0:0:0:
256,192,102694,1,8,0:0:0:0:
256,192,102791,1,0,0:0:0:0:
256,192,102888,1,8,0:0:0:0:
256,192,103081,1,0,0:0:0:0:
256,192,103178,1,0,0:0:0:0:
256,192,103275,1,0,0:0:0:0:
256,192,103372,1,8,0:0:0:0:
256,192,103565,1,8,0:0:0:0:
256,192,103855,1,0,0:0:0:0:
256,192,103920,1,0,0:0:0:0:
256,192,103984,1,0,0:0:0:0:
256,192,104049,1,8,0:0:0:0:
256,192,104243,1,8,0:0:0:0:
256,192,104339,1,0,0:0:0:0:
256,192,104436,1,0,0:0:0:0:
256,192,104533,1,8,0:0:0:0:
256,192,104726,1,8,0:0:0:0:
256,192,105017,1,8,0:0:0:0:
256,192,105114,1,0,0:0:0:0:
256,192,105210,1,8,0:0:0:0:
256,192,105404,1,0,0:0:0:0:
256,192,105501,1,0,0:0:0:0:
256,192,105597,1,0,0:0:0:0:
256,192,105694,1,8,0:0:0:0:
256,192,105888,1,8,0:0:0:0:
256,192,106178,1,0,0:0:0:0:
256,192,106243,1,0,0:0:0:0:
256,192,106307,1,0,0:0:0:0:
256,192,106372,1,8,0:0:0:0:
256,192,106565,1,8,0:0:0:0:
256,192,106662,1,0,0:0:0:0:
256,192,106759,1,0,0:0:0:0:
256,192,106855,1,8,0:0:0:0:
256,192,107049,1,8,0:0:0:0:
256,192,107339,1,0,0:0:0:0:
256,192,107436,1,0,0:0:0:0:
256,192,107533,1,8,0:0:0:0:
256,192,107726,1,8,0:0:0:0:
256,192,107823,1,0,0:0:0:0:
256,192,107920,1,8,0:0:0:0:
256,192,108017,1,0,0:0:0:0:
256,192,108210,1,8,0:0:0:0:
256,192,108501,1,0,0:0:0:0:
256,192,108565,1,0,0:0:0:0:
256,192,108630,1,0,0:0:0:0:
256,192,108694,1,8,0:0:0:0:
256,192,108888,1,8,0:0:0:0:
256,192,108984,1,0,0:0:0:0:
256,192,109081,1,8,0:0:0:0:
256,192,109178,1,0,0:0:0:0:
256,192,109372,1,8,0:0:0:0:
256,192,109662,1,8,0:0:0:0:
256,192,109759,1,0,0:0:0:0:
256,192,109855,1,8,0:0:0:0:
256,192,110049,1,8,0:0:0:0:
256,192,110146,1,0,0:0:0:0:
256,192,110243,1,0,0:0:0:0:
256,192,110339,1,8,0:0:0:0:
256,192,110533,1,0,0:0:0:0:
256,192,110823,1,0,0:0:0:0:
256,192,110888,1,0,0:0:0:0:
256,192,110952,1,0,0:0:0:0:
256,192,111017,1,8,0:0:0:0:
256,192,111114,1,0,0:0:0:0:
256,192,111210,1,8,0:0:0:0:
256,192,111307,1,0,0:0:0:0:
256,192,111404,1,0,0:0:0:0:
256,192,111501,1,8,0:0:0:0:
256,192,111694,1,0,0:0:0:0:
256,192,111984,1,8,0:0:0:0:
256,192,112081,1,0,0:0:0:0:
256,192,112178,1,8,0:0:0:0:
256,192,112275,1,0,0:0:0:0:
256,192,112372,1,8,0:0:0:0:
256,192,112468,1,0,0:0:0:0:
256,192,112565,1,0,0:0:0:0:
256,192,112662,1,8,0:0:0:0:
256,192,112855,1,8,0:0:0:0:
256,192,113146,1,8,0:0:0:0:
256,192,113210,1,0,0:0:0:0:
256,192,113275,1,0,0:0:0:0:
256,192,113339,1,8,0:0:0:0:
256,192,113436,1,0,0:0:0:0:
256,192,113533,1,0,0:0:0:0:
256,192,113630,1,8,0:0:0:0:
256,192,113726,1,0,0:0:0:0:
256,192,113823,1,8,0:0:0:0:
256,192,114017,1,8,0:0:0:0:
256,192,114307,1,0,0:0:0:0:
256,192,114404,1,0,0:0:0:0:
256,192,114501,1,8,0:0:0:0:
256,192,114597,1,0,0:0:0:0:
256,192,114694,1,8,0:0:0:0:
256,192,114791,1,0,0:0:0:0:
256,192,114888,1,0,0:0:0:0:
256,192,114984,1,8,0:0:0:0:
256,192,115178,1,8,0:0:0:0:
256,192,115468,1,0,0:0:0:0:
256,192,115533,1,0,0:0:0:0:
256,192,115597,1,0,0:0:0:0:
256,192,115662,1,8,0:0:0:0:
256,192,115759,1,0,0:0:0:0:
256,192,115855,1,8,0:0:0:0:
256,192,115952,1,8,0:0:0:0:
256,192,116049,1,0,0:0:0:0:
256,192,116146,1,8,0:0:0:0:
256,192,116339,1,8,0:0:0:0:
256,192,116630,1,0,0:0:0:0:
256,192,116726,1,0,0:0:0:0:
256,192,116823,1,8,0:0:0:0:
256,192,116920,1,0,0:0:0:0:
256,192,117017,1,8,0:0:0:0:
256,192,117113,1,0,0:0:0:0:
256,192,117210,1,0,0:0:0:0:
256,192,117307,1,8,0:0:0:0:
256,192,117501,1,8,0:0:0:0:
256,192,117791,1,0,0:0:0:0:
256,192,117855,1,8,0:0:0:0:
256,192,117920,1,8,0:0:0:0:
256,192,117984,1,0,0:0:0:0:
256,192,118081,1,8,0:0:0:0:
256,192,118178,1,0,0:0:0:0:
256,192,118275,1,0,0:0:0:0:
256,192,118372,1,8,0:0:0:0:
256,192,118468,1,0,0:0:0:0:
256,192,118662,1,8,0:0:0:0:
256,192,118952,1,8,0:0:0:0:
256,192,119049,1,0,0:0:0:0:
256,192,119146,1,8,0:0:0:0:
256,192,119243,1,0,0:0:0:0:
256,192,119339,1,8,0:0:0:0:
256,192,119436,1,8,0:0:0:0:
256,192,119533,1,0,0:0:0:0:
256,192,119630,1,8,0:0:0:0:
256,192,119823,1,0,0:0:0:0:
256,192,120113,1,0,0:0:0:0:
256,192,120178,1,0,0:0:0:0:
256,192,120243,1,0,0:0:0:0:
256,192,120307,1,8,0:0:0:0:
256,192,120404,1,8,0:0:0:0:
256,192,120501,1,0,0:0:0:0:
256,192,120597,1,8,0:0:0:0:
256,192,120694,1,0,0:0:0:0:
256,192,120790,1,0,0:0:0:0:
256,192,120887,1,8,0:0:0:0:
256,192,120984,1,8,0:0:0:0:
256,192,121081,1,0,0:0:0:0:
256,192,121129,1,0,0:0:0:0:
256,192,121177,1,8,0:0:0:0:
256,192,121274,1,0,0:0:0:0:
256,192,121468,1,8,0:0:0:0:
256,192,121532,1,8,0:0:0:0:
256,192,121597,1,8,0:0:0:0:
256,192,121661,1,0,0:0:0:0:
256,192,121758,1,8,0:0:0:0:
256,192,121952,1,8,0:0:0:0:
256,192,122048,1,8,0:0:0:0:
256,192,122145,1,0,0:0:0:0:
256,192,122242,1,8,0:0:0:0:
256,192,122339,1,0,0:0:0:0:
256,192,122435,1,0,0:0:0:0:
256,192,122532,1,8,0:0:0:0:
256,192,122629,1,8,0:0:0:0:
256,192,122726,1,0,0:0:0:0:
256,192,122823,1,0,0:0:0:0:
256,192,122919,1,8,0:0:0:0:
256,192,123016,1,0,0:0:0:0:
256,192,123113,1,8,0:0:0:0:
256,192,123210,1,0,0:0:0:0:
256,192,123274,1,8,0:0:0:0:
256,192,123339,1,8,0:0:0:0:
256,192,123403,1,0,0:0:0:0:
256,192,123500,1,0,0:0:0:0:
256,192,123597,1,8,0:0:0:0:
256,192,123694,1,8,0:0:0:0:
256,192,123790,1,0,0:0:0:0:
256,192,123887,1,8,0:0:0:0:
256,192,123984,1,0,0:0:0:0:
256,192,124081,1,0,0:0:0:0:
256,192,124177,1,8,0:0:0:0:
256,192,124274,1,8,0:0:0:0:
256,192,124371,1,8,0:0:0:0:
256,192,124468,1,0,0:0:0:0:
256,192,124516,1,0,0:0:0:0:
256,192,124564,1,8,0:0:0:0:
256,192,124758,1,0,0:0:0:0:
256,192,124855,1,8,0:0:0:0:
256,192,124952,1,8,0:0:0:0:
256,192,125048,1,0,0:0:0:0:
256,192,125145,1,8,0:0:0:0:
256,192,125194,1,8,0:0:0:0:
256,192,125242,1,8,0:0:0:0:
256,192,125339,1,0,0:0:0:0:
256,192,125532,1,8,0:0:0:0:
256,192,125581,1,8,0:0:0:0:
256,192,125629,1,8,0:0:0:0:
256,192,125677,1,8,0:0:0:0:
256,192,125726,1,0,0:0:0:0:
256,192,125823,1,8,0:0:0:0:
256,192,126016,1,0,0:0:0:0:
256,192,126113,1,8,0:0:0:0:
256,192,126210,1,8,0:0:0:0:
256,192,126306,1,0,0:0:0:0:
256,192,126403,1,8,0:0:0:0:
256,192,126500,1,8,0:0:0:0:
256,192,126597,1,8,0:0:0:0:
256,192,126694,1,0,0:0:0:0:
256,192,126790,1,8,0:0:0:0:
256,192,126887,1,0,0:0:0:0:
256,192,127177,1,8,0:0:0:0:
256,192,127226,1,8,0:0:0:0:
256,192,127468,1,8,0:0:0:0:
256,192,127516,1,8,0:0:0:0:
256,192,127855,1,8,0:0:0:0:
256,192,127952,1,0,0:0:0:0:
256,192,128048,1,8,0:0:0:0:
256,192,128177,1,8,0:0:0:0:
256,192,128306,1,0,0:0:0:0:
256,192,128435,1,8,0:0:0:0:
256,192,128500,1,8,0:0:0:0:
256,192,128564,1,0,0:0:0:0:
256,192,128629,1,0,0:0:0:0:
256,192,128694,1,0,0:0:0:0:
256,192,128758,1,0,0:0:0:0:
256,192,128823,1,8,0:0:0:0:
256,192,128919,1,8,0:0:0:0:
256,192,129016,1,0,0:0:0:0:
256,192,129081,1,0,0:0:0:0:
256,192,129145,1,0,0:0:0:0:
256,192,129210,1,8,0:0:0:0:
256,192,129306,1,8,0:0:0:0:
256,192,129597,1,8,0:0:0:0:
256,192,129694,1,0,0:0:0:0:
256,192,129790,1,8,0:0:0:0:
256,192,129887,1,8,0:0:0:0:
256,192,129984,1,0,0:0:0:0:
256,192,130081,1,8,0:0:0:0:
256,192,130177,1,0,0:0:0:0:
256,192,130226,1,8,0:0:0:0:
256,192,130274,1,0,0:0:0:0:
256,192,130468,1,0,0:0:0:0:
256,192,130564,1,8,0:0:0:0:
256,192,130613,1,8,0:0:0:0:
256,192,130758,1,8,0:0:0:0:
256,192,130952,1,8,0:0:0:0:
256,192,131048,1,8,0:0:0:0:
256,192,131145,1,0,0:0:0:0:
256,192,131339,1,8,0:0:0:0:
256,192,131387,1,8,0:0:0:0:
256,192,131435,1,8,0:0:0:0:
256,192,131532,1,0,0:0:0:0:
256,192,131629,1,8,0:0:0:0:
256,192,131726,1,0,0:0:0:0:
256,192,131823,1,8,0:0:0:0:
256,192,131919,1,8,0:0:0:0:
256,192,132016,1,8,0:0:0:0:
256,192,132113,1,8,0:0:0:0:
256,192,132210,1,0,0:0:0:0:
256,192,132306,1,8,0:0:0:0:
256,192,132403,1,0,0:0:0:0:
256,192,132500,1,8,0:0:0:0:
256,192,132597,1,8,0:0:0:0:
256,192,132694,1,0,0:0:0:0:
256,192,132790,1,8,0:0:0:0:
256,192,132887,1,0,0:0:0:0:
256,192,132984,1,8,0:0:0:0:
256,192,133032,1,8,0:0:0:0:
256,192,133081,1,0,0:0:0:0:
256,192,133274,1,8,0:0:0:0:
256,192,133323,1,8,0:0:0:0:
256,192,133371,1,0,0:0:0:0:
256,192,133468,1,8,0:0:0:0:
256,192,133564,1,8,0:0:0:0:
256,192,133661,1,0,0:0:0:0:
256,192,133855,1,8,0:0:0:0:
256,192,133919,1,8,0:0:0:0:
256,192,133984,1,8,0:0:0:0:
256,192,134048,1,0,0:0:0:0:
256,192,134145,1,0,0:0:0:0:
256,192,134242,1,0,0:0:0:0:
256,192,134290,1,0,0:0:0:0:
256,192,134339,1,0,0:0:0:0:
256,192,134435,1,8,0:0:0:0:
256,192,134532,1,0,0:0:0:0:
256,192,134629,1,8,0:0:0:0:
256,192,134726,1,0,0:0:0:0:
256,192,134823,1,0,0:0:0:0:
256,192,134919,1,8,0:0:0:0:
256,192,135113,1,8,0:0:0:0:
256,192,135210,1,0,0:0:0:0:
256,192,135306,1,8,0:0:0:0:
256,192,135403,1,8,0:0:0:0:
256,192,135500,1,0,0:0:0:0:
256,192,135597,1,8,0:0:0:0:
256,192,135661,1,8,0:0:0:0:
256,192,135726,1,8,0:0:0:0:
256,192,135790,1,0,0:0:0:0:
256,192,135887,1,8,0:0:0:0:
256,192,135984,1,0,0:0:0:0:
256,192,136081,1,0,0:0:0:0:
256,192,136177,1,8,0:0:0:0:
256,192,136274,1,8,0:0:0:0:
256,192,136371,1,0,0:0:0:0:
256,192,136419,1,0,0:0:0:0:
256,192,136468,1,8,0:0:0:0:
256,192,136564,1,0,0:0:0:0:
256,192,136661,1,0,0:0:0:0:
256,192,136758,1,8,0:0:0:0:
256,192,136952,1,8,0:0:0:0:
256,192,137145,1,8,0:0:0:0:
256,192,137242,1,8,0:0:0:0:
256,192,137339,1,0,0:0:0:0:
256,192,137387,1,0,0:0:0:0:
256,192,137435,1,0,0:0:0:0:
256,192,137532,1,8,0:0:0:0:
256,192,137629,1,8,0:0:0:0:
256,192,137726,1,0,0:0:0:0:
256,192,137919,1,8,0:0:0:0:
256,192,137968,1,8,0:0:0:0:
256,192,138016,1,8,0:0:0:0:
256,192,138064,1,8,0:0:0:0:
256,192,138113,1,0,0:0:0:0:
256,192,138210,1,8,0:0:0:0:
256,192,138403,1,0,0:0:0:0:
256,192,138597,1,8,0:0:0:0:
256,192,138645,1,8,0:0:0:0:
256,192,138790,1,8,0:0:0:0:
256,192,138839,1,8,0:0:0:0:
256,192,138887,1,8,0:0:0:0:
256,192,138984,1,8,0:0:0:0:
256,192,139081,1,0,0:0:0:0:
256,192,139177,1,0,0:0:0:0:
256,192,139274,1,8,0:0:0:0:
256,192,139564,1,8,0:0:0:0:
256,192,139613,1,8,0:0:0:0:
256,192,139855,1,8,0:0:0:0:
256,192,139903,1,8,0:0:0:0:
256,192,140242,1,8,0:0:0:0:
256,192,140339,1,0,0:0:0:0:
256,192,140435,1,8,0:0:0:0:
256,192,140500,1,8,0:0:0:0:
256,192,140564,1,8,0:0:0:0:
256,192,140629,1,0,0:0:0:0:
256,192,140726,1,8,0:0:0:0:
256,192,140823,1,0,0:0:0:0:
256,192,140887,1,0,0:0:0:0:
256,192,140952,1,0,0:0:0:0:
256,192,141016,1,8,0:0:0:0:
256,192,141081,1,8,0:0:0:0:
256,192,141145,1,8,0:0:0:0:
256,192,141210,1,0,0:0:0:0:
256,192,141403,1,8,0:0:0:0:
256,192,141468,1,0,0:0:0:0:
256,192,141532,1,0,0:0:0:0:
256,192,141597,1,8,0:0:0:0:
256,192,141693,1,8,0:0:0:0:
256,192,141790,1,0,0:0:0:0:
256,192,141984,1,8,0:0:0:0:
256,192,142032,1,8,0:0:0:0:
256,192,142177,1,0,0:0:0:0:
256,192,142274,1,0,0:0:0:0:
256,192,142371,1,8,0:0:0:0:
256,192,142468,1,8,0:0:0:0:
256,192,142564,1,0,0:0:0:0:
256,192,142661,1,8,0:0:0:0:
256,128,142952,1,12,0:0:0:0:
256,192,143145,1,8,0:0:0:0:
256,192,143339,1,8,0:0:0:0:
256,192,143435,1,0,0:0:0:0:
256,192,143532,1,8,0:0:0:0:
256,192,143597,1,8,0:0:0:0:
256,192,143661,1,0,0:0:0:0:
256,192,143726,1,8,0:0:0:0:
256,192,143823,1,0,0:0:0:0:
256,192,143919,1,8,0:0:0:0:
256,192,144016,1,0,0:0:0:0:
256,192,144113,1,8,0:0:0:0:
256,192,144210,1,8,0:0:0:0:
256,192,144306,1,0,0:0:0:0:
256,192,144403,1,8,0:0:0:0:
256,192,144500,1,0,0:0:0:0:
256,192,144597,1,0,0:0:0:0:
256,192,144693,1,8,0:0:0:0:
256,192,144887,1,8,0:0:0:0:
256,192,144952,1,8,0:0:0:0:
256,192,145016,1,8,0:0:0:0:
256,192,145081,1,0,0:0:0:0:
256,192,145177,1,0,0:0:0:0:
256,192,145274,1,0,0:0:0:0:
256,192,145371,1,8,0:0:0:0:
256,192,145468,1,0,0:0:0:0:
256,192,145564,1,8,0:0:0:0:
256,192,145661,1,8,0:0:0:0:
256,192,145758,1,0,0:0:0:0:
256,192,145855,1,8,0:0:0:0:
256,192,145903,1,8,0:0:0:0:
256,192,145952,1,0,0:0:0:0:
256,192,146048,1,0,0:0:0:0:
256,192,146242,1,8,0:0:0:0:
256,192,146290,1,8,0:0:0:0:
256,192,146339,1,8,0:0:0:0:
256,192,146435,1,0,0:0:0:0:
256,192,146532,1,0,0:0:0:0:
256,192,146726,1,8,0:0:0:0:
256,192,146823,1,0,0:0:0:0:
256,192,146919,1,8,0:0:0:0:
256,192,146968,1,8,0:0:0:0:
256,192,147016,1,0,0:0:0:0:
256,192,147113,1,0,0:0:0:0:
256,192,147210,1,0,0:0:0:0:
256,192,147306,1,8,0:0:0:0:
256,192,147403,1,0,0:0:0:0:
256,192,147452,1,8,0:0:0:0:
256,192,147500,1,0,0:0:0:0:
256,192,147693,1,0,0:0:0:0:
256,192,147790,1,8,0:0:0:0:
256,192,147839,1,8,0:0:0:0:
256,192,147887,1,8,0:0:0:0:
256,192,147984,1,0,0:0:0:0:
256,192,148081,1,8,0:0:0:0:
256,192,148177,1,8,0:0:0:0:
256,192,148274,1,0,0:0:0:0:
256,192,148371,1,8,0:0:0:0:
256,192,148468,1,8,0:0:0:0:
256,192,148564,1,0,0:0:0:0:
256,192,148661,1,0,0:0:0:0:
256,192,148758,1,8,0:0:0:0:
256,192,148855,1,8,0:0:0:0:
256,192,148903,1,8,0:0:0:0:
256,192,148952,1,8,0:0:0:0:
256,192,149048,1,8,0:0:0:0:
256,192,149145,1,8,0:0:0:0:
256,192,149242,1,0,0:0:0:0:
256,192,149339,1,8,0:0:0:0:
256,192,149532,1,8,0:0:0:0:
256,192,149629,1,0,0:0:0:0:
256,192,149823,1,0,0:0:0:0:
256,192,149919,1,8,0:0:0:0:
256,192,149984,1,8,0:0:0:0:
256,192,150048,1,8,0:0:0:0:
256,192,150113,1,0,0:0:0:0:
256,192,150210,1,0,0:0:0:0:
256,192,150306,1,8,0:0:0:0:
256,192,150403,1,8,0:0:0:0:
256,192,150500,1,0,0:0:0:0:
256,192,150597,1,8,0:0:0:0:
256,192,150790,1,8,0:0:0:0:
256,192,150887,1,0,0:0:0:0:
256,192,150952,1,8,0:0:0:0:
256,192,151016,1,8,0:0:0:0:
256,192,151081,1,0,0:0:0:0:
256,192,151177,1,0,0:0:0:0:
256,192,151274,1,8,0:0:0:0:
256,192,151371,1,8,0:0:0:0:
256,192,151468,1,0,0:0:0:0:
256,192,151564,1,0,0:0:0:0:
256,192,151661,1,8,0:0:0:0:
256,192,151952,1,8,0:0:0:0:
256,192,152000,1,8,0:0:0:0:
256,192,152242,1,8,0:0:0:0:
256,192,152290,1,8,0:0:0:0:
256,192,152629,1,8,0:0:0:0:
256,192,152726,1,0,0:0:0:0:
256,192,152823,1,8,0:0:0:0:
256,192,152887,1,8,0:0:0:0:
256,192,152952,1,8,0:0:0:0:
256,192,153016,1,0,0:0:0:0:
256,192,153210,1,8,0:0:0:0:
256,192,153258,1,8,0:0:0:0:
256,192,153306,1,8,0:0:0:0:
256,192,153355,1,8,0:0:0:0:
256,192,153403,1,8,0:0:0:0:
256,192,153452,1,8,0:0:0:0:
256,192,153500,1,8,0:0:0:0:
256,192,153548,1,8,0:0:0:0:
256,192,153597,1,0,0:0:0:0:
256,192,153887,1,0,0:0:0:0:
256,192,153984,1,8,0:0:0:0:
256,192,154032,1,0,0:0:0:0:
256,192,154081,1,8,0:0:0:0:
256,192,154274,1,0,0:0:0:0:
256,192,154371,1,8,0:0:0:0:
256,192,154468,1,8,0:0:0:0:
256,192,154564,1,0,0:0:0:0:
256,192,154661,1,8,0:0:0:0:
256,192,154758,1,0,0:0:0:0:
256,192,154855,1,0,0:0:0:0:
256,192,154903,1,0,0:0:0:0:
256,192,154952,1,0,0:0:0:0:
256,192,155048,1,8,0:0:0:0:
256,192,155242,1,8,0:0:0:0:
256,192,155339,1,0,0:0:0:0:
256,192,155532,1,8,0:0:0:0:
256,192,155726,1,8,0:0:0:0:
256,192,155823,1,8,0:0:0:0:
256,192,155919,1,0,0:0:0:0:
256,192,155984,1,0,0:0:0:0:
256,192,156048,1,0,0:0:0:0:
256,192,156113,1,8,0:0:0:0:
256,192,156177,1,8,0:0:0:0:
256,192,156242,1,8,0:0:0:0:
256,192,156306,1,0,0:0:0:0:
256,192,156403,1,0,0:0:0:0:
256,192,156500,1,8,0:0:0:0:
256,192,156597,1,8,0:0:0:0:
256,192,156693,1,0,0:0:0:0:
256,192,156790,1,8,0:0:0:0:
256,192,156887,1,0,0:0:0:0:
256,192,156984,1,0,0:0:0:0:
256,192,157081,1,8,0:0:0:0:
256,192,157145,1,8,0:0:0:0:
256,192,157210,1,0,0:0:0:0:
256,192,157274,1,8,0:0:0:0:
256,192,157339,1,8,0:0:0:0:
256,192,157403,1,0,0:0:0:0:
256,192,157468,1,8,0:0:0:0:
256,192,157532,1,0,0:0:0:0:
256,192,157597,1,0,0:0:0:0:
256,192,157661,1,8,0:0:0:0:
256,192,157758,1,0,0:0:0:0:
256,192,157855,1,8,0:0:0:0:
256,192,158048,1,8,0:0:0:0:
256,192,158145,1,0,0:0:0:0:
256,192,158242,1,8,0:0:0:0:
256,192,158339,1,8,0:0:0:0:
256,192,158435,1,0,0:0:0:0:
256,192,158629,1,8,0:0:0:0:
256,192,158693,1,8,0:0:0:0:
256,192,158758,1,8,0:0:0:0:
256,192,158823,1,0,0:0:0:0:
256,192,158919,1,0,0:0:0:0:
256,192,159016,1,8,0:0:0:0:
256,192,159081,1,8,0:0:0:0:
256,192,159145,1,8,0:0:0:0:
256,192,159210,1,8,0:0:0:0:
256,192,159274,1,0,0:0:0:0:
256,192,159339,1,0,0:0:0:0:
256,192,159403,1,8,0:0:0:0:
256,192,159500,1,0,0:0:0:0:
256,192,159597,1,8,0:0:0:0:
256,192,159661,1,8,0:0:0:0:
256,192,159726,1,8,0:0:0:0:
256,192,159790,1,0,0:0:0:0:
256,192,159887,1,0,0:0:0:0:
256,192,159984,1,8,0:0:0:0:
256,192,160048,1,0,0:0:0:0:
256,192,160113,1,0,0:0:0:0:
256,192,160177,1,8,0:0:0:0:
256,192,160371,1,8,0:0:0:0:
256,192,160419,1,8,0:0:0:0:
256,192,160468,1,8,0:0:0:0:
256,192,160516,1,8,0:0:0:0:
256,192,160564,1,0,0:0:0:0:
256,192,160661,1,0,0:0:0:0:
256,192,160758,1,8,0:0:0:0:
256,192,160952,1,0,0:0:0:0:
256,192,161145,1,8,0:0:0:0:
256,192,161242,1,8,0:0:0:0:
256,192,161339,1,0,0:0:0:0:
256,192,161387,1,0,0:0:0:0:
256,192,161435,1,0,0:0:0:0:
256,192,161484,1,0,0:0:0:0:
256,192,161532,1,0,0:0:0:0:
256,192,161581,1,0,0:0:0:0:
256,192,161629,1,0,0:0:0:0:
256,192,161677,1,0,0:0:0:0:
256,192,161726,1,0,0:0:0:0:
256,192,161919,1,8,0:0:0:0:
256,192,162016,1,0,0:0:0:0:
256,192,162210,1,8,0:0:0:0:
256,192,162258,1,8,0:0:0:0:
256,192,162306,1,8,0:0:0:0:
256,192,162355,1,8,0:0:0:0:
256,192,162403,1,0,0:0:0:0:
256,192,162500,1,8,0:0:0:0:
256,192,162693,1,8,0:0:0:0:
256,192,162742,1,8,0:0:0:0:
256,192,162790,1,8,0:0:0:0:
256,192,162839,1,8,0:0:0:0:
256,192,162887,1,0,0:0:0:0:
256,192,162984,1,8,0:0:0:0:
256,192,163177,1,0,0:0:0:0:
256,192,163274,1,8,0:0:0:0:
256,192,163339,1,8,0:0:0:0:
256,192,163403,1,0,0:0:0:0:
256,192,163468,1,8,0:0:0:0:
256,192,163564,1,0,0:0:0:0:
256,192,163661,1,8,0:0:0:0:
256,192,163758,1,8,0:0:0:0:
256,192,163855,1,0,0:0:0:0:
256,192,163952,1,0,0:0:0:0:
256,192,164048,1,0,0:0:0:0:
256,192,164339,1,8,0:0:0:0:
256,192,164387,1,8,0:0:0:0:
256,192,164629,1,8,0:0:0:0:
256,192,164677,1,8,0:0:0:0:
256,192,164919,1,8,0:0:0:0:
256,192,165016,1,0,0:0:0:0:
256,192,165113,1,8,0:0:0:0:
256,192,165210,1,0,0:0:0:0:
256,192,165274,1,0,0:0:0:0:
256,192,165339,1,0,0:0:0:0:
256,192,165403,1,8,0:0:0:0:
256,192,165597,1,0,0:0:0:0:
256,192,165645,1,0,0:0:0:0:
256,192,165693,1,0,0:0:0:0:
256,192,165742,1,0,0:0:0:0:
256,192,165790,1,8,0:0:0:0:
256,192,165887,1,8,0:0:0:0:
256,192,165984,1,0,0:0:0:0:
256,192,166081,1,0,0:0:0:0:
256,192,166177,1,8,0:0:0:0:
256,192,166242,1,8,0:0:0:0:
256,192,166306,1,8,0:0:0:0:
256,192,166371,1,0,0:0:0:0:
256,192,166468,1,0,0:0:0:0:
256,192,166661,1,0,0:0:0:0:
256,192,166758,1,8,0:0:0:0:
256,192,166855,1,8,0:0:0:0:
256,192,166952,1,8,0:0:0:0:
256,192,167048,1,0,0:0:0:0:
256,192,167145,1,8,0:0:0:0:
256,192,167242,1,8,0:0:0:0:
256,192,167435,1,8,0:0:0:0:
256,128,167726,1,12,0:0:0:0:
256,192,167919,1,0,0:0:0:0:
256,192,168113,1,0,0:0:0:0:
256,192,168210,1,8,0:0:0:0:
256,192,168306,1,0,0:0:0:0:
256,192,168355,1,0,0:0:0:0:
256,192,168403,1,8,0:0:0:0:
256,192,168500,1,8,0:0:0:0:
256,192,168597,1,8,0:0:0:0:
256,192,168693,1,0,0:0:0:0:
256,192,168790,1,0,0:0:0:0:
256,192,168887,1,8,0:0:0:0:
256,192,168984,1,8,0:0:0:0:
256,192,169081,1,8,0:0:0:0:
256,192,169177,1,8,0:0:0:0:
256,192,169274,1,0,0:0:0:0:
256,192,169371,1,8,0:0:0:0:
256,192,169468,1,0,0:0:0:0:
256,192,169532,1,8,0:0:0:0:
256,192,169597,1,0,0:0:0:0:
256,192,169661,1,8,0:0:0:0:
256,192,169758,1,8,0:0:0:0:
256,192,169855,1,0,0:0:0:0:
256,192,169952,1,0,0:0:0:0:
256,192,170048,1,8,0:0:0:0:
256,192,170145,1,0,0:0:0:0:
256,192,170242,1,8,0:0:0:0:
256,192,173339,1,8,0:0:0:0:
256,192,176435,1,0,0:0:0:0:
256,192,179532,1,8,0:0:0:0:
256,192,181081,1,0,0:0:0:0:
256,192,181855,1,8,0:0:0:0:
256,192,182629,1,0,0:0:0:0:
256,192,183403,1,8,0:0:0:0:
256,192,184177,1,8,0:0:0:0:
256,192,184952,1,8,0:0:0:0:
256,192,185339,1,8,0:0:0:0:
256,192,185726,1,8,0:0:0:0:
256,192,186500,1,8,0:0:0:0:
256,192,187274,1,8,0:0:0:0:
256,192,188048,1,8,0:0:0:0:
256,192,188435,1,0,0:0:0:0:
256,192,188823,1,8,0:0:0:0:
256,192,189597,1,8,0:0:0:0:
256,192,190371,1,8,0:0:0:0:
256,192,191145,1,8,0:0:0:0:
256,192,191532,1,8,0:0:0:0:
256,192,191919,1,0,0:0:0:0:
256,192,192693,1,8,0:0:0:0:
256,192,193468,1,0,0:0:0:0:
256,192,194242,1,8,0:0:0:0:
256,192,195016,1,0,0:0:0:0:
256,192,195306,1,8,0:0:0:0:
256,192,195597,1,0,0:0:0:0:
256,192,195984,1,0,0:0:0:0:
256,192,196081,1,8,0:0:0:0:
256,192,196177,1,8,0:0:0:0:
256,192,196242,1,8,0:0:0:0:
256,192,196306,1,8,0:0:0:0:
256,192,196371,1,8,0:0:0:0:
256,192,196468,1,0,0:0:0:0:
256,192,196661,1,8,0:0:0:0:
256,192,196758,1,0,0:0:0:0:
256,192,196952,1,8,0:0:0:0:
256,192,197048,1,0,0:0:0:0:
256,192,197242,1,0,0:0:0:0:
256,192,197435,1,8,0:0:0:0:
256,192,197629,1,0,0:0:0:0:
256,192,197726,1,8,0:0:0:0:
256,192,197823,1,8,0:0:0:0:
256,192,197919,1,0,0:0:0:0:
256,192,198016,1,0,0:0:0:0:
256,192,198113,1,8,0:0:0:0:
256,192,198403,1,8,0:0:0:0:
256,192,198597,1,8,0:0:0:0:
256,192,198693,1,0,0:0:0:0:
256,192,199177,1,0,0:0:0:0:
256,192,199274,1,8,0:0:0:0:
256,192,199371,1,8,0:0:0:0:
256,192,199468,1,8,0:0:0:0:
256,192,199532,1,8,0:0:0:0:
256,192,199597,1,8,0:0:0:0:
256,192,199661,1,8,0:0:0:0:
256,192,199758,1,8,0:0:0:0:
256,192,199855,1,0,0:0:0:0:
256,192,200048,1,8,0:0:0:0:
256,192,200145,1,0,0:0:0:0:
256,192,200339,1,0,0:0:0:0:
256,192,200435,1,8,0:0:0:0:
256,192,200500,1,0,0:0:0:0:
256,192,200564,1,0,0:0:0:0:
256,192,200629,1,8,0:0:0:0:
256,192,200726,1,0,0:0:0:0:
256,192,200823,1,8,0:0:0:0:
256,192,200919,1,8,0:0:0:0:
256,192,201016,1,0,0:0:0:0:
256,192,201210,1,0,0:0:0:0:
256,192,201500,1,8,0:0:0:0:
256,192,201790,1,0,0:0:0:0:
256,192,202177,1,0,0:0:0:0:
256,192,202274,1,8,0:0:0:0:
256,192,202371,1,8,0:0:0:0:
256,192,202435,1,8,0:0:0:0:
256,192,202500,1,8,0:0:0:0:
256,192,202564,1,8,0:0:0:0:
256,192,202661,1,0,0:0:0:0:
256,192,202855,1,8,0:0:0:0:
256,192,202952,1,0,0:0:0:0:
256,192,203145,1,8,0:0:0:0:
256,192,203242,1,0,0:0:0:0:
256,192,203435,1,0,0:0:0:0:
256,192,203629,1,8,0:0:0:0:
256,192,203823,1,0,0:0:0:0:
256,192,203919,1,8,0:0:0:0:
256,192,204016,1,8,0:0:0:0:
256,192,204113,1,0,0:0:0:0:
256,192,204210,1,0,0:0:0:0:
256,192,204306,1,8,0:0:0:0:
256,192,204597,1,8,0:0:0:0:
256,192,204790,1,8,0:0:0:0:
256,192,204887,1,0,0:0:0:0:
256,192,205371,1,0,0:0:0:0:
256,192,205468,1,8,0:0:0:0:
256,192,205564,1,8,0:0:0:0:
256,192,205661,1,8,0:0:0:0:
256,192,205726,1,8,0:0:0:0:
256,192,205790,1,8,0:0:0:0:
256,192,205855,1,0,0:0:0:0:
256,192,205952,1,8,0:0:0:0:
256,192,206048,1,0,0:0:0:0:
256,192,206242,1,8,0:0:0:0:
256,192,206339,1,0,0:0:0:0:
256,192,206532,1,0,0:0:0:0:
256,192,206581,1,0,0:0:0:0:
256,192,206629,1,0,0:0:0:0:
256,192,206726,1,8,0:0:0:0:
256,192,206823,1,8,0:0:0:0:
256,192,206919,1,0,0:0:0:0:
256,192,207016,1,8,0:0:0:0:
256,192,207113,1,8,0:0:0:0:
256,192,207210,1,0,0:0:0:0:
256,192,207403,1,0,0:0:0:0:
256,192,207693,1,8,0:0:0:0:
256,192,207984,1,0,0:0:0:0:
256,192,208371,1,0,0:0:0:0:
256,192,208468,1,8,0:0:0:0:
256,192,208564,1,8,0:0:0:0:
256,192,208629,1,8,0:0:0:0:
256,192,208693,1,8,0:0:0:0:
256,192,208758,1,8,0:0:0:0:
256,192,208855,1,0,0:0:0:0:
256,192,209048,1,8,0:0:0:0:
256,192,209145,1,0,0:0:0:0:
256,192,209339,1,8,0:0:0:0:
256,192,209435,1,0,0:0:0:0:
256,192,209629,1,0,0:0:0:0:
256,192,209823,1,8,0:0:0:0:
256,192,210016,1,0,0:0:0:0:
256,192,210113,1,8,0:0:0:0:
256,192,210210,1,0,0:0:0:0:
256,192,210306,1,0,0:0:0:0:
256,192,210403,1,0,0:0:0:0:
256,192,210500,1,8,0:0:0:0:
256,192,210790,1,8,0:0:0:0:
256,192,210984,1,8,0:0:0:0:
256,192,211081,1,0,0:0:0:0:
256,192,211564,1,0,0:0:0:0:
256,192,211661,1,8,0:0:0:0:
256,192,211758,1,8,0:0:0:0:
256,192,211855,1,8,0:0:0:0:
256,192,211919,1,8,0:0:0:0:
256,192,211984,1,8,0:0:0:0:
256,192,212048,1,8,0:0:0:0:
256,192,212145,1,8,0:0:0:0:
256,192,212242,1,0,0:0:0:0:
256,192,212435,1,8,0:0:0:0:
256,192,212532,1,0,0:0:0:0:
256,192,212726,1,0,0:0:0:0:
256,192,212823,1,8,0:0:0:0:
256,192,212887,1,0,0:0:0:0:
256,192,212952,1,0,0:0:0:0:
256,192,213016,1,8,0:0:0:0:
256,192,213113,1,0,0:0:0:0:
256,192,213210,1,8,0:0:0:0:
256,192,213306,1,8,0:0:0:0:
256,192,213403,1,0,0:0:0:0:
256,192,213597,1,0,0:0:0:0:
256,192,213887,1,8,0:0:0:0:
256,192,214177,1,0,0:0:0:0:
256,192,214564,1,0,0:0:0:0:
256,192,214661,1,8,0:0:0:0:
256,192,214758,1,8,0:0:0:0:
256,192,214823,1,0,0:0:0:0:
256,192,214887,1,0,0:0:0:0:
256,192,214952,1,8,0:0:0:0:
256,192,215048,1,0,0:0:0:0:
256,192,215242,1,8,0:0:0:0:
256,192,215339,1,0,0:0:0:0:
256,192,215532,1,8,0:0:0:0:
256,192,215629,1,0,0:0:0:0:
256,192,215823,1,0,0:0:0:0:
256,192,216016,1,8,0:0:0:0:
256,192,216210,1,0,0:0:0:0:
256,192,216306,1,8,0:0:0:0:
256,192,216403,1,8,0:0:0:0:
256,192,216500,1,0,0:0:0:0:
256,192,216597,1,0,0:0:0:0:
256,192,216693,1,8,0:0:0:0:
256,192,216984,1,8,0:0:0:0:
256,192,217177,1,8,0:0:0:0:
256,192,217274,1,0,0:0:0:0:
256,192,217758,1,0,0:0:0:0:
256,192,217855,1,8,0:0:0:0:
256,192,217952,1,8,0:0:0:0:
256,192,218048,1,0,0:0:0:0:
256,192,218113,1,8,0:0:0:0:
256,192,218177,1,8,0:0:0:0:
256,192,218242,1,8,0:0:0:0:
256,192,218339,1,8,0:0:0:0:
256,192,218435,1,0,0:0:0:0:
256,192,218629,1,8,0:0:0:0:
256,192,218726,1,0,0:0:0:0:
256,192,218919,1,0,0:0:0:0:
256,192,218968,1,0,0:0:0:0:
256,192,219016,1,0,0:0:0:0:
256,192,219113,1,8,0:0:0:0:
256,192,219210,1,8,0:0:0:0:
256,192,219306,1,0,0:0:0:0:
256,192,219403,1,8,0:0:0:0:
256,192,219500,1,8,0:0:0:0:
256,192,219597,1,0,0:0:0:0:
256,192,225984,12,0,228306,0:0:0:0:
256,192,229081,5,8,0:0:0:0:
256,192,229145,1,8,0:0:0:0:
256,192,229210,1,8,0:0:0:0:
256,192,229274,1,0,0:0:0:0:
256,192,229371,1,0,0:0:0:0:
256,192,229468,1,8,0:0:0:0:
256,192,229516,1,8,0:0:0:0:
256,192,229564,1,0,0:0:0:0:
256,192,229661,1,0,0:0:0:0:
256,192,229855,1,8,0:0:0:0:
256,192,229919,1,8,0:0:0:0:
256,192,229984,1,8,0:0:0:0:
256,192,230048,1,0,0:0:0:0:
256,192,230145,1,0,0:0:0:0:
256,192,230339,1,8,0:0:0:0:
256,192,230435,1,0,0:0:0:0:
256,192,230532,1,8,0:0:0:0:
256,192,230726,1,8,0:0:0:0:
256,192,230823,1,0,0:0:0:0:
256,192,230919,1,8,0:0:0:0:
256,192,231016,1,8,0:0:0:0:
256,192,231113,1,0,0:0:0:0:
256,192,231210,1,0,0:0:0:0:
256,192,231306,1,8,0:0:0:0:
256,192,231355,1,8,0:0:0:0:
256,192,231403,1,0,0:0:0:0:
256,192,231597,1,8,0:0:0:0:
256,192,231645,1,8,0:0:0:0:
256,192,231693,1,8,0:0:0:0:
256,192,231742,1,8,0:0:0:0:
256,192,231790,1,0,0:0:0:0:
256,192,231887,1,8,0:0:0:0:
256,192,231984,1,0,0:0:0:0:
256,192,232081,1,0,0:0:0:0:
256,192,232177,1,8,0:0:0:0:
256,192,232274,1,8,0:0:0:0:
256,192,232371,1,8,0:0:0:0:
256,192,232435,1,8,0:0:0:0:
256,192,232500,1,8,0:0:0:0:
256,192,232564,1,0,0:0:0:0:
256,192,232661,1,0,0:0:0:0:
256,192,232758,1,8,0:0:0:0:
256,192,232855,1,0,0:0:0:0:
256,192,232903,1,0,0:0:0:0:
256,192,232952,1,8,0:0:0:0:
256,192,233145,1,8,0:0:0:0:
256,192,233193,1,8,0:0:0:0:
256,192,233242,1,0,0:0:0:0:
256,192,233435,1,0,0:0:0:0:
256,192,233532,1,8,0:0:0:0:
256,192,233726,1,8,0:0:0:0:
256,192,233823,1,0,0:0:0:0:
256,192,233919,1,8,0:0:0:0:
256,192,233968,1,8,0:0:0:0:
256,192,234016,1,8,0:0:0:0:
256,192,234064,1,8,0:0:0:0:
256,192,234113,1,0,0:0:0:0:
256,192,234210,1,8,0:0:0:0:
256,192,234403,1,8,0:0:0:0:
256,192,234500,1,0,0:0:0:0:
256,192,234564,1,0,0:0:0:0:
256,192,234629,1,0,0:0:0:0:
256,192,234693,1,8,0:0:0:0:
256,192,234790,1,0,0:0:0:0:
256,192,234887,1,8,0:0:0:0:
256,192,234984,1,8,0:0:0:0:
256,192,235081,1,0,0:0:0:0:
256,192,235177,1,8,0:0:0:0:
256,192,235274,1,0,0:0:0:0:
256,192,235564,1,8,0:0:0:0:
256,192,235613,1,8,0:0:0:0:
256,192,235855,1,8,0:0:0:0:
256,192,235903,1,8,0:0:0:0:
256,192,236242,1,0,0:0:0:0:
256,192,236339,1,8,0:0:0:0:
256,192,236435,1,0,0:0:0:0:
256,192,236629,1,0,0:0:0:0:
256,192,236693,1,0,0:0:0:0:
256,192,236758,1,0,0:0:0:0:
256,192,236823,1,8,0:0:0:0:
256,192,236887,1,8,0:0:0:0:
256,192,236952,1,8,0:0:0:0:
256,192,237016,1,0,0:0:0:0:
256,192,237113,1,8,0:0:0:0:
256,192,237210,1,0,0:0:0:0:
256,192,237306,1,0,0:0:0:0:
256,192,237403,1,8,0:0:0:0:
256,192,237468,1,8,0:0:0:0:
256,192,237532,1,0,0:0:0:0:
256,192,237597,1,8,0:0:0:0:
256,192,237790,1,0,0:0:0:0:
256,192,237984,1,8,0:0:0:0:
256,192,238081,1,8,0:0:0:0:
256,192,238177,1,0,0:0:0:0:
256,192,238274,1,8,0:0:0:0:
256,192,238371,1,8,0:0:0:0:
256,192,238468,1,0,0:0:0:0:
256,192,238661,1,8,0:0:0:0:
256,192,238855,1,8,0:0:0:0:
256,192,238952,1,0,0:0:0:0:
256,192,239145,1,0,0:0:0:0:
256,192,239339,1,0,0:0:0:0:
256,192,239435,1,8,0:0:0:0:
256,192,239532,1,0,0:0:0:0:
256,192,239726,1,8,0:0:0:0:
256,192,239790,1,0,0:0:0:0:
256,192,239855,1,0,0:0:0:0:
256,192,239919,1,8,0:0:0:0:
256,192,240016,1,8,0:0:0:0:
256,192,240113,1,8,0:0:0:0:
256,192,240210,1,0,0:0:0:0:
256,192,240306,1,0,0:0:0:0:
256,192,240403,1,8,0:0:0:0:
256,192,240500,1,0,0:0:0:0:
256,192,240548,1,8,0:0:0:0:
256,192,240597,1,0,0:0:0:0:
256,192,240693,1,8,0:0:0:0:
256,192,240790,1,8,0:0:0:0:
256,192,240887,1,0,0:0:0:0:
256,192,240984,1,8,0:0:0:0:
256,192,241081,1,8,0:0:0:0:
256,192,241177,1,0,0:0:0:0:
256,192,241274,1,0,0:0:0:0:
256,192,241371,1,8,0:0:0:0:
256,192,241468,1,0,0:0:0:0:
256,192,241661,1,8,0:0:0:0:
256,192,241758,1,0,0:0:0:0:
256,192,241855,1,8,0:0:0:0:
256,192,241919,1,8,0:0:0:0:
256,192,241984,1,8,0:0:0:0:
256,192,242048,1,0,0:0:0:0:
256,192,242242,1,8,0:0:0:0:
256,192,242290,1,8,0:0:0:0:
256,192,242339,1,8,0:0:0:0:
256,192,242435,1,0,0:0:0:0:
256,192,242532,1,0,0:0:0:0:
256,192,242726,1,8,0:0:0:0:
256,192,242823,1,0,0:0:0:0:
256,192,242919,1,0,0:0:0:0:
256,192,243016,1,8,0:0:0:0:
256,192,243113,1,8,0:0:0:0:
256,192,243210,1,0,0:0:0:0:
256,192,243306,1,8,0:0:0:0:
256,192,243500,1,8,0:0:0:0:
256,192,243597,1,0,0:0:0:0:
256,192,243693,1,0,0:0:0:0:
256,192,243790,1,8,0:0:0:0:
256,192,243887,1,8,0:0:0:0:
256,192,243984,1,8,0:0:0:0:
256,192,244048,1,8,0:0:0:0:
256,192,244113,1,8,0:0:0:0:
256,192,244177,1,0,0:0:0:0:
256,192,244274,1,8,0:0:0:0:
256,192,244371,1,0,0:0:0:0:
256,192,244468,1,0,0:0:0:0:
256,192,244564,1,8,0:0:0:0:
256,192,244661,1,8,0:0:0:0:
256,192,244758,1,8,0:0:0:0:
256,192,244806,1,8,0:0:0:0:
256,192,244855,1,0,0:0:0:0:
256,192,244952,1,0,0:0:0:0:
256,192,245048,1,0,0:0:0:0:
256,192,245145,1,8,0:0:0:0:
256,192,245242,1,0,0:0:0:0:
256,192,245290,1,0,0:0:0:0:
256,192,245339,1,8,0:0:0:0:
256,192,245532,1,8,0:0:0:0:
256,192,245629,1,0,0:0:0:0:
256,192,245726,1,0,0:0:0:0:
256,192,245919,1,8,0:0:0:0:
256,192,245968,1,8,0:0:0:0:
256,192,246113,1,0,0:0:0:0:
256,192,246210,1,0,0:0:0:0:
256,192,246306,1,8,0:0:0:0:
256,192,246355,1,8,0:0:0:0:
256,192,246403,1,8,0:0:0:0:
256,192,246452,1,8,0:0:0:0:
256,192,246500,1,0,0:0:0:0:
256,192,246597,1,8,0:0:0:0:
256,192,246790,1,0,0:0:0:0:
256,192,246887,1,8,0:0:0:0:
256,192,246952,1,0,0:0:0:0:
256,192,247016,1,0,0:0:0:0:
256,192,247081,1,8,0:0:0:0:
256,192,247177,1,0,0:0:0:0:
256,192,247274,1,8,0:0:0:0:
256,192,247371,1,8,0:0:0:0:
256,192,247468,1,0,0:0:0:0:
256,192,247564,1,8,0:0:0:0:
256,192,247661,1,0,0:0:0:0:
256,192,247952,1,8,0:0:0:0:
256,192,248000,1,8,0:0:0:0:
256,192,248242,1,8,0:0:0:0:
256,192,248290,1,8,0:0:0:0:
256,192,248629,1,0,0:0:0:0:
256,192,248726,1,8,0:0:0:0:
256,192,248823,1,0,0:0:0:0:
256,192,248871,1,0,0:0:0:0:
256,192,248919,1,0,0:0:0:0:
256,192,249016,1,8,0:0:0:0:
256,192,249113,1,0,0:0:0:0:
256,192,249210,1,8,0:0:0:0:
256,192,249274,1,8,0:0:0:0:
256,192,249339,1,8,0:0:0:0:
256,192,249403,1,0,0:0:0:0:
256,192,249500,1,0,0:0:0:0:
256,192,249597,1,8,0:0:0:0:
256,192,249693,1,0,0:0:0:0:
256,192,249790,1,8,0:0:0:0:
256,192,249855,1,0,0:0:0:0:
256,192,249919,1,0,0:0:0:0:
256,192,249984,1,8,0:0:0:0:
256,192,250371,1,8,0:0:0:0:
256,192,250468,1,0,0:0:0:0:
256,192,250564,1,0,0:0:0:0:
256,192,250613,1,0,0:0:0:0:
256,192,250661,1,0,0:0:0:0:
256,192,250758,1,8,0:0:0:0:
256,192,250855,1,0,0:0:0:0:
256,192,251048,1,0,0:0:0:0:
256,192,251242,1,8,0:0:0:0:
256,192,251339,1,0,0:0:0:0:
256,192,251532,1,8,0:0:0:0:
256,192,251726,1,8,0:0:0:0:
256,192,251823,1,0,0:0:0:0:
256,192,251919,1,8,0:0:0:0:
256,192,252113,1,0,0:0:0:0:
256,192,252177,1,8,0:0:0:0:
256,192,252242,1,8,0:0:0:0:
256,192,252306,1,0,0:0:0:0:
256,192,252403,1,0,0:0:0:0:
256,192,252500,1,8,0:0:0:0:
256,192,252597,1,8,0:0:0:0:
256,192,252693,1,0,0:0:0:0:
256,192,252790,1,8,0:0:0:0:
256,192,252887,1,0,0:0:0:0:
256,192,252984,1,0,0:0:0:0:
256,192,253081,1,8,0:0:0:0:
256,192,253177,1,0,0:0:0:0:
256,192,253274,1,8,0:0:0:0:
256,192,253323,1,8,0:0:0:0:
256,192,253371,1,0,0:0:0:0:
256,192,253468,1,8,0:0:0:0:
256,192,253564,1,8,0:0:0:0:
256,192,253661,1,0,0:0:0:0:
256,192,253758,1,0,0:0:0:0:
256,192,253855,5,8,0:0:0:0:
256,192,253919,1,8,0:0:0:0:
256,192,253984,1,8,0:0:0:0:
256,192,254048,1,0,0:0:0:0:
256,192,254145,1,0,0:0:0:0:
256,192,254242,1,8,0:0:0:0:
256,192,254290,1,8,0:0:0:0:
256,192,254339,1,0,0:0:0:0:
256,192,254435,1,0,0:0:0:0:
256,192,254629,1,8,0:0:0:0:
256,192,254693,1,8,0:0:0:0:
256,192,254758,1,8,0:0:0:0:
256,192,254823,1,0,0:0:0:0:
256,192,254919,1,0,0:0:0:0:
256,192,255113,1,8,0:0:0:0:
256,192,255210,1,0,0:0:0:0:
256,192,255306,1,8,0:0:0:0:
256,192,255403,1,0,0:0:0:0:
256,192,255500,1,0,0:0:0:0:
256,192,255597,1,8,0:0:0:0:
256,192,255693,1,0,0:0:0:0:
256,192,255790,1,8,0:0:0:0:
256,192,255887,1,0,0:0:0:0:
256,192,255984,1,0,0:0:0:0:
256,192,256081,1,8,0:0:0:0:
256,192,256129,1,8,0:0:0:0:
256,192,256177,1,0,0:0:0:0:
256,192,256274,1,0,0:0:0:0:
256,192,256371,1,8,0:0:0:0:
256,192,256419,1,8,0:0:0:0:
256,192,256468,1,8,0:0:0:0:
256,192,256516,1,8,0:0:0:0:
256,192,256564,1,0,0:0:0:0:
256,192,256661,1,8,0:0:0:0:
256,192,256758,1,0,0:0:0:0:
256,192,256855,1,0,0:0:0:0:
256,192,256952,1,8,0:0:0:0:
256,192,257048,1,8,0:0:0:0:
256,192,257145,1,8,0:0:0:0:
256,192,257210,1,8,0:0:0:0:
256,192,257274,1,8,0:0:0:0:
256,192,257339,1,0,0:0:0:0:
256,192,257435,1,0,0:0:0:0:
256,192,257532,1,8,0:0:0:0:
256,192,257629,1,0,0:0:0:0:
256,192,257677,1,0,0:0:0:0:
256,192,257726,1,8,0:0:0:0:
256,192,257919,1,8,0:0:0:0:
256,192,257968,1,8,0:0:0:0:
256,192,258016,1,0,0:0:0:0:
256,192,258210,1,0,0:0:0:0:
256,192,258306,1,8,0:0:0:0:
256,192,258500,1,8,0:0:0:0:
256,192,258597,1,0,0:0:0:0:
256,192,258693,1,8,0:0:0:0:
256,192,258742,1,8,0:0:0:0:
256,192,258790,1,8,0:0:0:0:
256,192,258839,1,8,0:0:0:0:
256,192,258887,1,0,0:0:0:0:
256,192,258984,1,8,0:0:0:0:
256,192,259081,1,0,0:0:0:0:
256,192,259177,1,8,0:0:0:0:
256,192,259274,1,0,0:0:0:0:
256,192,259339,1,0,0:0:0:0:
256,192,259403,1,0,0:0:0:0:
256,192,259468,1,8,0:0:0:0:
256,192,259564,1,0,0:0:0:0:
256,192,259661,1,8,0:0:0:0:
256,192,259758,1,8,0:0:0:0:
256,192,259855,1,8,0:0:0:0:
256,192,259952,1,8,0:0:0:0:
256,192,260048,1,0,0:0:0:0:
256,192,260339,1,8,0:0:0:0:
256,192,260387,1,8,0:0:0:0:
256,192,260629,1,8,0:0:0:0:
256,192,260677,1,8,0:0:0:0:
256,192,261016,1,0,0:0:0:0:
256,192,261113,1,8,0:0:0:0:
256,192,261210,1,0,0:0:0:0:
256,192,261306,1,8,0:0:0:0:
256,192,261403,1,0,0:0:0:0:
256,192,261468,1,8,0:0:0:0:
256,192,261532,1,8,0:0:0:0:
256,192,261597,1,0,0:0:0:0:
256,192,261661,1,8,0:0:0:0:
256,192,261726,1,8,0:0:0:0:
256,192,261790,1,0,0:0:0:0:
256,192,261887,1,8,0:0:0:0:
256,192,261984,1,0,0:0:0:0:
256,192,262081,1,0,0:0:0:0:
256,192,262177,1,8,0:0:0:0:
256,192,262242,1,8,0:0:0:0:
256,192,262306,1,0,0:0:0:0:
256,192,262371,1,8,0:0:0:0:
256,192,262564,1,0,0:0:0:0:
256,192,262758,1,8,0:0:0:0:
256,192,262855,1,8,0:0:0:0:
256,192,262952,1,0,0:0:0:0:
256,192,263048,1,8,0:0:0:0:
256,192,263145,1,8,0:0:0:0:
256,192,263242,1,0,0:0:0:0:
256,192,263435,1,8,0:0:0:0:
256,192,263629,1,8,0:0:0:0:
256,192,263726,1,0,0:0:0:0:
256,192,263919,1,0,0:0:0:0:
256,192,264113,1,0,0:0:0:0:
256,192,264210,1,8,0:0:0:0:
256,192,264306,1,0,0:0:0:0:
256,192,264500,1,8,0:0:0:0:
256,192,264564,1,0,0:0:0:0:
256,192,264629,1,0,0:0:0:0:
256,192,264693,1,8,0:0:0:0:
256,192,264790,1,0,0:0:0:0:
256,192,264887,1,8,0:0:0:0:
256,192,264984,1,0,0:0:0:0:
256,192,265081,1,0,0:0:0:0:
256,192,265177,1,8,0:0:0:0:
256,192,265274,1,0,0:0:0:0:
256,192,265323,1,8,0:0:0:0:
256,192,265371,1,0,0:0:0:0:
256,192,265468,1,8,0:0:0:0:
256,192,265564,1,8,0:0:0:0:
256,192,265661,1,0,0:0:0:0:
256,192,265758,1,8,0:0:0:0:
256,192,265855,1,0,0:0:0:0:
256,192,265952,1,0,0:0:0:0:
256,192,266048,1,8,0:0:0:0:
256,192,266145,1,8,0:0:0:0:
256,192,266242,1,0,0:0:0:0:
256,192,266339,1,0,0:0:0:0:
256,192,266435,1,8,0:0:0:0:
256,192,266532,1,0,0:0:0:0:
256,192,266629,1,8,0:0:0:0:
256,192,266693,1,8,0:0:0:0:
256,192,266758,1,8,0:0:0:0:
256,192,266823,1,0,0:0:0:0:
256,192,266919,1,0,0:0:0:0:
256,192,267016,1,8,0:0:0:0:
256,192,267064,1,8,0:0:0:0:
256,192,267113,1,8,0:0:0:0:
256,192,267210,1,0,0:0:0:0:
256,192,267306,1,0,0:0:0:0:
256,192,267500,1,8,0:0:0:0:
256,192,267597,1,0,0:0:0:0:
256,192,267693,1,0,0:0:0:0:
256,192,267790,1,8,0:0:0:0:
256,192,267887,1,8,0:0:0:0:
256,192,267984,1,0,0:0:0:0:
256,192,268081,1,8,0:0:0:0:
256,192,268274,1,8,0:0:0:0:
256,192,268371,1,0,0:0:0:0:
256,192,268468,1,0,0:0:0:0:
256,192,268564,1,8,0:0:0:0:
256,192,268661,1,8,0:0:0:0:
256,192,268758,1,8,0:0:0:0:
256,192,268823,1,8,0:0:0:0:
256,192,268887,1,8,0:0:0:0:
256,192,268952,1,0,0:0:0:0:
256,192,269048,1,8,0:0:0:0:
256,192,269145,1,0,0:0:0:0:
256,192,269242,1,0,0:0:0:0:
256,192,269339,1,8,0:0:0:0:
256,192,269435,1,8,0:0:0:0:
256,192,269532,1,8,0:0:0:0:
256,192,269581,1,8,0:0:0:0:
256,192,269629,1,0,0:0:0:0:
256,192,269726,1,0,0:0:0:0:
256,192,269823,1,0,0:0:0:0:
256,192,269919,1,8,0:0:0:0:
256,192,270016,1,0,0:0:0:0:
256,192,270064,1,0,0:0:0:0:
256,192,270113,1,8,0:0:0:0:
256,192,270306,1,8,0:0:0:0:
256,192,270403,1,0,0:0:0:0:
256,192,270500,1,0,0:0:0:0:
256,192,270693,1,8,0:0:0:0:
256,192,270742,1,8,0:0:0:0:
256,192,270887,1,0,0:0:0:0:
256,192,270984,1,0,0:0:0:0:
256,192,271081,1,8,0:0:0:0:
256,192,271129,1,8,0:0:0:0:
256,192,271177,1,8,0:0:0:0:
256,192,271226,1,8,0:0:0:0:
256,192,271274,1,0,0:0:0:0:
256,192,271371,1,8,0:0:0:0:
256,192,271468,1,0,0:0:0:0:
256,192,271564,1,0,0:0:0:0:
256,192,271661,1,8,0:0:0:0:
256,192,271726,1,0,0:0:0:0:
256,192,271790,1,0,0:0:0:0:
256,192,271855,1,8,0:0:0:0:
256,192,271952,1,0,0:0:0:0:
256,192,272048,1,8,0:0:0:0:
256,192,272145,1,8,0:0:0:0:
256,192,272242,1,0,0:0:0:0:
256,192,272339,1,8,0:0:0:0:
256,192,272435,1,0,0:0:0:0:
256,192,272726,1,8,0:0:0:0:
256,192,272774,1,8,0:0:0:0:
256,192,273016,1,8,0:0:0:0:
256,192,273064,1,8,0:0:0:0:
256,192,273403,1,0,0:0:0:0:
256,192,273500,1,8,0:0:0:0:
256,192,273597,1,0,0:0:0:0:
256,192,273645,1,0,0:0:0:0:
256,192,273693,1,0,0:0:0:0:
256,192,273790,1,8,0:0:0:0:
256,192,273887,1,0,0:0:0:0:
256,192,273984,1,8,0:0:0:0:
256,192,274048,1,8,0:0:0:0:
256,192,274113,1,8,0:0:0:0:
256,192,274177,1,0,0:0:0:0:
256,192,274274,1,0,0:0:0:0:
256,192,274371,1,8,0:0:0:0:
256,192,274468,1,0,0:0:0:0:
256,192,274564,1,8,0:0:0:0:
256,192,274629,1,0,0:0:0:0:
256,192,274693,1,0,0:0:0:0:
256,192,274758,1,8,0:0:0:0:
256,192,274952,1,8,0:0:0:0:
256,192,275145,1,8,0:0:0:0:
256,192,275242,1,0,0:0:0:0:
256,192,275339,1,8,0:0:0:0:
256,192,275387,1,8,0:0:0:0:
256,192,275435,1,0,0:0:0:0:
256,192,275532,1,8,0:0:0:0:
256,192,275629,1,0,0:0:0:0:
256,192,275823,1,0,0:0:0:0:
256,192,276016,1,8,0:0:0:0:
256,192,276113,1,0,0:0:0:0:
256,192,276306,1,8,0:0:0:0:
256,192,276500,1,8,0:0:0:0:
256,192,276597,1,0,0:0:0:0:
256,192,276693,1,8,0:0:0:0:
256,192,276887,1,0,0:0:0:0:
256,192,276952,1,8,0:0:0:0:
256,192,277016,1,8,0:0:0:0:
256,192,277081,1,0,0:0:0:0:
256,192,277177,1,0,0:0:0:0:
256,192,277274,1,8,0:0:0:0:
256,192,277371,1,8,0:0:0:0:
256,192,277468,1,0,0:0:0:0:
256,192,277564,1,8,0:0:0:0:
256,192,277661,1,0,0:0:0:0:
256,192,277758,1,0,0:0:0:0:
256,192,277855,1,8,0:0:0:0:
256,192,277952,1,0,0:0:0:0:
256,192,278048,1,8,0:0:0:0:
256,192,278097,1,8,0:0:0:0:
256,192,278145,1,0,0:0:0:0:
256,192,278242,1,8,0:0:0:0:
256,192,278339,1,0,0:0:0:0:
256,192,278435,1,0,0:0:0:0:
256,192,278532,1,8,0:0:0:0:
256,192,281726,1,8,0:0:0:0:
256,192,284823,1,0,0:0:0:0:
256,192,287919,1,8,0:0:0:0:
256,192,289468,1,0,0:0:0:0:
256,192,290242,1,8,0:0:0:0:
256,192,291016,1,0,0:0:0:0:
256,192,294113,1,8,0:0:0:0:
256,192,297210,1,0,0:0:0:0:
256,192,300306,1,8,0:0:0:0:
256,192,301855,1,0,0:0:0:0:
256,192,302629,5,8,0:0:0:0:
256,192,303403,5,0,0:0:0:0:
256,192,303693,1,8,0:0:0:0:
256,192,303984,1,0,0:0:0:0:
256,192,304081,1,8,0:0:0:0:
256,192,304274,1,8,0:0:0:0:
256,192,304371,1,0,0:0:0:0:
256,192,304468,1,8,0:0:0:0:
256,192,304564,1,8,0:0:0:0:
256,192,304629,1,8,0:0:0:0:
256,192,304693,1,8,0:0:0:0:
256,192,304758,1,8,0:0:0:0:
256,192,304855,1,0,0:0:0:0:
256,192,305048,1,8,0:0:0:0:
256,192,305145,1,0,0:0:0:0:
256,192,305339,1,8,0:0:0:0:
256,192,305387,1,8,0:0:0:0:
256,192,305435,1,0,0:0:0:0:
256,192,305629,1,0,0:0:0:0:
256,192,305823,1,8,0:0:0:0:
256,192,305871,1,8,0:0:0:0:
256,192,306113,1,8,0:0:0:0:
256,192,306210,1,0,0:0:0:0:
256,192,306306,1,0,0:0:0:0:
256,192,306403,1,0,0:0:0:0:
256,192,306500,1,0,0:0:0:0:
256,192,306790,1,8,0:0:0:0:
256,192,306887,1,8,0:0:0:0:
256,192,307081,1,0,0:0:0:0:
256,192,307177,1,8,0:0:0:0:
256,192,307371,1,8,0:0:0:0:
256,192,307564,1,0,0:0:0:0:
256,192,307661,1,8,0:0:0:0:
256,192,307726,1,8,0:0:0:0:
256,192,307790,1,8,0:0:0:0:
256,192,307855,1,8,0:0:0:0:
256,192,307952,1,0,0:0:0:0:
256,192,308145,1,8,0:0:0:0:
256,192,308242,1,0,0:0:0:0:
256,192,308435,1,8,0:0:0:0:
256,192,308484,1,8,0:0:0:0:
256,192,308532,1,0,0:0:0:0:
256,192,308726,1,0,0:0:0:0:
256,192,308823,1,8,0:0:0:0:
256,192,308887,1,8,0:0:0:0:
256,192,308952,1,8,0:0:0:0:
256,192,309016,1,0,0:0:0:0:
256,192,309113,1,0,0:0:0:0:
256,192,309210,1,8,0:0:0:0:
256,192,309306,1,0,0:0:0:0:
256,192,309403,1,8,0:0:0:0:
256,192,309597,1,8,0:0:0:0:
256,192,309887,1,8,0:0:0:0:
256,192,310177,1,0,0:0:0:0:
256,192,310274,1,8,0:0:0:0:
256,192,310468,1,8,0:0:0:0:
256,192,310564,1,0,0:0:0:0:
256,192,310661,1,8,0:0:0:0:
256,192,310758,1,8,0:0:0:0:
256,192,310823,1,8,0:0:0:0:
256,192,310887,1,8,0:0:0:0:
256,192,310952,1,8,0:0:0:0:
256,192,311048,1,0,0:0:0:0:
256,192,311242,1,8,0:0:0:0:
256,192,311339,1,0,0:0:0:0:
256,192,311532,1,8,0:0:0:0:
256,192,311581,1,8,0:0:0:0:
256,192,311629,1,0,0:0:0:0:
256,192,311823,1,0,0:0:0:0:
256,192,312016,1,8,0:0:0:0:
256,192,312064,1,8,0:0:0:0:
256,192,312306,1,8,0:0:0:0:
256,192,312403,1,0,0:0:0:0:
256,192,312500,1,0,0:0:0:0:
256,192,312597,1,0,0:0:0:0:
256,192,312693,1,0,0:0:0:0:
256,192,312984,1,8,0:0:0:0:
256,192,313177,1,8,0:0:0:0:
256,192,313274,1,0,0:0:0:0:
256,192,313371,1,8,0:0:0:0:
256,192,313564,1,8,0:0:0:0:
256,192,313758,1,0,0:0:0:0:
256,192,313855,1,8,0:0:0:0:
256,192,313919,1,8,0:0:0:0:
256,192,313984,1,8,0:0:0:0:
256,192,314048,1,8,0:0:0:0:
256,192,314145,1,0,0:0:0:0:
256,192,314242,1,8,0:0:0:0:
256,192,314339,1,8,0:0:0:0:
256,192,314435,1,0,0:0:0:0:
256,192,314629,1,8,0:0:0:0:
256,192,314726,1,0,0:0:0:0:
256,192,314823,1,0,0:0:0:0:
256,192,314887,1,0,0:0:0:0:
256,192,314952,1,0,0:0:0:0:
256,192,315016,1,8,0:0:0:0:
256,192,315113,1,8,0:0:0:0:
256,192,315210,1,0,0:0:0:0:
256,192,315306,1,8,0:0:0:0:
256,192,315403,1,0,0:0:0:0:
256,192,315500,1,0,0:0:0:0:
256,192,315597,1,8,0:0:0:0:
256,192,315790,1,0,0:0:0:0:
256,192,316081,1,8,0:0:0:0:
256,192,316371,1,0,0:0:0:0:
256,192,316468,1,8,0:0:0:0:
256,192,316661,1,8,0:0:0:0:
256,192,316758,1,0,0:0:0:0:
256,192,316952,1,8,0:0:0:0:
256,192,317016,1,8,0:0:0:0:
256,192,317081,1,8,0:0:0:0:
256,192,317145,1,8,0:0:0:0:
256,192,317242,1,0,0:0:0:0:
256,192,317435,1,8,0:0:0:0:
256,192,317532,1,0,0:0:0:0:
256,192,317726,1,8,0:0:0:0:
256,192,317774,1,8,0:0:0:0:
256,192,317823,1,0,0:0:0:0:
256,192,318016,1,0,0:0:0:0:
256,192,318210,1,8,0:0:0:0:
256,192,318258,1,8,0:0:0:0:
256,192,318500,1,8,0:0:0:0:
256,192,318597,1,0,0:0:0:0:
256,192,318693,1,0,0:0:0:0:
256,192,318790,1,0,0:0:0:0:
256,192,318887,1,8,0:0:0:0:
256,192,319177,1,8,0:0:0:0:
256,192,319371,1,8,0:0:0:0:
256,192,319468,1,0,0:0:0:0:
256,192,319564,1,8,0:0:0:0:
256,192,319758,1,8,0:0:0:0:
256,192,319952,1,0,0:0:0:0:
256,192,320048,1,8,0:0:0:0:
256,192,320113,1,8,0:0:0:0:
256,192,320177,1,8,0:0:0:0:
256,192,320242,1,8,0:0:0:0:
256,192,320339,1,0,0:0:0:0:
256,192,320532,1,8,0:0:0:0:
256,192,320629,1,0,0:0:0:0:
256,192,320823,1,8,0:0:0:0:
256,192,320919,1,0,0:0:0:0:
256,192,321113,1,0,0:0:0:0:
256,192,321210,1,0,0:0:0:0:
256,192,321274,1,0,0:0:0:0:
256,192,321339,1,0,0:0:0:0:
256,192,321403,1,8,0:0:0:0:
256,192,321500,1,8,0:0:0:0:
256,192,321597,1,0,0:0:0:0:
256,192,321693,1,8,0:0:0:0:
256,192,321790,1,0,0:0:0:0:
256,192,321887,1,0,0:0:0:0:
256,192,321984,1,8,0:0:0:0:
256,192,322081,1,8,0:0:0:0:
256,192,322177,1,0,0:0:0:0:
256,192,322274,1,8,0:0:0:0:
256,192,322564,1,0,0:0:0:0:
256,192,322661,1,8,0:0:0:0:
256,192,322855,1,8,0:0:0:0:
256,192,322952,1,0,0:0:0:0:
256,192,323048,1,8,0:0:0:0:
256,192,323145,1,8,0:0:0:0:
256,192,323210,1,8,0:0:0:0:
256,192,323274,1,8,0:0:0:0:
256,192,323339,1,8,0:0:0:0:
256,192,323435,1,0,0:0:0:0:
256,192,323629,1,8,0:0:0:0:
256,192,323726,1,0,0:0:0:0:
256,192,323919,1,8,0:0:0:0:
256,192,323968,1,8,0:0:0:0:
256,192,324016,1,0,0:0:0:0:
256,192,324210,1,0,0:0:0:0:
256,192,324403,1,8,0:0:0:0:
256,192,324452,1,8,0:0:0:0:
256,192,324693,1,8,0:0:0:0:
256,192,324790,1,0,0:0:0:0:
256,192,324887,1,0,0:0:0:0:
256,192,324984,1,0,0:0:0:0:
256,192,325081,1,0,0:0:0:0:
256,192,325371,1,8,0:0:0:0:
256,192,325661,1,0,0:0:0:0:
256,192,325758,1,8,0:0:0:0:
256,192,325952,1,8,0:0:0:0:
256,192,326145,1,0,0:0:0:0:
256,192,326242,1,8,0:0:0:0:
256,192,326306,1,8,0:0:0:0:
256,192,326371,1,8,0:0:0:0:
256,192,326435,1,8,0:0:0:0:
256,192,326532,1,0,0:0:0:0:
256,192,326726,1,8,0:0:0:0:
256,192,326823,1,0,0:0:0:0:
256,192,327016,1,8,0:0:0:0:
256,192,327113,1,8,0:0:0:0:
256,192,327210,1,0,0:0:0:0:
256,192,327274,1,0,0:0:0:0:
256,192,327339,1,0,0:0:0:0:
256,192,327403,1,8,0:0:0:0:
256,192,327500,1,8,0:0:0:0:
256,192,327597,1,0,0:0:0:0:
256,192,327693,1,0,0:0:0:0:
256,192,327790,1,0,0:0:0:0:
256,192,327887,1,0,0:0:0:0:
256,192,327984,1,0,0:0:0:0:
256,128,328177,1,12,0:0:0:0:
