osu file format v14

[General]
AudioFilename: audio.mp3
AudioLeadIn: 0
PreviewTime: 177067
Countdown: 1
SampleSet: Normal
StackLeniency: 0.7
Mode: 1
LetterboxInBreaks: 0
WidescreenStoryboard: 0

[Editor]
DistanceSpacing: 1
BeatDivisor: 4
GridSize: 32
TimelineZoom: 3

[Metadata]
Title:Howdy! and... Good-Die!
TitleUnicode:Howdy! and... Good-Die!
Artist:Yuuyu
ArtistUnicode:ゆうゆ
Creator:namaniku
Version:Finale
Source:Undertale
Tags:UNDERVEIL
BeatmapID:1168391
BeatmapSetID:551632

[Difficulty]
HPDrainRate:5.5
CircleSize:5
OverallDifficulty:6.5
ApproachRate:5
SliderMultiplier:1.39999963465119
SliderTickRate:1

[Events]
//Background and Video events
0,0,"233ac14d4ad97e0ce74e3eb5f4805708.png",0,0
//Break Periods
2,26636,32499
//Storyboard Layer 0 (Background)
//Storyboard Layer 1 (Fail)
//Storyboard Layer 2 (Pass)
//Storyboard Layer 3 (Foreground)
//Storyboard Sound Samples

[TimingPoints]
3982,521.739130434783,4,1,0,100,1,0
3982,-100,4,1,0,30,0,0
13895,-100,4,1,0,80,0,0
19373,12,4,1,0,80,1,0
24068,315.789473684211,4,1,0,80,1,0
26436,315.789473684211,4,1,0,80,1,0
26436,-66.6666666666667,4,1,0,80,0,0
33699,-100,4,1,0,80,0,0
54541,-95.2380952380952,4,1,0,80,0,0
55172,-90.9090909090909,4,1,0,80,0,0
55488,-86.9565217391304,4,1,0,80,0,0
55804,-83.3333333333333,4,1,0,80,0,0
56120,-80,4,1,0,80,0,0
56436,-76.9230769230769,4,1,0,80,0,0
56751,-66.6666666666667,4,1,0,80,0,0
57067,-62.5,4,1,0,80,0,0
57383,-58.8235294117647,4,1,0,80,0,0
57699,-55.5555555555556,4,1,0,80,0,0
58014,-50,4,1,0,80,0,0
59909,324.324324324324,4,1,0,20,1,0
59909,-133.333333333333,4,1,0,20,0,0
64773,-133.333333333333,4,1,0,50,0,0
69605,315.789473684211,4,1,0,50,1,0
69605,-100,4,1,0,80,0,0
70394,-100,4,1,0,80,0,1
110657,-100,4,1,0,80,0,0
111289,-200,4,1,0,50,0,0
120762,-133.333333333333,4,1,0,50,0,0
125815,-125,4,1,0,50,0,0
127078,-117.647058823529,4,1,0,50,0,0
128341,-111.111111111111,4,1,0,50,0,0
129289,-83.3333333333333,4,1,0,80,0,0
139710,60,4,1,0,80,1,0
139710,-25,4,1,0,80,0,0
141390,363.636363636364,4,1,0,5,1,0
145390,363.636363636364,4,1,0,5,1,0
145390,-133.333333333333,4,1,0,5,0,0
148299,342.857142857143,4,1,0,5,1,0
148299,-133.333333333333,4,1,0,5,0,0
148641,363.636363636364,4,1,0,5,1,0
148641,-133.333333333333,4,1,0,5,0,0
149368,342.857142857143,4,1,0,5,1,0
149368,-133.333333333333,4,1,0,5,0,0
151126,342.857142857143,4,1,0,5,1,0
153868,333.333333333333,4,1,0,5,1,0
155201,342.857142857143,4,1,0,5,1,0
155886,384.615384615385,4,1,0,5,1,0
155886,-90.9090909090909,4,1,0,5,0,0
156655,333.333333333333,4,1,0,80,1,0
156655,-100,4,1,0,80,0,0
158321,324.324324324324,4,1,0,80,1,0
165785,315.789473684211,4,1,0,80,1,0
167048,-100,4,1,0,80,0,1
175811,-100,4,1,0,80,0,0
175890,60,4,1,0,80,1,0
176370,24,4,1,0,80,1,0
176850,12,4,1,0,80,1,0
177166,315.789473684211,4,1,0,80,1,0
177166,-100,4,1,0,80,0,1
217587,-100,4,1,0,80,0,0
238429,-200,4,1,0,19,0,0
259271,344.827586206897,4,1,0,19,1,0
259271,-100,4,1,0,5,0,0
260995,-111.111111111111,4,1,0,5,0,0
263408,-125,4,1,0,5,0,0
265133,-133.333333333333,4,1,0,5,0,0
267546,-142.857142857143,4,1,0,5,0,0
269271,-153.846153846154,4,1,0,5,0,0
271684,-166.666666666667,4,1,0,5,0,0
273408,-181.818181818182,4,1,0,5,0,0

[HitObjects]
256,192,3982,5,0,0:0:0:0:
256,192,4503,1,0,0:0:0:0:
256,192,4764,1,0,0:0:0:0:
256,192,5025,1,2,0:0:0:0:
256,192,5547,1,0,0:0:0:0:
256,192,6068,1,2,0:0:0:0:
256,192,6590,1,0,0:0:0:0:
256,192,6851,1,2,0:0:0:0:
256,192,7112,1,0,0:0:0:0:
256,192,7634,1,0,0:0:0:0:
256,192,8155,1,2,0:0:0:0:
256,192,8677,1,0,0:0:0:0:
256,192,8938,1,2,0:0:0:0:
256,192,9199,1,2,0:0:0:0:
256,192,9721,1,2,0:0:0:0:
256,192,10242,1,0,0:0:0:0:
256,192,11112,1,0,0:0:0:0:
256,192,11199,1,0,0:0:0:0:
256,192,11286,1,2,0:0:0:0:
256,192,13895,1,0,0:0:0:0:
256,192,14416,1,0,0:0:0:0:
256,192,14677,1,0,0:0:0:0:
256,192,14938,1,2,0:0:0:0:
256,192,15460,1,0,0:0:0:0:
256,192,15982,1,2,0:0:0:0:
256,192,16503,1,0,0:0:0:0:
256,192,16764,1,2,0:0:0:0:
256,192,17025,1,2,0:0:0:0:
256,192,17547,1,0,0:0:0:0:
256,192,18068,1,2,0:0:0:0:
256,192,18590,1,0,0:0:0:0:
256,192,18851,1,2,0:0:0:0:
256,192,19112,1,0,0:0:0:0:
256,192,19376,12,0,23741,0:0:0:0:
256,192,24068,5,2,0:0:0:0:
256,192,24120,1,2,0:0:0:0:
256,192,24173,1,2,0:0:0:0:
256,192,24225,1,2,0:0:0:0:
256,192,24278,1,2,0:0:0:0:
256,192,24331,1,2,0:0:0:0:
256,192,24383,1,2,0:0:0:0:
256,192,24462,1,2,0:0:0:0:
256,192,24541,1,2,0:0:0:0:
256,192,24620,1,2,0:0:0:0:
256,192,24699,1,2,0:0:0:0:
256,192,25014,1,2,0:0:0:0:
256,192,25054,1,2,0:0:0:0:
256,192,25133,1,2,0:0:0:0:
256,192,25331,1,2,0:0:0:0:
256,192,26436,1,4,0:0:0:0:
256,192,33699,5,2,0:0:0:0:
256,192,33778,1,2,0:0:0:0:
256,192,33857,1,2,0:0:0:0:
256,192,33936,1,2,0:0:0:0:
256,192,34014,1,0,0:0:0:0:
256,192,34172,1,2,0:0:0:0:
256,192,34251,1,0,0:0:0:0:
256,192,34330,1,2,0:0:0:0:
256,192,34383,1,2,0:0:0:0:
256,192,34436,1,2,0:0:0:0:
256,192,34488,1,0,0:0:0:0:
256,192,34567,1,0,0:0:0:0:
256,192,34646,1,0,0:0:0:0:
256,192,34725,1,2,0:0:0:0:
256,192,34804,1,0,0:0:0:0:
256,192,35120,1,2,0:0:0:0:
256,192,35436,1,2,0:0:0:0:
256,192,35593,1,0,0:0:0:0:
256,192,35672,1,2,0:0:0:0:
256,192,35751,1,2,0:0:0:0:
256,192,35830,1,0,0:0:0:0:
256,192,35909,1,2,0:0:0:0:
256,192,36146,1,2,0:0:0:0:
256,192,36383,1,2,0:0:0:0:
256,192,36436,1,2,0:0:0:0:
256,192,36488,1,2,0:0:0:0:
256,192,36541,1,0,0:0:0:0:
256,192,36699,1,0,0:0:0:0:
256,192,36778,1,2,0:0:0:0:
256,192,36857,1,2,0:0:0:0:
256,192,36936,1,0,0:0:0:0:
256,192,37014,1,0,0:0:0:0:
256,192,37172,1,2,0:0:0:0:
256,192,37330,1,2,0:0:0:0:
256,192,37409,1,0,0:0:0:0:
256,192,37488,1,0,0:0:0:0:
256,192,37528,1,0,0:0:0:0:
256,192,37567,1,0,0:0:0:0:
256,192,37646,1,2,0:0:0:0:
256,192,37725,1,2,0:0:0:0:
256,192,37804,1,0,0:0:0:0:
256,192,37962,1,2,0:0:0:0:
256,192,38120,1,0,0:0:0:0:
256,192,38199,1,2,0:0:0:0:
256,192,38278,1,2,0:0:0:0:
256,192,38330,1,2,0:0:0:0:
256,192,38383,1,2,0:0:0:0:
256,192,38436,1,0,0:0:0:0:
256,192,38593,1,0,0:0:0:0:
256,192,38830,1,2,0:0:0:0:
256,192,38909,1,2,0:0:0:0:
256,192,39067,1,2,0:0:0:0:
256,192,39146,1,0,0:0:0:0:
256,192,39225,1,2,0:0:0:0:
256,192,39304,1,2,0:0:0:0:
256,192,39383,1,0,0:0:0:0:
256,192,39436,1,0,0:0:0:0:
256,192,39488,1,0,0:0:0:0:
256,192,39541,1,2,0:0:0:0:
256,192,39620,1,2,0:0:0:0:
256,192,39699,1,0,0:0:0:0:
256,192,39936,1,2,0:0:0:0:
256,192,40172,1,2,0:0:0:0:
256,192,40225,1,2,0:0:0:0:
256,192,40278,1,2,0:0:0:0:
256,192,40330,1,0,0:0:0:0:
256,192,40488,1,0,0:0:0:0:
256,192,40567,1,2,0:0:0:0:
256,192,40646,1,2,0:0:0:0:
256,192,40725,1,0,0:0:0:0:
256,192,40804,1,0,0:0:0:0:
256,192,40962,1,2,0:0:0:0:
256,192,41120,1,2,0:0:0:0:
256,192,41199,1,0,0:0:0:0:
256,192,41278,1,0,0:0:0:0:
256,192,41357,1,2,0:0:0:0:
256,192,41436,1,2,0:0:0:0:
256,192,41488,1,2,0:0:0:0:
256,192,41541,1,2,0:0:0:0:
256,192,41593,1,0,0:0:0:0:
256,192,41751,1,0,0:0:0:0:
256,192,41830,1,0,0:0:0:0:
256,192,41909,1,2,0:0:0:0:
256,192,42067,1,0,0:0:0:0:
256,192,42225,1,2,0:0:0:0:
256,192,42304,1,2,0:0:0:0:
256,192,42383,1,0,0:0:0:0:
256,192,42541,1,0,0:0:0:0:
256,192,42620,1,0,0:0:0:0:
256,192,42699,1,2,0:0:0:0:
256,192,42778,1,2,0:0:0:0:
256,192,42857,1,0,0:0:0:0:
256,192,43014,1,0,0:0:0:0:
256,192,43172,1,0,0:0:0:0:
256,192,43251,1,0,0:0:0:0:
256,192,43330,1,2,0:0:0:0:
256,192,43409,1,2,0:0:0:0:
256,192,43488,1,0,0:0:0:0:
256,192,43646,1,2,0:0:0:0:
256,192,43804,1,0,0:0:0:0:
256,192,43883,1,0,0:0:0:0:
256,192,43962,1,2,0:0:0:0:
256,192,44120,1,0,0:0:0:0:
256,192,44278,1,2,0:0:0:0:
256,192,44357,1,0,0:0:0:0:
256,192,44436,1,2,0:0:0:0:
256,192,44488,1,2,0:0:0:0:
256,192,44541,1,2,0:0:0:0:
256,192,44594,1,0,0:0:0:0:
256,192,44672,1,0,0:0:0:0:
256,192,44751,1,2,0:0:0:0:
256,192,44909,1,0,0:0:0:0:
256,192,44988,1,0,0:0:0:0:
256,192,45146,1,0,0:0:0:0:
256,192,45186,1,0,0:0:0:0:
256,192,45225,1,0,0:0:0:0:
256,192,45304,1,0,0:0:0:0:
256,192,45541,1,2,0:0:0:0:
256,192,45699,1,0,0:0:0:0:
256,192,45778,1,2,0:0:0:0:
256,192,45857,1,2,0:0:0:0:
256,192,45909,1,2,0:0:0:0:
256,192,45962,1,2,0:0:0:0:
256,192,46014,1,0,0:0:0:0:
256,192,46093,1,2,0:0:0:0:
256,192,46172,1,0,0:0:0:0:
256,192,46409,1,2,0:0:0:0:
256,192,46488,1,2,0:0:0:0:
256,192,46646,1,2,0:0:0:0:
256,192,46725,1,0,0:0:0:0:
256,192,46804,1,2,0:0:0:0:
256,192,46883,1,2,0:0:0:0:
256,192,46962,1,0,0:0:0:0:
256,192,47014,1,0,0:0:0:0:
256,192,47067,1,0,0:0:0:0:
256,192,47120,1,2,0:0:0:0:
256,192,47199,1,2,0:0:0:0:
256,192,47278,1,0,0:0:0:0:
256,192,47514,1,2,0:0:0:0:
256,192,47751,1,2,0:0:0:0:
256,192,47804,1,2,0:0:0:0:
256,192,47857,1,2,0:0:0:0:
256,192,47909,1,0,0:0:0:0:
256,192,48067,1,0,0:0:0:0:
256,192,48146,1,2,0:0:0:0:
256,192,48225,1,2,0:0:0:0:
256,192,48304,1,0,0:0:0:0:
256,192,48383,1,2,0:0:0:0:
256,192,48541,5,0,0:0:0:0:
256,192,48699,1,0,0:0:0:0:
256,192,48778,1,0,0:0:0:0:
256,192,48857,1,0,0:0:0:0:
256,192,48896,1,0,0:0:0:0:
256,192,48936,1,2,0:0:0:0:
256,192,49014,1,2,0:0:0:0:
256,192,49093,1,2,0:0:0:0:
256,192,49172,1,0,0:0:0:0:
256,192,49330,1,2,0:0:0:0:
256,192,49488,1,0,0:0:0:0:
256,192,49567,1,2,0:0:0:0:
256,192,49646,1,0,0:0:0:0:
256,192,49699,1,0,0:0:0:0:
256,192,49751,1,0,0:0:0:0:
256,192,49804,1,0,0:0:0:0:
256,192,49883,1,2,0:0:0:0:
256,192,49962,1,0,0:0:0:0:
256,192,50278,1,2,0:0:0:0:
256,192,50593,1,0,0:0:0:0:
256,192,50751,1,0,0:0:0:0:
256,192,50830,1,0,0:0:0:0:
256,192,50909,1,2,0:0:0:0:
256,192,50988,1,0,0:0:0:0:
256,192,51067,1,2,0:0:0:0:
256,192,51225,1,2,0:0:0:0:
256,192,51304,1,2,0:0:0:0:
256,192,51383,1,0,0:0:0:0:
256,192,51462,1,0,0:0:0:0:
256,192,51541,1,0,0:0:0:0:
256,192,51593,1,0,0:0:0:0:
256,192,51646,1,0,0:0:0:0:
256,192,51699,1,0,0:0:0:0:
256,192,51857,1,0,0:0:0:0:
256,192,51936,1,2,0:0:0:0:
256,192,52014,1,2,0:0:0:0:
256,192,52093,1,0,0:0:0:0:
256,192,52172,1,2,0:0:0:0:
256,192,52330,1,0,0:0:0:0:
256,192,52488,1,0,0:0:0:0:
256,192,52567,1,2,0:0:0:0:
256,192,52646,1,0,0:0:0:0:
256,192,52686,1,0,0:0:0:0:
256,192,52725,1,0,0:0:0:0:
256,192,52804,1,2,0:0:0:0:
256,192,52883,1,2,0:0:0:0:
256,192,52962,1,0,0:0:0:0:
256,192,53120,1,0,0:0:0:0:
256,192,53199,1,0,0:0:0:0:
256,192,53278,1,2,0:0:0:0:
256,192,53436,1,0,0:0:0:0:
256,192,53593,1,2,0:0:0:0:
256,192,53672,1,0,0:0:0:0:
256,192,53751,1,2,0:0:0:0:
256,192,53830,1,2,0:0:0:0:
256,192,53909,1,0,0:0:0:0:
256,192,53988,1,2,0:0:0:0:
256,192,54067,1,2,0:0:0:0:
256,192,54146,1,0,0:0:0:0:
256,192,54225,1,2,0:0:0:0:
256,192,54541,1,2,0:0:0:0:
256,192,54857,1,2,0:0:0:0:
256,192,55172,1,2,0:0:0:0:
256,192,55488,1,2,0:0:0:0:
256,192,55804,1,2,0:0:0:0:
256,192,56120,1,2,0:0:0:0:
256,192,56436,1,2,0:0:0:0:
256,192,56751,1,2,0:0:0:0:
256,192,57067,1,2,0:0:0:0:
256,192,57383,1,2,0:0:0:0:
256,192,57699,1,2,0:0:0:0:
256,192,58014,1,2,0:0:0:0:
256,192,58093,1,2,0:0:0:0:
256,192,58172,1,2,0:0:0:0:
256,192,58251,1,2,0:0:0:0:
256,192,58330,1,2,0:0:0:0:
256,192,58409,1,2,0:0:0:0:
256,192,58488,1,2,0:0:0:0:
256,192,58541,1,2,0:0:0:0:
256,192,58593,1,2,0:0:0:0:
256,192,58646,1,2,0:0:0:0:
256,192,58699,1,2,0:0:0:0:
256,192,58751,1,2,0:0:0:0:
256,192,58804,1,2,0:0:0:0:
256,192,58857,1,2,0:0:0:0:
256,192,58909,1,2,0:0:0:0:
256,192,58962,1,2,0:0:0:0:
256,192,59001,1,2,0:0:0:0:
256,192,59041,1,2,0:0:0:0:
256,192,59080,1,2,0:0:0:0:
256,192,59120,1,2,0:0:0:0:
256,192,59909,5,2,0:0:0:0:
256,192,60071,1,0,0:0:0:0:
256,192,60233,1,2,0:0:0:0:
256,192,60395,1,2,0:0:0:0:
256,192,60557,1,0,0:0:0:0:
256,192,60719,1,0,0:0:0:0:
256,192,60881,1,2,0:0:0:0:
256,192,61044,1,0,0:0:0:0:
256,192,61206,1,2,0:0:0:0:
256,192,61368,1,0,0:0:0:0:
256,192,61530,1,2,0:0:0:0:
256,192,61692,1,2,0:0:0:0:
256,192,61854,1,0,0:0:0:0:
256,192,62017,1,0,0:0:0:0:
256,192,62179,1,2,0:0:0:0:
256,192,62341,1,0,0:0:0:0:
256,192,62503,1,2,0:0:0:0:
256,192,62665,1,0,0:0:0:0:
256,192,62827,1,2,0:0:0:0:
256,192,62990,1,2,0:0:0:0:
256,192,63152,1,0,0:0:0:0:
256,192,63314,1,0,0:0:0:0:
256,192,63476,1,2,0:0:0:0:
256,192,63638,1,0,0:0:0:0:
256,192,63800,1,2,0:0:0:0:
256,192,63963,1,2,0:0:0:0:
256,192,64125,1,0,0:0:0:0:
256,192,64206,1,2,0:0:0:0:
256,192,64287,1,0,0:0:0:0:
256,192,64341,1,2,0:0:0:0:
256,192,64395,1,2,0:0:0:0:
256,192,64449,1,0,0:0:0:0:
256,192,64773,1,2,0:0:0:0:
256,192,64936,1,2,0:0:0:0:
256,192,65017,1,2,0:0:0:0:
256,192,65098,1,0,0:0:0:0:
256,192,65260,1,0,0:0:0:0:
256,192,65422,1,2,0:0:0:0:
256,192,65584,1,0,0:0:0:0:
256,192,65665,1,2,0:0:0:0:
256,192,65746,1,0,0:0:0:0:
256,192,65827,1,2,0:0:0:0:
256,192,65909,1,0,0:0:0:0:
256,192,66071,1,2,0:0:0:0:
256,192,66233,1,2,0:0:0:0:
256,192,66287,1,2,0:0:0:0:
256,192,66341,1,2,0:0:0:0:
256,192,66395,1,0,0:0:0:0:
256,192,66557,1,0,0:0:0:0:
256,192,66719,1,2,0:0:0:0:
256,192,66881,1,0,0:0:0:0:
256,192,66963,1,2,0:0:0:0:
256,192,67044,1,0,0:0:0:0:
256,192,67125,1,0,0:0:0:0:
256,192,67206,1,2,0:0:0:0:
256,192,67368,1,0,0:0:0:0:
256,192,67530,1,2,0:0:0:0:
256,192,67611,1,2,0:0:0:0:
256,192,67692,1,0,0:0:0:0:
256,192,67854,1,0,0:0:0:0:
256,192,68017,1,2,0:0:0:0:
256,192,68179,1,2,0:0:0:0:
256,192,68260,1,2,0:0:0:0:
256,192,68341,1,0,0:0:0:0:
256,192,68422,1,0,0:0:0:0:
256,192,68503,1,2,0:0:0:0:
256,192,68665,1,0,0:0:0:0:
256,192,68827,1,2,0:0:0:0:
256,192,68908,1,2,0:0:0:0:
256,192,68990,1,0,0:0:0:0:
256,192,69605,5,0,0:0:0:0:
256,192,69762,1,0,0:0:0:0:
256,192,69920,1,0,0:0:0:0:
256,192,69999,1,0,0:0:0:0:
256,192,70078,1,0,0:0:0:0:
256,192,70130,1,0,0:0:0:0:
256,192,70183,1,0,0:0:0:0:
256,192,70235,1,0,0:0:0:0:
256,192,70394,1,6,0:0:0:0:
256,192,70552,1,2,0:0:0:0:
256,192,70710,1,2,0:0:0:0:
256,192,70762,1,2,0:0:0:0:
256,192,70815,1,2,0:0:0:0:
256,192,70868,1,0,0:0:0:0:
256,192,70947,1,0,0:0:0:0:
256,192,71026,1,2,0:0:0:0:
256,192,71105,1,0,0:0:0:0:
256,192,71262,1,0,0:0:0:0:
256,192,71341,1,0,0:0:0:0:
256,192,71499,1,2,0:0:0:0:
256,192,71578,1,0,0:0:0:0:
256,192,71657,1,2,0:0:0:0:
256,192,71815,1,0,0:0:0:0:
256,192,71894,1,0,0:0:0:0:
256,192,71973,1,2,0:0:0:0:
256,192,72052,1,2,0:0:0:0:
256,192,72131,1,0,0:0:0:0:
256,192,72210,1,0,0:0:0:0:
256,192,72289,1,2,0:0:0:0:
256,192,72368,1,0,0:0:0:0:
256,192,72447,1,2,0:0:0:0:
256,192,72605,1,2,0:0:0:0:
256,192,72762,1,0,0:0:0:0:
256,192,72920,1,2,0:0:0:0:
256,192,73078,1,0,0:0:0:0:
256,192,73157,1,0,0:0:0:0:
256,192,73236,1,2,0:0:0:0:
256,192,73315,1,2,0:0:0:0:
256,192,73394,1,0,0:0:0:0:
256,192,73473,1,2,0:0:0:0:
256,192,73552,1,0,0:0:0:0:
256,192,73631,1,0,0:0:0:0:
256,192,73710,1,2,0:0:0:0:
256,192,73762,1,2,0:0:0:0:
256,192,73868,1,2,0:0:0:0:
256,192,73920,1,2,0:0:0:0:
256,192,74026,1,0,0:0:0:0:
256,192,74183,1,0,0:0:0:0:
256,192,74341,1,0,0:0:0:0:
256,192,74394,1,0,0:0:0:0:
256,192,74447,1,0,0:0:0:0:
256,192,74499,1,2,0:0:0:0:
256,192,74578,1,0,0:0:0:0:
256,192,74657,1,2,0:0:0:0:
256,192,74736,1,2,0:0:0:0:
256,192,74815,1,0,0:0:0:0:
256,192,74894,1,0,0:0:0:0:
256,192,74973,1,2,0:0:0:0:
256,192,75131,1,2,0:0:0:0:
256,192,75289,1,2,0:0:0:0:
256,192,75328,1,0,0:0:0:0:
256,192,75526,1,2,0:0:0:0:
256,192,75566,1,0,0:0:0:0:
256,192,75762,1,2,0:0:0:0:
256,192,75841,1,2,0:0:0:0:
256,192,75920,1,0,0:0:0:0:
256,192,75999,1,2,0:0:0:0:
256,192,76078,1,2,0:0:0:0:
256,192,76236,1,0,0:0:0:0:
256,192,76276,1,0,0:0:0:0:
256,192,76315,1,0,0:0:0:0:
256,192,76394,1,0,0:0:0:0:
256,192,76473,1,0,0:0:0:0:
256,192,76552,1,2,0:0:0:0:
256,192,76710,1,2,0:0:0:0:
256,192,76868,1,0,0:0:0:0:
256,192,76947,1,0,0:0:0:0:
256,192,77026,1,2,0:0:0:0:
256,192,77183,1,2,0:0:0:0:
256,192,77289,1,2,0:0:0:0:
256,192,77394,1,2,0:0:0:0:
256,192,77499,1,2,0:0:0:0:
256,192,77605,1,2,0:0:0:0:
256,192,77710,1,2,0:0:0:0:
256,192,77815,1,0,0:0:0:0:
256,192,77868,1,0,0:0:0:0:
256,192,77973,1,0,0:0:0:0:
256,192,78026,1,0,0:0:0:0:
256,192,78131,1,2,0:0:0:0:
256,192,78289,1,0,0:0:0:0:
256,192,78368,1,0,0:0:0:0:
256,192,78447,1,2,0:0:0:0:
256,192,78526,1,0,0:0:0:0:
256,192,78605,1,0,0:0:0:0:
256,192,78762,1,2,0:0:0:0:
256,192,78815,1,2,0:0:0:0:
256,192,78868,1,2,0:0:0:0:
256,192,78920,1,0,0:0:0:0:
256,192,78999,1,0,0:0:0:0:
256,192,79078,1,2,0:0:0:0:
256,192,79157,1,0,0:0:0:0:
256,192,79236,1,0,0:0:0:0:
256,192,79315,1,0,0:0:0:0:
256,192,79394,1,2,0:0:0:0:
256,192,79552,1,0,0:0:0:0:
256,192,79631,1,0,0:0:0:0:
256,192,79710,1,2,0:0:0:0:
256,192,79762,1,2,0:0:0:0:
256,192,79868,1,2,0:0:0:0:
256,192,79920,1,2,0:0:0:0:
256,192,80026,1,4,0:0:0:0:
256,192,80341,1,0,0:0:0:0:
256,192,80499,1,0,0:0:0:0:
256,192,80657,1,2,0:0:0:0:
256,192,80815,1,0,0:0:0:0:
256,192,80894,1,0,0:0:0:0:
256,192,80973,1,2,0:0:0:0:
256,192,81131,1,0,0:0:0:0:
256,192,81289,1,2,0:0:0:0:
256,192,81447,1,0,0:0:0:0:
256,192,81605,1,2,0:0:0:0:
256,192,81683,1,0,0:0:0:0:
256,192,81762,1,2,0:0:0:0:
256,192,81841,1,2,0:0:0:0:
256,192,81920,1,0,0:0:0:0:
256,192,81973,1,0,0:0:0:0:
256,192,82026,1,0,0:0:0:0:
256,192,82078,1,2,0:0:0:0:
256,192,82157,1,2,0:0:0:0:
256,192,82236,1,0,0:0:0:0:
256,192,82315,1,2,0:0:0:0:
256,192,82394,1,0,0:0:0:0:
256,192,82473,1,0,0:0:0:0:
256,192,82552,1,2,0:0:0:0:
256,192,82710,1,2,0:0:0:0:
256,192,82789,1,2,0:0:0:0:
256,192,82868,1,0,0:0:0:0:
256,192,83026,1,0,0:0:0:0:
256,192,83078,1,0,0:0:0:0:
256,192,83131,1,0,0:0:0:0:
256,192,83183,1,2,0:0:0:0:
256,192,83341,1,0,0:0:0:0:
256,192,83420,1,0,0:0:0:0:
256,192,83499,1,2,0:0:0:0:
256,192,83578,1,2,0:0:0:0:
256,192,83657,1,0,0:0:0:0:
256,192,83736,1,2,0:0:0:0:
256,192,83815,1,0,0:0:0:0:
256,192,83868,1,0,0:0:0:0:
256,192,83920,1,0,0:0:0:0:
256,192,83973,1,2,0:0:0:0:
256,192,84026,1,2,0:0:0:0:
256,192,84078,1,2,0:0:0:0:
256,192,84131,1,0,0:0:0:0:
256,192,84289,1,2,0:0:0:0:
256,192,84368,1,0,0:0:0:0:
256,192,84447,1,2,0:0:0:0:
256,192,84526,1,2,0:0:0:0:
256,192,84605,1,0,0:0:0:0:
256,192,84683,1,2,0:0:0:0:
256,192,84762,1,0,0:0:0:0:
256,192,84841,1,0,0:0:0:0:
256,192,84920,1,2,0:0:0:0:
256,192,85078,1,0,0:0:0:0:
256,192,85157,1,2,0:0:0:0:
256,192,85236,1,2,0:0:0:0:
256,192,85394,1,6,0:0:0:0:
256,192,85552,1,2,0:0:0:0:
256,192,85710,1,0,0:0:0:0:
256,192,85789,1,2,0:0:0:0:
256,192,85947,1,0,0:0:0:0:
256,192,86026,1,2,0:0:0:0:
256,192,86183,1,2,0:0:0:0:
256,192,86262,1,2,0:0:0:0:
256,192,86341,1,0,0:0:0:0:
256,192,86394,1,0,0:0:0:0:
256,192,86447,1,0,0:0:0:0:
256,192,86499,1,0,0:0:0:0:
256,192,86578,1,0,0:0:0:0:
256,192,86657,1,2,0:0:0:0:
256,192,86815,1,0,0:0:0:0:
256,192,86894,1,2,0:0:0:0:
256,192,86973,1,2,0:0:0:0:
256,192,87026,1,2,0:0:0:0:
256,192,87078,1,2,0:0:0:0:
256,192,87131,1,0,0:0:0:0:
256,192,87210,1,2,0:0:0:0:
256,192,87289,1,0,0:0:0:0:
256,192,87368,1,0,0:0:0:0:
256,192,87447,1,2,0:0:0:0:
256,192,87605,1,4,0:0:0:0:
256,192,87762,1,6,0:0:0:0:
256,192,87920,1,4,0:0:0:0:
256,192,88236,1,6,0:0:0:0:
256,192,88394,1,6,0:0:0:0:
256,192,88552,1,4,0:0:0:0:
256,192,88868,1,6,0:0:0:0:
256,192,89183,1,4,0:0:0:0:
256,192,89499,1,6,0:0:0:0:
256,192,89657,1,6,0:0:0:0:
256,192,89815,1,4,0:0:0:0:
256,192,90131,1,0,0:0:0:0:
256,192,90210,1,0,0:0:0:0:
256,192,90289,1,2,0:0:0:0:
256,192,90368,1,2,0:0:0:0:
256,192,90447,1,0,0:0:0:0:
256,192,90605,1,0,0:0:0:0:
256,192,90762,1,0,0:0:0:0:
256,192,90841,1,0,0:0:0:0:
256,192,90999,1,0,0:0:0:0:
256,192,91078,1,2,0:0:0:0:
256,192,91315,1,2,0:0:0:0:
256,192,91552,1,0,0:0:0:0:
256,192,91710,1,2,0:0:0:0:
256,192,91749,1,2,0:0:0:0:
256,192,91868,1,2,0:0:0:0:
256,192,92026,1,0,0:0:0:0:
256,192,92105,1,2,0:0:0:0:
256,192,92183,1,2,0:0:0:0:
256,192,92262,1,2,0:0:0:0:
256,192,92341,1,0,0:0:0:0:
256,192,92420,1,2,0:0:0:0:
256,192,92499,1,0,0:0:0:0:
256,192,92578,1,0,0:0:0:0:
256,192,92657,1,2,0:0:0:0:
256,192,92815,1,2,0:0:0:0:
256,192,92894,1,2,0:0:0:0:
256,192,92973,1,0,0:0:0:0:
256,192,93131,1,0,0:0:0:0:
256,192,93210,1,0,0:0:0:0:
256,192,93289,1,2,0:0:0:0:
256,192,93447,1,2,0:0:0:0:
256,192,93605,1,0,0:0:0:0:
256,192,93762,1,2,0:0:0:0:
256,192,93841,1,0,0:0:0:0:
256,192,93920,1,2,0:0:0:0:
256,192,93999,1,0,0:0:0:0:
256,192,94078,1,2,0:0:0:0:
256,192,94157,1,2,0:0:0:0:
256,192,94236,1,0,0:0:0:0:
256,192,94289,1,2,0:0:0:0:
256,192,94341,1,2,0:0:0:0:
256,192,94394,1,0,0:0:0:0:
256,192,94447,1,2,0:0:0:0:
256,192,94499,1,2,0:0:0:0:
256,192,94552,1,0,0:0:0:0:
256,192,94710,1,2,0:0:0:0:
256,192,94762,1,2,0:0:0:0:
256,192,94815,1,2,0:0:0:0:
256,192,94868,1,0,0:0:0:0:
256,192,95026,1,2,0:0:0:0:
256,192,95183,1,0,0:0:0:0:
256,192,95262,1,0,0:0:0:0:
256,192,95341,1,2,0:0:0:0:
256,192,95420,1,0,0:0:0:0:
256,192,95499,1,2,0:0:0:0:
256,192,95657,1,0,0:0:0:0:
256,192,95736,1,2,0:0:0:0:
256,192,95894,1,0,0:0:0:0:
256,192,95973,1,2,0:0:0:0:
256,192,96052,1,2,0:0:0:0:
256,192,96131,1,0,0:0:0:0:
256,192,96210,1,0,0:0:0:0:
256,192,96289,1,2,0:0:0:0:
256,192,96368,1,0,0:0:0:0:
256,192,96447,1,2,0:0:0:0:
256,192,96526,1,2,0:0:0:0:
256,192,96605,1,0,0:0:0:0:
256,192,96657,1,0,0:0:0:0:
256,192,96710,1,0,0:0:0:0:
256,192,96762,1,2,0:0:0:0:
256,192,96920,1,2,0:0:0:0:
256,192,97078,1,0,0:0:0:0:
256,192,97157,1,0,0:0:0:0:
256,192,97236,1,2,0:0:0:0:
256,192,97315,1,2,0:0:0:0:
256,192,97394,1,0,0:0:0:0:
256,192,97447,1,0,0:0:0:0:
256,192,97499,1,0,0:0:0:0:
256,192,97552,1,2,0:0:0:0:
256,192,97631,1,2,0:0:0:0:
256,192,97710,1,2,0:0:0:0:
256,192,97762,1,2,0:0:0:0:
256,192,97815,1,0,0:0:0:0:
256,192,97868,1,0,0:0:0:0:
256,192,97947,1,0,0:0:0:0:
256,192,98026,1,0,0:0:0:0:
256,192,98183,1,0,0:0:0:0:
256,192,98341,1,2,0:0:0:0:
256,192,98499,1,0,0:0:0:0:
256,192,98578,1,2,0:0:0:0:
256,192,98657,1,0,0:0:0:0:
256,192,98815,1,2,0:0:0:0:
256,192,98973,1,0,0:0:0:0:
256,192,99012,1,0,0:0:0:0:
256,192,99052,1,0,0:0:0:0:
256,192,99091,1,0,0:0:0:0:
256,192,99131,1,2,0:0:0:0:
256,192,99210,1,2,0:0:0:0:
256,192,99289,1,0,0:0:0:0:
256,192,99368,1,0,0:0:0:0:
256,192,99447,1,0,0:0:0:0:
256,192,99526,1,2,0:0:0:0:
256,192,99605,1,2,0:0:0:0:
256,192,99762,1,0,0:0:0:0:
256,192,99841,1,0,0:0:0:0:
256,192,99920,1,2,0:0:0:0:
256,192,99973,1,2,0:0:0:0:
256,192,100078,1,2,0:0:0:0:
256,192,100131,1,2,0:0:0:0:
256,192,100236,1,4,0:0:0:0:
256,192,100552,1,0,0:0:0:0:
256,192,100710,1,0,0:0:0:0:
256,192,100868,1,2,0:0:0:0:
256,192,101026,1,0,0:0:0:0:
256,192,101105,1,0,0:0:0:0:
256,192,101183,1,2,0:0:0:0:
256,192,101341,1,0,0:0:0:0:
256,192,101499,1,2,0:0:0:0:
256,192,101657,1,0,0:0:0:0:
256,192,101815,1,0,0:0:0:0:
256,192,101973,1,0,0:0:0:0:
256,192,102052,1,2,0:0:0:0:
256,192,102131,1,0,0:0:0:0:
256,192,102183,1,0,0:0:0:0:
256,192,102236,1,0,0:0:0:0:
256,192,102289,1,2,0:0:0:0:
256,192,102368,1,2,0:0:0:0:
256,192,102447,1,0,0:0:0:0:
256,192,102526,1,2,0:0:0:0:
256,192,102605,1,0,0:0:0:0:
256,192,102683,1,0,0:0:0:0:
256,192,102762,1,2,0:0:0:0:
256,192,102920,1,2,0:0:0:0:
256,192,102999,1,2,0:0:0:0:
256,192,103078,1,0,0:0:0:0:
256,192,103236,1,0,0:0:0:0:
256,192,103315,1,0,0:0:0:0:
256,192,103394,1,2,0:0:0:0:
256,192,103552,1,0,0:0:0:0:
256,192,103631,1,0,0:0:0:0:
256,192,103710,1,2,0:0:0:0:
256,192,103789,1,0,0:0:0:0:
256,192,103868,1,2,0:0:0:0:
256,192,103947,1,2,0:0:0:0:
256,192,104026,1,0,0:0:0:0:
256,192,104065,1,0,0:0:0:0:
256,192,104105,1,0,0:0:0:0:
256,192,104144,1,0,0:0:0:0:
256,192,104183,1,2,0:0:0:0:
256,192,104236,1,2,0:0:0:0:
256,192,104289,1,0,0:0:0:0:
256,192,104341,1,0,0:0:0:0:
256,192,104578,1,2,0:0:0:0:
256,192,104657,1,0,0:0:0:0:
256,192,104815,1,2,0:0:0:0:
256,192,104973,1,0,0:0:0:0:
256,192,105052,1,2,0:0:0:0:
256,192,105131,1,0,0:0:0:0:
256,192,105210,1,0,0:0:0:0:
256,192,105289,1,2,0:0:0:0:
256,192,105341,1,2,0:0:0:0:
256,192,105394,1,2,0:0:0:0:
256,192,105447,1,0,0:0:0:0:
256,192,105526,1,0,0:0:0:0:
256,192,105605,1,2,0:0:0:0:
256,192,105762,1,0,0:0:0:0:
256,192,105841,1,0,0:0:0:0:
256,192,105920,1,2,0:0:0:0:
256,192,105973,1,2,0:0:0:0:
256,192,106078,1,2,0:0:0:0:
256,192,106131,1,2,0:0:0:0:
256,192,106236,1,0,0:0:0:0:
256,192,106315,1,0,0:0:0:0:
256,192,106394,1,2,0:0:0:0:
256,192,106473,1,2,0:0:0:0:
256,192,106552,1,0,0:0:0:0:
256,192,106631,1,2,0:0:0:0:
256,192,106710,1,0,0:0:0:0:
256,192,106762,1,0,0:0:0:0:
256,192,106815,1,0,0:0:0:0:
256,192,106868,1,2,0:0:0:0:
256,192,107026,1,0,0:0:0:0:
256,192,107183,1,0,0:0:0:0:
256,192,107262,1,0,0:0:0:0:
256,192,107341,1,0,0:0:0:0:
256,192,107420,1,0,0:0:0:0:
256,192,107499,1,2,0:0:0:0:
256,192,107657,1,2,0:0:0:0:
256,192,107815,1,0,0:0:0:0:
256,192,107973,1,2,0:0:0:0:
256,192,108131,1,0,0:0:0:0:
256,192,108289,1,2,0:0:0:0:
256,192,108328,1,2,0:0:0:0:
256,192,108526,1,0,0:0:0:0:
256,192,108565,1,0,0:0:0:0:
256,192,108762,1,0,0:0:0:0:
256,192,108802,1,0,0:0:0:0:
256,192,108999,1,2,0:0:0:0:
256,192,109039,1,2,0:0:0:0:
256,192,109236,1,2,0:0:0:0:
256,192,109276,1,2,0:0:0:0:
256,192,109473,1,0,0:0:0:0:
256,192,109512,1,0,0:0:0:0:
256,192,109710,1,2,0:0:0:0:
256,192,109789,1,2,0:0:0:0:
256,192,109868,1,2,0:0:0:0:
256,192,110026,1,0,0:0:0:0:
256,192,110183,1,0,0:0:0:0:
256,192,110341,1,2,0:0:0:0:
256,192,110420,1,2,0:0:0:0:
256,192,110499,1,2,0:0:0:0:
256,192,110578,1,2,0:0:0:0:
256,192,110657,5,0,0:0:0:0:
256,192,111289,1,2,0:0:0:0:
256,192,111920,1,0,0:0:0:0:
256,192,113183,1,0,0:0:0:0:
256,192,113815,1,2,0:0:0:0:
256,192,114447,1,0,0:0:0:0:
256,192,115710,1,0,0:0:0:0:
256,192,116341,1,0,0:0:0:0:
256,192,116973,1,2,0:0:0:0:
256,192,117605,1,2,0:0:0:0:
256,192,118236,1,0,0:0:0:0:
256,192,118868,1,2,0:0:0:0:
256,192,119499,1,0,0:0:0:0:
256,192,120762,1,0,0:0:0:0:
256,192,120920,1,0,0:0:0:0:
256,192,121078,1,2,0:0:0:0:
256,192,121236,1,2,0:0:0:0:
256,192,121394,1,0,0:0:0:0:
256,192,121552,1,0,0:0:0:0:
256,192,121710,1,2,0:0:0:0:
256,192,121868,1,0,0:0:0:0:
256,192,122026,1,2,0:0:0:0:
256,192,122183,1,2,0:0:0:0:
256,192,122341,1,0,0:0:0:0:
256,192,122499,1,0,0:0:0:0:
256,192,122657,1,0,0:0:0:0:
256,192,122815,1,2,0:0:0:0:
256,192,122973,1,0,0:0:0:0:
256,192,123289,1,0,0:0:0:0:
256,192,123447,1,0,0:0:0:0:
256,192,123605,1,0,0:0:0:0:
256,192,123762,1,0,0:0:0:0:
256,192,123920,1,2,0:0:0:0:
256,192,124078,1,0,0:0:0:0:
256,192,124236,1,2,0:0:0:0:
256,192,124394,1,2,0:0:0:0:
256,192,124552,1,0,0:0:0:0:
256,192,124710,1,2,0:0:0:0:
256,192,124868,1,2,0:0:0:0:
256,192,125026,1,0,0:0:0:0:
256,192,125183,1,2,0:0:0:0:
256,192,125341,1,0,0:0:0:0:
256,192,125499,1,0,0:0:0:0:
256,192,125815,1,0,0:0:0:0:
256,192,125973,1,0,0:0:0:0:
256,192,126131,1,2,0:0:0:0:
256,192,126289,1,0,0:0:0:0:
256,192,126447,1,2,0:0:0:0:
256,192,126605,1,2,0:0:0:0:
256,192,126762,1,0,0:0:0:0:
256,192,126920,1,2,0:0:0:0:
256,192,127078,1,0,0:0:0:0:
256,192,127236,1,2,0:0:0:0:
256,192,127394,1,2,0:0:0:0:
256,192,127552,1,0,0:0:0:0:
256,192,127710,1,2,0:0:0:0:
256,192,127868,1,0,0:0:0:0:
256,192,128026,1,0,0:0:0:0:
256,192,128183,1,2,0:0:0:0:
256,192,128341,1,0,0:0:0:0:
256,192,128499,1,0,0:0:0:0:
256,192,128578,1,0,0:0:0:0:
256,192,128657,1,2,0:0:0:0:
256,192,128815,1,2,0:0:0:0:
256,192,128868,1,2,0:0:0:0:
256,192,128920,1,2,0:0:0:0:
256,192,128973,1,2,0:0:0:0:
256,192,129131,1,2,0:0:0:0:
256,192,129289,1,0,0:0:0:0:
256,192,129368,1,0,0:0:0:0:
256,192,129447,1,2,0:0:0:0:
256,192,129526,1,0,0:0:0:0:
256,192,129605,1,2,0:0:0:0:
256,192,129657,1,0,0:0:0:0:
256,192,129710,1,0,0:0:0:0:
256,192,129763,1,2,0:0:0:0:
256,192,129841,1,2,0:0:0:0:
256,192,129920,1,0,0:0:0:0:
256,192,129973,1,0,0:0:0:0:
256,192,130026,1,2,0:0:0:0:
256,192,130078,1,0,0:0:0:0:
256,192,130157,1,0,0:0:0:0:
256,192,130236,1,2,0:0:0:0:
256,192,130315,1,2,0:0:0:0:
256,192,130394,1,0,0:0:0:0:
256,192,130473,1,0,0:0:0:0:
256,192,130552,1,2,0:0:0:0:
256,192,130605,1,2,0:0:0:0:
256,192,130657,1,2,0:0:0:0:
256,192,130710,1,2,0:0:0:0:
256,192,130762,1,2,0:0:0:0:
256,192,130815,1,2,0:0:0:0:
256,192,130868,1,4,0:0:0:0:
256,192,131026,1,2,0:0:0:0:
256,192,131183,1,2,0:0:0:0:
256,192,131341,1,4,0:0:0:0:
256,192,131499,1,2,0:0:0:0:
256,192,131657,1,2,0:0:0:0:
256,192,131815,1,4,0:0:0:0:
256,192,131973,1,2,0:0:0:0:
256,192,132131,1,2,0:0:0:0:
256,192,132289,1,0,0:0:0:0:
256,192,132368,1,0,0:0:0:0:
256,192,132447,1,2,0:0:0:0:
256,192,132526,1,0,0:0:0:0:
256,192,132605,1,2,0:0:0:0:
256,192,132762,1,0,0:0:0:0:
256,192,132841,1,0,0:0:0:0:
256,192,132920,1,2,0:0:0:0:
256,192,132999,1,0,0:0:0:0:
256,192,133078,1,2,0:0:0:0:
256,192,133157,1,2,0:0:0:0:
256,192,133236,1,2,0:0:0:0:
256,192,133315,1,2,0:0:0:0:
256,192,133394,1,4,0:0:0:0:
256,192,133552,1,4,0:0:0:0:
256,192,133710,1,4,0:0:0:0:
256,192,133868,1,4,0:0:0:0:
256,192,134026,1,4,0:0:0:0:
256,192,134184,1,4,0:0:0:0:
256,192,134342,1,4,0:0:0:0:
256,192,134499,1,4,0:0:0:0:
256,192,134657,1,4,0:0:0:0:
256,192,134815,1,4,0:0:0:0:
256,192,134973,1,4,0:0:0:0:
256,192,135131,1,4,0:0:0:0:
256,192,135289,1,4,0:0:0:0:
256,192,135447,1,4,0:0:0:0:
256,192,135605,1,0,0:0:0:0:
256,192,135683,1,0,0:0:0:0:
256,192,135762,1,0,0:0:0:0:
256,192,135815,1,0,0:0:0:0:
256,192,135868,1,0,0:0:0:0:
256,192,135920,1,0,0:0:0:0:
256,192,136078,1,4,0:0:0:0:
256,192,136236,1,4,0:0:0:0:
256,192,136394,1,4,0:0:0:0:
256,192,136552,1,4,0:0:0:0:
256,192,136710,1,4,0:0:0:0:
256,192,136868,1,4,0:0:0:0:
256,192,137026,1,4,0:0:0:0:
256,192,137183,1,2,0:0:0:0:
256,192,137236,1,2,0:0:0:0:
256,192,137289,1,2,0:0:0:0:
256,192,137341,1,0,0:0:0:0:
256,192,137420,1,0,0:0:0:0:
256,192,137499,1,0,0:0:0:0:
256,192,137657,1,0,0:0:0:0:
256,192,137736,1,0,0:0:0:0:
256,192,137815,1,2,0:0:0:0:
256,192,137868,1,2,0:0:0:0:
256,192,137920,1,2,0:0:0:0:
256,192,137973,1,0,0:0:0:0:
256,192,138052,1,0,0:0:0:0:
256,192,138131,1,2,0:0:0:0:
256,192,138183,1,2,0:0:0:0:
256,192,138236,1,2,0:0:0:0:
256,192,138289,1,0,0:0:0:0:
256,192,138328,1,0,0:0:0:0:
256,192,138368,1,0,0:0:0:0:
256,192,138407,1,0,0:0:0:0:
256,192,138447,1,0,0:0:0:0:
256,192,138605,1,2,0:0:0:0:
256,192,138683,1,2,0:0:0:0:
256,192,138762,1,0,0:0:0:0:
256,192,138802,1,0,0:0:0:0:
256,192,138841,1,0,0:0:0:0:
256,192,138920,1,2,0:0:0:0:
256,192,138999,1,2,0:0:0:0:
256,192,139078,1,0,0:0:0:0:
256,192,139118,1,0,0:0:0:0:
256,192,139157,1,0,0:0:0:0:
256,192,139197,1,0,0:0:0:0:
256,192,139236,1,0,0:0:0:0:
256,192,139394,1,2,0:0:0:0:
256,192,139433,1,0,0:0:0:0:
256,192,139473,1,0,0:0:0:0:
256,192,139552,1,2,0:0:0:0:
256,192,139631,1,0,0:0:0:0:
256,192,139710,2,0,B|352:64|352:64|352:128,112,139.999963465119
256,192,145390,5,0,0:0:0:0:
256,192,145753,1,0,0:0:0:0:
256,192,145935,1,0,0:0:0:0:
256,192,146117,1,2,0:0:0:0:
256,192,146480,1,0,0:0:0:0:
256,192,146844,1,2,0:0:0:0:
256,192,147208,1,0,0:0:0:0:
256,192,147390,1,2,0:0:0:0:
256,192,147571,1,0,0:0:0:0:
256,192,147935,1,0,0:0:0:0:
256,192,148299,1,2,0:0:0:0:
256,192,148641,1,0,0:0:0:0:
256,192,148822,1,2,0:0:0:0:
256,192,149004,1,2,0:0:0:0:
256,192,149368,1,2,0:0:0:0:
256,192,149710,1,2,0:0:0:0:
256,192,150396,1,2,0:0:0:0:
256,192,151126,1,0,0:0:0:0:
256,192,151468,1,0,0:0:0:0:
256,192,151640,1,0,0:0:0:0:
256,192,151811,1,2,0:0:0:0:
256,192,152154,1,0,0:0:0:0:
256,192,152497,1,2,0:0:0:0:
256,192,152840,1,0,0:0:0:0:
256,192,153011,1,2,0:0:0:0:
256,192,153183,1,0,0:0:0:0:
256,192,153526,1,0,0:0:0:0:
256,192,153868,1,2,0:0:0:0:
256,192,154201,1,0,0:0:0:0:
256,192,154368,1,2,0:0:0:0:
256,192,154534,1,2,0:0:0:0:
256,192,154868,1,0,0:0:0:0:
256,192,155201,1,2,0:0:0:0:
256,192,155372,1,0,0:0:0:0:
256,192,155543,1,0,0:0:0:0:
256,192,155715,1,0,0:0:0:0:
256,192,155886,1,2,0:0:0:0:
256,192,156655,5,0,0:0:0:0:
256,192,156988,1,0,0:0:0:0:
256,192,157155,1,0,0:0:0:0:
256,192,157321,1,2,0:0:0:0:
256,192,157655,1,0,0:0:0:0:
256,192,157988,1,2,0:0:0:0:
256,192,158321,1,0,0:0:0:0:
256,192,158483,1,2,0:0:0:0:
256,192,158645,1,2,0:0:0:0:
256,192,158969,1,2,0:0:0:0:
256,192,159293,1,0,0:0:0:0:
256,192,159618,1,0,0:0:0:0:
256,192,159780,1,2,0:0:0:0:
256,192,159942,1,2,0:0:0:0:
256,192,160104,1,0,0:0:0:0:
256,192,160266,1,0,0:0:0:0:
256,192,160429,1,2,0:0:0:0:
256,192,160591,1,2,0:0:0:0:
256,192,160915,1,0,0:0:0:0:
256,192,161239,1,2,0:0:0:0:
256,192,161564,1,2,0:0:0:0:
256,192,161888,1,0,0:0:0:0:
256,192,162212,1,0,0:0:0:0:
256,192,162375,1,0,0:0:0:0:
256,192,162537,1,2,0:0:0:0:
256,192,162861,1,2,0:0:0:0:
256,192,163185,1,0,0:0:0:0:
256,192,163510,1,0,0:0:0:0:
256,192,163672,1,2,0:0:0:0:
256,192,163834,1,0,0:0:0:0:
256,192,164158,1,0,0:0:0:0:
256,192,164483,1,0,0:0:0:0:
256,192,164645,1,0,0:0:0:0:
256,192,164807,1,2,0:0:0:0:
256,192,164969,1,0,0:0:0:0:
256,192,165131,1,2,0:0:0:0:
256,192,165293,1,2,0:0:0:0:
256,192,165456,1,0,0:0:0:0:
256,192,165618,1,0,0:0:0:0:
256,192,165780,1,2,0:0:0:0:
256,192,166416,1,2,0:0:0:0:
256,192,167048,1,0,0:0:0:0:
256,192,167205,1,0,0:0:0:0:
256,192,167284,1,0,0:0:0:0:
256,192,167363,1,2,0:0:0:0:
256,192,167521,1,0,0:0:0:0:
256,192,167679,1,2,0:0:0:0:
256,192,167758,1,2,0:0:0:0:
256,192,167837,1,0,0:0:0:0:
256,192,167995,1,2,0:0:0:0:
256,192,168153,1,0,0:0:0:0:
256,192,168311,1,2,0:0:0:0:
256,192,168469,1,2,0:0:0:0:
256,192,168548,1,2,0:0:0:0:
256,192,168627,1,0,0:0:0:0:
256,192,168785,1,2,0:0:0:0:
256,192,168942,1,0,0:0:0:0:
256,192,169021,1,0,0:0:0:0:
256,192,169100,1,0,0:0:0:0:
256,192,169258,1,2,0:0:0:0:
256,192,169416,1,0,0:0:0:0:
256,192,169574,1,0,0:0:0:0:
256,192,169732,1,0,0:0:0:0:
256,192,169811,1,0,0:0:0:0:
256,192,169890,1,2,0:0:0:0:
256,192,170048,1,2,0:0:0:0:
256,192,170206,1,2,0:0:0:0:
256,192,170285,1,0,0:0:0:0:
256,192,170363,1,0,0:0:0:0:
256,192,170521,1,0,0:0:0:0:
256,192,170679,1,2,0:0:0:0:
256,192,170837,1,2,0:0:0:0:
256,192,170995,1,0,0:0:0:0:
256,192,171153,1,2,0:0:0:0:
256,192,171232,1,2,0:0:0:0:
256,192,171311,1,2,0:0:0:0:
256,192,171363,1,2,0:0:0:0:
256,192,171416,1,2,0:0:0:0:
256,192,171469,1,2,0:0:0:0:
256,192,171627,1,0,0:0:0:0:
256,192,171785,1,2,0:0:0:0:
256,192,171942,1,0,0:0:0:0:
256,192,172021,1,0,0:0:0:0:
256,192,172100,1,0,0:0:0:0:
256,192,172258,1,0,0:0:0:0:
256,192,172337,1,0,0:0:0:0:
256,192,172416,1,2,0:0:0:0:
256,192,172574,1,2,0:0:0:0:
256,192,172732,1,0,0:0:0:0:
256,192,172890,1,0,0:0:0:0:
256,192,172969,1,0,0:0:0:0:
256,192,173048,1,2,0:0:0:0:
256,192,173206,1,2,0:0:0:0:
256,192,173363,1,0,0:0:0:0:
256,192,173521,1,2,0:0:0:0:
256,192,173600,1,2,0:0:0:0:
256,192,173679,1,0,0:0:0:0:
256,192,173758,1,0,0:0:0:0:
256,192,173837,1,2,0:0:0:0:
256,192,173916,1,0,0:0:0:0:
256,192,173995,1,2,0:0:0:0:
256,192,174100,1,2,0:0:0:0:
256,192,174206,1,2,0:0:0:0:
256,192,174311,1,0,0:0:0:0:
256,192,174416,1,0,0:0:0:0:
256,192,174521,1,0,0:0:0:0:
256,192,174627,1,2,0:0:0:0:
256,192,174706,1,0,0:0:0:0:
256,192,174863,1,2,0:0:0:0:
256,192,174942,1,0,0:0:0:0:
256,192,175100,1,2,0:0:0:0:
256,192,175179,1,0,0:0:0:0:
256,192,175337,1,2,0:0:0:0:
256,192,175416,1,0,0:0:0:0:
256,192,175495,1,0,0:0:0:0:
256,192,175574,1,2,0:0:0:0:
256,192,175653,1,0,0:0:0:0:
256,192,175732,1,2,0:0:0:0:
256,192,175811,1,2,0:0:0:0:
256,192,177166,5,0,0:0:0:0:
256,192,177323,1,0,0:0:0:0:
256,192,177402,1,0,0:0:0:0:
256,192,177481,1,2,0:0:0:0:
256,192,177639,1,0,0:0:0:0:
256,192,177797,1,2,0:0:0:0:
256,192,177876,1,2,0:0:0:0:
256,192,177955,1,0,0:0:0:0:
256,192,178034,1,0,0:0:0:0:
256,192,178113,1,2,0:0:0:0:
256,192,178152,1,2,0:0:0:0:
256,192,178192,1,0,0:0:0:0:
256,192,178271,1,0,0:0:0:0:
256,192,178429,1,2,0:0:0:0:
256,192,178587,1,0,0:0:0:0:
256,192,178666,1,2,0:0:0:0:
256,192,178744,1,0,0:0:0:0:
256,192,178797,1,0,0:0:0:0:
256,192,178850,1,0,0:0:0:0:
256,192,178902,1,2,0:0:0:0:
256,192,178981,1,2,0:0:0:0:
256,192,179060,1,0,0:0:0:0:
256,192,179139,1,2,0:0:0:0:
256,192,179218,1,0,0:0:0:0:
256,192,179297,1,0,0:0:0:0:
256,192,179376,1,2,0:0:0:0:
256,192,179534,1,2,0:0:0:0:
256,192,179613,1,2,0:0:0:0:
256,192,179692,1,0,0:0:0:0:
256,192,179850,1,0,0:0:0:0:
256,192,179929,1,0,0:0:0:0:
256,192,180008,1,2,0:0:0:0:
256,192,180087,1,0,0:0:0:0:
256,192,180166,1,2,0:0:0:0:
256,192,180244,1,2,0:0:0:0:
256,192,180323,1,0,0:0:0:0:
256,192,180376,1,0,0:0:0:0:
256,192,180429,1,0,0:0:0:0:
256,192,180481,1,2,0:0:0:0:
256,192,180560,1,0,0:0:0:0:
256,192,180639,1,2,0:0:0:0:
256,192,180692,1,2,0:0:0:0:
256,192,180797,1,2,0:0:0:0:
256,192,180850,1,2,0:0:0:0:
256,192,180955,1,0,0:0:0:0:
256,192,181113,1,0,0:0:0:0:
256,192,181271,1,2,0:0:0:0:
256,192,181350,1,2,0:0:0:0:
256,192,181429,1,0,0:0:0:0:
256,192,181508,1,2,0:0:0:0:
256,192,181587,1,0,0:0:0:0:
256,192,181639,1,0,0:0:0:0:
256,192,181692,1,0,0:0:0:0:
256,192,181744,1,0,0:0:0:0:
256,192,181797,1,0,0:0:0:0:
256,192,181850,1,0,0:0:0:0:
256,192,181902,1,2,0:0:0:0:
256,192,182060,1,2,0:0:0:0:
256,192,182218,1,0,0:0:0:0:
256,192,182455,1,2,0:0:0:0:
256,192,182534,1,0,0:0:0:0:
256,192,182692,1,2,0:0:0:0:
256,192,182850,1,0,0:0:0:0:
256,192,182929,1,2,0:0:0:0:
256,192,183008,1,2,0:0:0:0:
256,192,183166,1,0,0:0:0:0:
256,192,183218,1,0,0:0:0:0:
256,192,183271,1,0,0:0:0:0:
256,192,183323,1,2,0:0:0:0:
256,192,183402,1,2,0:0:0:0:
256,192,183481,1,0,0:0:0:0:
256,192,183560,1,2,0:0:0:0:
256,192,183639,1,0,0:0:0:0:
256,192,183718,1,0,0:0:0:0:
256,192,183797,1,2,0:0:0:0:
256,192,183955,1,0,0:0:0:0:
256,192,184034,1,0,0:0:0:0:
256,192,184113,1,2,0:0:0:0:
256,192,184166,1,2,0:0:0:0:
256,192,184218,1,2,0:0:0:0:
256,192,184323,1,2,0:0:0:0:
256,192,184429,1,0,0:0:0:0:
256,192,184534,1,2,0:0:0:0:
256,192,184639,1,0,0:0:0:0:
256,192,184744,1,0,0:0:0:0:
256,192,184902,1,0,0:0:0:0:
256,192,184981,1,0,0:0:0:0:
256,192,185060,1,2,0:0:0:0:
256,192,185218,1,0,0:0:0:0:
256,192,185376,1,0,0:0:0:0:
256,192,185455,1,0,0:0:0:0:
256,192,185534,1,2,0:0:0:0:
256,192,185692,1,0,0:0:0:0:
256,192,185744,1,0,0:0:0:0:
256,192,185797,1,0,0:0:0:0:
256,192,185850,1,2,0:0:0:0:
256,192,185929,1,0,0:0:0:0:
256,192,186008,1,2,0:0:0:0:
256,192,186087,1,2,0:0:0:0:
256,192,186166,1,2,0:0:0:0:
256,192,186244,1,2,0:0:0:0:
256,192,186323,1,0,0:0:0:0:
256,192,186481,1,0,0:0:0:0:
256,192,186560,1,0,0:0:0:0:
256,192,186639,1,2,0:0:0:0:
256,192,186692,1,2,0:0:0:0:
256,192,186744,1,2,0:0:0:0:
256,192,186797,1,2,0:0:0:0:
256,192,186850,1,2,0:0:0:0:
256,192,186902,1,2,0:0:0:0:
256,192,186955,1,0,0:0:0:0:
256,192,187271,1,0,0:0:0:0:
256,192,187429,1,0,0:0:0:0:
256,192,187508,1,0,0:0:0:0:
256,192,187587,1,2,0:0:0:0:
256,192,187744,1,0,0:0:0:0:
256,192,187823,1,2,0:0:0:0:
256,192,187902,1,2,0:0:0:0:
256,192,188060,1,0,0:0:0:0:
256,192,188218,1,2,0:0:0:0:
256,192,188376,1,0,0:0:0:0:
256,192,188534,1,6,0:0:0:0:
256,192,188771,1,6,0:0:0:0:
256,192,189008,1,4,0:0:0:0:
256,192,189244,1,6,0:0:0:0:
256,192,189481,1,0,0:0:0:0:
256,192,189521,1,0,0:0:0:0:
256,192,189560,1,0,0:0:0:0:
256,192,189600,1,0,0:0:0:0:
256,192,189639,1,0,0:0:0:0:
256,192,189718,1,0,0:0:0:0:
256,192,189797,1,0,0:0:0:0:
256,192,189955,1,0,0:0:0:0:
256,192,190034,1,0,0:0:0:0:
256,192,190113,1,2,0:0:0:0:
256,192,190271,1,2,0:0:0:0:
256,192,190350,1,2,0:0:0:0:
256,192,190429,1,0,0:0:0:0:
256,192,190508,1,2,0:0:0:0:
256,192,190587,1,0,0:0:0:0:
256,192,190744,1,2,0:0:0:0:
256,192,190797,1,0,0:0:0:0:
256,192,190850,1,0,0:0:0:0:
256,192,190902,1,2,0:0:0:0:
256,192,190981,1,0,0:0:0:0:
256,192,191060,1,0,0:0:0:0:
256,192,191218,1,2,0:0:0:0:
256,192,191297,1,0,0:0:0:0:
256,192,191376,1,2,0:0:0:0:
256,192,191429,1,2,0:0:0:0:
256,192,191481,1,2,0:0:0:0:
256,192,191534,1,0,0:0:0:0:
256,192,191613,1,2,0:0:0:0:
256,192,191692,1,0,0:0:0:0:
256,192,191771,1,2,0:0:0:0:
256,192,191850,1,0,0:0:0:0:
256,192,191929,1,0,0:0:0:0:
256,192,192008,1,2,0:0:0:0:
256,192,192166,1,0,0:0:0:0:
256,192,192323,1,6,0:0:0:0:
256,192,192481,1,0,0:0:0:0:
256,192,192560,1,0,0:0:0:0:
256,192,192639,1,2,0:0:0:0:
256,192,192797,1,0,0:0:0:0:
256,192,192955,1,2,0:0:0:0:
256,192,193034,1,2,0:0:0:0:
256,192,193113,1,0,0:0:0:0:
256,192,193271,1,0,0:0:0:0:
256,192,193350,1,2,0:0:0:0:
256,192,193429,1,0,0:0:0:0:
256,192,193508,1,0,0:0:0:0:
256,192,193586,1,2,0:0:0:0:
256,192,193639,1,2,0:0:0:0:
256,192,193692,1,2,0:0:0:0:
256,192,193744,1,0,0:0:0:0:
256,192,193823,1,0,0:0:0:0:
256,192,193902,1,2,0:0:0:0:
256,192,194060,1,0,0:0:0:0:
256,192,194218,1,6,0:0:0:0:
256,192,194376,1,6,0:0:0:0:
256,192,194534,1,4,0:0:0:0:
256,192,194692,1,6,0:0:0:0:
256,192,194850,1,4,0:0:0:0:
256,192,195165,1,4,0:0:0:0:
256,192,195323,1,6,0:0:0:0:
256,192,195481,1,6,0:0:0:0:
256,192,195797,1,4,0:0:0:0:
256,192,196113,1,6,0:0:0:0:
256,192,196429,1,6,0:0:0:0:
256,192,196587,1,6,0:0:0:0:
256,192,196744,1,4,0:0:0:0:
256,192,196902,1,0,0:0:0:0:
256,192,196981,1,0,0:0:0:0:
256,192,197060,1,2,0:0:0:0:
256,192,197100,1,0,0:0:0:0:
256,192,197139,1,0,0:0:0:0:
256,192,197218,1,0,0:0:0:0:
256,192,197297,1,2,0:0:0:0:
256,192,197692,1,0,0:0:0:0:
256,192,197731,1,0,0:0:0:0:
256,192,197771,1,0,0:0:0:0:
256,192,197850,1,2,0:0:0:0:
256,192,197929,1,2,0:0:0:0:
256,192,198008,1,2,0:0:0:0:
256,192,198060,1,2,0:0:0:0:
256,192,198113,1,2,0:0:0:0:
256,192,198166,1,0,0:0:0:0:
256,192,198244,1,0,0:0:0:0:
256,192,198323,1,2,0:0:0:0:
256,192,198402,1,0,0:0:0:0:
256,192,198481,1,0,0:0:0:0:
256,192,198639,1,2,0:0:0:0:
256,192,198797,1,0,0:0:0:0:
256,192,198876,1,2,0:0:0:0:
256,192,198955,1,0,0:0:0:0:
256,192,199034,1,0,0:0:0:0:
256,192,199113,1,2,0:0:0:0:
256,192,199192,1,2,0:0:0:0:
256,192,199271,1,0,0:0:0:0:
256,192,199350,1,2,0:0:0:0:
256,192,199429,1,0,0:0:0:0:
256,192,199508,1,0,0:0:0:0:
256,192,199587,1,2,0:0:0:0:
256,192,199639,1,2,0:0:0:0:
256,192,199744,1,2,0:0:0:0:
256,192,199797,1,2,0:0:0:0:
256,192,199902,1,0,0:0:0:0:
256,192,200060,1,0,0:0:0:0:
256,192,200139,1,0,0:0:0:0:
256,192,200218,1,2,0:0:0:0:
256,192,200376,1,2,0:0:0:0:
256,192,200455,1,2,0:0:0:0:
256,192,200534,1,0,0:0:0:0:
256,192,200587,1,0,0:0:0:0:
256,192,200639,1,0,0:0:0:0:
256,192,200692,1,2,0:0:0:0:
256,192,200771,1,2,0:0:0:0:
256,192,200850,1,0,0:0:0:0:
256,192,200929,1,2,0:0:0:0:
256,192,201008,1,2,0:0:0:0:
256,192,201087,1,2,0:0:0:0:
256,192,201166,1,0,0:0:0:0:
256,192,201323,1,0,0:0:0:0:
256,192,201402,1,0,0:0:0:0:
256,192,201481,1,2,0:0:0:0:
256,192,201639,1,0,0:0:0:0:
256,192,201679,1,0,0:0:0:0:
256,192,201718,1,0,0:0:0:0:
256,192,201797,1,0,0:0:0:0:
256,192,201955,1,0,0:0:0:0:
256,192,202034,1,0,0:0:0:0:
256,192,202113,1,2,0:0:0:0:
256,192,202192,1,0,0:0:0:0:
256,192,202271,1,0,0:0:0:0:
256,192,202429,1,2,0:0:0:0:
256,192,202508,1,0,0:0:0:0:
256,192,202666,1,2,0:0:0:0:
256,192,202744,1,0,0:0:0:0:
256,192,202902,1,0,0:0:0:0:
256,192,202981,1,0,0:0:0:0:
256,192,203060,1,2,0:0:0:0:
256,192,203139,1,0,0:0:0:0:
256,192,203218,1,2,0:0:0:0:
256,192,203297,1,2,0:0:0:0:
256,192,203376,1,2,0:0:0:0:
256,192,203429,1,2,0:0:0:0:
256,192,203481,1,2,0:0:0:0:
256,192,203534,1,2,0:0:0:0:
256,192,203587,1,2,0:0:0:0:
256,192,203639,1,2,0:0:0:0:
256,192,203692,1,0,0:0:0:0:
256,192,203744,1,0,0:0:0:0:
256,192,203797,1,0,0:0:0:0:
256,192,203850,1,0,0:0:0:0:
256,192,203902,1,0,0:0:0:0:
256,192,203955,1,0,0:0:0:0:
256,192,204008,1,0,0:0:0:0:
256,192,204087,1,0,0:0:0:0:
256,192,204166,1,0,0:0:0:0:
256,192,204244,1,0,0:0:0:0:
256,192,204323,1,0,0:0:0:0:
256,192,204481,1,0,0:0:0:0:
256,192,204639,1,2,0:0:0:0:
256,192,204718,1,2,0:0:0:0:
256,192,204797,1,0,0:0:0:0:
256,192,204850,1,0,0:0:0:0:
256,192,204902,1,0,0:0:0:0:
256,192,204955,1,0,0:0:0:0:
256,192,205113,1,2,0:0:0:0:
256,192,205192,1,0,0:0:0:0:
256,192,205271,1,2,0:0:0:0:
256,192,205429,1,0,0:0:0:0:
256,192,205508,1,2,0:0:0:0:
256,192,205587,1,0,0:0:0:0:
256,192,205666,1,0,0:0:0:0:
256,192,205744,1,2,0:0:0:0:
256,192,205902,1,0,0:0:0:0:
256,192,205942,1,0,0:0:0:0:
256,192,205981,1,0,0:0:0:0:
256,192,206021,1,0,0:0:0:0:
256,192,206060,1,2,0:0:0:0:
256,192,206139,1,0,0:0:0:0:
256,192,206218,1,2,0:0:0:0:
256,192,206297,1,0,0:0:0:0:
256,192,206376,1,0,0:0:0:0:
256,192,206455,1,0,0:0:0:0:
256,192,206534,1,2,0:0:0:0:
256,192,206692,1,0,0:0:0:0:
256,192,206771,1,0,0:0:0:0:
256,192,206850,1,2,0:0:0:0:
256,192,206902,1,2,0:0:0:0:
256,192,207008,1,2,0:0:0:0:
256,192,207060,1,2,0:0:0:0:
256,192,207166,1,4,0:0:0:0:
256,192,207481,1,0,0:0:0:0:
256,192,207639,1,0,0:0:0:0:
256,192,207718,1,0,0:0:0:0:
256,192,207797,1,2,0:0:0:0:
256,192,207850,1,2,0:0:0:0:
256,192,207902,1,2,0:0:0:0:
256,192,207955,1,0,0:0:0:0:
256,192,208034,1,0,0:0:0:0:
256,192,208113,1,2,0:0:0:0:
256,192,208192,1,2,0:0:0:0:
256,192,208271,1,0,0:0:0:0:
256,192,208350,1,0,0:0:0:0:
256,192,208429,1,2,0:0:0:0:
256,192,208481,1,2,0:0:0:0:
256,192,208534,1,2,0:0:0:0:
256,192,208587,1,0,0:0:0:0:
256,192,208744,1,2,0:0:0:0:
256,192,208902,1,0,0:0:0:0:
256,192,208981,1,2,0:0:0:0:
256,192,209060,1,0,0:0:0:0:
256,192,209100,1,0,0:0:0:0:
256,192,209139,1,0,0:0:0:0:
256,192,209218,1,0,0:0:0:0:
256,192,209297,1,2,0:0:0:0:
256,192,209376,1,0,0:0:0:0:
256,192,209455,1,2,0:0:0:0:
256,192,209534,1,2,0:0:0:0:
256,192,209613,1,0,0:0:0:0:
256,192,209692,1,2,0:0:0:0:
256,192,209850,1,2,0:0:0:0:
256,192,209929,1,2,0:0:0:0:
256,192,210008,1,0,0:0:0:0:
256,192,210166,1,0,0:0:0:0:
256,192,210244,1,0,0:0:0:0:
256,192,210323,1,2,0:0:0:0:
256,192,210402,1,2,0:0:0:0:
256,192,210481,1,2,0:0:0:0:
256,192,210521,1,0,0:0:0:0:
256,192,210639,1,2,0:0:0:0:
256,192,210679,1,0,0:0:0:0:
256,192,210797,1,0,0:0:0:0:
256,192,210876,1,0,0:0:0:0:
256,192,210955,1,2,0:0:0:0:
256,192,211008,1,0,0:0:0:0:
256,192,211060,1,0,0:0:0:0:
256,192,211113,1,2,0:0:0:0:
256,192,211166,1,0,0:0:0:0:
256,192,211218,1,0,0:0:0:0:
256,192,211271,1,0,0:0:0:0:
256,192,211429,1,0,0:0:0:0:
256,192,211508,1,2,0:0:0:0:
256,192,211587,1,0,0:0:0:0:
256,192,211744,1,2,0:0:0:0:
256,192,211902,1,0,0:0:0:0:
256,192,211955,1,0,0:0:0:0:
256,192,212008,1,0,0:0:0:0:
256,192,212060,1,0,0:0:0:0:
256,192,212113,1,0,0:0:0:0:
256,192,212166,1,0,0:0:0:0:
256,192,212218,1,2,0:0:0:0:
256,192,212376,1,0,0:0:0:0:
256,192,212534,1,2,0:0:0:0:
256,192,212850,1,2,0:0:0:0:
256,192,212929,1,2,0:0:0:0:
256,192,213008,1,2,0:0:0:0:
256,192,213060,1,2,0:0:0:0:
256,192,213113,1,2,0:0:0:0:
256,192,213166,1,0,0:0:0:0:
256,192,213244,1,0,0:0:0:0:
256,192,213323,1,0,0:0:0:0:
256,192,213376,1,0,0:0:0:0:
256,192,213429,1,0,0:0:0:0:
256,192,213481,1,2,0:0:0:0:
256,192,213560,1,2,0:0:0:0:
256,192,213639,1,2,0:0:0:0:
256,192,213718,1,2,0:0:0:0:
256,192,213797,1,0,0:0:0:0:
256,192,213837,1,0,0:0:0:0:
256,192,213876,1,0,0:0:0:0:
256,192,213955,1,0,0:0:0:0:
256,192,214113,1,2,0:0:0:0:
256,192,214192,1,2,0:0:0:0:
256,192,214271,1,0,0:0:0:0:
256,192,214350,1,0,0:0:0:0:
256,192,214429,1,2,0:0:0:0:
256,192,214587,1,2,0:0:0:0:
256,192,214744,1,0,0:0:0:0:
256,192,214784,1,0,0:0:0:0:
256,192,214902,1,0,0:0:0:0:
256,192,214942,1,0,0:0:0:0:
256,192,215060,1,2,0:0:0:0:
256,192,215139,1,0,0:0:0:0:
256,192,215218,1,0,0:0:0:0:
256,192,215297,1,2,0:0:0:0:
256,192,215376,1,0,0:0:0:0:
256,192,215455,1,0,0:0:0:0:
256,192,215534,1,2,0:0:0:0:
256,192,215613,1,2,0:0:0:0:
256,192,215692,1,0,0:0:0:0:
256,192,215771,1,2,0:0:0:0:
256,192,215850,1,2,0:0:0:0:
256,192,215929,1,2,0:0:0:0:
256,192,216008,1,0,0:0:0:0:
256,192,216087,1,0,0:0:0:0:
256,192,216166,1,2,0:0:0:0:
256,192,216244,1,2,0:0:0:0:
256,192,216323,1,0,0:0:0:0:
256,192,216376,1,0,0:0:0:0:
256,192,216429,1,0,0:0:0:0:
256,192,216481,1,0,0:0:0:0:
256,192,216560,1,2,0:0:0:0:
256,192,216639,1,2,0:0:0:0:
256,192,216692,1,2,0:0:0:0:
256,192,216744,1,2,0:0:0:0:
256,192,216797,1,0,0:0:0:0:
256,192,216876,1,2,0:0:0:0:
256,192,216955,1,0,0:0:0:0:
256,192,217034,1,2,0:0:0:0:
256,192,217113,1,0,0:0:0:0:
256,192,217192,1,0,0:0:0:0:
256,192,217271,1,2,0:0:0:0:
256,192,217323,1,2,0:0:0:0:
256,192,217376,1,2,0:0:0:0:
256,192,217429,1,2,0:0:0:0:
256,192,217481,1,2,0:0:0:0:
256,192,217534,1,2,0:0:0:0:
256,192,217587,1,0,0:0:0:0:
256,192,217744,1,0,0:0:0:0:
256,192,217823,1,0,0:0:0:0:
256,192,217902,1,2,0:0:0:0:
256,192,218060,1,0,0:0:0:0:
256,192,218218,1,0,0:0:0:0:
256,192,218297,1,0,0:0:0:0:
256,192,218376,1,2,0:0:0:0:
256,192,218534,1,0,0:0:0:0:
256,192,218613,1,2,0:0:0:0:
256,192,218692,1,0,0:0:0:0:
256,192,218771,1,0,0:0:0:0:
256,192,218850,1,2,0:0:0:0:
256,192,219008,1,0,0:0:0:0:
256,192,219087,1,2,0:0:0:0:
256,192,219166,1,2,0:0:0:0:
256,192,219323,1,0,0:0:0:0:
256,192,219481,1,6,0:0:0:0:
256,192,219639,1,0,0:0:0:0:
256,192,219797,1,6,0:0:0:0:
256,192,219955,1,0,0:0:0:0:
256,192,220113,1,0,0:0:0:0:
256,192,220192,1,0,0:0:0:0:
256,192,220271,1,0,0:0:0:0:
256,192,220350,1,0,0:0:0:0:
256,192,220429,1,2,0:0:0:0:
256,192,220587,1,0,0:0:0:0:
256,192,220744,1,0,0:0:0:0:
256,192,220823,1,0,0:0:0:0:
256,192,220902,1,2,0:0:0:0:
256,192,221060,1,0,0:0:0:0:
256,192,221139,1,2,0:0:0:0:
256,192,221218,1,2,0:0:0:0:
256,192,221297,1,0,0:0:0:0:
256,192,221376,1,2,0:0:0:0:
256,192,221534,1,0,0:0:0:0:
256,192,221613,1,0,0:0:0:0:
256,192,221692,1,2,0:0:0:0:
256,192,221771,1,0,0:0:0:0:
256,192,221850,1,2,0:0:0:0:
256,192,221929,1,2,0:0:0:0:
256,192,222008,1,0,0:0:0:0:
256,192,222166,1,2,0:0:0:0:
256,192,222244,1,0,0:0:0:0:
256,192,222323,1,2,0:0:0:0:
256,192,222402,1,2,0:0:0:0:
256,192,222481,1,0,0:0:0:0:
256,192,222639,1,4,0:0:0:0:
256,192,222797,1,0,0:0:0:0:
256,192,222876,1,0,0:0:0:0:
256,192,222955,1,2,0:0:0:0:
256,192,223113,1,2,0:0:0:0:
256,192,223271,1,2,0:0:0:0:
256,192,223350,1,2,0:0:0:0:
256,192,223429,1,0,0:0:0:0:
256,192,223587,1,0,0:0:0:0:
256,192,223666,1,2,0:0:0:0:
256,192,223744,1,0,0:0:0:0:
256,192,223823,1,0,0:0:0:0:
256,192,223902,1,2,0:0:0:0:
256,192,224060,1,0,0:0:0:0:
256,192,224139,1,0,0:0:0:0:
256,192,224218,1,2,0:0:0:0:
256,192,224271,1,0,0:0:0:0:
256,192,224323,1,0,0:0:0:0:
256,192,224376,1,2,0:0:0:0:
256,192,224455,1,2,0:0:0:0:
256,192,224534,1,0,0:0:0:0:
256,192,224613,1,2,0:0:0:0:
256,192,224692,1,0,0:0:0:0:
256,192,224771,1,0,0:0:0:0:
256,192,224850,1,2,0:0:0:0:
256,192,224929,1,0,0:0:0:0:
256,192,225008,1,0,0:0:0:0:
256,192,225166,1,2,0:0:0:0:
256,192,225244,1,2,0:0:0:0:
256,192,225402,1,0,0:0:0:0:
256,192,225481,1,0,0:0:0:0:
256,192,225639,1,2,0:0:0:0:
256,192,225718,1,2,0:0:0:0:
256,192,225876,1,0,0:0:0:0:
256,192,225955,1,0,0:0:0:0:
256,192,226113,1,2,0:0:0:0:
256,192,226192,1,0,0:0:0:0:
256,192,226271,1,2,0:0:0:0:
256,192,226350,1,2,0:0:0:0:
256,192,226429,1,0,0:0:0:0:
256,192,226587,1,2,0:0:0:0:
256,192,226666,1,0,0:0:0:0:
256,192,226744,1,2,0:0:0:0:
256,192,226823,1,2,0:0:0:0:
256,192,226902,1,0,0:0:0:0:
256,192,226981,1,0,0:0:0:0:
256,192,227060,1,0,0:0:0:0:
256,192,227218,1,6,0:0:0:0:
256,192,227376,1,0,0:0:0:0:
256,192,227534,1,6,0:0:0:0:
256,192,227692,1,0,0:0:0:0:
256,192,227850,1,0,0:0:0:0:
256,192,227929,1,0,0:0:0:0:
256,192,228008,1,2,0:0:0:0:
256,192,228166,1,0,0:0:0:0:
256,192,228323,1,0,0:0:0:0:
256,192,228402,1,0,0:0:0:0:
256,192,228481,1,2,0:0:0:0:
256,192,228560,1,2,0:0:0:0:
256,192,228639,1,0,0:0:0:0:
256,192,228718,1,2,0:0:0:0:
256,192,228797,1,0,0:0:0:0:
256,192,228876,1,0,0:0:0:0:
256,192,228955,1,2,0:0:0:0:
256,192,229113,1,0,0:0:0:0:
256,192,229192,1,0,0:0:0:0:
256,192,229271,1,2,0:0:0:0:
256,192,229429,1,0,0:0:0:0:
256,192,229508,1,0,0:0:0:0:
256,192,229587,1,0,0:0:0:0:
256,192,229744,1,2,0:0:0:0:
256,192,229797,1,2,0:0:0:0:
256,192,229850,1,2,0:0:0:0:
256,192,229902,1,0,0:0:0:0:
256,192,229981,1,0,0:0:0:0:
256,192,230060,1,2,0:0:0:0:
256,192,230218,1,0,0:0:0:0:
256,192,230376,1,0,0:0:0:0:
256,192,230455,1,2,0:0:0:0:
256,192,230534,1,0,0:0:0:0:
256,192,230692,1,2,0:0:0:0:
256,192,230850,1,0,0:0:0:0:
256,192,230929,1,0,0:0:0:0:
256,192,231008,1,2,0:0:0:0:
256,192,231087,1,0,0:0:0:0:
256,192,231166,1,2,0:0:0:0:
256,192,231244,1,2,0:0:0:0:
256,192,231323,1,0,0:0:0:0:
256,192,231402,1,2,0:0:0:0:
256,192,231481,1,2,0:0:0:0:
256,192,231639,1,0,0:0:0:0:
256,192,231718,1,0,0:0:0:0:
256,192,231797,1,2,0:0:0:0:
256,192,231876,1,0,0:0:0:0:
256,192,231955,1,2,0:0:0:0:
256,192,232034,1,2,0:0:0:0:
256,192,232113,1,2,0:0:0:0:
256,192,232166,1,2,0:0:0:0:
256,192,232218,1,2,0:0:0:0:
256,192,232271,1,0,0:0:0:0:
256,192,232350,1,2,0:0:0:0:
256,192,232429,1,0,0:0:0:0:
256,192,232508,1,0,0:0:0:0:
256,192,232587,1,2,0:0:0:0:
256,192,232666,1,0,0:0:0:0:
256,192,232744,1,2,0:0:0:0:
256,192,232902,1,0,0:0:0:0:
256,192,232981,1,0,0:0:0:0:
256,192,233060,1,2,0:0:0:0:
256,192,233218,1,2,0:0:0:0:
256,192,233376,1,0,0:0:0:0:
256,192,233455,1,2,0:0:0:0:
256,192,233534,1,0,0:0:0:0:
256,192,233692,1,2,0:0:0:0:
256,192,233771,1,0,0:0:0:0:
256,192,233850,1,2,0:0:0:0:
256,192,233929,1,2,0:0:0:0:
256,192,234008,1,0,0:0:0:0:
256,192,234166,1,0,0:0:0:0:
256,192,234244,1,0,0:0:0:0:
256,192,234323,1,2,0:0:0:0:
256,192,234402,1,2,0:0:0:0:
256,192,234481,1,0,0:0:0:0:
256,192,234560,1,0,0:0:0:0:
256,192,234639,1,2,0:0:0:0:
256,192,234718,1,2,0:0:0:0:
256,192,234797,1,0,0:0:0:0:
256,192,234876,1,2,0:0:0:0:
256,192,234955,1,0,0:0:0:0:
256,192,235034,1,0,0:0:0:0:
256,192,235113,1,2,0:0:0:0:
256,192,235271,1,0,0:0:0:0:
256,192,235350,1,2,0:0:0:0:
256,192,235429,1,2,0:0:0:0:
256,192,235587,1,2,0:0:0:0:
256,192,235666,1,2,0:0:0:0:
256,192,235823,1,0,0:0:0:0:
256,192,235902,1,2,0:0:0:0:
256,192,236060,1,0,0:0:0:0:
256,192,236139,1,0,0:0:0:0:
256,192,236218,1,0,0:0:0:0:
256,192,236297,1,2,0:0:0:0:
256,192,236376,1,2,0:0:0:0:
256,192,236534,1,2,0:0:0:0:
256,192,236692,1,2,0:0:0:0:
256,192,236771,1,0,0:0:0:0:
256,192,236850,1,2,0:0:0:0:
256,192,236929,1,2,0:0:0:0:
256,192,237008,1,0,0:0:0:0:
256,192,237087,1,2,0:0:0:0:
256,192,237166,1,0,0:0:0:0:
256,192,237244,1,2,0:0:0:0:
256,192,237323,1,2,0:0:0:0:
256,192,237402,1,2,0:0:0:0:
256,192,237481,1,2,0:0:0:0:
256,192,237560,1,2,0:0:0:0:
256,192,237639,1,2,0:0:0:0:
256,192,237718,1,2,0:0:0:0:
256,192,237797,1,0,0:0:0:0:
256,192,238429,1,0,0:0:0:0:
256,192,239060,1,0,0:0:0:0:
256,192,239692,1,2,0:0:0:0:
256,192,240323,1,0,0:0:0:0:
256,192,241587,1,0,0:0:0:0:
256,192,242850,12,0,247902,0:0:0:0:
256,192,248534,5,0,0:0:0:0:
256,192,249166,1,0,0:0:0:0:
256,192,249797,1,2,0:0:0:0:
256,192,250429,1,0,0:0:0:0:
256,192,251692,1,2,0:0:0:0:
256,192,252955,12,2,258008,0:0:0:0:
256,192,259271,5,2,0:0:0:0:
256,192,259443,1,2,0:0:0:0:
256,192,259615,1,0,0:0:0:0:
256,192,259788,1,0,0:0:0:0:
256,192,259960,1,2,0:0:0:0:
256,192,260133,1,0,0:0:0:0:
256,192,260305,1,2,0:0:0:0:
256,192,260650,1,0,0:0:0:0:
256,192,260995,1,2,0:0:0:0:
256,192,261167,1,2,0:0:0:0:
256,192,261339,1,0,0:0:0:0:
256,192,261684,1,2,0:0:0:0:
256,192,261857,1,0,0:0:0:0:
256,192,262029,1,2,0:0:0:0:
256,192,262374,1,2,0:0:0:0:
256,192,263408,1,2,0:0:0:0:
256,192,263581,1,2,0:0:0:0:
256,192,263753,1,0,0:0:0:0:
256,192,263926,1,0,0:0:0:0:
256,192,264098,1,2,0:0:0:0:
256,192,264271,1,0,0:0:0:0:
256,192,264443,1,2,0:0:0:0:
256,192,264788,1,0,0:0:0:0:
256,192,265133,1,0,0:0:0:0:
256,192,265305,1,0,0:0:0:0:
256,192,265477,1,2,0:0:0:0:
256,192,265650,1,0,0:0:0:0:
256,192,265822,1,2,0:0:0:0:
256,192,265995,1,2,0:0:0:0:
256,192,266167,1,0,0:0:0:0:
256,192,266512,1,2,0:0:0:0:
256,192,267546,5,2,0:0:0:0:
256,192,267718,1,2,0:0:0:0:
256,192,267890,1,0,0:0:0:0:
256,192,268063,1,0,0:0:0:0:
256,192,268235,1,2,0:0:0:0:
256,192,268408,1,0,0:0:0:0:
256,192,268580,1,2,0:0:0:0:
256,192,268925,1,0,0:0:0:0:
256,192,269270,1,2,0:0:0:0:
256,192,269442,1,2,0:0:0:0:
256,192,269614,1,0,0:0:0:0:
256,192,269959,1,2,0:0:0:0:
256,192,270132,1,0,0:0:0:0:
256,192,270304,1,2,0:0:0:0:
256,192,270649,1,2,0:0:0:0:
256,192,271684,1,2,0:0:0:0:
256,192,271857,1,2,0:0:0:0:
256,192,272029,1,0,0:0:0:0:
256,192,272202,1,0,0:0:0:0:
256,192,272374,1,2,0:0:0:0:
256,192,272547,1,0,0:0:0:0:
256,192,272719,1,2,0:0:0:0:
256,192,273063,1,0,0:0:0:0:
256,192,273408,1,0,0:0:0:0:
256,192,273580,1,0,0:0:0:0:
256,192,273752,1,2,0:0:0:0:
256,192,274098,1,2,0:0:0:0:
256,192,274443,1,0,0:0:0:0:
256,192,274787,1,2,0:0:0:0:
