osu file format v14

[General]
AudioFilename: audio.mp3
AudioLeadIn: 0
PreviewTime: 78857
Countdown: 0
SampleSet: Normal
StackLeniency: 0.7
Mode: 1
LetterboxInBreaks: 0
WidescreenStoryboard: 0

[Editor]
DistanceSpacing: 0.8
BeatDivisor: 4
GridSize: 4
TimelineZoom: 2

[Metadata]
Title:Endoro~ru! (nenpulse bootleg remix)
TitleUnicode:えんどろ~る! (nenpulse bootleg remix)
Artist:Yuusha Party
ArtistUnicode:勇者パーティー
Creator:KTYN
Version:Never Ending Adventure
Source:えんどろ~!
Tags:Hardcore Jpop J-pop J-core Jcore Electronic Japanese Anime OP Opening Endoro~! ユーシャ Yuusha 赤尾ひかる Akao Hikaru セイラ Seira 夏川椎菜 Natsukawa Shiina ファイ Fai 小澤亜李 Ozawa Ari メイ Mei 水瀬いのり Minase Inori Rico 齋藤真也 Saito Shinya
BeatmapID:3562682
BeatmapSetID:1742760

[Difficulty]
HPDrainRate:4.7
CircleSize:5
OverallDifficulty:6.3
ApproachRate:5
SliderMultiplier:1.4
SliderTickRate:1

[Events]
//Background and Video events
0,0,"bgyou.png",0,67
//Break Periods
//Storyboard Layer 0 (Background)
//Storyboard Layer 1 (Fail)
//Storyboard Layer 2 (Pass)
//Storyboard Layer 3 (Foreground)
//Storyboard Layer 4 (Overlay)
//Storyboard Sound Samples

[TimingPoints]
1372,342.857142857143,4,1,0,90,1,0
1372,-111.111111111111,4,1,0,90,0,0
12257,-99.9999999999999,4,1,0,100,0,0
22200,-111.111111111111,4,1,0,90,0,0
22629,-111.111111111111,4,1,0,100,0,0
23314,-100,4,1,0,100,0,1
33000,-86.9565217391304,4,1,0,100,0,1
34286,-100,4,1,0,100,0,1
44143,-111.111111111111,4,1,0,90,0,1
44572,-111.111111111111,4,1,0,100,0,1
45257,-117.647058823529,4,1,0,90,0,0
50657,-105.263157894737,4,1,0,95,0,0
56143,-100,4,1,0,100,0,0
65914,-86.9565217391304,4,1,0,100,0,0
67114,-111.111111111111,4,1,0,90,0,0
71229,-86.9565217391304,4,1,0,100,0,0
72600,-100,4,1,0,100,0,0
76714,-86.9565217391304,4,1,0,100,0,0
78429,-111.111111111111,4,1,0,90,0,0
78857,-111.111111111111,4,1,0,100,0,0
79543,-100,4,1,0,100,0,1
89229,-86.9565217391304,4,1,0,100,0,1
90514,-100,4,1,0,100,0,1
96000,-86.9565217391304,4,1,0,100,0,1
98743,-100,4,1,0,100,0,1
100114,-86.9565217391304,4,1,0,100,0,1
101486,-100,4,1,0,100,0,0
101572,-111.111111111111,4,1,0,90,0,0
103543,-111.111111111111,4,1,0,100,0,0
104229,-100,4,1,0,100,0,1
113914,-86.9565217391304,4,1,0,100,0,1
115114,-100,4,1,0,100,0,1
120600,-86.9565217391304,4,1,0,100,0,1
123343,-100,4,1,0,100,0,1
124543,-86.9565217391304,4,1,0,100,0,1
126086,-111.111111111111,4,1,0,80,0,1
126172,-111.111111111111,4,1,0,70,0,0
137057,-100,4,1,0,100,0,0
145629,-86.9565217391304,4,1,0,100,0,0
148029,-111.111111111111,4,1,0,90,0,0
152144,-86.9565217391304,4,1,0,100,0,0
153515,-100,4,1,0,100,0,0
157629,-86.9565217391304,4,1,0,100,0,0
159343,-111.111111111111,4,1,0,90,0,0
159772,-111.111111111111,4,1,0,100,0,0
160457,-100,4,1,0,100,0,1
170144,-86.9565217391304,4,1,0,100,0,1
171429,-100,4,1,0,100,0,1
176914,-86.9565217391304,4,1,0,100,0,1
179657,-100,4,1,0,100,0,1
181029,-86.9565217391304,4,1,0,100,0,1
182400,-100,4,1,0,100,0,0
182486,-111.111111111111,4,1,0,90,0,0
184457,-111.111111111111,4,1,0,100,0,0
185057,-125,4,1,0,90,0,0
195429,-125,4,1,0,100,0,0
196029,-111.111111111111,4,1,0,100,0,0
205972,-111.111111111111,4,1,0,90,0,0
206400,-111.111111111111,4,1,0,100,0,0
207000,-100,4,1,0,100,0,0
222257,-100,4,1,0,50,0,0
223114,-86.9565217391304,4,1,0,90,0,0
223457,-125,4,1,0,70,0,0
233829,-125,4,1,0,80,0,0
234086,-125,4,1,0,100,0,0
234257,-125,4,1,0,100,0,0
234857,-100,4,1,0,100,0,1
239914,-86.9565217391304,4,1,0,100,0,1
242657,-100,4,1,0,100,0,1
245743,-111.111111111111,4,1,0,100,0,1
248143,-100,4,1,0,100,0,1
249514,-86.9565217391304,4,1,0,100,0,1
250972,-100,4,1,0,100,0,0
251057,-111.111111111111,4,1,0,90,0,0
253029,-111.111111111111,4,1,0,100,0,0
253714,-100,4,1,0,100,0,1
263400,-86.9565217391304,4,1,0,100,0,1
264686,-100,4,1,0,100,0,1
274543,-111.111111111111,4,1,0,90,0,1
274972,-111.111111111111,4,1,0,100,0,1
275657,-100,4,1,0,100,0,0
286886,-111.111111111111,4,1,0,90,0,0
297514,-111.111111111111,4,1,0,40,0,0
297686,-111.111111111111,4,1,0,20,0,0

[HitObjects]
186,96,1372,5,0,0:0:0:0:
166,154,1714,1,8,0:0:0:0:
166,154,2057,1,0,0:0:0:0:
129,111,2229,1,0,0:0:0:0:
129,111,2400,1,8,0:0:0:0:
184,166,2743,1,0,0:0:0:0:
176,92,3086,1,8,0:0:0:0:
151,19,3257,1,0,0:0:0:0:
176,92,3429,1,0,0:0:0:0:
176,92,3600,1,0,0:0:0:0:
176,92,3772,1,8,0:0:0:0:
159,95,4114,1,0,0:0:0:0:
142,103,4457,1,8,0:0:0:0:
142,103,4800,1,0,0:0:0:0:
149,122,4972,1,0,0:0:0:0:
149,122,5143,1,8,0:0:0:0:
149,126,5486,1,0,0:0:0:0:
170,103,5829,1,8,0:0:0:0:
170,103,6000,1,0,0:0:0:0:
167,141,6172,1,0,0:0:0:0:
137,112,6343,1,0,0:0:0:0:
137,112,6514,1,8,0:0:0:0:
170,103,6686,1,8,0:0:0:0:
186,96,6857,5,0,0:0:0:0:
166,154,7200,1,8,0:0:0:0:
166,154,7543,1,0,0:0:0:0:
129,111,7714,1,0,0:0:0:0:
129,111,7886,1,8,0:0:0:0:
184,166,8229,1,0,0:0:0:0:
176,92,8572,1,8,0:0:0:0:
151,19,8743,1,0,0:0:0:0:
176,92,8914,1,0,0:0:0:0:
176,92,9086,1,0,0:0:0:0:
176,92,9257,1,8,0:0:0:0:
159,95,9600,1,0,0:0:0:0:
142,103,9943,1,8,0:0:0:0:
142,103,10286,1,0,0:0:0:0:
149,122,10457,1,0,0:0:0:0:
149,122,10629,1,8,0:0:0:0:
149,126,10972,1,0,0:0:0:0:
170,103,11314,1,8,0:0:0:0:
170,103,11486,1,0,0:0:0:0:
175,181,11657,1,0,0:0:0:0:
137,112,11829,1,0,0:0:0:0:
161,50,11914,1,0,0:0:0:0:
137,112,12000,1,8,0:0:0:0:
170,103,12172,1,8,0:0:0:0:
220,142,12343,1,4,0:0:0:0:
166,154,12686,1,8,0:0:0:0:
220,142,12943,1,8,0:0:0:0:
166,154,13029,1,0,0:0:0:0:
129,111,13200,1,0,0:0:0:0:
129,111,13372,1,8,0:0:0:0:
186,145,13543,1,8,0:0:0:0:
184,166,13714,1,0,0:0:0:0:
186,77,13800,1,8,0:0:0:0:
124,66,13886,1,0,0:0:0:0:
124,66,14057,1,8,0:0:0:0:
166,107,14314,1,8,0:0:0:0:
171,71,14400,1,0,0:0:0:0:
176,92,14572,1,0,0:0:0:0:
124,66,14657,1,0,0:0:0:0:
176,92,14743,1,8,0:0:0:0:
134,107,14914,1,8,0:0:0:0:
159,95,15086,1,0,0:0:0:0:
142,103,15429,1,8,0:0:0:0:
220,142,15686,1,8,0:0:0:0:
142,103,15772,1,0,0:0:0:0:
149,122,15943,1,0,0:0:0:0:
149,122,16114,1,8,0:0:0:0:
176,97,16286,1,8,0:0:0:0:
148,136,16457,1,0,0:0:0:0:
301,318,16543,1,8,0:0:0:0:
134,107,16629,1,0,0:0:0:0:
134,107,16800,1,8,0:0:0:0:
146,148,16972,1,8,0:0:0:0:
118,70,17057,1,8,0:0:0:0:
141,110,17143,1,0,0:0:0:0:
171,58,17314,1,0,0:0:0:0:
155,158,17400,1,0,0:0:0:0:
161,61,17486,1,8,0:0:0:0:
170,103,17657,1,8,0:0:0:0:
172,162,17829,1,0,0:0:0:0:
166,154,18172,1,8,0:0:0:0:
220,142,18429,1,8,0:0:0:0:
166,154,18514,1,0,0:0:0:0:
129,111,18686,1,0,0:0:0:0:
89,52,18772,1,0,0:0:0:0:
129,111,18857,1,8,0:0:0:0:
166,180,19029,1,8,0:0:0:0:
184,166,19200,1,0,0:0:0:0:
122,107,19286,1,8,0:0:0:0:
122,107,19372,1,0,0:0:0:0:
122,107,19543,1,8,0:0:0:0:
166,107,19800,1,8,0:0:0:0:
171,71,19886,1,0,0:0:0:0:
176,92,20057,1,0,0:0:0:0:
135,53,20143,1,0,0:0:0:0:
176,92,20229,1,8,0:0:0:0:
159,95,20400,1,8,0:0:0:0:
159,95,20572,1,0,0:0:0:0:
131,183,20914,1,8,0:0:0:0:
137,117,21086,1,8,0:0:0:0:
162,91,21172,1,8,0:0:0:0:
142,103,21257,1,0,0:0:0:0:
162,50,21429,1,0,0:0:0:0:
143,110,21514,1,0,0:0:0:0:
149,122,21600,1,8,0:0:0:0:
176,97,21772,1,8,0:0:0:0:
162,92,21943,1,4,0:0:0:0:
162,92,22286,1,0,0:0:0:0:
162,92,22372,1,0,0:0:0:0:
162,94,22457,1,8,0:0:0:0:
164,99,22543,1,0,0:0:0:0:
165,103,22629,1,8,0:0:0:0:
165,103,22714,1,8,0:0:0:0:
214,87,22800,1,0,0:0:0:0:
214,87,22857,1,0,0:0:0:0:
214,96,22914,1,0,0:0:0:0:
214,101,22972,1,8,0:0:0:0:
182,110,23314,1,4,0:0:0:0:
116,175,23657,1,8,0:0:0:0:
110,160,23829,1,0,0:0:0:0:
110,160,24000,1,8,0:0:0:0:
141,110,24172,1,8,0:0:0:0:
214,146,24257,1,8,0:0:0:0:
214,146,24343,1,0,0:0:0:0:
110,160,24514,1,0,0:0:0:0:
110,160,24686,1,8,0:0:0:0:
116,175,25029,1,8,0:0:0:0:
172,149,25200,1,0,0:0:0:0:
172,149,25372,1,8,0:0:0:0:
149,173,25543,1,8,0:0:0:0:
172,149,25629,1,0,0:0:0:0:
116,175,25714,1,8,0:0:0:0:
141,110,25886,1,8,0:0:0:0:
172,149,26057,1,0,0:0:0:0:
116,175,26400,1,8,0:0:0:0:
172,149,26572,1,0,0:0:0:0:
172,149,26743,1,8,0:0:0:0:
140,159,26829,1,8,0:0:0:0:
172,149,26914,1,0,0:0:0:0:
140,159,27000,1,0,0:0:0:0:
116,175,27086,1,8,0:0:0:0:
172,149,27257,1,8,0:0:0:0:
172,149,27429,1,0,0:0:0:0:
231,163,27600,1,8,0:0:0:0:
141,131,27772,1,0,0:0:0:0:
172,149,27857,1,0,0:0:0:0:
172,149,27943,1,8,0:0:0:0:
172,149,28029,1,8,0:0:0:0:
172,149,28114,1,0,0:0:0:0:
113,237,28286,1,8,0:0:0:0:
113,237,28457,1,0,0:0:0:0:
172,149,28629,1,0,0:0:0:0:
165,177,28714,1,8,0:0:0:0:
183,131,28800,1,8,0:0:0:0:
116,175,29143,1,8,0:0:0:0:
110,160,29314,1,0,0:0:0:0:
110,160,29486,1,8,0:0:0:0:
141,110,29657,1,8,0:0:0:0:
214,146,29743,1,8,0:0:0:0:
214,146,29829,1,0,0:0:0:0:
110,160,30000,1,0,0:0:0:0:
110,160,30172,1,8,0:0:0:0:
178,102,30514,1,8,0:0:0:0:
172,149,30686,1,0,0:0:0:0:
172,149,30857,1,8,0:0:0:0:
157,197,31029,1,8,0:0:0:0:
172,149,31114,1,0,0:0:0:0:
116,175,31200,1,8,0:0:0:0:
141,110,31372,1,8,0:0:0:0:
172,149,31543,1,0,0:0:0:0:
116,175,31886,1,8,0:0:0:0:
172,149,32057,1,0,0:0:0:0:
172,149,32229,1,8,0:0:0:0:
140,159,32314,1,8,0:0:0:0:
172,149,32400,1,0,0:0:0:0:
140,159,32486,1,0,0:0:0:0:
116,175,32572,1,8,0:0:0:0:
172,149,32743,1,8,0:0:0:0:
213,138,33086,1,4,0:0:0:0:
213,138,33429,1,4,0:0:0:0:
146,114,33772,1,4,0:0:0:0:
178,166,33943,1,12,0:0:0:0:
116,175,34286,1,4,0:0:0:0:
116,175,34629,1,8,0:0:0:0:
110,160,34800,1,0,0:0:0:0:
110,160,34972,1,8,0:0:0:0:
141,110,35143,1,8,0:0:0:0:
214,146,35229,1,8,0:0:0:0:
214,146,35314,1,0,0:0:0:0:
110,160,35486,1,0,0:0:0:0:
110,160,35657,1,8,0:0:0:0:
140,159,35829,1,0,0:0:0:0:
140,159,35914,1,0,0:0:0:0:
116,175,36000,1,8,0:0:0:0:
172,149,36172,1,0,0:0:0:0:
135,100,36343,1,8,0:0:0:0:
195,102,36514,1,8,0:0:0:0:
172,149,36600,1,0,0:0:0:0:
152,117,36686,1,8,0:0:0:0:
138,103,36857,1,8,0:0:0:0:
172,149,37029,1,0,0:0:0:0:
203,112,37200,1,0,0:0:0:0:
140,159,37286,1,0,0:0:0:0:
116,175,37372,1,8,0:0:0:0:
172,149,37543,1,0,0:0:0:0:
172,149,37714,1,8,0:0:0:0:
140,159,37800,1,8,0:0:0:0:
172,149,37886,1,0,0:0:0:0:
140,159,37972,1,0,0:0:0:0:
116,175,38057,1,8,0:0:0:0:
172,149,38229,1,8,0:0:0:0:
172,149,38400,1,0,0:0:0:0:
141,131,38572,1,8,0:0:0:0:
141,131,38743,1,0,0:0:0:0:
172,149,38829,1,0,0:0:0:0:
172,149,38914,1,8,0:0:0:0:
172,149,39000,1,8,0:0:0:0:
172,149,39086,1,0,0:0:0:0:
172,149,39257,1,8,0:0:0:0:
116,175,39429,1,0,0:0:0:0:
172,149,39600,1,0,0:0:0:0:
165,177,39686,1,8,0:0:0:0:
117,137,39772,1,8,0:0:0:0:
116,175,40114,1,8,0:0:0:0:
110,160,40286,1,0,0:0:0:0:
110,160,40457,1,8,0:0:0:0:
135,100,40543,1,0,0:0:0:0:
141,110,40629,1,8,0:0:0:0:
214,146,40714,1,8,0:0:0:0:
214,146,40800,1,0,0:0:0:0:
110,160,40972,1,0,0:0:0:0:
152,138,41143,1,8,0:0:0:0:
181,111,41314,1,0,0:0:0:0:
117,137,41400,1,0,0:0:0:0:
116,175,41486,1,8,0:0:0:0:
172,149,41657,1,0,0:0:0:0:
172,149,41829,1,8,0:0:0:0:
135,100,41914,1,0,0:0:0:0:
140,159,42000,1,8,0:0:0:0:
172,149,42086,1,0,0:0:0:0:
116,175,42172,1,8,0:0:0:0:
141,110,42343,1,8,0:0:0:0:
152,138,42514,1,0,0:0:0:0:
180,127,42686,1,0,0:0:0:0:
180,127,42772,1,0,0:0:0:0:
116,175,42857,1,8,0:0:0:0:
172,149,43029,1,0,0:0:0:0:
166,93,43200,1,8,0:0:0:0:
175,104,43286,1,8,0:0:0:0:
172,149,43372,1,0,0:0:0:0:
140,159,43457,1,0,0:0:0:0:
116,175,43543,1,8,0:0:0:0:
135,100,43629,1,0,0:0:0:0:
135,100,43714,1,8,0:0:0:0:
177,46,43886,1,4,0:0:0:0:
201,138,44229,1,0,0:0:0:0:
200,138,44314,1,0,0:0:0:0:
200,138,44400,1,8,0:0:0:0:
200,143,44486,1,0,0:0:0:0:
200,148,44572,1,8,0:0:0:0:
200,154,44657,1,8,0:0:0:0:
201,122,44743,1,0,0:0:0:0:
201,122,44800,1,0,0:0:0:0:
201,131,44857,1,0,0:0:0:0:
201,138,44914,1,8,0:0:0:0:
187,96,45257,1,4,0:0:0:0:
156,129,45600,1,0,0:0:0:0:
168,144,45943,1,0,0:0:0:0:
116,178,46114,1,8,0:0:0:0:
144,87,46286,1,0,0:0:0:0:
168,144,46457,1,8,0:0:0:0:
168,144,46629,1,0,0:0:0:0:
168,144,46972,1,0,0:0:0:0:
168,144,47143,1,8,0:0:0:0:
168,144,47314,1,0,0:0:0:0:
168,144,47657,1,0,0:0:0:0:
144,87,47829,1,8,0:0:0:0:
144,87,48000,1,0,0:0:0:0:
164,127,48343,1,0,0:0:0:0:
153,108,48686,1,0,0:0:0:0:
144,87,48857,1,8,0:0:0:0:
144,87,49029,1,0,0:0:0:0:
153,108,49200,1,8,0:0:0:0:
153,108,49372,1,0,0:0:0:0:
153,108,49714,1,0,0:0:0:0:
151,101,49886,1,8,0:0:0:0:
151,101,50057,1,0,0:0:0:0:
153,108,50229,1,8,0:0:0:0:
151,156,50314,1,8,0:0:0:0:
151,101,50400,1,0,0:0:0:0:
151,101,50572,1,8,0:0:0:0:
151,101,50743,1,0,0:0:0:0:
151,101,51086,1,8,0:0:0:0:
167,67,51257,1,0,0:0:0:0:
167,67,51600,1,0,0:0:0:0:
151,101,51772,1,8,0:0:0:0:
167,67,51943,1,8,0:0:0:0:
167,67,52114,1,0,0:0:0:0:
150,174,52286,1,0,0:0:0:0:
151,101,52457,1,8,0:0:0:0:
149,167,52629,1,0,0:0:0:0:
167,67,52972,1,0,0:0:0:0:
151,101,53143,1,8,0:0:0:0:
167,67,53314,1,8,0:0:0:0:
164,82,53400,1,8,0:0:0:0:
167,62,53486,1,0,0:0:0:0:
151,101,53829,1,8,0:0:0:0:
36,225,54000,1,0,0:0:0:0:
167,62,54172,1,0,0:0:0:0:
177,66,54343,1,0,0:0:0:0:
167,106,54429,1,0,0:0:0:0:
167,106,54514,1,8,0:0:0:0:
167,62,54686,1,8,0:0:0:0:
151,101,54857,1,4,0:0:0:0:
151,101,55200,1,8,0:0:0:0:
151,101,55543,1,8,0:0:0:0:
167,62,55714,1,0,0:0:0:0:
222,81,55772,1,0,0:0:0:0:
222,81,55829,1,0,0:0:0:0:
167,62,55886,1,8,0:0:0:0:
215,174,56229,1,4,0:0:0:0:
215,174,56486,1,0,0:0:0:0:
128,131,56572,1,8,0:0:0:0:
128,131,56743,1,0,0:0:0:0:
161,68,56829,1,0,0:0:0:0:
128,131,56914,1,8,0:0:0:0:
148,113,57086,1,0,0:0:0:0:
215,174,57257,1,8,0:0:0:0:
97,180,57429,1,8,0:0:0:0:
97,180,57514,1,8,0:0:0:0:
215,174,57600,1,0,0:0:0:0:
97,180,57772,1,8,0:0:0:0:
97,180,57943,1,0,0:0:0:0:
193,120,58114,1,8,0:0:0:0:
155,104,58200,1,8,0:0:0:0:
166,48,58286,1,0,0:0:0:0:
155,104,58372,1,0,0:0:0:0:
88,356,58457,1,8,0:0:0:0:
215,174,58629,1,8,0:0:0:0:
215,174,58972,1,0,0:0:0:0:
246,186,59229,1,0,0:0:0:0:
246,186,59314,1,8,0:0:0:0:
97,180,59486,1,8,0:0:0:0:
140,115,59572,1,8,0:0:0:0:
246,186,59657,1,0,0:0:0:0:
171,202,59829,1,8,0:0:0:0:
171,202,60000,1,0,0:0:0:0:
116,127,60086,1,0,0:0:0:0:
173,32,60172,1,8,0:0:0:0:
173,36,60343,1,0,0:0:0:0:
134,96,60514,1,0,0:0:0:0:
186,204,60600,1,8,0:0:0:0:
186,204,60686,1,0,0:0:0:0:
127,162,60857,1,0,0:0:0:0:
127,162,61029,1,8,0:0:0:0:
208,69,61114,1,8,0:0:0:0:
208,69,61200,1,0,0:0:0:0:
208,69,61286,1,8,0:0:0:0:
208,69,61372,1,0,0:0:0:0:
189,42,61543,1,8,0:0:0:0:
191,11,61714,5,0,0:0:0:0:
201,57,61886,1,0,0:0:0:0:
201,57,62057,1,8,0:0:0:0:
130,178,62229,1,0,0:0:0:0:
172,131,62314,1,8,0:0:0:0:
162,72,62400,1,0,0:0:0:0:
128,133,62572,1,8,0:0:0:0:
186,204,62743,1,0,0:0:0:0:
162,102,62829,1,0,0:0:0:0:
145,80,62914,1,8,0:0:0:0:
146,115,63086,1,0,0:0:0:0:
199,65,63257,1,0,0:0:0:0:
201,65,63429,1,8,0:0:0:0:
172,131,63600,1,8,0:0:0:0:
130,178,63686,1,0,0:0:0:0:
197,65,63772,1,0,0:0:0:0:
154,143,63943,1,0,0:0:0:0:
152,103,64029,1,0,0:0:0:0:
161,87,64114,1,8,0:0:0:0:
172,131,64200,1,0,0:0:0:0:
164,119,64286,1,8,0:0:0:0:
172,131,64372,1,8,0:0:0:0:
218,91,64457,1,0,0:0:0:0:
174,43,64714,1,0,0:0:0:0:
172,140,64800,1,8,0:0:0:0:
97,180,64972,1,8,0:0:0:0:
212,91,65143,1,0,0:0:0:0:
146,99,65314,1,0,0:0:0:0:
97,180,65400,1,0,0:0:0:0:
166,87,65486,1,8,0:0:0:0:
176,36,65657,1,0,0:0:0:0:
153,58,66000,1,12,0:0:0:0:
153,58,66172,1,12,0:0:0:0:
189,104,66514,1,12,0:0:0:0:
189,104,66686,1,0,0:0:0:0:
189,104,66772,1,0,0:0:0:0:
189,104,66857,1,8,0:0:0:0:
189,104,67200,1,4,0:0:0:0:
152,127,67886,1,8,0:0:0:0:
152,127,68572,1,0,0:0:0:0:
152,127,69257,1,8,0:0:0:0:
152,127,69943,1,0,0:0:0:0:
152,127,70629,1,8,0:0:0:0:
152,127,71314,1,4,0:0:0:0:
157,133,71657,1,8,0:0:0:0:
152,127,71829,1,4,0:0:0:0:
152,127,72172,1,0,0:0:0:0:
152,127,72257,1,0,0:0:0:0:
152,127,72343,1,8,0:0:0:0:
194,90,72686,1,4,0:0:0:0:
157,133,73029,1,8,0:0:0:0:
61,182,73200,1,0,0:0:0:0:
96,162,73286,1,0,0:0:0:0:
157,133,73372,1,0,0:0:0:0:
157,133,73543,1,0,0:0:0:0:
157,133,73714,1,8,0:0:0:0:
155,102,73886,1,0,0:0:0:0:
142,100,74057,1,8,0:0:0:0:
155,102,74143,1,0,0:0:0:0:
142,100,74229,1,0,0:0:0:0:
157,133,74400,1,8,0:0:0:0:
156,143,74572,1,8,0:0:0:0:
160,126,74743,1,0,0:0:0:0:
157,133,74914,1,0,0:0:0:0:
157,133,75086,1,8,0:0:0:0:
149,171,75257,1,0,0:0:0:0:
149,171,75343,1,0,0:0:0:0:
149,171,75429,1,8,0:0:0:0:
149,171,75514,1,0,0:0:0:0:
175,66,75686,1,0,0:0:0:0:
175,66,75772,1,8,0:0:0:0:
155,98,75943,1,8,0:0:0:0:
155,98,76029,1,8,0:0:0:0:
155,98,76114,1,0,0:0:0:0:
180,117,76286,1,0,0:0:0:0:
180,117,76457,1,8,0:0:0:0:
180,117,76629,1,8,0:0:0:0:
180,117,76800,1,4,0:0:0:0:
180,117,77143,1,8,0:0:0:0:
180,117,77314,1,4,0:0:0:0:
180,117,77657,1,12,0:0:0:0:
180,117,78000,1,4,0:0:0:0:
180,117,78514,1,0,0:0:0:0:
180,117,78600,1,0,0:0:0:0:
180,117,78686,1,8,0:0:0:0:
180,117,78772,1,0,0:0:0:0:
180,117,78857,1,8,0:0:0:0:
206,76,78943,1,8,0:0:0:0:
169,106,79029,1,0,0:0:0:0:
169,106,79086,1,0,0:0:0:0:
166,113,79143,1,0,0:0:0:0:
166,113,79200,1,8,0:0:0:0:
142,160,79543,1,4,0:0:0:0:
85,188,79714,1,8,0:0:0:0:
114,163,79886,1,0,0:0:0:0:
142,160,79971,1,8,0:0:0:0:
121,163,80058,1,8,0:0:0:0:
192,148,80229,1,0,0:0:0:0:
192,148,80400,1,0,0:0:0:0:
192,148,80486,1,0,0:0:0:0:
192,148,80572,1,8,0:0:0:0:
152,103,80743,1,8,0:0:0:0:
151,82,80914,1,0,0:0:0:0:
156,117,81086,1,8,0:0:0:0:
171,64,81172,1,8,0:0:0:0:
192,148,81258,1,0,0:0:0:0:
89,249,81343,1,8,0:0:0:0:
148,92,81429,1,0,0:0:0:0:
160,151,81600,1,8,0:0:0:0:
176,105,81772,1,0,0:0:0:0:
114,125,81857,1,0,0:0:0:0:
189,96,81943,1,8,0:0:0:0:
160,103,82029,1,0,0:0:0:0:
114,125,82114,1,8,0:0:0:0:
160,151,82286,1,0,0:0:0:0:
85,188,82457,1,8,0:0:0:0:
166,49,82629,1,0,0:0:0:0:
182,135,82714,1,8,0:0:0:0:
177,117,82800,1,8,0:0:0:0:
114,125,82972,1,0,0:0:0:0:
121,73,83143,1,8,0:0:0:0:
138,106,83314,1,0,0:0:0:0:
200,21,83400,1,0,0:0:0:0:
159,97,83486,1,8,0:0:0:0:
206,20,83572,1,8,0:0:0:0:
159,87,83657,1,0,0:0:0:0:
155,114,83829,1,8,0:0:0:0:
145,195,84000,5,0,0:0:0:0:
106,67,84086,1,8,0:0:0:0:
106,67,84172,5,0,0:0:0:0:
113,162,84257,1,0,0:0:0:0:
172,54,84343,1,8,0:0:0:0:
183,43,84514,1,0,0:0:0:0:
161,57,84600,1,0,0:0:0:0:
130,94,84686,1,8,0:0:0:0:
171,94,84857,1,8,0:0:0:0:
174,61,85029,5,0,0:0:0:0:
85,188,85200,1,8,0:0:0:0:
153,83,85372,1,0,0:0:0:0:
113,146,85457,1,8,0:0:0:0:
193,111,85543,1,8,0:0:0:0:
193,111,85714,1,0,0:0:0:0:
202,82,85886,1,12,0:0:0:0:
202,82,86057,1,12,0:0:0:0:
154,177,86229,1,0,0:0:0:0:
181,201,86314,1,8,0:0:0:0:
132,121,86400,1,0,0:0:0:0:
206,149,86572,1,0,0:0:0:0:
206,149,86743,1,8,0:0:0:0:
169,53,86829,1,0,0:0:0:0:
206,149,86914,1,8,0:0:0:0:
148,62,87000,1,8,0:0:0:0:
148,63,87086,1,0,0:0:0:0:
206,149,87257,1,12,0:0:0:0:
206,149,87429,1,12,0:0:0:0:
146,57,87600,1,0,0:0:0:0:
181,201,87686,1,8,0:0:0:0:
146,93,87772,1,0,0:0:0:0:
85,188,87943,1,8,0:0:0:0:
158,83,88114,1,0,0:0:0:0:
176,46,88200,1,8,0:0:0:0:
206,149,88286,1,8,0:0:0:0:
206,149,88457,1,0,0:0:0:0:
164,181,88629,1,8,0:0:0:0:
206,149,88714,1,0,0:0:0:0:
206,149,88800,1,8,0:0:0:0:
206,149,88972,1,0,0:0:0:0:
206,149,89314,1,4,0:0:0:0:
206,149,89486,1,12,0:0:0:0:
206,149,89829,1,12,0:0:0:0:
183,66,90000,1,0,0:0:0:0:
182,77,90057,1,0,0:0:0:0:
182,82,90114,1,0,0:0:0:0:
182,87,90172,1,8,0:0:0:0:
142,160,90515,1,4,0:0:0:0:
142,160,90686,1,8,0:0:0:0:
200,161,90772,1,8,0:0:0:0:
114,163,90858,1,0,0:0:0:0:
142,160,90943,1,8,0:0:0:0:
121,163,91030,1,8,0:0:0:0:
192,148,91201,1,0,0:0:0:0:
192,148,91372,1,0,0:0:0:0:
192,148,91458,1,0,0:0:0:0:
192,148,91544,1,8,0:0:0:0:
152,103,91715,1,8,0:0:0:0:
151,82,91886,1,0,0:0:0:0:
156,117,92058,1,8,0:0:0:0:
171,64,92144,1,8,0:0:0:0:
192,148,92230,1,0,0:0:0:0:
148,92,92315,1,8,0:0:0:0:
148,92,92401,1,0,0:0:0:0:
160,151,92572,1,8,0:0:0:0:
176,105,92744,1,0,0:0:0:0:
114,125,92829,1,0,0:0:0:0:
189,96,92915,1,8,0:0:0:0:
160,103,93001,1,0,0:0:0:0:
114,125,93086,1,8,0:0:0:0:
163,135,93172,1,8,0:0:0:0:
160,151,93258,1,0,0:0:0:0:
166,49,93429,1,8,0:0:0:0:
200,161,93514,1,8,0:0:0:0:
166,49,93601,1,0,0:0:0:0:
182,135,93686,1,8,0:0:0:0:
177,117,93772,1,8,0:0:0:0:
114,125,93944,1,0,0:0:0:0:
121,73,94115,1,8,0:0:0:0:
138,106,94286,1,0,0:0:0:0:
217,141,94372,1,0,0:0:0:0:
159,97,94458,1,8,0:0:0:0:
171,133,94543,1,8,0:0:0:0:
159,87,94629,1,0,0:0:0:0:
155,114,94801,1,8,0:0:0:0:
125,224,94886,1,8,0:0:0:0:
145,195,94972,5,0,0:0:0:0:
106,67,95058,1,8,0:0:0:0:
106,67,95144,5,0,0:0:0:0:
113,162,95229,1,0,0:0:0:0:
172,54,95315,1,8,0:0:0:0:
183,43,95486,1,0,0:0:0:0:
161,57,95572,1,0,0:0:0:0:
130,94,95658,1,8,0:0:0:0:
171,94,95829,1,8,0:0:0:0:
133,148,96000,5,4,0:0:0:0:
127,148,96343,5,8,0:0:0:0:
133,148,96514,1,4,0:0:0:0:
125,148,96857,1,0,0:0:0:0:
127,148,97029,1,8,0:0:0:0:
133,148,97372,1,4,0:0:0:0:
125,148,97714,1,8,0:0:0:0:
133,148,97886,1,4,0:0:0:0:
122,148,98229,1,8,0:0:0:0:
122,148,98314,1,0,0:0:0:0:
122,148,98400,1,8,0:0:0:0:
125,148,98743,1,0,0:0:0:0:
122,148,98914,1,8,0:0:0:0:
122,148,99086,1,0,0:0:0:0:
112,148,99172,1,0,0:0:0:0:
111,148,99257,1,8,0:0:0:0:
125,148,99429,1,0,0:0:0:0:
158,129,99600,1,8,0:0:0:0:
158,129,99686,1,8,0:0:0:0:
158,129,99772,1,0,0:0:0:0:
151,129,99943,1,0,0:0:0:0:
147,129,100114,1,12,0:0:0:0:
157,100,100457,1,12,0:0:0:0:
183,66,100972,5,0,0:0:0:0:
132,161,101057,1,0,0:0:0:0:
182,87,101143,1,8,0:0:0:0:
169,111,101486,1,4,0:0:0:0:
132,161,102000,1,0,0:0:0:0:
132,161,102172,1,8,0:0:0:0:
132,161,102514,1,0,0:0:0:0:
132,161,102686,1,0,0:0:0:0:
116,175,103029,1,0,0:0:0:0:
132,161,103200,5,0,0:0:0:0:
124,161,103286,1,0,0:0:0:0:
120,167,103372,1,8,0:0:0:0:
117,171,103457,1,0,0:0:0:0:
116,175,103543,1,8,0:0:0:0:
115,175,103629,1,8,0:0:0:0:
143,146,103714,1,0,0:0:0:0:
143,146,103800,1,0,0:0:0:0:
143,146,103886,1,8,0:0:0:0:
227,160,104229,5,4,0:0:0:0:
156,66,104400,1,8,0:0:0:0:
167,61,104572,1,0,0:0:0:0:
136,106,104629,1,0,0:0:0:0:
136,106,104686,1,0,0:0:0:0:
136,106,104743,1,8,0:0:0:0:
217,92,104914,1,0,0:0:0:0:
185,126,105086,1,8,0:0:0:0:
185,126,105172,1,8,0:0:0:0:
185,126,105257,1,0,0:0:0:0:
185,126,105429,1,8,0:0:0:0:
185,126,105600,1,0,0:0:0:0:
168,141,105686,1,0,0:0:0:0:
168,141,105772,1,8,0:0:0:0:
168,141,105943,1,0,0:0:0:0:
84,142,106114,1,8,0:0:0:0:
160,31,106172,1,8,0:0:0:0:
152,32,106229,1,8,0:0:0:0:
157,118,106286,1,0,0:0:0:0:
163,93,106457,1,8,0:0:0:0:
264,160,106543,1,0,0:0:0:0:
163,93,106629,1,8,0:0:0:0:
84,142,106800,1,8,0:0:0:0:
140,128,106972,1,0,0:0:0:0:
179,62,107143,1,8,0:0:0:0:
143,146,107314,1,0,0:0:0:0:
136,106,107372,1,0,0:0:0:0:
136,106,107429,1,0,0:0:0:0:
136,106,107486,1,8,0:0:0:0:
217,92,107657,1,0,0:0:0:0:
184,126,107829,1,8,0:0:0:0:
184,126,107914,1,8,0:0:0:0:
184,126,108000,1,0,0:0:0:0:
161,98,108172,1,8,0:0:0:0:
184,126,108343,1,0,0:0:0:0:
168,141,108429,1,0,0:0:0:0:
171,38,108514,1,8,0:0:0:0:
168,141,108686,1,0,0:0:0:0:
168,141,108857,1,8,0:0:0:0:
224,106,108914,1,0,0:0:0:0:
224,106,108972,1,0,0:0:0:0:
224,121,109029,1,8,0:0:0:0:
186,56,109200,1,0,0:0:0:0:
184,126,109286,1,0,0:0:0:0:
216,132,109372,1,8,0:0:0:0:
84,142,109543,1,8,0:0:0:0:
157,118,109714,1,0,0:0:0:0:
143,146,109886,1,8,0:0:0:0:
240,96,109972,1,8,0:0:0:0:
143,146,110057,1,0,0:0:0:0:
136,106,110114,1,0,0:0:0:0:
136,106,110172,1,0,0:0:0:0:
136,106,110229,1,8,0:0:0:0:
124,65,110400,1,0,0:0:0:0:
148,114,110572,1,12,0:0:0:0:
86,140,110743,1,12,0:0:0:0:
161,114,110914,1,0,0:0:0:0:
177,43,111086,1,0,0:0:0:0:
186,52,111172,1,0,0:0:0:0:
152,63,111257,1,8,0:0:0:0:
162,27,111429,1,0,0:0:0:0:
240,128,111514,1,0,0:0:0:0:
146,85,111600,1,8,0:0:0:0:
114,60,111657,1,8,0:0:0:0:
114,60,111714,1,8,0:0:0:0:
114,67,111772,1,0,0:0:0:0:
182,73,111943,1,12,0:0:0:0:
85,142,112114,1,12,0:0:0:0:
169,78,112286,1,0,0:0:0:0:
140,128,112457,1,0,0:0:0:0:
143,146,112629,1,8,0:0:0:0:
220,104,112714,1,8,0:0:0:0:
143,146,112800,1,0,0:0:0:0:
136,106,112857,1,0,0:0:0:0:
136,106,112914,1,0,0:0:0:0:
136,106,112972,1,8,0:0:0:0:
217,92,113143,1,0,0:0:0:0:
240,128,113229,1,0,0:0:0:0:
92,128,113314,1,8,0:0:0:0:
167,77,113400,1,8,0:0:0:0:
209,141,113486,1,0,0:0:0:0:
169,102,113572,1,0,0:0:0:0:
86,140,113657,1,8,0:0:0:0:
169,78,114000,1,4,0:0:0:0:
169,78,114343,1,4,0:0:0:0:
169,78,114686,1,4,0:0:0:0:
169,78,114857,1,12,0:0:0:0:
142,148,115200,1,0,0:0:0:0:
143,146,115372,1,8,0:0:0:0:
124,65,115457,1,8,0:0:0:0:
143,146,115543,1,0,0:0:0:0:
136,106,115600,1,0,0:0:0:0:
136,106,115657,1,0,0:0:0:0:
136,106,115714,1,8,0:0:0:0:
217,92,115886,1,0,0:0:0:0:
123,166,116057,1,0,0:0:0:0:
123,166,116143,1,0,0:0:0:0:
123,171,116229,1,8,0:0:0:0:
161,242,116400,1,0,0:0:0:0:
161,242,116572,1,8,0:0:0:0:
148,86,116743,1,8,0:0:0:0:
99,194,116829,1,8,0:0:0:0:
168,141,116914,1,0,0:0:0:0:
84,142,117086,1,8,0:0:0:0:
160,31,117143,1,8,0:0:0:0:
152,32,117200,1,8,0:0:0:0:
157,118,117257,1,0,0:0:0:0:
264,160,117343,1,0,0:0:0:0:
168,141,117429,1,8,0:0:0:0:
264,160,117514,1,0,0:0:0:0:
85,142,117600,1,8,0:0:0:0:
84,142,117772,1,8,0:0:0:0:
140,128,117943,1,0,0:0:0:0:
143,146,118114,1,8,0:0:0:0:
169,102,118200,1,8,0:0:0:0:
143,146,118286,1,0,0:0:0:0:
136,106,118343,1,0,0:0:0:0:
136,106,118400,1,0,0:0:0:0:
136,106,118457,1,8,0:0:0:0:
217,92,118629,1,0,0:0:0:0:
119,158,118800,1,0,0:0:0:0:
119,158,118886,1,0,0:0:0:0:
119,158,118972,1,8,0:0:0:0:
161,242,119143,1,0,0:0:0:0:
161,242,119314,1,8,0:0:0:0:
191,125,119486,1,8,0:0:0:0:
168,82,119572,1,8,0:0:0:0:
168,141,119657,5,0,0:0:0:0:
185,82,119829,1,8,0:0:0:0:
224,106,119886,1,0,0:0:0:0:
224,106,119943,1,0,0:0:0:0:
224,121,120000,1,8,0:0:0:0:
264,160,120086,1,8,0:0:0:0:
186,56,120172,1,0,0:0:0:0:
132,133,120257,1,0,0:0:0:0:
216,132,120343,1,8,0:0:0:0:
84,142,120514,1,8,0:0:0:0:
133,148,120686,5,4,0:0:0:0:
127,148,121029,1,8,0:0:0:0:
133,148,121200,1,4,0:0:0:0:
125,148,121543,1,0,0:0:0:0:
127,148,121714,1,8,0:0:0:0:
133,148,122057,1,4,0:0:0:0:
125,148,122400,1,8,0:0:0:0:
133,148,122572,1,4,0:0:0:0:
176,178,122914,1,0,0:0:0:0:
122,148,123000,1,0,0:0:0:0:
122,148,123086,1,8,0:0:0:0:
125,148,123429,1,0,0:0:0:0:
122,148,123600,1,8,0:0:0:0:
122,148,123772,1,0,0:0:0:0:
112,148,123857,1,0,0:0:0:0:
111,148,123943,1,8,0:0:0:0:
125,148,124114,1,0,0:0:0:0:
158,129,124286,1,8,0:0:0:0:
158,129,124372,1,8,0:0:0:0:
158,129,124457,1,0,0:0:0:0:
186,148,124629,1,12,0:0:0:0:
186,148,124972,1,12,0:0:0:0:
186,148,125143,5,12,0:0:0:0:
186,148,125657,1,0,0:0:0:0:
186,148,125743,1,0,0:0:0:0:
186,148,125829,1,8,0:0:0:0:
132,189,126172,5,0,0:0:0:0:
156,129,126514,1,8,0:0:0:0:
168,144,126857,1,0,0:0:0:0:
170,84,127029,1,0,0:0:0:0:
144,87,127200,1,8,0:0:0:0:
161,92,127372,1,8,0:0:0:0:
168,144,127543,1,0,0:0:0:0:
168,144,127886,1,8,0:0:0:0:
168,144,128057,1,8,0:0:0:0:
168,144,128229,1,0,0:0:0:0:
168,144,128572,1,8,0:0:0:0:
161,92,128743,1,8,0:0:0:0:
144,87,128914,1,0,0:0:0:0:
164,127,129257,1,8,0:0:0:0:
153,108,129600,1,0,0:0:0:0:
144,87,129772,1,0,0:0:0:0:
144,87,129943,1,8,0:0:0:0:
153,108,130114,1,8,0:0:0:0:
153,108,130286,1,0,0:0:0:0:
153,108,130629,1,8,0:0:0:0:
151,101,130972,1,0,0:0:0:0:
136,277,131143,1,0,0:0:0:0:
136,277,131229,1,0,0:0:0:0:
187,143,131314,1,8,0:0:0:0:
151,101,131486,1,8,0:0:0:0:
151,101,131657,1,0,0:0:0:0:
151,101,132000,1,8,0:0:0:0:
161,92,132172,1,0,0:0:0:0:
167,67,132514,1,0,0:0:0:0:
151,101,132686,1,8,0:0:0:0:
171,101,132857,1,8,0:0:0:0:
167,67,133029,1,0,0:0:0:0:
111,193,133200,1,0,0:0:0:0:
151,101,133372,1,8,0:0:0:0:
111,193,133543,1,0,0:0:0:0:
167,67,133886,1,0,0:0:0:0:
151,101,134057,1,8,0:0:0:0:
167,67,134229,1,8,0:0:0:0:
164,82,134314,1,8,0:0:0:0:
167,62,134400,1,0,0:0:0:0:
151,101,134743,1,8,0:0:0:0:
119,143,134914,1,0,0:0:0:0:
167,62,135086,1,0,0:0:0:0:
177,66,135257,1,0,0:0:0:0:
167,106,135343,1,0,0:0:0:0:
167,106,135429,1,8,0:0:0:0:
167,62,135600,1,8,0:0:0:0:
155,75,135772,1,0,0:0:0:0:
170,103,136114,5,8,0:0:0:0:
152,143,136286,1,0,0:0:0:0:
148,67,136457,1,8,0:0:0:0:
137,112,136629,1,0,0:0:0:0:
137,112,136800,1,8,0:0:0:0:
159,153,136972,1,8,0:0:0:0:
215,174,137143,1,4,0:0:0:0:
215,174,137400,1,0,0:0:0:0:
128,131,137486,1,8,0:0:0:0:
128,131,137657,1,0,0:0:0:0:
144,133,137743,1,0,0:0:0:0:
128,131,137828,1,8,0:0:0:0:
148,113,138000,1,0,0:0:0:0:
215,174,138171,1,8,0:0:0:0:
215,174,138343,1,8,0:0:0:0:
215,174,138514,1,0,0:0:0:0:
151,141,138686,1,8,0:0:0:0:
151,141,138772,1,8,0:0:0:0:
139,169,138857,1,0,0:0:0:0:
170,54,139029,1,8,0:0:0:0:
126,81,139200,1,0,0:0:0:0:
127,168,139286,1,0,0:0:0:0:
146,97,139372,1,0,0:0:0:0:
215,174,139543,1,8,0:0:0:0:
215,174,139886,1,0,0:0:0:0:
246,186,140143,1,0,0:0:0:0:
246,186,140228,1,8,0:0:0:0:
116,104,140400,1,8,0:0:0:0:
116,104,140486,1,8,0:0:0:0:
246,186,140571,1,0,0:0:0:0:
116,104,140743,1,8,0:0:0:0:
166,142,140914,1,0,0:0:0:0:
137,68,141000,1,0,0:0:0:0:
173,32,141086,1,8,0:0:0:0:
173,36,141257,1,0,0:0:0:0:
152,76,141429,1,0,0:0:0:0:
166,142,141514,1,8,0:0:0:0:
166,142,141600,1,0,0:0:0:0:
162,148,141772,1,0,0:0:0:0:
162,148,141943,1,8,0:0:0:0:
162,148,142114,1,8,0:0:0:0:
163,158,142200,1,8,0:0:0:0:
164,163,142286,1,0,0:0:0:0:
165,165,142372,1,0,0:0:0:0:
165,168,142457,1,8,0:0:0:0:
191,11,142628,5,0,0:0:0:0:
201,57,142800,1,0,0:0:0:0:
201,57,142971,1,8,0:0:0:0:
136,122,143143,1,0,0:0:0:0:
150,105,143229,1,8,0:0:0:0:
136,129,143400,1,8,0:0:0:0:
137,133,143486,1,0,0:0:0:0:
151,121,143657,1,8,0:0:0:0:
145,80,143828,1,8,0:0:0:0:
151,121,143914,1,8,0:0:0:0:
190,11,144000,1,0,0:0:0:0:
199,65,144171,1,0,0:0:0:0:
201,65,144343,1,8,0:0:0:0:
156,112,144514,1,0,0:0:0:0:
156,114,144600,1,8,0:0:0:0:
157,123,144772,1,8,0:0:0:0:
154,143,144857,1,0,0:0:0:0:
150,105,144943,1,0,0:0:0:0:
161,87,145028,1,8,0:0:0:0:
147,139,145200,1,8,0:0:0:0:
146,93,145286,1,8,0:0:0:0:
218,91,145371,1,0,0:0:0:0:
109,153,145714,5,12,0:0:0:0:
186,162,146057,1,0,0:0:0:0:
186,162,146143,1,0,0:0:0:0:
155,90,146229,1,0,0:0:0:0:
109,153,146400,1,12,0:0:0:0:
153,58,146914,1,12,0:0:0:0:
153,58,147086,5,12,0:0:0:0:
189,104,147428,1,12,0:0:0:0:
189,104,147600,1,0,0:0:0:0:
189,104,147686,1,0,0:0:0:0:
189,104,147771,1,8,0:0:0:0:
189,104,148114,5,4,0:0:0:0:
152,127,148800,1,8,0:0:0:0:
152,127,149486,1,0,0:0:0:0:
152,127,150172,1,8,0:0:0:0:
152,127,150857,1,0,0:0:0:0:
152,127,151543,1,8,0:0:0:0:
152,127,152229,1,4,0:0:0:0:
157,133,152572,1,8,0:0:0:0:
152,127,152743,1,4,0:0:0:0:
152,127,153086,1,0,0:0:0:0:
152,127,153172,1,0,0:0:0:0:
152,127,153257,1,8,0:0:0:0:
194,90,153600,1,4,0:0:0:0:
157,133,153943,1,8,0:0:0:0:
172,86,154114,1,0,0:0:0:0:
96,162,154200,1,0,0:0:0:0:
157,133,154286,1,0,0:0:0:0:
157,133,154457,1,0,0:0:0:0:
157,133,154628,1,8,0:0:0:0:
155,102,154800,1,0,0:0:0:0:
117,140,154886,1,0,0:0:0:0:
142,100,154971,1,8,0:0:0:0:
142,100,155143,1,0,0:0:0:0:
157,133,155314,1,8,0:0:0:0:
175,72,155400,1,0,0:0:0:0:
156,143,155486,1,8,0:0:0:0:
175,72,155572,1,8,0:0:0:0:
160,126,155657,1,0,0:0:0:0:
157,133,155828,1,0,0:0:0:0:
157,133,156000,1,8,0:0:0:0:
149,171,156171,1,0,0:0:0:0:
149,171,156257,1,0,0:0:0:0:
149,171,156343,1,8,0:0:0:0:
149,171,156428,1,0,0:0:0:0:
175,66,156600,1,0,0:0:0:0:
175,66,156686,1,8,0:0:0:0:
155,98,156857,1,8,0:0:0:0:
170,86,156943,1,8,0:0:0:0:
155,98,157028,1,0,0:0:0:0:
180,117,157200,1,0,0:0:0:0:
180,117,157371,1,8,0:0:0:0:
180,117,157543,1,8,0:0:0:0:
180,117,157714,1,4,0:0:0:0:
180,117,158057,1,8,0:0:0:0:
180,117,158228,1,4,0:0:0:0:
180,117,158571,1,12,0:0:0:0:
180,117,158914,1,4,0:0:0:0:
180,117,159428,5,0,0:0:0:0:
180,117,159514,1,0,0:0:0:0:
180,117,159600,1,8,0:0:0:0:
180,117,159686,1,0,0:0:0:0:
180,117,159771,1,8,0:0:0:0:
206,76,159857,1,8,0:0:0:0:
169,106,159943,1,0,0:0:0:0:
169,106,160000,1,0,0:0:0:0:
166,113,160057,1,0,0:0:0:0:
166,113,160114,1,8,0:0:0:0:
142,160,160457,1,4,0:0:0:0:
85,188,160628,1,8,0:0:0:0:
114,163,160800,1,0,0:0:0:0:
142,160,160885,1,8,0:0:0:0:
121,163,160972,1,8,0:0:0:0:
183,151,161057,1,8,0:0:0:0:
192,148,161143,1,0,0:0:0:0:
192,148,161314,1,0,0:0:0:0:
192,148,161400,1,0,0:0:0:0:
192,148,161486,1,8,0:0:0:0:
156,260,161657,1,8,0:0:0:0:
156,260,161743,1,8,0:0:0:0:
151,82,161828,1,0,0:0:0:0:
156,117,162000,1,8,0:0:0:0:
192,148,162172,1,0,0:0:0:0:
181,132,162257,1,8,0:0:0:0:
148,92,162343,1,0,0:0:0:0:
131,154,162429,1,0,0:0:0:0:
160,151,162514,1,8,0:0:0:0:
176,105,162686,1,0,0:0:0:0:
189,96,162857,1,8,0:0:0:0:
160,103,162943,1,0,0:0:0:0:
114,125,163028,1,8,0:0:0:0:
206,160,163114,1,8,0:0:0:0:
160,151,163200,1,0,0:0:0:0:
85,188,163371,1,8,0:0:0:0:
166,49,163543,1,0,0:0:0:0:
182,135,163628,1,8,0:0:0:0:
177,117,163714,1,8,0:0:0:0:
176,108,163800,1,8,0:0:0:0:
114,125,163886,1,0,0:0:0:0:
121,73,164057,1,8,0:0:0:0:
138,106,164228,1,0,0:0:0:0:
200,21,164314,1,0,0:0:0:0:
159,97,164400,1,8,0:0:0:0:
124,100,164486,1,8,0:0:0:0:
159,87,164571,1,0,0:0:0:0:
176,128,164743,1,8,0:0:0:0:
163,80,164914,5,0,0:0:0:0:
139,161,165000,1,8,0:0:0:0:
139,161,165086,1,0,0:0:0:0:
113,162,165171,1,0,0:0:0:0:
172,54,165257,1,8,0:0:0:0:
150,128,165343,1,8,0:0:0:0:
183,43,165428,1,0,0:0:0:0:
161,57,165514,1,0,0:0:0:0:
130,94,165600,1,8,0:0:0:0:
171,94,165771,1,8,0:0:0:0:
174,61,165943,5,0,0:0:0:0:
85,188,166114,1,8,0:0:0:0:
153,83,166286,1,0,0:0:0:0:
113,146,166371,1,8,0:0:0:0:
193,111,166457,1,8,0:0:0:0:
176,112,166543,1,8,0:0:0:0:
193,111,166628,1,0,0:0:0:0:
202,82,166800,1,12,0:0:0:0:
202,82,166971,1,12,0:0:0:0:
154,177,167143,1,0,0:0:0:0:
165,258,167229,1,8,0:0:0:0:
149,110,167314,1,0,0:0:0:0:
206,149,167486,1,0,0:0:0:0:
206,149,167657,1,8,0:0:0:0:
169,53,167743,1,0,0:0:0:0:
206,149,167828,1,8,0:0:0:0:
148,62,167914,1,8,0:0:0:0:
110,178,168000,1,0,0:0:0:0:
206,149,168171,1,12,0:0:0:0:
206,149,168343,1,12,0:0:0:0:
146,57,168514,1,0,0:0:0:0:
165,258,168600,1,8,0:0:0:0:
149,110,168686,1,0,0:0:0:0:
149,110,168857,1,8,0:0:0:0:
158,83,169028,1,0,0:0:0:0:
176,46,169114,1,8,0:0:0:0:
206,149,169200,1,8,0:0:0:0:
176,112,169286,1,8,0:0:0:0:
206,149,169371,1,0,0:0:0:0:
165,258,169543,1,8,0:0:0:0:
206,149,169628,1,0,0:0:0:0:
206,149,169714,1,8,0:0:0:0:
206,149,169886,1,0,0:0:0:0:
206,149,170228,1,4,0:0:0:0:
206,149,170400,1,12,0:0:0:0:
206,149,170743,1,12,0:0:0:0:
183,66,170914,1,0,0:0:0:0:
182,77,170971,1,0,0:0:0:0:
182,82,171028,1,0,0:0:0:0:
182,87,171086,1,8,0:0:0:0:
142,160,171429,1,4,0:0:0:0:
85,188,171600,1,8,0:0:0:0:
138,171,171686,1,8,0:0:0:0:
114,163,171772,1,0,0:0:0:0:
142,160,171857,1,8,0:0:0:0:
121,163,171944,1,8,0:0:0:0:
183,151,172029,1,8,0:0:0:0:
192,148,172115,1,0,0:0:0:0:
192,148,172286,1,0,0:0:0:0:
192,148,172372,1,0,0:0:0:0:
192,148,172458,1,8,0:0:0:0:
156,260,172629,1,8,0:0:0:0:
156,260,172715,1,8,0:0:0:0:
151,82,172800,1,0,0:0:0:0:
156,117,172972,1,8,0:0:0:0:
192,148,173144,1,0,0:0:0:0:
181,132,173229,1,8,0:0:0:0:
148,92,173315,1,0,0:0:0:0:
131,154,173401,1,0,0:0:0:0:
160,151,173486,1,8,0:0:0:0:
176,105,173658,1,0,0:0:0:0:
186,152,173743,1,0,0:0:0:0:
189,96,173829,1,8,0:0:0:0:
160,103,173915,1,0,0:0:0:0:
114,125,174000,1,8,0:0:0:0:
206,160,174086,1,8,0:0:0:0:
160,151,174172,1,0,0:0:0:0:
85,188,174343,1,8,0:0:0:0:
149,161,174429,1,8,0:0:0:0:
166,49,174515,1,0,0:0:0:0:
182,135,174600,1,8,0:0:0:0:
177,117,174686,1,8,0:0:0:0:
176,108,174772,1,8,0:0:0:0:
114,125,174858,1,0,0:0:0:0:
121,73,175029,1,8,0:0:0:0:
138,106,175200,1,0,0:0:0:0:
200,21,175286,1,0,0:0:0:0:
159,97,175372,1,8,0:0:0:0:
124,100,175458,1,8,0:0:0:0:
159,87,175543,1,0,0:0:0:0:
176,128,175715,5,8,0:0:0:0:
146,178,175800,1,8,0:0:0:0:
163,80,175886,5,0,0:0:0:0:
141,101,175972,1,8,0:0:0:0:
141,101,176057,1,0,0:0:0:0:
172,54,176229,1,8,0:0:0:0:
129,107,176314,1,8,0:0:0:0:
183,43,176400,1,0,0:0:0:0:
161,57,176486,1,0,0:0:0:0:
130,94,176572,1,8,0:0:0:0:
156,114,176657,1,0,0:0:0:0:
171,94,176743,1,8,0:0:0:0:
133,148,176914,5,4,0:0:0:0:
127,148,177257,5,8,0:0:0:0:
133,148,177428,1,4,0:0:0:0:
125,148,177771,1,0,0:0:0:0:
127,148,177943,1,8,0:0:0:0:
133,148,178286,1,4,0:0:0:0:
125,148,178628,1,8,0:0:0:0:
133,148,178800,1,4,0:0:0:0:
122,148,179143,1,8,0:0:0:0:
122,148,179228,1,0,0:0:0:0:
122,148,179314,1,8,0:0:0:0:
125,148,179657,1,0,0:0:0:0:
122,148,179828,1,8,0:0:0:0:
122,148,180000,1,0,0:0:0:0:
112,148,180086,1,0,0:0:0:0:
111,148,180171,1,8,0:0:0:0:
125,148,180343,1,0,0:0:0:0:
158,129,180514,1,8,0:0:0:0:
158,129,180600,1,8,0:0:0:0:
158,129,180686,1,0,0:0:0:0:
151,129,180857,1,0,0:0:0:0:
147,129,181029,1,12,0:0:0:0:
157,100,181371,1,12,0:0:0:0:
183,66,181886,5,0,0:0:0:0:
132,161,181971,1,0,0:0:0:0:
182,87,182057,1,8,0:0:0:0:
169,111,182400,1,4,0:0:0:0:
132,161,182914,1,0,0:0:0:0:
132,161,183086,1,8,0:0:0:0:
132,161,183428,1,0,0:0:0:0:
132,161,183600,1,0,0:0:0:0:
116,175,183943,1,0,0:0:0:0:
132,161,184114,5,0,0:0:0:0:
124,161,184200,1,0,0:0:0:0:
120,167,184286,1,8,0:0:0:0:
117,171,184371,1,0,0:0:0:0:
116,175,184457,1,8,0:0:0:0:
115,175,184543,1,8,0:0:0:0:
143,146,184628,1,0,0:0:0:0:
143,146,184714,1,0,0:0:0:0:
143,146,184800,1,8,0:0:0:0:
104,169,185143,5,4,0:0:0:0:
183,183,185486,1,0,0:0:0:0:
183,183,185829,1,0,0:0:0:0:
141,110,186000,1,8,0:0:0:0:
214,146,186086,1,8,0:0:0:0:
214,146,186172,1,0,0:0:0:0:
110,160,186343,1,0,0:0:0:0:
110,160,186514,1,8,0:0:0:0:
116,175,186857,1,8,0:0:0:0:
183,183,187200,1,0,0:0:0:0:
140,159,187372,1,8,0:0:0:0:
172,149,187457,1,0,0:0:0:0:
116,175,187543,1,8,0:0:0:0:
141,110,187714,1,8,0:0:0:0:
172,149,187886,1,0,0:0:0:0:
116,175,188229,1,8,0:0:0:0:
172,149,188572,1,8,0:0:0:0:
172,149,188743,1,0,0:0:0:0:
140,159,188829,1,0,0:0:0:0:
116,175,188914,1,8,0:0:0:0:
172,149,189086,1,8,0:0:0:0:
172,149,189257,1,0,0:0:0:0:
141,131,189600,1,0,0:0:0:0:
172,149,189686,1,0,0:0:0:0:
172,149,189772,1,8,0:0:0:0:
172,149,189857,1,8,0:0:0:0:
172,149,189943,1,0,0:0:0:0:
113,237,190286,1,0,0:0:0:0:
172,149,190457,1,0,0:0:0:0:
196,106,190543,1,8,0:0:0:0:
183,131,190629,1,8,0:0:0:0:
196,89,190972,1,0,0:0:0:0:
196,89,191314,1,0,0:0:0:0:
141,110,191486,1,8,0:0:0:0:
214,146,191572,1,8,0:0:0:0:
214,146,191657,1,0,0:0:0:0:
110,160,191829,1,0,0:0:0:0:
110,160,192000,1,8,0:0:0:0:
178,102,192343,1,8,0:0:0:0:
172,149,192686,1,0,0:0:0:0:
140,159,192857,1,8,0:0:0:0:
172,149,192943,1,0,0:0:0:0:
116,175,193029,1,8,0:0:0:0:
141,110,193200,1,8,0:0:0:0:
172,149,193372,1,0,0:0:0:0:
116,175,193714,1,8,0:0:0:0:
172,149,194057,1,8,0:0:0:0:
172,149,194229,1,0,0:0:0:0:
140,159,194314,1,0,0:0:0:0:
116,175,194400,1,8,0:0:0:0:
172,149,194572,1,8,0:0:0:0:
178,72,194743,5,0,0:0:0:0:
111,168,195086,1,0,0:0:0:0:
110,167,195172,1,0,0:0:0:0:
110,167,195257,1,8,0:0:0:0:
142,168,195343,1,0,0:0:0:0:
110,167,195429,1,8,0:0:0:0:
111,168,195514,1,8,0:0:0:0:
111,168,195600,1,0,0:0:0:0:
111,168,195686,1,0,0:0:0:0:
111,168,195772,1,8,0:0:0:0:
116,175,196114,1,4,0:0:0:0:
116,175,196457,1,8,0:0:0:0:
110,160,196629,1,0,0:0:0:0:
159,90,196800,1,8,0:0:0:0:
227,343,196972,1,0,0:0:0:0:
143,145,197057,1,0,0:0:0:0:
143,145,197143,1,8,0:0:0:0:
143,145,197314,1,0,0:0:0:0:
143,145,197486,1,8,0:0:0:0:
116,175,197829,1,8,0:0:0:0:
172,149,198000,1,0,0:0:0:0:
135,100,198172,1,8,0:0:0:0:
140,159,198343,1,8,0:0:0:0:
172,149,198429,1,0,0:0:0:0:
152,117,198514,1,8,0:0:0:0:
138,103,198686,1,8,0:0:0:0:
172,149,198857,1,0,0:0:0:0:
116,175,199200,1,8,0:0:0:0:
172,149,199372,1,0,0:0:0:0:
158,92,199543,1,8,0:0:0:0:
158,92,199629,1,8,0:0:0:0:
172,149,199714,1,0,0:0:0:0:
140,159,199800,1,0,0:0:0:0:
116,175,199886,1,8,0:0:0:0:
172,149,200057,1,8,0:0:0:0:
172,149,200229,1,0,0:0:0:0:
141,131,200572,1,0,0:0:0:0:
172,149,200657,1,0,0:0:0:0:
172,149,200743,1,8,0:0:0:0:
172,149,200829,1,8,0:0:0:0:
172,149,200914,1,0,0:0:0:0:
172,149,201086,1,8,0:0:0:0:
116,175,201257,1,0,0:0:0:0:
172,149,201429,1,0,0:0:0:0:
160,152,201514,1,8,0:0:0:0:
117,137,201600,1,8,0:0:0:0:
116,175,201943,1,8,0:0:0:0:
110,160,202114,1,0,0:0:0:0:
110,160,202286,1,8,0:0:0:0:
141,110,202457,1,8,0:0:0:0:
214,146,202543,1,8,0:0:0:0:
214,146,202629,1,0,0:0:0:0:
110,160,202800,1,0,0:0:0:0:
152,138,202972,1,8,0:0:0:0:
116,175,203314,1,8,0:0:0:0:
172,149,203486,1,0,0:0:0:0:
172,149,203657,1,8,0:0:0:0:
140,159,203829,1,8,0:0:0:0:
172,149,203914,1,0,0:0:0:0:
116,175,204000,1,8,0:0:0:0:
141,110,204172,1,8,0:0:0:0:
152,138,204343,1,0,0:0:0:0:
116,175,204686,1,8,0:0:0:0:
172,149,204857,1,0,0:0:0:0:
166,93,205029,1,8,0:0:0:0:
175,104,205114,1,8,0:0:0:0:
172,149,205200,1,0,0:0:0:0:
140,159,205286,1,0,0:0:0:0:
116,175,205372,1,8,0:0:0:0:
135,100,205543,1,8,0:0:0:0:
177,46,205714,1,4,0:0:0:0:
201,138,206057,1,0,0:0:0:0:
200,138,206143,1,0,0:0:0:0:
200,138,206229,1,8,0:0:0:0:
200,143,206314,1,0,0:0:0:0:
200,148,206400,1,8,0:0:0:0:
200,154,206486,1,8,0:0:0:0:
201,122,206572,1,0,0:0:0:0:
168,132,206657,5,0,0:0:0:0:
201,138,206743,1,8,0:0:0:0:
168,132,207086,1,4,0:0:0:0:
168,132,207429,1,8,0:0:0:0:
70,159,207686,1,0,0:0:0:0:
168,132,207772,1,8,0:0:0:0:
168,132,207943,1,0,0:0:0:0:
168,132,208114,1,8,0:0:0:0:
168,132,208286,1,8,0:0:0:0:
168,132,208372,1,8,0:0:0:0:
168,132,208457,1,0,0:0:0:0:
152,87,208629,1,0,0:0:0:0:
152,87,208800,1,8,0:0:0:0:
164,80,208886,1,0,0:0:0:0:
152,87,208972,1,8,0:0:0:0:
152,87,209143,1,0,0:0:0:0:
198,73,209314,1,0,0:0:0:0:
198,73,209400,1,0,0:0:0:0:
168,132,209486,1,8,0:0:0:0:
168,132,209657,1,8,0:0:0:0:
168,132,209829,1,0,0:0:0:0:
198,73,210172,1,8,0:0:0:0:
213,158,210429,1,0,0:0:0:0:
161,47,210514,1,8,0:0:0:0:
161,47,210686,1,0,0:0:0:0:
161,47,210857,1,8,0:0:0:0:
161,57,211029,1,0,0:0:0:0:
161,47,211114,1,8,0:0:0:0:
161,47,211200,1,0,0:0:0:0:
161,57,211372,1,0,0:0:0:0:
161,57,211543,1,8,0:0:0:0:
161,57,211629,1,8,0:0:0:0:
161,57,211714,1,0,0:0:0:0:
183,99,211800,1,0,0:0:0:0:
161,57,211886,1,8,0:0:0:0:
161,57,212057,1,0,0:0:0:0:
161,57,212229,1,8,0:0:0:0:
161,57,212400,1,8,0:0:0:0:
170,105,212486,1,0,0:0:0:0:
161,57,212572,1,0,0:0:0:0:
149,133,212829,1,0,0:0:0:0:
161,57,212914,1,8,0:0:0:0:
156,92,213086,1,8,0:0:0:0:
156,92,213257,1,0,0:0:0:0:
156,92,213429,1,8,0:0:0:0:
156,92,213514,1,0,0:0:0:0:
161,57,213600,1,8,0:0:0:0:
151,92,213772,1,8,0:0:0:0:
151,92,213943,1,0,0:0:0:0:
149,133,214200,1,0,0:0:0:0:
161,57,214286,1,8,0:0:0:0:
168,61,214457,1,0,0:0:0:0:
168,61,214629,1,8,0:0:0:0:
168,61,214800,1,0,0:0:0:0:
168,61,214886,1,0,0:0:0:0:
161,57,214972,1,8,0:0:0:0:
168,61,215143,1,8,0:0:0:0:
168,61,215229,1,8,0:0:0:0:
168,61,215314,1,0,0:0:0:0:
205,158,215400,1,0,0:0:0:0:
168,61,215572,1,0,0:0:0:0:
161,57,215657,1,8,0:0:0:0:
157,62,215829,1,8,0:0:0:0:
157,62,216000,1,0,0:0:0:0:
157,62,216086,1,0,0:0:0:0:
157,62,216257,1,0,0:0:0:0:
161,57,216343,1,8,0:0:0:0:
157,62,216514,1,8,0:0:0:0:
157,62,216686,1,0,0:0:0:0:
157,62,216857,1,8,0:0:0:0:
157,62,216943,1,8,0:0:0:0:
161,57,217029,1,8,0:0:0:0:
157,62,217200,1,8,0:0:0:0:
156,62,217372,1,0,0:0:0:0:
157,62,217543,1,8,0:0:0:0:
157,62,217629,1,0,0:0:0:0:
161,57,217714,1,8,0:0:0:0:
157,62,217886,1,8,0:0:0:0:
161,57,218057,1,4,0:0:0:0:
164,71,218400,1,8,0:0:0:0:
113,133,218572,1,0,0:0:0:0:
113,133,218657,1,0,0:0:0:0:
113,133,218743,1,8,0:0:0:0:
118,136,219086,1,8,0:0:0:0:
250,74,219257,1,0,0:0:0:0:
235,76,219343,1,0,0:0:0:0:
161,57,219429,1,8,0:0:0:0:
198,68,219543,1,0,0:0:0:0:
188,60,219657,1,0,0:0:0:0:
188,67,219772,1,8,0:0:0:0:
186,107,219886,1,0,0:0:0:0:
186,107,220000,1,0,0:0:0:0:
161,57,220114,1,8,0:0:0:0:
211,106,220286,1,0,0:0:0:0:
211,106,220457,1,8,0:0:0:0:
279,67,220572,1,0,0:0:0:0:
279,67,220686,1,0,0:0:0:0:
161,57,220800,1,8,0:0:0:0:
142,92,220972,1,0,0:0:0:0:
187,88,221143,1,0,0:0:0:0:
187,88,221314,1,0,0:0:0:0:
161,57,221486,1,8,0:0:0:0:
226,68,221600,1,0,0:0:0:0:
226,68,221714,1,0,0:0:0:0:
226,68,221829,1,8,0:0:0:0:
222,75,221943,1,8,0:0:0:0:
222,77,222057,1,8,0:0:0:0:
161,57,222172,1,0,0:0:0:0:
256,192,222343,12,0,223029,0:0:0:0:
163,162,223200,5,12,0:0:0:0:
175,135,223543,5,8,0:0:0:0:
175,135,224914,1,0,0:0:0:0:
186,142,225600,1,8,0:0:0:0:
186,142,226286,1,0,0:0:0:0:
186,142,226800,1,8,0:0:0:0:
186,142,227143,1,8,0:0:0:0:
188,158,227486,1,0,0:0:0:0:
118,107,228343,1,8,0:0:0:0:
171,106,229029,1,0,0:0:0:0:
146,78,229886,1,8,0:0:0:0:
188,158,230229,1,0,0:0:0:0:
188,158,231086,1,8,0:0:0:0:
188,158,231772,1,0,0:0:0:0:
146,127,232629,1,0,0:0:0:0:
146,127,232972,1,8,0:0:0:0:
256,192,233143,12,0,234000,0:0:0:0:
195,201,234172,5,8,0:0:0:0:
187,151,234857,1,12,0:0:0:0:
121,163,235029,1,8,0:0:0:0:
192,148,235200,1,0,0:0:0:0:
186,143,235286,1,8,0:0:0:0:
186,143,235372,1,0,0:0:0:0:
151,87,235457,1,0,0:0:0:0:
192,148,235543,1,8,0:0:0:0:
152,103,235714,1,8,0:0:0:0:
144,61,235800,1,8,0:0:0:0:
151,82,235885,1,0,0:0:0:0:
156,117,236057,1,8,0:0:0:0:
171,64,236143,1,8,0:0:0:0:
192,148,236229,1,0,0:0:0:0:
148,92,236314,1,8,0:0:0:0:
148,92,236400,1,0,0:0:0:0:
160,151,236571,1,8,0:0:0:0:
152,67,236657,1,8,0:0:0:0:
176,105,236743,1,0,0:0:0:0:
114,125,236828,1,0,0:0:0:0:
189,96,236914,1,8,0:0:0:0:
160,103,237000,1,0,0:0:0:0:
114,125,237085,1,8,0:0:0:0:
141,71,237172,1,8,0:0:0:0:
160,151,237257,1,0,0:0:0:0:
166,49,237428,1,8,0:0:0:0:
166,49,237600,1,0,0:0:0:0:
182,135,237685,1,8,0:0:0:0:
177,117,237771,1,8,0:0:0:0:
144,134,237857,1,8,0:0:0:0:
114,125,237943,1,0,0:0:0:0:
123,94,238029,1,0,0:0:0:0:
146,56,238114,5,8,0:0:0:0:
146,56,238286,1,0,0:0:0:0:
168,82,238371,1,0,0:0:0:0:
159,97,238457,1,8,0:0:0:0:
161,70,238543,1,8,0:0:0:0:
159,87,238628,1,0,0:0:0:0:
155,114,238800,1,8,0:0:0:0:
145,195,238971,5,0,0:0:0:0:
106,67,239057,1,8,0:0:0:0:
106,67,239143,1,0,0:0:0:0:
113,162,239228,1,0,0:0:0:0:
172,54,239314,1,8,0:0:0:0:
144,134,239400,1,8,0:0:0:0:
183,43,239485,1,0,0:0:0:0:
161,57,239571,1,0,0:0:0:0:
130,94,239657,1,8,0:0:0:0:
141,71,239743,1,0,0:0:0:0:
171,94,239828,1,8,0:0:0:0:
133,148,240000,5,4,0:0:0:0:
127,148,240343,5,8,0:0:0:0:
133,148,240514,1,4,0:0:0:0:
125,148,240857,1,0,0:0:0:0:
127,148,241029,1,8,0:0:0:0:
133,148,241372,1,4,0:0:0:0:
125,148,241714,1,8,0:0:0:0:
133,148,241886,1,4,0:0:0:0:
154,152,242229,1,8,0:0:0:0:
122,148,242314,1,0,0:0:0:0:
122,148,242400,1,8,0:0:0:0:
125,148,242743,1,0,0:0:0:0:
122,148,242914,1,8,0:0:0:0:
122,148,243086,1,0,0:0:0:0:
112,148,243172,1,0,0:0:0:0:
111,148,243257,1,8,0:0:0:0:
125,148,243429,1,0,0:0:0:0:
158,129,243600,1,8,0:0:0:0:
158,129,243686,1,8,0:0:0:0:
158,129,243772,1,0,0:0:0:0:
151,129,243943,1,0,0:0:0:0:
184,88,244114,1,8,0:0:0:0:
184,88,244286,1,0,0:0:0:0:
184,88,244372,1,0,0:0:0:0:
184,88,244457,1,8,0:0:0:0:
184,88,244629,1,0,0:0:0:0:
184,88,244800,1,8,0:0:0:0:
184,88,244886,1,8,0:0:0:0:
184,88,244972,1,0,0:0:0:0:
184,88,245057,1,0,0:0:0:0:
181,94,245143,1,8,0:0:0:0:
181,94,245314,1,8,0:0:0:0:
181,94,245486,1,4,0:0:0:0:
181,94,245829,1,8,0:0:0:0:
181,94,246000,1,4,0:0:0:0:
181,94,246343,1,0,0:0:0:0:
181,94,246514,1,8,0:0:0:0:
181,94,246857,1,4,0:0:0:0:
181,94,247029,1,8,0:0:0:0:
181,94,247200,1,8,0:0:0:0:
181,94,247372,1,4,0:0:0:0:
181,94,247714,1,0,0:0:0:0:
181,94,247800,1,0,0:0:0:0:
181,94,247886,1,8,0:0:0:0:
125,148,248229,1,0,0:0:0:0:
122,148,248400,1,8,0:0:0:0:
122,148,248572,1,0,0:0:0:0:
112,148,248657,1,0,0:0:0:0:
111,148,248743,1,8,0:0:0:0:
125,148,248914,1,0,0:0:0:0:
158,129,249086,1,8,0:0:0:0:
158,129,249172,1,8,0:0:0:0:
158,129,249257,1,0,0:0:0:0:
151,129,249429,1,0,0:0:0:0:
147,129,249600,1,12,0:0:0:0:
157,100,249943,1,12,0:0:0:0:
183,66,250457,5,0,0:0:0:0:
132,161,250543,1,0,0:0:0:0:
182,87,250629,1,8,0:0:0:0:
169,111,250972,1,4,0:0:0:0:
132,161,251486,1,0,0:0:0:0:
132,161,251657,1,8,0:0:0:0:
132,161,252000,1,0,0:0:0:0:
132,161,252172,1,0,0:0:0:0:
116,175,252514,1,0,0:0:0:0:
132,161,252686,1,0,0:0:0:0:
124,161,252772,1,0,0:0:0:0:
120,167,252857,1,8,0:0:0:0:
117,171,252943,1,0,0:0:0:0:
116,175,253029,1,8,0:0:0:0:
115,175,253114,1,8,0:0:0:0:
143,146,253200,1,0,0:0:0:0:
143,146,253286,1,0,0:0:0:0:
143,146,253372,1,8,0:0:0:0:
182,110,253714,1,4,0:0:0:0:
116,175,254057,1,8,0:0:0:0:
110,160,254229,1,0,0:0:0:0:
110,160,254400,1,8,0:0:0:0:
141,110,254572,1,8,0:0:0:0:
214,146,254657,1,8,0:0:0:0:
214,146,254743,1,0,0:0:0:0:
110,160,254914,1,0,0:0:0:0:
110,160,255086,1,8,0:0:0:0:
116,175,255429,1,8,0:0:0:0:
172,149,255600,1,0,0:0:0:0:
172,149,255772,1,8,0:0:0:0:
183,226,255943,1,8,0:0:0:0:
172,149,256029,1,0,0:0:0:0:
116,175,256114,1,8,0:0:0:0:
141,110,256286,1,8,0:0:0:0:
172,149,256457,1,0,0:0:0:0:
116,175,256800,1,8,0:0:0:0:
172,149,256972,1,0,0:0:0:0:
172,149,257143,1,8,0:0:0:0:
140,159,257229,1,8,0:0:0:0:
172,149,257314,1,0,0:0:0:0:
140,159,257400,1,0,0:0:0:0:
116,175,257486,1,8,0:0:0:0:
172,149,257657,1,8,0:0:0:0:
172,149,257829,1,0,0:0:0:0:
141,131,258172,1,0,0:0:0:0:
172,149,258257,1,0,0:0:0:0:
172,149,258343,1,8,0:0:0:0:
172,149,258429,1,8,0:0:0:0:
172,149,258514,1,0,0:0:0:0:
113,237,258686,1,8,0:0:0:0:
113,237,258857,1,0,0:0:0:0:
172,149,259029,1,0,0:0:0:0:
158,222,259114,1,8,0:0:0:0:
183,131,259200,1,8,0:0:0:0:
116,175,259543,1,8,0:0:0:0:
110,160,259714,1,0,0:0:0:0:
110,160,259886,1,8,0:0:0:0:
141,110,260057,1,8,0:0:0:0:
214,146,260143,1,8,0:0:0:0:
214,146,260229,1,0,0:0:0:0:
110,160,260400,1,0,0:0:0:0:
110,160,260572,1,8,0:0:0:0:
178,102,260914,1,8,0:0:0:0:
172,149,261086,1,0,0:0:0:0:
172,149,261257,1,8,0:0:0:0:
140,159,261429,1,8,0:0:0:0:
172,149,261514,1,0,0:0:0:0:
116,175,261600,1,8,0:0:0:0:
141,110,261772,1,8,0:0:0:0:
172,149,261943,1,0,0:0:0:0:
116,175,262286,1,8,0:0:0:0:
172,149,262457,1,0,0:0:0:0:
172,149,262629,1,8,0:0:0:0:
140,159,262714,1,8,0:0:0:0:
172,149,262800,1,0,0:0:0:0:
140,159,262886,1,0,0:0:0:0:
116,175,262972,1,8,0:0:0:0:
172,149,263143,1,8,0:0:0:0:
213,138,263486,1,4,0:0:0:0:
213,138,263829,1,4,0:0:0:0:
146,114,264172,1,4,0:0:0:0:
178,166,264343,1,12,0:0:0:0:
116,175,264686,1,4,0:0:0:0:
101,150,264857,1,0,0:0:0:0:
116,175,265029,1,8,0:0:0:0:
110,160,265200,1,0,0:0:0:0:
110,160,265372,1,8,0:0:0:0:
141,110,265543,1,8,0:0:0:0:
214,146,265629,1,8,0:0:0:0:
214,146,265714,1,0,0:0:0:0:
110,160,265886,1,0,0:0:0:0:
110,160,266057,1,8,0:0:0:0:
140,159,266229,1,0,0:0:0:0:
140,159,266314,1,0,0:0:0:0:
116,175,266400,1,8,0:0:0:0:
172,149,266572,1,0,0:0:0:0:
135,100,266743,1,8,0:0:0:0:
140,159,266914,1,8,0:0:0:0:
172,149,267000,1,0,0:0:0:0:
152,117,267086,1,8,0:0:0:0:
138,103,267257,1,8,0:0:0:0:
172,149,267429,1,0,0:0:0:0:
203,112,267600,1,0,0:0:0:0:
140,159,267686,1,0,0:0:0:0:
116,175,267772,1,8,0:0:0:0:
172,149,267943,1,0,0:0:0:0:
172,149,268114,1,8,0:0:0:0:
140,159,268200,1,8,0:0:0:0:
172,149,268286,1,0,0:0:0:0:
140,159,268372,1,0,0:0:0:0:
116,175,268457,1,8,0:0:0:0:
172,149,268629,1,8,0:0:0:0:
172,149,268800,1,0,0:0:0:0:
141,131,268972,1,8,0:0:0:0:
141,131,269143,1,0,0:0:0:0:
172,149,269229,1,0,0:0:0:0:
172,149,269314,1,8,0:0:0:0:
172,149,269400,1,8,0:0:0:0:
172,149,269486,1,0,0:0:0:0:
172,149,269657,1,8,0:0:0:0:
116,175,269829,1,0,0:0:0:0:
172,149,270000,1,0,0:0:0:0:
158,222,270086,1,8,0:0:0:0:
117,137,270172,1,8,0:0:0:0:
83,140,270343,1,0,0:0:0:0:
116,175,270514,1,8,0:0:0:0:
110,160,270686,1,0,0:0:0:0:
110,160,270857,1,8,0:0:0:0:
135,100,270943,1,0,0:0:0:0:
141,110,271029,1,8,0:0:0:0:
214,146,271114,1,8,0:0:0:0:
214,146,271200,1,0,0:0:0:0:
110,160,271372,1,0,0:0:0:0:
152,138,271543,1,8,0:0:0:0:
181,111,271714,1,0,0:0:0:0:
117,137,271800,1,0,0:0:0:0:
116,175,271886,1,8,0:0:0:0:
172,149,272057,1,0,0:0:0:0:
172,149,272229,1,8,0:0:0:0:
135,100,272314,1,0,0:0:0:0:
140,159,272400,1,8,0:0:0:0:
172,149,272486,1,0,0:0:0:0:
116,175,272572,1,8,0:0:0:0:
141,110,272743,1,8,0:0:0:0:
152,138,272914,1,0,0:0:0:0:
180,127,273086,1,0,0:0:0:0:
180,127,273172,1,0,0:0:0:0:
116,175,273257,1,8,0:0:0:0:
172,149,273429,1,0,0:0:0:0:
166,93,273600,1,8,0:0:0:0:
175,104,273686,1,8,0:0:0:0:
172,149,273772,1,0,0:0:0:0:
140,159,273857,1,0,0:0:0:0:
116,175,273943,1,8,0:0:0:0:
135,100,274029,1,0,0:0:0:0:
135,100,274114,1,8,0:0:0:0:
177,46,274286,1,4,0:0:0:0:
201,138,274629,1,0,0:0:0:0:
200,138,274714,1,0,0:0:0:0:
200,138,274800,1,8,0:0:0:0:
200,143,274886,1,0,0:0:0:0:
200,148,274972,1,8,0:0:0:0:
200,154,275057,1,8,0:0:0:0:
201,122,275143,1,0,0:0:0:0:
201,122,275200,1,0,0:0:0:0:
201,131,275257,1,0,0:0:0:0:
201,138,275314,1,8,0:0:0:0:
220,142,275657,1,4,0:0:0:0:
166,154,276000,1,8,0:0:0:0:
220,142,276257,1,8,0:0:0:0:
166,154,276343,1,0,0:0:0:0:
129,111,276514,1,0,0:0:0:0:
129,111,276686,1,8,0:0:0:0:
186,145,276857,1,8,0:0:0:0:
184,166,277028,1,0,0:0:0:0:
186,77,277114,1,8,0:0:0:0:
124,66,277200,1,0,0:0:0:0:
124,66,277371,1,8,0:0:0:0:
166,107,277628,1,8,0:0:0:0:
171,71,277714,1,0,0:0:0:0:
176,92,277886,1,0,0:0:0:0:
124,66,277971,1,0,0:0:0:0:
176,92,278057,1,8,0:0:0:0:
134,107,278228,1,8,0:0:0:0:
159,95,278400,1,0,0:0:0:0:
142,103,278743,1,8,0:0:0:0:
220,142,279000,1,8,0:0:0:0:
142,103,279086,1,0,0:0:0:0:
149,122,279257,1,0,0:0:0:0:
149,122,279428,1,8,0:0:0:0:
176,97,279600,1,8,0:0:0:0:
148,136,279771,1,0,0:0:0:0:
301,318,279857,1,8,0:0:0:0:
134,107,279943,1,0,0:0:0:0:
134,107,280114,1,8,0:0:0:0:
146,148,280286,1,8,0:0:0:0:
118,70,280371,1,8,0:0:0:0:
141,110,280457,1,0,0:0:0:0:
171,58,280628,1,0,0:0:0:0:
155,158,280714,1,0,0:0:0:0:
161,61,280800,1,8,0:0:0:0:
170,103,280971,1,8,0:0:0:0:
143,162,281143,1,0,0:0:0:0:
166,154,281486,1,8,0:0:0:0:
220,142,281743,1,8,0:0:0:0:
166,154,281829,1,0,0:0:0:0:
129,111,282000,1,0,0:0:0:0:
129,111,282172,1,8,0:0:0:0:
186,145,282343,1,8,0:0:0:0:
184,166,282514,1,0,0:0:0:0:
186,77,282600,1,8,0:0:0:0:
124,66,282686,1,0,0:0:0:0:
124,66,282857,1,8,0:0:0:0:
166,107,283114,1,8,0:0:0:0:
171,71,283200,1,0,0:0:0:0:
176,92,283372,1,0,0:0:0:0:
124,66,283457,1,0,0:0:0:0:
176,92,283543,1,8,0:0:0:0:
134,107,283714,1,8,0:0:0:0:
159,95,283886,1,0,0:0:0:0:
142,103,284229,1,8,0:0:0:0:
220,142,284486,1,8,0:0:0:0:
142,103,284572,1,0,0:0:0:0:
149,122,284743,1,0,0:0:0:0:
149,122,284914,1,8,0:0:0:0:
176,97,285086,1,8,0:0:0:0:
148,136,285257,1,0,0:0:0:0:
301,318,285343,1,8,0:0:0:0:
134,107,285429,1,0,0:0:0:0:
134,107,285600,1,8,0:0:0:0:
146,148,285772,1,8,0:0:0:0:
118,70,285857,5,8,0:0:0:0:
141,110,285943,1,0,0:0:0:0:
171,58,286114,1,0,0:0:0:0:
155,158,286200,1,0,0:0:0:0:
161,61,286286,1,8,0:0:0:0:
113,110,286372,1,0,0:0:0:0:
170,103,286457,1,8,0:0:0:0:
149,108,286629,1,4,0:0:0:0:
154,59,286972,5,0,0:0:0:0:
166,154,287314,1,0,0:0:0:0:
166,114,287486,1,8,0:0:0:0:
176,140,287829,1,8,0:0:0:0:
114,179,288000,1,0,0:0:0:0:
144,170,288172,1,8,0:0:0:0:
144,170,288343,1,0,0:0:0:0:
144,152,288686,1,0,0:0:0:0:
141,82,288857,1,8,0:0:0:0:
196,49,288943,1,8,0:0:0:0:
214,52,289029,1,0,0:0:0:0:
159,95,289200,1,8,0:0:0:0:
159,95,289372,1,0,0:0:0:0:
161,39,289714,1,0,0:0:0:0:
142,103,290057,1,0,0:0:0:0:
141,82,290229,1,8,0:0:0:0:
176,140,290572,1,8,0:0:0:0:
196,49,290743,1,0,0:0:0:0:
171,124,290914,1,8,0:0:0:0:
168,125,291086,1,0,0:0:0:0:
170,103,291429,1,0,0:0:0:0:
166,179,291600,1,8,0:0:0:0:
169,42,291772,1,0,0:0:0:0:
184,58,291857,1,0,0:0:0:0:
170,103,291943,1,8,0:0:0:0:
186,96,292114,5,0,0:0:0:0:
183,67,292457,1,0,0:0:0:0:
166,154,292800,1,0,0:0:0:0:
183,67,292972,1,8,0:0:0:0:
166,105,293314,1,8,0:0:0:0:
184,166,293486,1,0,0:0:0:0:
144,170,293657,1,8,0:0:0:0:
144,170,293829,1,0,0:0:0:0:
174,75,294172,1,0,0:0:0:0:
171,34,294343,1,8,0:0:0:0:
184,59,294429,1,8,0:0:0:0:
117,150,294514,1,0,0:0:0:0:
159,95,294686,1,8,0:0:0:0:
159,95,294857,1,0,0:0:0:0:
175,66,295200,1,0,0:0:0:0:
192,58,295543,1,0,0:0:0:0:
171,34,295714,1,8,0:0:0:0:
149,126,296057,1,8,0:0:0:0:
143,160,296229,1,4,0:0:0:0:
143,160,296400,1,8,0:0:0:0:
143,160,296743,1,8,0:0:0:0:
143,160,297086,1,8,0:0:0:0:
143,160,297429,1,8,0:0:0:0:
256,192,297600,12,0,301372,0:0:0:0:
