osu file format v14

[General]
AudioFilename: audio.mp3
AudioLeadIn: 0
PreviewTime: 56534
Countdown: 0
SampleSet: Drum
StackLeniency: 0.7
Mode: 3
LetterboxInBreaks: 0
SpecialStyle: 0
WidescreenStoryboard: 1

[Editor]
Bookmarks: 14540,28254,41968,57397,71111
DistanceSpacing: 1
BeatDivisor: 6
GridSize: 4
TimelineZoom: 1.2

[Metadata]
Title:Endoro~ru! (TV Size)
TitleUnicode:えんどろ~る!(TV Size)
Artist:Yuusha Party
ArtistUnicode:勇者パーティー
Creator:Finesse4k
Version:Ash's Insane
Source:えんどろ~!
Tags:Anime Japanese Endro Rip46 Asherz007 Endro~! Opening OP ユーシャ セイラ Seira ファイ Fai メイ Mei 赤尾ひかる Akao Hikaru 夏川椎菜 Natsukawa Shiina 小澤亜李 Ozawa Ari 水瀬いのり Minase Inori KICM-3354 jpop pop j-pop
BeatmapID:2233578
BeatmapSetID:1044591

[Difficulty]
HPDrainRate:8.5
CircleSize:4
OverallDifficulty:8.5
ApproachRate:5
SliderMultiplier:1.4
SliderTickRate:1

[Events]
//Background and Video events
0,0,"endro.jpg",0,0
//Break Periods
//Storyboard Layer 0 (Background)
//Storyboard Layer 1 (Fail)
//Storyboard Layer 2 (Pass)
//Storyboard Layer 3 (Foreground)
//Storyboard Layer 4 (Overlay)
//Storyboard Sound Samples

[TimingPoints]
820,428.571428571429,4,3,1,32,1,0
57391,-100,4,3,1,32,0,1
83105,-100,4,3,1,32,0,0

[HitObjects]
448,192,391,5,0,0:0:0:0:
320,192,462,1,0,0:0:0:0:
192,192,534,1,0,0:0:0:0:
64,192,605,1,0,0:0:0:0:
448,192,712,1,0,0:0:0:0:
64,192,820,1,0,0:0:0:70:LR_CymbalQST.wav
192,192,820,1,0,0:0:0:70:Kick.wav
320,192,820,1,0,0:0:0:0:
320,192,1034,1,0,0:0:0:0:
320,192,1248,1,0,0:0:0:0:
192,192,1462,128,0,1677:0:0:0:0:
192,192,1891,1,0,0:0:0:0:
192,192,2105,1,0,0:0:0:0:
192,192,2320,1,0,0:0:0:0:
448,192,2534,1,0,0:0:0:0:
448,192,2748,1,0,0:0:0:0:
448,192,2962,1,0,0:0:0:0:
64,192,3105,1,0,0:0:0:0:
320,192,3177,128,0,3820:0:0:0:0:
192,192,3248,1,0,0:0:0:0:
448,192,3391,128,0,3820:0:0:0:0:
192,192,3820,128,0,4248:0:0:0:0:
64,192,4248,1,0,0:0:0:70:LR_CymbalQST.wav
320,192,4248,1,0,0:0:0:70:Kick.wav
448,192,4248,1,0,0:0:0:0:
320,192,4462,1,0,0:0:0:0:
320,192,4677,1,0,0:0:0:0:
192,192,4891,128,0,5105:0:0:0:0:
192,192,5320,1,0,0:0:0:0:
192,192,5534,1,0,0:0:0:0:
192,192,5748,1,0,0:0:0:0:
448,192,5962,1,0,0:0:0:0:
448,192,6177,1,0,0:0:0:0:
448,192,6391,1,0,0:0:0:0:
320,192,6605,128,0,7248:0:0:0:0:
64,192,6820,128,0,7248:0:0:0:0:
448,192,7141,1,0,0:0:0:0:
192,192,7248,128,0,7677:0:0:0:0:
64,192,7677,1,0,0:0:0:70:LR_CymbalQST.wav
320,192,7677,1,0,0:0:0:70:Kick.wav
448,192,7677,1,0,0:0:0:0:
320,192,7891,1,0,0:0:0:0:
64,192,8105,1,2,0:0:0:70:Kick.wav
320,192,8105,1,0,0:0:0:0:
192,192,8320,128,0,8534:0:0:0:0:
320,192,8534,1,0,0:0:0:70:Kick.wav
448,192,8534,1,0,0:0:0:0:
192,192,8748,1,0,0:0:0:0:
320,192,8855,1,0,0:0:0:0:
64,192,8962,1,0,0:0:0:70:Kick.wav
192,192,8962,1,0,0:0:0:0:
192,192,9177,1,0,0:0:0:0:
64,192,9284,1,0,0:0:0:0:
320,192,9391,1,0,0:0:0:70:Kick.wav
448,192,9391,1,0,0:0:0:0:
448,192,9605,1,0,0:0:0:0:
192,192,9820,1,0,0:0:0:70:Kick.wav
448,192,9820,1,0,0:0:0:0:
320,192,10034,128,0,10677:0:0:0:0:
192,192,10141,1,0,0:0:0:0:
64,192,10248,1,0,0:0:0:70:Kick.wav
448,192,10248,1,0,0:0:0:0:
64,192,10570,1,0,0:0:0:0:
192,192,10677,1,0,0:0:0:70:Kick.wav
448,192,10677,1,0,0:0:0:0:
64,192,11105,1,0,0:0:0:70:LR_CymbalQST.wav
192,192,11105,1,0,0:0:0:70:Kick.wav
448,192,11105,1,0,0:0:0:0:
192,192,11320,1,0,0:0:0:70:Kick.wav
320,192,11320,1,0,0:0:0:0:
64,192,11534,1,0,0:0:0:70:Drum.wav
320,192,11534,1,0,0:0:0:0:
448,192,11534,1,0,0:0:0:0:
64,192,11748,1,0,0:0:0:70:Kick.wav
192,192,11748,1,0,0:0:0:0:
192,192,12177,1,0,0:0:0:70:Kick.wav
320,192,12177,1,0,0:0:0:0:
64,192,12391,1,0,0:0:0:70:Drum.wav
192,192,12391,1,0,0:0:0:0:
448,192,12391,1,0,0:0:0:0:
64,192,12605,128,0,12927:0:0:0:70:LR_CymbalQST.wav
320,192,12605,1,0,0:0:0:70:Kick.wav
448,192,12605,128,0,12927:0:0:0:0:
64,192,13034,1,0,0:0:0:70:Drum.wav
192,192,13034,1,0,0:0:0:70:Kick.wav
448,192,13034,1,0,0:0:0:0:
448,192,13248,1,0,0:0:0:0:
64,192,13248,1,0,0:0:0:70:Kick.wav
192,192,13677,1,0,0:0:0:0:
320,192,13891,1,0,0:0:0:0:
448,192,13998,1,0,0:0:0:0:
64,192,14105,1,0,0:0:0:0:
192,192,14177,1,0,0:0:0:0:
320,192,14248,1,0,0:0:0:0:
448,192,14320,1,0,0:0:0:0:
64,192,14373,1,0,0:0:0:0:
192,192,14427,1,0,0:0:0:0:
320,192,14480,1,0,0:0:0:0:
448,192,14534,1,0,0:0:0:70:Kick.wav
64,192,14534,1,0,0:0:0:70:LR_CymbalQST.wav
320,192,14748,1,0,0:0:0:0:
64,192,14962,1,0,0:0:0:70:Kick.wav
192,192,14962,1,0,0:0:0:0:
448,192,15177,1,0,0:0:0:0:
192,192,15391,1,0,0:0:0:70:Kick.wav
320,192,15391,1,0,0:0:0:0:
64,192,15605,1,0,0:0:0:0:
320,192,15820,1,0,0:0:0:70:Kick.wav
448,192,15820,1,0,0:0:0:0:
192,192,16034,1,0,0:0:0:0:
320,192,16141,1,0,0:0:0:0:
64,192,16248,1,0,0:0:0:70:Kick.wav
448,192,16248,1,0,0:0:0:0:
192,192,16462,1,0,0:0:0:0:
320,192,16677,1,0,0:0:0:70:Kick.wav
448,192,16677,1,0,0:0:0:0:
64,192,16891,1,0,0:0:0:0:
192,192,17105,1,0,0:0:0:70:Kick.wav
448,192,17105,1,0,0:0:0:0:
320,192,17320,1,0,0:0:0:0:
192,192,17427,1,0,0:0:0:0:
64,192,17534,1,0,0:0:0:70:Kick.wav
448,192,17534,1,0,0:0:0:0:
192,192,17748,1,0,0:0:0:0:
64,192,17855,1,0,0:0:0:0:
320,192,17962,1,0,0:0:0:70:Kick.wav
448,192,17962,1,0,0:0:0:0:
192,192,18177,1,0,0:0:0:0:
64,192,18391,1,0,0:0:0:70:Kick.wav
320,192,18391,1,0,0:0:0:0:
448,192,18605,1,0,0:0:0:0:
192,192,18820,1,0,0:0:0:70:Kick.wav
320,192,18820,1,0,0:0:0:0:
64,192,19034,1,0,0:0:0:0:
192,192,19248,1,0,0:0:0:70:Kick.wav
448,192,19248,1,0,0:0:0:0:
320,192,19462,1,0,0:0:0:0:
192,192,19570,1,0,0:0:0:0:
64,192,19677,1,0,0:0:0:70:Kick.wav
448,192,19677,1,0,0:0:0:0:
320,192,19891,1,0,0:0:0:0:
64,192,20105,1,0,0:0:0:70:Kick.wav
192,192,20105,1,0,0:0:0:0:
448,192,20320,1,0,0:0:0:0:
192,192,20427,1,0,0:0:0:0:
64,192,20534,1,0,0:0:0:70:Kick.wav
320,192,20534,1,0,0:0:0:0:
448,192,20641,1,0,0:0:0:0:
64,192,20748,1,0,0:0:0:0:
192,192,20855,1,0,0:0:0:0:
320,192,20962,1,0,0:0:0:70:Kick.wav
448,192,20962,1,0,0:0:0:0:
192,192,21177,1,0,0:0:0:0:
320,192,21284,1,0,0:0:0:0:
64,192,21391,1,0,0:0:0:70:LR_CymbalQST.wav
192,192,21391,1,0,0:0:0:70:Kick.wav
448,192,21391,1,0,0:0:0:0:
320,192,21605,1,0,0:0:0:0:
64,192,21820,1,0,0:0:0:70:Kick.wav
192,192,21820,1,0,0:0:0:0:
448,192,22034,1,0,0:0:0:0:
64,192,22248,1,0,0:0:0:70:Kick.wav
320,192,22248,1,0,0:0:0:0:
192,192,22462,1,0,0:0:0:0:
320,192,22534,1,0,0:0:0:0:
448,192,22605,1,0,0:0:0:0:
64,192,22677,1,0,0:0:0:70:Kick.wav
192,192,22677,1,0,0:0:0:0:
320,192,22891,1,0,0:0:0:0:
64,192,22998,1,0,0:0:0:0:
192,192,23105,1,0,0:0:0:70:Kick.wav
448,192,23105,1,0,0:0:0:0:
320,192,23320,1,0,0:0:0:0:
64,192,23534,1,0,0:0:0:70:Kick.wav
192,192,23534,1,0,0:0:0:0:
320,192,23748,1,0,0:0:0:0:
64,192,23962,1,0,0:0:0:70:Kick.wav
448,192,23962,1,0,0:0:0:0:
320,192,24177,1,0,0:0:0:0:
192,192,24248,1,0,0:0:0:0:
64,192,24320,1,0,0:0:0:0:
320,192,24391,1,0,0:0:0:70:Kick.wav
448,192,24391,1,0,0:0:0:0:
192,192,24605,1,0,0:0:0:0:
448,192,24712,1,0,0:0:0:0:
64,192,24820,1,0,0:0:0:70:Kick.wav
320,192,24820,1,0,0:0:0:0:
192,192,25034,1,0,0:0:0:0:
64,192,25248,1,0,0:0:0:70:Kick.wav
448,192,25248,1,0,0:0:0:0:
320,192,25462,1,0,0:0:0:0:
192,192,25677,1,0,0:0:0:70:Kick.wav
448,192,25677,1,0,0:0:0:0:
64,192,25784,1,0,0:0:0:0:
320,192,25891,1,0,0:0:0:0:
192,192,25998,1,0,0:0:0:0:
64,192,26105,1,0,0:0:0:70:Kick.wav
448,192,26105,1,0,0:0:0:0:
320,192,26320,1,0,0:0:0:0:
448,192,26427,1,0,0:0:0:0:
64,192,26534,1,0,0:0:0:70:Kick.wav
192,192,26534,1,0,0:0:0:0:
320,192,26748,1,0,0:0:0:0:
192,192,26962,1,0,0:0:0:70:Kick.wav
448,192,26962,1,0,0:0:0:0:
64,192,27177,1,0,0:0:0:0:
448,192,27284,1,0,0:0:0:0:
192,192,27391,1,0,0:0:0:70:Kick.wav
320,192,27391,1,0,0:0:0:0:
64,192,27605,1,0,0:0:0:70:Drum.wav
320,192,27605,1,0,0:0:0:0:
448,192,27605,1,0,0:0:0:0:
64,192,27820,1,0,0:0:0:70:Drum.wav
192,192,27820,1,0,0:0:0:0:
448,192,27820,1,0,0:0:0:0:
320,192,27927,1,0,0:0:0:0:
64,192,28034,1,0,0:0:0:70:Drum.wav
192,192,28034,1,0,0:0:0:0:
320,192,28141,1,0,0:0:0:70:Drum.wav
64,192,28248,1,0,0:0:0:70:LR_CymbalQST.wav
192,192,28248,1,0,0:0:0:70:Kick.wav
448,192,28248,1,0,0:0:0:0:
448,192,28462,1,0,0:0:0:0:
192,192,28677,1,2,0:0:0:70:Kick.wav
64,192,28677,1,0,0:0:0:50:Drum.wav
320,192,28891,1,0,0:0:0:0:
64,192,29105,1,0,0:0:0:70:Kick.wav
448,192,29105,1,0,0:0:0:0:
192,192,29320,1,0,0:0:0:0:
64,192,29534,1,0,0:0:0:70:Drum.wav
448,192,29534,1,0,0:0:0:0:
320,192,29534,1,0,0:0:0:70:Kick.wav
320,192,29748,1,0,0:0:0:0:
64,192,29962,1,0,0:0:0:70:Kick.wav
192,192,29962,1,0,0:0:0:0:
448,192,30177,1,0,0:0:0:0:
64,192,30391,1,0,0:0:0:70:Drum.wav
192,192,30391,1,0,0:0:0:70:Kick.wav
320,192,30391,1,0,0:0:0:0:
192,192,30605,1,0,0:0:0:0:
64,192,30820,1,0,0:0:0:70:Kick.wav
320,192,30820,1,0,0:0:0:0:
448,192,31034,1,0,0:0:0:0:
320,192,31105,1,0,0:0:0:0:
192,192,31177,1,0,0:0:0:0:
64,192,31248,1,0,0:0:0:70:Drum.wav
320,192,31248,1,0,0:0:0:70:Kick.wav
448,192,31248,1,0,0:0:0:0:
64,192,31462,1,0,0:0:0:0:
192,192,31677,1,0,0:0:0:70:Kick.wav
448,192,31677,1,0,0:0:0:0:
320,192,31891,1,0,0:0:0:0:
64,192,32105,1,0,0:0:0:70:Drum.wav
448,192,32105,1,0,0:0:0:0:
192,192,32105,1,0,0:0:0:70:Kick.wav
448,192,32320,1,0,0:0:0:0:
64,192,32534,1,0,0:0:0:70:Kick.wav
320,192,32534,1,0,0:0:0:0:
192,192,32748,1,0,0:0:0:0:
64,192,32962,1,0,0:0:0:70:Drum.wav
320,192,32962,1,0,0:0:0:70:Kick.wav
448,192,32962,1,0,0:0:0:0:
320,192,33177,1,0,0:0:0:0:
192,192,33391,1,0,0:0:0:70:Kick.wav
448,192,33391,1,0,0:0:0:0:
64,192,33605,1,0,0:0:0:0:
192,192,33820,1,0,0:0:0:70:Drum.wav
320,192,33820,1,0,0:0:0:70:Kick.wav
448,192,33820,1,0,0:0:0:0:
192,192,34034,1,0,0:0:0:0:
320,192,34248,1,0,0:0:0:70:Kick.wav
448,192,34248,1,0,0:0:0:0:
64,192,34462,1,0,0:0:0:0:
192,192,34534,1,0,0:0:0:0:
320,192,34605,1,0,0:0:0:0:
64,192,34677,1,0,0:0:0:70:Drum.wav
192,192,34677,1,0,0:0:0:70:Kick.wav
448,192,34677,1,0,0:0:0:0:
448,192,34891,128,0,35105:0:0:0:0:
64,192,35105,1,0,0:0:0:70:Kick.wav
320,192,35105,1,0,0:0:0:0:
192,192,35320,1,0,0:0:0:0:
64,192,35534,1,0,0:0:0:70:Drum.wav
320,192,35534,1,0,0:0:0:70:Kick.wav
448,192,35534,1,0,0:0:0:0:
320,192,35748,1,0,0:0:0:0:
64,192,35962,1,0,0:0:0:70:Kick.wav
192,192,35962,1,0,0:0:0:0:
448,192,36177,1,0,0:0:0:0:
320,192,36248,1,0,0:0:0:0:
192,192,36320,1,0,0:0:0:0:
64,192,36391,1,0,0:0:0:70:Drum.wav
320,192,36391,1,0,0:0:0:70:Kick.wav
448,192,36391,1,0,0:0:0:0:
448,192,36605,1,0,0:0:0:0:
64,192,36820,1,0,0:0:0:70:Kick.wav
192,192,36820,1,0,0:0:0:0:
320,192,37034,1,0,0:0:0:0:
64,192,37248,1,0,0:0:0:70:Drum.wav
192,192,37248,1,0,0:0:0:70:Kick.wav
448,192,37248,1,0,0:0:0:0:
192,192,37462,1,0,0:0:0:0:
320,192,37677,1,0,0:0:0:70:Kick.wav
448,192,37677,1,0,0:0:0:0:
64,192,37891,1,0,0:0:0:0:
192,192,37962,1,0,0:0:0:0:
320,192,38034,1,0,0:0:0:0:
64,192,38105,1,0,0:0:0:70:Drum.wav
192,192,38105,1,0,0:0:0:70:Kick.wav
448,192,38105,1,0,0:0:0:0:
64,192,38320,128,0,38534:0:0:0:0:
192,192,38534,1,0,0:0:0:70:Kick.wav
448,192,38534,1,0,0:0:0:0:
320,192,38748,1,0,0:0:0:0:
64,192,38962,1,0,0:0:0:70:Drum.wav
192,192,38962,1,0,0:0:0:70:Kick.wav
448,192,38962,1,0,0:0:0:0:
192,192,39177,1,0,0:0:0:0:
320,192,39284,1,0,0:0:0:0:
64,192,39391,1,0,0:0:0:70:Kick.wav
448,192,39391,1,0,0:0:0:0:
192,192,39605,1,0,0:0:0:0:
64,192,39820,1,0,0:0:0:70:Drum.wav
320,192,39820,1,0,0:0:0:70:Kick.wav
448,192,39820,1,0,0:0:0:0:
192,192,40034,1,0,0:0:0:0:
320,192,40105,1,0,0:0:0:0:
448,192,40177,1,0,0:0:0:0:
64,192,40248,1,0,0:0:0:70:Kick.wav
192,192,40248,1,0,0:0:0:0:
64,192,40462,1,0,0:0:0:70:Drum.wav
320,192,40462,1,0,0:0:0:0:
448,192,40462,1,0,0:0:0:0:
192,192,40677,1,0,0:0:0:70:Drum.wav
320,192,40677,1,0,0:0:0:0:
448,192,40677,1,0,0:0:0:0:
64,192,40891,1,0,0:0:0:0:
320,192,40998,1,0,0:0:0:70:Drum.wav
448,192,40998,1,0,0:0:0:0:
64,192,41105,1,0,0:0:0:70:Drum.wav
192,192,41105,1,0,0:0:0:0:
192,192,41320,1,0,0:0:0:70:Tom1.wav
320,192,41320,1,0,0:0:0:0:
64,192,41534,1,0,0:0:0:70:Drum.wav
320,192,41534,1,0,0:0:0:0:
448,192,41534,1,0,0:0:0:0:
64,192,41748,1,0,0:0:0:70:Tom2.wav
192,192,41748,1,0,0:0:0:0:
320,192,41855,1,0,0:0:0:70:Tom3.wav
64,192,41962,1,0,0:0:0:70:LR_CymbalQST.wav
192,192,41962,1,0,0:0:0:70:Kick.wav
448,192,41962,1,0,0:0:0:0:
192,192,42284,1,0,0:0:0:70:Kick.wav
448,192,42284,1,0,0:0:0:0:
320,192,42391,1,0,0:0:0:0:
192,192,42605,1,0,0:0:0:70:Kick.wav
448,192,42605,1,0,0:0:0:0:
64,192,42820,1,0,0:0:0:70:Drum.wav
320,192,42820,1,0,0:0:0:0:
448,192,42820,1,0,0:0:0:0:
320,192,43248,1,0,0:0:0:0:
64,192,43462,128,0,43677:0:0:0:0:
192,192,43677,128,0,44320:0:0:0:70:Kick.wav
448,192,43677,1,0,0:0:0:0:
320,192,44105,1,0,0:0:0:0:
64,192,44320,1,0,0:0:0:70:Kick.wav
448,192,44320,128,0,44534:0:0:0:0:
64,192,44534,1,0,0:0:0:70:Tom1.wav
192,192,44534,1,0,0:0:0:50:Drum.wav
320,192,44534,1,0,0:0:0:0:
192,192,44855,1,0,0:0:0:70:Tom2.wav
448,192,44855,1,0,0:0:0:0:
320,192,44962,1,0,0:0:0:0:
64,192,45177,1,0,0:0:0:70:Tom3.wav
192,192,45177,1,0,0:0:0:0:
64,192,45391,1,0,0:0:0:70:LR_CymbalQST.wav
320,192,45391,1,0,0:0:0:70:Kick.wav
448,192,45391,1,0,0:0:0:0:
64,192,45712,1,0,0:0:0:70:Kick.wav
320,192,45712,1,0,0:0:0:0:
192,192,45820,1,0,0:0:0:0:
64,192,46034,1,0,0:0:0:70:Kick.wav
320,192,46034,1,0,0:0:0:0:
64,192,46248,1,0,0:0:0:70:Drum.wav
192,192,46248,1,0,0:0:0:0:
448,192,46248,1,0,0:0:0:0:
448,192,46462,128,0,46677:0:0:0:0:
320,192,46677,128,0,46891:0:0:0:0:
64,192,46891,128,0,47105:0:0:0:0:
192,192,47105,128,0,47748:0:0:0:70:Kick.wav
448,192,47105,1,0,0:0:0:0:
320,192,47534,1,0,0:0:0:0:
64,192,47748,1,2,0:0:0:70:Kick.wav
448,192,47748,1,0,0:0:0:0:
192,192,47962,1,0,0:0:0:70:Drum.wav
320,192,47962,1,0,0:0:0:0:
448,192,47962,1,0,0:0:0:0:
64,192,48177,1,0,0:0:0:40:LR_CymbalQST.wav
192,192,48177,1,0,0:0:0:70:Kick.wav
320,192,48177,1,0,0:0:0:0:
64,192,48391,1,0,0:0:0:70:Drum.wav
192,192,48391,1,0,0:0:0:0:
448,192,48391,1,0,0:0:0:0:
320,192,48605,1,0,0:0:0:70:Tom3.wav
448,192,48605,1,0,0:0:0:0:
192,192,48712,1,0,0:0:0:70:Tom3.wav
64,192,48820,128,2,49248:0:0:0:70:Kick.wav
320,192,48820,1,0,0:0:0:55:LR_CymbalQST.wav
448,192,48820,1,0,0:0:0:0:
192,192,49248,1,0,0:0:0:70:Kick.wav
448,192,49248,1,0,0:0:0:0:
320,192,49462,1,0,0:0:0:0:
64,192,49677,1,0,0:0:0:70:Kick.wav
448,192,49677,1,0,0:0:0:0:
192,192,49891,1,0,0:0:0:0:
64,192,50105,1,0,0:0:0:70:Drum.wav
320,192,50105,1,0,0:0:0:0:
448,192,50105,1,0,0:0:0:0:
320,192,50320,1,0,0:0:0:0:
448,192,50427,1,0,0:0:0:0:
64,192,50534,1,0,0:0:0:70:Kick.wav
192,192,50534,1,0,0:0:0:0:
448,192,50748,1,0,0:0:0:0:
64,192,50962,1,0,0:0:0:70:Kick.wav
320,192,50962,1,0,0:0:0:0:
192,192,51177,1,0,0:0:0:0:
64,192,51391,1,0,0:0:0:70:Kick.wav
448,192,51391,1,0,0:0:0:0:
192,192,51605,1,0,0:0:0:70:Drum.wav
320,192,51605,1,0,0:0:0:0:
448,192,51605,1,0,0:0:0:0:
64,192,51820,1,0,0:0:0:40:LR_CymbalQST.wav
192,192,51820,1,0,0:0:0:70:Drum.wav
320,192,51820,1,0,0:0:0:0:
448,192,52034,1,0,0:0:0:0:
192,192,52141,1,0,0:0:0:0:
64,192,52248,1,0,0:0:0:55:LR_CymbalQST.wav
320,192,52248,1,0,0:0:0:70:Kick.wav
448,192,52248,1,0,0:0:0:0:
192,192,52462,1,0,0:0:0:0:
64,192,52677,1,0,0:0:0:70:Drum.wav
320,192,52677,1,0,0:0:0:0:
448,192,52677,1,0,0:0:0:0:
320,192,52891,1,0,0:0:0:0:
64,192,52998,1,0,0:0:0:0:
192,192,52998,1,0,0:0:0:55:Drum.wav
320,192,53105,1,0,0:0:0:70:Kick.wav
448,192,53105,1,0,0:0:0:0:
192,192,53212,1,0,0:0:0:55:Drum.wav
64,192,53212,1,0,0:0:0:0:
448,192,53320,1,0,0:0:0:0:
64,192,53534,1,0,0:0:0:70:Drum.wav
192,192,53534,1,0,0:0:0:0:
320,192,53534,1,0,0:0:0:0:
64,192,53748,1,0,0:0:0:70:LR_CymbalQST.wav
320,192,53748,128,0,54177:0:0:0:70:Kick.wav
448,192,53748,128,0,54177:0:0:0:0:
64,192,54177,1,0,0:0:0:70:Drum.wav
192,192,54177,1,0,0:0:0:0:
320,192,54284,1,0,0:0:0:70:Drum.wav
448,192,54284,1,0,0:0:0:0:
64,192,54391,1,0,0:0:0:70:Drum.wav
192,192,54391,1,0,0:0:0:70:Kick.wav
64,192,54605,1,0,0:0:0:70:Drum.wav
448,192,54605,1,0,0:0:0:0:
192,192,54712,1,0,0:0:0:70:Drum.wav
320,192,54712,1,0,0:0:0:0:
64,192,54820,1,0,0:0:0:70:Drum.wav
448,192,54820,1,0,0:0:0:70:Kick.wav
320,192,55034,1,0,0:0:0:70:Drum.wav
448,192,55034,1,0,0:0:0:0:
64,192,55141,1,0,0:0:0:70:Drum.wav
192,192,55141,1,0,0:0:0:0:
320,192,55248,1,0,0:0:0:70:Drum.wav
448,192,55248,1,0,0:0:0:70:Kick.wav
64,192,55462,128,0,55784:0:0:0:70:LR_CymbalQST.wav
192,192,55462,128,0,55784:0:0:0:70:Kick.wav
448,192,55462,128,0,55784:0:0:0:0:
64,192,55891,1,0,0:0:0:70:Kick.wav
192,192,55891,1,0,0:0:0:50:Tom3.wav
448,192,55891,1,0,0:0:0:0:
64,192,56105,1,0,0:0:0:70:Kick.wav
192,192,56105,1,0,0:0:0:50:Tom3.wav
448,192,56105,1,0,0:0:0:0:
192,192,56962,1,0,0:0:0:0:
320,192,57034,1,0,0:0:0:0:
448,192,57105,1,0,0:0:0:0:
64,192,57177,1,0,0:0:0:0:
192,192,57248,1,0,0:0:0:0:
320,192,57320,1,0,0:0:0:0:
64,192,57391,1,0,0:0:0:70:LR_CymbalQST.wav
192,192,57391,1,0,0:0:0:70:Kick.wav
448,192,57391,1,0,0:0:0:0:
320,192,57498,1,0,0:0:0:0:
64,192,57605,1,0,0:0:0:0:
448,192,57712,1,0,0:0:0:0:
192,192,57820,1,0,0:0:0:70:Kick.wav
320,192,57820,1,0,0:0:0:0:
64,192,57927,1,0,0:0:0:0:
448,192,58034,1,0,0:0:0:0:
64,192,58141,1,0,0:0:0:50:Drum.wav
192,192,58141,1,0,0:0:0:0:
320,192,58248,1,0,0:0:0:70:Kick.wav
448,192,58248,1,0,0:0:0:0:
192,192,58355,1,0,0:0:0:0:
320,192,58462,1,0,0:0:0:0:
64,192,58570,1,0,0:0:0:58:Drum.wav
448,192,58570,1,0,0:0:0:0:
192,192,58677,1,0,0:0:0:70:Kick.wav
320,192,58677,1,0,0:0:0:0:
64,192,58784,1,0,0:0:0:58:Drum.wav
320,192,58891,1,0,0:0:0:58:Drum.wav
448,192,58891,1,0,0:0:0:0:
192,192,58998,1,0,0:0:0:58:Drum.wav
64,192,59105,1,0,0:0:0:58:Drum.wav
320,192,59105,1,0,0:0:0:70:Kick.wav
448,192,59212,1,0,0:0:0:0:
192,192,59320,1,0,0:0:0:58:Drum.wav
320,192,59427,1,0,0:0:0:58:Drum.wav
448,192,59427,1,0,0:0:0:0:
64,192,59534,1,0,0:0:0:58:Drum.wav
192,192,59534,1,0,0:0:0:70:Kick.wav
448,192,59641,1,0,0:0:0:0:
64,192,59748,1,0,0:0:0:58:Drum.wav
192,192,59855,1,0,0:0:0:58:Drum.wav
320,192,59855,1,0,0:0:0:0:
64,192,59962,1,0,0:0:0:58:Drum.wav
448,192,59962,1,0,0:0:0:70:Kick.wav
320,192,60070,1,0,0:0:0:0:
192,192,60177,1,0,0:0:0:58:Drum.wav
64,192,60284,1,0,0:0:0:58:Drum.wav
320,192,60284,1,0,0:0:0:0:
192,192,60391,1,0,0:0:0:58:Drum.wav
448,192,60391,1,0,0:0:0:70:Kick.wav
320,192,60498,1,0,0:0:0:58:Drum.wav
64,192,60605,1,0,0:0:0:58:Drum.wav
192,192,60605,1,0,0:0:0:0:
448,192,60712,1,0,0:0:0:58:Drum.wav
64,192,60820,1,0,0:0:0:58:Drum.wav
320,192,60820,1,0,0:0:0:70:Kick.wav
192,192,60927,1,0,0:0:0:0:
448,192,61034,1,0,0:0:0:58:Drum.wav
192,192,61141,1,0,0:0:0:58:Drum.wav
320,192,61141,1,0,0:0:0:0:
64,192,61248,1,0,0:0:0:58:Drum.wav
448,192,61248,1,0,0:0:0:70:Kick.wav
192,192,61355,1,0,0:0:0:0:
320,192,61462,1,0,0:0:0:58:Drum.wav
64,192,61570,1,0,0:0:0:58:Drum.wav
448,192,61570,1,0,0:0:0:0:
192,192,61677,1,0,0:0:0:58:Drum.wav
320,192,61677,1,0,0:0:0:70:Kick.wav
64,192,61784,1,0,0:0:0:0:
448,192,61891,1,0,0:0:0:58:Drum.wav
64,192,61998,1,0,0:0:0:58:Drum.wav
192,192,61998,1,0,0:0:0:0:
320,192,62105,1,0,0:0:0:58:Drum.wav
448,192,62105,1,0,0:0:0:70:Kick.wav
192,192,62212,1,0,0:0:0:58:Drum.wav
64,192,62320,1,0,0:0:0:58:Drum.wav
320,192,62320,1,0,0:0:0:0:
448,192,62427,1,0,0:0:0:58:Drum.wav
64,192,62534,1,0,0:0:0:58:Drum.wav
192,192,62534,1,0,0:0:0:70:Kick.wav
320,192,62641,1,0,0:0:0:0:
192,192,62748,1,0,0:0:0:58:Drum.wav
64,192,62855,1,0,0:0:0:58:Drum.wav
448,192,62855,1,0,0:0:0:0:
192,192,62962,1,0,0:0:0:58:Drum.wav
320,192,62962,1,0,0:0:0:70:Kick.wav
448,192,63070,1,0,0:0:0:0:
64,192,63177,1,0,0:0:0:58:Drum.wav
320,192,63284,1,0,0:0:0:58:Drum.wav
448,192,63284,1,0,0:0:0:0:
64,192,63391,1,0,0:0:0:58:Drum.wav
192,192,63391,1,0,0:0:0:70:Kick.wav
320,192,63498,1,0,0:0:0:0:
192,192,63605,1,0,0:0:0:58:Drum.wav
64,192,63712,1,0,0:0:0:58:Drum.wav
320,192,63712,1,0,0:0:0:0:
192,192,63820,1,0,0:0:0:58:Drum.wav
448,192,63820,1,0,0:0:0:70:Kick.wav
320,192,63927,1,0,0:0:0:58:Drum.wav
64,192,64034,1,0,0:0:0:58:Drum.wav
448,192,64034,1,0,0:0:0:0:
192,192,64141,1,0,0:0:0:58:Drum.wav
64,192,64248,1,0,0:0:0:58:Drum.wav
320,192,64248,1,0,0:0:0:70:Kick.wav
448,192,64355,1,0,0:0:0:0:
192,192,64462,1,0,0:0:0:58:Drum.wav
320,192,64570,1,0,0:0:0:58:Drum.wav
448,192,64570,1,0,0:0:0:0:
64,192,64677,1,0,0:0:0:58:Drum.wav
192,192,64677,1,0,0:0:0:70:Kick.wav
320,192,64784,1,0,0:0:0:0:
64,192,64891,1,0,0:0:0:58:Drum.wav
192,192,64998,1,0,0:0:0:58:Drum.wav
448,192,64998,1,0,0:0:0:0:
64,192,65105,1,0,0:0:0:58:Drum.wav
320,192,65105,1,0,0:0:0:70:Kick.wav
448,192,65212,1,0,0:0:0:0:
192,192,65320,1,0,0:0:0:58:Drum.wav
320,192,65427,1,0,0:0:0:58:Drum.wav
448,192,65427,1,0,0:0:0:0:
64,192,65534,1,0,0:0:0:58:Drum.wav
192,192,65534,1,0,0:0:0:70:Kick.wav
320,192,65641,1,0,0:0:0:58:Drum.wav
64,192,65748,1,0,0:0:0:58:Drum.wav
448,192,65748,1,0,0:0:0:0:
192,192,65855,1,0,0:0:0:58:Drum.wav
320,192,65962,1,0,0:0:0:58:Drum.wav
448,192,65962,1,0,0:0:0:70:Kick.wav
64,192,66070,1,0,0:0:0:0:
320,192,66177,1,0,0:0:0:58:Drum.wav
192,192,66284,1,0,0:0:0:58:Drum.wav
448,192,66284,1,0,0:0:0:0:
64,192,66391,1,0,0:0:0:58:Drum.wav
320,192,66391,1,0,0:0:0:70:Kick.wav
192,192,66498,1,0,0:0:0:0:
448,192,66605,1,0,0:0:0:58:Drum.wav
192,192,66712,1,0,0:0:0:58:Drum.wav
320,192,66712,1,0,0:0:0:0:
64,192,66820,1,0,0:0:0:58:Drum.wav
448,192,66820,1,0,0:0:0:70:Kick.wav
192,192,66927,1,0,0:0:0:0:
320,192,67034,1,0,0:0:0:58:Drum.wav
64,192,67141,1,0,0:0:0:58:Drum.wav
448,192,67141,1,0,0:0:0:0:
192,192,67248,1,0,0:0:0:58:Drum.wav
320,192,67248,1,0,0:0:0:70:Kick.wav
64,192,67355,1,0,0:0:0:58:Drum.wav
320,192,67462,1,0,0:0:0:58:Drum.wav
448,192,67462,1,0,0:0:0:0:
192,192,67570,1,0,0:0:0:58:Drum.wav
64,192,67677,1,0,0:0:0:58:Drum.wav
448,192,67677,1,0,0:0:0:70:Kick.wav
320,192,67784,1,0,0:0:0:0:
192,192,67891,1,0,0:0:0:58:Drum.wav
64,192,67998,1,0,0:0:0:58:Drum.wav
448,192,67998,1,0,0:0:0:0:
192,192,68105,1,0,0:0:0:58:Drum.wav
320,192,68105,1,0,0:0:0:70:Kick.wav
448,192,68212,1,0,0:0:0:0:
64,192,68320,1,0,0:0:0:58:Drum.wav
320,192,68427,1,0,0:0:0:58:Drum.wav
448,192,68427,1,0,0:0:0:0:
64,192,68534,1,0,0:0:0:58:Drum.wav
192,192,68534,1,0,0:0:0:70:Kick.wav
320,192,68641,1,0,0:0:0:0:
192,192,68748,1,0,0:0:0:58:Drum.wav
64,192,68855,1,0,0:0:0:58:Drum.wav
448,192,68855,1,0,0:0:0:0:
192,192,68962,1,0,0:0:0:58:Drum.wav
320,192,68962,1,0,0:0:0:70:Kick.wav
448,192,69070,1,0,0:0:0:70:Drum.wav
64,192,69177,1,0,0:0:0:58:Drum.wav
192,192,69177,1,0,0:0:0:0:
320,192,69284,1,0,0:0:0:58:Drum.wav
64,192,69391,1,0,0:0:0:58:Drum.wav
448,192,69391,1,0,0:0:0:70:Kick.wav
192,192,69498,1,0,0:0:0:0:
320,192,69605,1,0,0:0:0:58:Drum.wav
64,192,69712,1,0,0:0:0:58:Drum.wav
192,192,69712,1,0,0:0:0:0:
320,192,69820,1,0,0:0:0:58:Drum.wav
448,192,69820,1,0,0:0:0:70:Kick.wav
64,192,69927,1,0,0:0:0:0:
448,192,70034,1,0,0:0:0:58:Drum.wav
192,192,70141,1,0,0:0:0:58:Drum.wav
320,192,70141,1,0,0:0:0:0:
64,192,70248,1,0,0:0:0:58:Drum.wav
448,192,70248,1,0,0:0:0:70:Kick.wav
192,192,70355,1,0,0:0:0:0:
320,192,70462,1,0,0:0:0:58:Drum.wav
448,192,70462,1,0,0:0:0:0:
192,192,70570,1,0,0:0:0:58:Drum.wav
64,192,70677,1,0,0:0:0:58:Drum.wav
320,192,70677,1,0,0:0:0:70:Kick.wav
448,192,70784,1,0,0:0:0:70:Tom1.wav
64,192,70891,1,0,0:0:0:70:Tom2.wav
192,192,70891,1,0,0:0:0:0:
320,192,70998,1,0,0:0:0:70:Tom3.wav
64,192,71105,1,0,0:0:0:70:LR_CymbalQST.wav
192,192,71105,1,0,0:0:0:70:Kick.wav
448,192,71105,1,0,0:0:0:0:
192,192,71320,1,0,0:0:0:0:
64,192,71534,1,0,0:0:0:70:Drum.wav
320,192,71534,1,0,0:0:0:0:
448,192,71534,1,0,0:0:0:0:
192,192,71748,1,0,0:0:0:0:
320,192,71855,1,0,0:0:0:70:Drum.wav
448,192,71855,1,0,0:0:0:0:
64,192,71962,1,0,0:0:0:70:Kick.wav
192,192,71962,1,0,0:0:0:0:
320,192,72070,1,0,0:0:0:70:Drum.wav
448,192,72070,1,0,0:0:0:0:
64,192,72177,1,0,0:0:0:0:
192,192,72391,1,0,0:0:0:70:Drum.wav
320,192,72391,1,0,0:0:0:0:
448,192,72391,1,0,0:0:0:0:
64,192,72605,1,0,0:0:0:0:
192,192,72712,1,0,0:0:0:70:Drum.wav
448,192,72712,1,0,0:0:0:0:
64,192,72820,1,0,0:0:0:70:Kick.wav
320,192,72820,1,0,0:0:0:0:
192,192,72927,1,0,0:0:0:70:Drum.wav
448,192,72927,1,0,0:0:0:0:
320,192,73034,1,0,0:0:0:0:
64,192,73248,1,0,0:0:0:70:Drum.wav
192,192,73248,1,0,0:0:0:0:
448,192,73248,1,0,0:0:0:0:
320,192,73462,1,0,0:0:0:0:
64,192,73570,1,0,0:0:0:70:Drum.wav
448,192,73570,1,0,0:0:0:0:
192,192,73677,1,0,0:0:0:70:Kick.wav
320,192,73677,1,0,0:0:0:0:
64,192,73784,1,0,0:0:0:70:Drum.wav
448,192,73784,1,0,0:0:0:0:
192,192,73891,1,0,0:0:0:0:
64,192,74105,1,0,0:0:0:70:Drum.wav
320,192,74105,1,0,0:0:0:0:
448,192,74105,1,0,0:0:0:0:
320,192,74320,1,0,0:0:0:0:
192,192,74427,1,0,0:0:0:70:Drum.wav
448,192,74427,1,0,0:0:0:0:
320,192,74534,1,0,0:0:0:70:Kick.wav
64,192,74534,1,0,0:0:0:0:
448,192,74641,1,0,0:0:0:0:
192,192,74641,1,0,0:0:0:70:Drum.wav
64,192,74748,1,0,0:0:0:0:
320,192,74962,1,0,0:0:0:70:Drum.wav
192,192,74962,1,0,0:0:0:0:
448,192,74962,1,0,0:0:0:0:
64,192,75177,1,0,0:0:0:0:
320,192,75284,1,0,0:0:0:70:Drum.wav
448,192,75284,1,0,0:0:0:0:
64,192,75391,1,0,0:0:0:70:Kick.wav
192,192,75391,1,0,0:0:0:0:
320,192,75498,1,0,0:0:0:70:Drum.wav
448,192,75498,1,0,0:0:0:0:
192,192,75605,1,0,0:0:0:0:
64,192,75820,1,0,0:0:0:70:Drum.wav
320,192,75820,1,0,0:0:0:0:
448,192,75820,1,0,0:0:0:0:
192,192,76034,1,0,0:0:0:0:
64,192,76141,1,0,0:0:0:70:Drum.wav
448,192,76141,1,0,0:0:0:0:
192,192,76248,1,0,0:0:0:70:Kick.wav
320,192,76248,1,0,0:0:0:0:
64,192,76355,1,0,0:0:0:70:Drum.wav
448,192,76355,1,0,0:0:0:0:
320,192,76462,1,0,0:0:0:0:
64,192,76677,1,0,0:0:0:70:Drum.wav
192,192,76677,1,0,0:0:0:0:
448,192,76677,1,0,0:0:0:0:
320,192,76891,1,0,0:0:0:0:
64,192,76998,1,0,0:0:0:70:Drum.wav
192,192,76998,1,0,0:0:0:0:
448,192,77105,1,0,0:0:0:70:Kick.wav
320,192,77105,1,0,0:0:0:0:
64,192,77212,1,0,0:0:0:70:Drum.wav
192,192,77212,1,0,0:0:0:0:
320,192,77320,1,0,0:0:0:70:Drum.wav
448,192,77320,1,0,0:0:0:0:
192,192,77427,1,0,0:0:0:58:Drum.wav
448,192,77534,1,0,0:0:0:70:Kick.wav
64,192,77534,1,0,0:0:0:0:
320,192,77641,1,0,0:0:0:70:Drum.wav
64,192,77748,1,0,0:0:0:70:Drum.wav
192,192,77748,1,0,0:0:0:0:
320,192,77855,1,0,0:0:0:70:Drum.wav
64,192,77962,1,0,0:0:0:70:LR_CymbalQST.wav
192,192,77962,1,0,0:0:0:70:Kick.wav
448,192,77962,1,0,0:0:0:0:
192,192,78177,1,0,0:0:0:70:Kick.wav
320,192,78177,1,0,0:0:0:0:
64,192,78391,1,0,0:0:0:70:Drum.wav
320,192,78391,1,0,0:0:0:0:
448,192,78391,1,0,0:0:0:0:
64,192,78605,128,0,78927:0:0:0:70:LR_CymbalQST.wav
192,192,78605,128,0,78927:0:0:0:70:Kick.wav
448,192,78605,128,0,78927:0:0:0:0:
64,192,79034,1,0,0:0:0:70:Tom1.wav
192,192,79034,1,0,0:0:0:0:
192,192,79248,1,0,0:0:0:70:Drum.wav
448,192,79248,1,0,0:0:0:0:
320,192,79248,1,0,0:0:0:0:
64,192,79462,1,0,0:0:0:70:Drum.wav
448,192,79462,1,0,0:0:0:0:
192,192,79570,1,0,0:0:0:70:Drum.wav
64,192,79677,1,0,0:0:0:70:LR_CymbalQST.wav
320,192,79677,1,0,0:0:0:70:Kick.wav
448,192,79677,1,0,0:0:0:0:
192,192,79891,1,0,0:0:0:70:Kick.wav
320,192,79891,1,0,0:0:0:0:
64,192,80105,1,0,0:0:0:70:Drum.wav
192,192,80105,1,0,0:0:0:0:
448,192,80105,1,0,0:0:0:0:
64,192,80320,128,0,80641:0:0:0:70:LR_CymbalQST.wav
320,192,80320,128,0,80641:0:0:0:70:Kick.wav
448,192,80320,128,0,80641:0:0:0:0:
192,192,80748,1,0,0:0:0:70:Kick.wav
320,192,80748,1,0,0:0:0:0:
64,192,80962,1,0,0:0:0:70:Drum.wav
192,192,80962,1,0,0:0:0:0:
448,192,80962,1,0,0:0:0:0:
320,192,81177,1,0,0:0:0:70:Drum.wav
448,192,81177,1,0,0:0:0:0:
192,192,81284,1,0,0:0:0:70:Drum.wav
64,192,81391,1,0,0:0:0:70:LR_CymbalQST.wav
320,192,81391,1,0,0:0:0:70:Kick.wav
448,192,81391,1,0,0:0:0:0:
192,192,81498,1,0,0:0:0:0:
320,192,81605,1,0,0:0:0:0:
64,192,81712,1,0,0:0:0:0:
192,192,81820,1,0,0:0:0:70:Kick.wav
448,192,81820,1,0,0:0:0:0:
320,192,81927,1,0,0:0:0:0:
192,192,82034,1,0,0:0:0:0:
64,192,82141,1,0,0:0:0:70:Drum.wav
448,192,82141,1,0,0:0:0:0:
192,192,82248,1,0,0:0:0:70:Kick.wav
320,192,82248,1,0,0:0:0:0:
448,192,82355,1,0,0:0:0:70:Drum.wav
64,192,82462,1,0,0:0:0:70:Drum.wav
192,192,82462,1,0,0:0:0:0:
320,192,82570,1,0,0:0:0:70:Drum.wav
448,192,82570,1,0,0:0:0:0:
64,192,82677,1,0,0:0:0:70:Drum.wav
192,192,82677,1,0,0:0:0:70:Kick.wav
320,192,82784,1,0,0:0:0:70:Drum.wav
448,192,82784,1,0,0:0:0:0:
64,192,82891,1,0,0:0:0:70:Drum.wav
192,192,82891,1,0,0:0:0:0:
320,192,82998,1,0,0:0:0:70:Drum.wav
64,192,83105,1,0,0:0:0:70:Drum.wav
192,192,83105,1,0,0:0:0:70:Kick.wav
448,192,83105,1,0,0:0:0:0:
192,192,83534,128,0,84820:0:0:0:70:LR_CymbalQST.wav
320,192,83534,128,0,84605:0:0:0:70:Kick.wav
448,192,83534,128,0,84605:0:0:0:0:
64,192,84820,128,0,86105:0:0:0:70:LR_CymbalQST.wav
320,192,84820,1,0,0:0:0:70:Kick.wav
448,192,84820,128,0,88248:0:0:0:0:
192,192,85891,128,0,86105:0:0:0:0:
320,192,86105,128,0,86320:0:0:0:0:
192,192,86320,128,0,88034:0:0:0:0:
320,192,86534,128,0,88248:0:0:0:0:
