osu file format v14

[General]
AudioFilename: audio.mp3
AudioLeadIn: 0
PreviewTime: 56194
Countdown: 0
SampleSet: Normal
StackLeniency: 0.7
Mode: 1
LetterboxInBreaks: 0
WidescreenStoryboard: 0

[Editor]
DistanceSpacing: 1
BeatDivisor: 4
GridSize: 32
TimelineZoom: 1.4

[Metadata]
Title:Endoro~ru! (TV Size)
TitleUnicode:えんどろ~る!(TV Size)
Artist:Yuusha Party
ArtistUnicode:勇者パーティー
Creator:Faputa
Version:Inner~Oni!
Source:えんどろ~!
Tags:Tyistiana -GN Jr. Junior Endro~! Anime Opening OP ユーシャ Yuusha セイラ Seira ファイ Fai メイ Mei 赤尾ひかる Akao Hikaru 夏川椎菜 Natsukawa Shiina 小澤亜李 Ozawa Ari 水瀬いのり Minase Inori Japanese
BeatmapID:1942087
BeatmapSetID:929901

[Difficulty]
HPDrainRate:6
CircleSize:2
OverallDifficulty:6
ApproachRate:10
SliderMultiplier:1.6
SliderTickRate:1

[Events]
//Background and Video events
0,0,"endro.jpg",0,-135
Video,300,"MaoMyGirl.flv"
//Break Periods
//Storyboard Layer 0 (Background)
//Storyboard Layer 1 (Fail)
//Storyboard Layer 2 (Pass)
//Storyboard Layer 3 (Foreground)
//Storyboard Sound Samples

[TimingPoints]
587,428.571428571429,4,1,0,80,1,0
10872,-98.0392156862745,4,1,0,80,0,0
11087,-97.0873786407767,4,1,0,80,0,0
11301,-96.1538461538461,4,1,0,80,0,0
11515,-95.2380952380952,4,1,0,80,0,0
11944,-92.5925925925926,4,1,0,80,0,0
12158,-91.743119266055,4,1,0,80,0,0
12372,-90.9090909090909,4,1,0,80,0,0
14301,-113.636363636364,4,1,0,70,0,0
27158,-111.111111111111,4,1,0,70,0,0
27372,-108.695652173913,4,1,0,70,0,0
27587,-106.382978723404,4,1,0,70,0,0
27801,-104.166666666667,4,1,0,70,0,0
27908,-102.040816326531,4,1,0,70,0,0
28015,-100,4,1,0,75,0,0
41837,-128.205128205128,4,1,0,70,0,0
47944,-125,4,1,0,70,0,0
48158,-121.951219512195,4,1,0,70,0,0
48372,-119.047619047619,4,1,0,70,0,0
48479,-116.279069767442,4,1,0,70,0,0
48587,-113.636363636364,4,1,0,75,0,0
51158,-111.111111111111,4,1,0,75,0,0
51372,-108.695652173913,4,1,0,75,0,0
51587,-106.382978723404,4,1,0,75,0,0
51801,-104.166666666667,4,1,0,75,0,0
51908,-102.040816326531,4,1,0,75,0,0
52015,-100,4,1,0,75,0,0
52229,-99.4474698574719,4,1,0,75,0,0
52444,-98.9011097693527,4,1,0,75,0,0
52658,-98.3606234883202,4,1,0,75,0,0
52765,-98.0926858169747,4,1,0,75,0,0
52872,-97.826108223067,4,1,0,75,0,0
52979,-97.5609756097561,4,1,0,75,0,0
53087,-97.2972762600484,4,1,0,75,0,0
53301,-96.774224765879,4,1,0,75,0,0
53515,-96.2566741971471,4,1,0,80,0,0
53944,-95.2380952380952,4,1,0,80,0,0
54051,-94.9867873378813,4,1,0,80,0,0
54158,-94.7368022160833,4,1,0,80,0,0
54372,-94.2408475644867,4,1,0,80,0,0
54479,-93.9947682511991,4,1,0,80,0,0
54587,-93.7499707031342,4,1,0,80,0,0
54801,-93.2642680340452,4,1,0,80,0,0
54908,-93.0232558139535,4,1,0,80,0,0
55015,-92.7834860240235,4,1,0,80,0,0
55229,-92.3077207100679,4,1,0,85,0,0
55658,-91.3705954804449,4,1,0,85,0,0
55872,-90.9090909090909,4,1,0,85,0,0
56301,-100,4,1,0,85,0,0
56515,-99.009900990099,4,1,0,85,0,0
56729,-97.0873786407767,4,1,0,85,0,0
56944,-94.3396226415094,4,1,0,85,0,0
57158,-90.9090909090909,4,1,0,90,0,1
69801,-91.743119266055,4,1,0,90,0,1
69908,-92.0810313075506,4,1,0,90,0,1
70015,-92.4214417744917,4,1,0,90,0,1
70122,-92.7643784786642,4,1,0,90,0,1
70229,-93.1098696461825,4,1,0,90,0,1
70337,-93.4579439252336,4,1,0,90,0,1
70444,-93.8086303939962,4,1,0,90,0,1
70551,-94.1619585687382,4,1,0,90,0,1
70658,-94.5179584120983,4,1,0,90,0,1
70765,-94.876660341556,4,1,0,90,0,1
70872,-95.2380952380952,4,1,0,90,0,1
76658,-96.1538461538461,4,1,0,90,0,1
76765,-96.6183574879227,4,1,0,90,0,1
76872,-97.0873786407767,4,1,0,90,0,1
76979,-97.5609756097561,4,1,0,90,0,1
77087,-98.0392156862745,4,1,0,90,0,1
77194,-98.5221674876847,4,1,0,90,0,1
77301,-99.009900990099,4,1,0,90,0,1
77408,-99.5024875621891,4,1,0,90,0,1
77515,-100,4,1,0,90,0,1
77729,-90.9090909090909,4,1,0,90,0,1
77944,-91.743119266055,4,1,0,90,0,1
78158,-92.5925925925926,4,1,0,90,0,1
78372,-93.4579439252336,4,1,0,90,0,1
78801,-100,4,1,0,90,0,1
79015,-99.009900990099,4,1,0,90,0,1
79229,-97.0873786407767,4,1,0,90,0,1
79337,-94.3396226415094,4,1,0,90,0,1
79444,-90.9090909090909,4,1,0,90,0,1
79658,-91.743119266055,4,1,0,90,0,1
79872,-92.5925925925926,4,1,0,90,0,1
80087,-93.4579439252336,4,1,0,90,0,1
80515,-100,4,1,0,90,0,1
80729,-99.009900990099,4,1,0,90,0,1
80944,-97.0873786407767,4,1,0,90,0,1
81051,-94.3396226415094,4,1,0,90,0,1
81158,-90.9090909090909,4,1,0,90,0,1
86301,-100,4,1,0,90,0,1
88015,-100,4,1,0,70,0,0

[HitObjects]
256,192,587,5,12,0:0:0:0:
256,192,801,1,8,0:0:0:0:
256,192,1015,1,8,0:0:0:0:
256,192,1229,1,8,0:0:0:0:
256,192,1658,1,0,0:0:0:0:
256,192,1872,1,0,0:0:0:0:
256,192,2087,1,0,0:0:0:0:
256,192,2301,1,8,0:0:0:0:
256,192,2515,1,8,0:0:0:0:
256,192,2729,1,8,0:0:0:0:
256,192,2944,1,8,0:0:0:0:
256,192,4015,1,12,0:0:0:0:
256,192,4229,1,8,0:0:0:0:
256,192,4444,1,8,0:0:0:0:
256,192,4658,1,8,0:0:0:0:
256,192,5087,1,0,0:0:0:0:
256,192,5301,1,0,0:0:0:0:
256,192,5515,1,0,0:0:0:0:
256,192,5622,1,0,0:0:0:0:
256,192,5729,1,8,0:0:0:0:
256,192,5944,1,8,0:0:0:0:
256,192,6158,1,8,0:0:0:0:
256,192,6372,1,8,0:0:0:0:
256,192,6587,1,0,0:0:0:0:
256,192,6801,1,8,0:0:0:0:
256,192,6908,1,0,0:0:0:0:
256,192,7015,1,8,0:0:0:0:
256,192,7444,1,12,0:0:0:0:
256,192,7658,1,8,0:0:0:0:
256,192,7872,1,0,0:0:0:0:
256,192,8087,1,8,0:0:0:0:
256,192,8301,1,0,0:0:0:0:
256,192,8515,1,8,0:0:0:0:
256,192,8622,1,0,0:0:0:0:
256,192,8729,1,0,0:0:0:0:
256,192,8944,1,8,0:0:0:0:
256,192,9051,1,0,0:0:0:0:
256,192,9158,1,8,0:0:0:0:
256,192,9372,1,8,0:0:0:0:
256,192,9587,1,0,0:0:0:0:
256,192,9801,1,8,0:0:0:0:
256,192,9908,1,0,0:0:0:0:
256,192,10015,1,8,0:0:0:0:
256,192,10229,1,0,0:0:0:0:
256,192,10337,1,0,0:0:0:0:
256,192,10444,1,8,0:0:0:0:
256,192,10872,1,12,0:0:0:0:
256,192,11087,1,0,0:0:0:0:
256,192,11301,1,8,0:0:0:0:
256,192,11515,1,4,0:0:0:0:
256,192,11944,1,4,0:0:0:0:
256,192,12158,1,0,0:0:0:0:
256,192,12372,1,12,0:0:0:0:
256,192,12801,1,12,0:0:0:0:
256,192,13015,1,12,0:0:0:0:
256,192,13444,1,8,0:0:0:0:
256,192,13658,1,0,0:0:0:0:
256,192,13765,1,8,0:0:0:0:
256,192,13872,1,8,0:0:0:0:
256,192,14301,1,4,0:0:0:0:
256,192,14729,1,0,0:0:0:0:
256,192,14944,1,8,0:0:0:0:
256,192,15158,1,0,0:0:0:0:
256,192,15372,1,0,0:0:0:0:
256,192,15587,1,8,0:0:0:0:
256,192,15801,1,0,0:0:0:0:
256,192,15908,1,0,0:0:0:0:
256,192,16015,1,8,0:0:0:0:
256,192,16444,1,0,0:0:0:0:
256,192,16658,1,8,0:0:0:0:
256,192,16872,1,8,0:0:0:0:
256,192,16979,1,8,0:0:0:0:
256,192,17087,1,0,0:0:0:0:
256,192,17194,1,0,0:0:0:0:
256,192,17301,1,8,0:0:0:0:
256,192,17515,1,0,0:0:0:0:
256,192,17622,1,0,0:0:0:0:
256,192,17729,1,8,0:0:0:0:
256,192,17944,1,0,0:0:0:0:
256,192,18051,1,8,0:0:0:0:
256,192,18158,1,0,0:0:0:0:
256,192,18372,1,8,0:0:0:0:
256,192,18587,1,0,0:0:0:0:
256,192,18801,1,0,0:0:0:0:
256,192,19015,1,8,0:0:0:0:
256,192,19229,1,0,0:0:0:0:
256,192,19337,1,0,0:0:0:0:
256,192,19444,1,8,0:0:0:0:
256,192,19872,1,0,0:0:0:0:
256,192,20087,1,8,0:0:0:0:
256,192,20301,1,0,0:0:0:0:
256,192,20408,1,0,0:0:0:0:
256,192,20515,1,8,0:0:0:0:
256,192,20622,1,0,0:0:0:0:
256,192,20729,1,8,0:0:0:0:
256,192,20944,1,0,0:0:0:0:
256,192,21158,1,12,0:0:0:0:
256,192,21372,1,8,0:0:0:0:
256,192,21587,1,0,0:0:0:0:
256,192,21801,1,8,0:0:0:0:
256,192,22229,1,0,0:0:0:0:
256,192,22444,1,8,0:0:0:0:
256,192,22658,1,0,0:0:0:0:
256,192,22765,1,8,0:0:0:0:
256,192,22872,1,8,0:0:0:0:
256,192,23087,1,0,0:0:0:0:
256,192,23301,1,8,0:0:0:0:
256,192,23515,1,8,0:0:0:0:
256,192,23729,1,0,0:0:0:0:
256,192,23944,1,8,0:0:0:0:
256,192,24051,1,0,0:0:0:0:
256,192,24158,1,8,0:0:0:0:
256,192,24372,1,0,0:0:0:0:
256,192,24479,1,8,0:0:0:0:
256,192,24587,1,8,0:0:0:0:
256,192,25015,1,0,0:0:0:0:
256,192,25229,1,8,0:0:0:0:
256,192,25444,1,8,0:0:0:0:
256,192,25551,1,0,0:0:0:0:
256,192,25658,1,8,0:0:0:0:
256,192,25765,1,8,0:0:0:0:
256,192,25872,1,0,0:0:0:0:
256,192,26087,1,0,0:0:0:0:
256,192,26194,1,8,0:0:0:0:
256,192,26301,1,8,0:0:0:0:
256,192,26515,1,0,0:0:0:0:
256,192,26622,1,8,0:0:0:0:
256,192,26729,1,0,0:0:0:0:
256,192,26944,1,8,0:0:0:0:
256,192,27158,1,0,0:0:0:0:
256,192,27372,1,8,0:0:0:0:
256,192,27587,1,8,0:0:0:0:
256,192,27801,1,0,0:0:0:0:
256,192,27908,1,0,0:0:0:0:
256,192,28015,1,12,0:0:0:0:
256,192,28444,1,0,0:0:0:0:
256,192,28658,1,8,0:0:0:0:
256,192,28872,1,0,0:0:0:0:
256,192,29087,1,0,0:0:0:0:
256,192,29301,1,8,0:0:0:0:
256,192,29515,1,0,0:0:0:0:
256,192,29622,1,0,0:0:0:0:
256,192,29729,1,8,0:0:0:0:
256,192,29944,1,8,0:0:0:0:
256,192,30158,1,0,0:0:0:0:
256,192,30372,1,8,0:0:0:0:
256,192,30479,1,0,0:0:0:0:
256,192,30587,1,8,0:0:0:0:
256,192,30801,1,0,0:0:0:0:
256,192,30872,1,0,0:0:0:0:
256,192,30944,1,0,0:0:0:0:
256,192,31015,1,8,0:0:0:0:
256,192,31229,1,8,0:0:0:0:
256,192,31337,1,8,0:0:0:0:
256,192,31444,1,0,0:0:0:0:
256,192,31658,1,0,0:0:0:0:
256,192,31765,1,8,0:0:0:0:
256,192,31872,1,0,0:0:0:0:
256,192,32087,1,8,0:0:0:0:
256,192,32301,1,0,0:0:0:0:
256,192,32515,1,8,0:0:0:0:
256,192,32729,1,0,0:0:0:0:
256,192,32944,1,8,0:0:0:0:
256,192,33051,1,8,0:0:0:0:
256,192,33158,1,0,0:0:0:0:
256,192,33372,1,8,0:0:0:0:
256,192,33479,1,0,0:0:0:0:
256,192,33587,1,8,0:0:0:0:
256,192,33801,1,8,0:0:0:0:
256,192,34015,1,0,0:0:0:0:
256,192,34122,1,0,0:0:0:0:
256,192,34229,1,8,0:0:0:0:
256,192,34301,1,8,0:0:0:0:
256,192,34372,1,8,0:0:0:0:
256,192,34444,1,0,0:0:0:0:
256,192,34658,1,8,0:0:0:0:
256,192,34872,1,0,0:0:0:0:
256,192,35087,1,8,0:0:0:0:
256,192,35194,1,8,0:0:0:0:
256,192,35301,1,0,0:0:0:0:
256,192,35515,1,8,0:0:0:0:
256,192,35729,1,0,0:0:0:0:
256,192,35944,1,8,0:0:0:0:
256,192,36158,1,8,0:0:0:0:
256,192,36372,1,0,0:0:0:0:
256,192,36479,1,8,0:0:0:0:
256,192,36587,1,8,0:0:0:0:
256,192,36801,1,0,0:0:0:0:
256,192,37015,1,8,0:0:0:0:
256,192,37229,1,0,0:0:0:0:
256,192,37444,1,8,0:0:0:0:
256,192,37551,1,8,0:0:0:0:
256,192,37658,1,0,0:0:0:0:
256,192,37729,1,0,0:0:0:0:
256,192,37801,1,0,0:0:0:0:
256,192,37872,1,8,0:0:0:0:
256,192,38087,1,0,0:0:0:0:
256,192,38194,1,8,0:0:0:0:
256,192,38301,1,8,0:0:0:0:
256,192,38515,1,0,0:0:0:0:
256,192,38729,1,8,0:0:0:0:
256,192,38944,1,8,0:0:0:0:
256,192,39051,1,0,0:0:0:0:
256,192,39158,1,8,0:0:0:0:
256,192,39372,1,8,0:0:0:0:
256,192,39479,1,0,0:0:0:0:
256,192,39587,1,0,0:0:0:0:
256,192,39801,1,0,0:0:0:0:
256,192,39908,1,8,0:0:0:0:
256,192,40015,1,8,0:0:0:0:
256,192,40229,1,8,0:0:0:0:
256,192,40444,1,8,0:0:0:0:
256,192,40658,1,0,0:0:0:0:
256,192,40765,1,0,0:0:0:0:
256,192,40872,1,8,0:0:0:0:
256,192,41087,1,0,0:0:0:0:
256,192,41301,1,8,0:0:0:0:
256,192,41515,1,8,0:0:0:0:
256,192,41622,1,0,0:0:0:0:
256,192,41729,1,12,0:0:0:0:
256,192,42051,1,0,0:0:0:0:
256,192,42372,1,0,0:0:0:0:
256,192,42587,1,8,0:0:0:0:
256,192,42801,1,8,0:0:0:0:
256,192,43015,1,0,0:0:0:0:
256,192,43229,1,8,0:0:0:0:
256,192,43444,1,0,0:0:0:0:
256,192,44087,1,0,0:0:0:0:
256,192,44301,1,8,0:0:0:0:
256,192,44622,1,8,0:0:0:0:
256,192,44944,1,0,0:0:0:0:
256,192,45051,1,0,0:0:0:0:
256,192,45158,1,8,0:0:0:0:
256,192,45479,1,0,0:0:0:0:
256,192,45801,1,0,0:0:0:0:
256,192,46015,1,8,0:0:0:0:
256,192,46229,1,0,0:0:0:0:
256,192,46444,1,8,0:0:0:0:
256,192,46658,1,8,0:0:0:0:
256,192,46872,1,0,0:0:0:0:
256,192,47515,1,0,0:0:0:0:
256,192,47729,1,0,0:0:0:0:
256,192,47944,1,12,0:0:0:0:
256,192,48158,1,12,0:0:0:0:
256,192,48372,1,0,0:0:0:0:
256,192,48479,1,0,0:0:0:0:
256,192,48587,1,8,0:0:0:0:
256,192,49015,1,0,0:0:0:0:
256,192,49229,1,8,0:0:0:0:
256,192,49444,1,0,0:0:0:0:
256,192,49658,1,8,0:0:0:0:
256,192,49765,1,8,0:0:0:0:
256,192,49872,1,0,0:0:0:0:
256,192,50087,1,8,0:0:0:0:
256,192,50301,1,0,0:0:0:0:
256,192,50515,1,8,0:0:0:0:
256,192,50622,1,0,0:0:0:0:
256,192,50729,1,0,0:0:0:0:
256,192,50944,1,8,0:0:0:0:
256,192,51158,1,0,0:0:0:0:
256,192,51372,1,8,0:0:0:0:
256,192,51587,1,12,0:0:0:0:
256,192,51801,1,0,0:0:0:0:
256,192,51908,1,0,0:0:0:0:
256,192,52015,1,8,0:0:0:0:
256,192,52229,1,8,0:0:0:0:
256,192,52444,1,0,0:0:0:0:
256,192,52658,1,8,0:0:0:0:
256,192,52765,1,8,0:0:0:0:
256,192,52872,1,0,0:0:0:0:
256,192,52979,1,0,0:0:0:0:
256,192,53087,1,0,0:0:0:0:
256,192,53301,1,8,0:0:0:0:
256,192,53515,1,4,0:0:0:0:
256,192,53944,1,8,0:0:0:0:
256,192,54051,1,8,0:0:0:0:
256,192,54158,1,8,0:0:0:0:
256,192,54372,1,8,0:0:0:0:
256,192,54479,1,0,0:0:0:0:
256,192,54587,1,0,0:0:0:0:
256,192,54801,1,8,0:0:0:0:
256,192,54908,1,0,0:0:0:0:
256,192,55015,1,8,0:0:0:0:
256,192,55229,1,12,0:0:0:0:
256,192,55658,1,12,0:0:0:0:
256,192,55872,1,12,0:0:0:0:
256,192,56301,1,0,0:0:0:0:
256,192,56515,1,0,0:0:0:0:
256,192,56729,1,8,0:0:0:0:
256,192,56944,1,8,0:0:0:0:
256,192,57158,1,4,0:0:0:0:
256,192,57372,1,8,0:0:0:0:
256,192,57587,1,8,0:0:0:0:
256,192,57801,1,0,0:0:0:0:
256,192,57908,1,0,0:0:0:0:
256,192,58015,1,8,0:0:0:0:
256,192,58229,1,8,0:0:0:0:
256,192,58337,1,8,0:0:0:0:
256,192,58444,1,0,0:0:0:0:
256,192,58551,1,0,0:0:0:0:
256,192,58658,1,8,0:0:0:0:
256,192,58765,1,8,0:0:0:0:
256,192,58872,1,0,0:0:0:0:
256,192,59087,1,8,0:0:0:0:
256,192,59194,1,0,0:0:0:0:
256,192,59301,1,8,0:0:0:0:
256,192,59515,1,0,0:0:0:0:
256,192,59622,1,0,0:0:0:0:
256,192,59729,1,8,0:0:0:0:
256,192,59944,1,0,0:0:0:0:
256,192,60051,1,0,0:0:0:0:
256,192,60158,1,8,0:0:0:0:
256,192,60265,1,0,0:0:0:0:
256,192,60372,1,8,0:0:0:0:
256,192,60479,1,8,0:0:0:0:
256,192,60587,1,0,0:0:0:0:
256,192,60801,1,8,0:0:0:0:
256,192,60908,1,8,0:0:0:0:
256,192,61015,1,0,0:0:0:0:
256,192,61229,1,0,0:0:0:0:
256,192,61337,1,8,0:0:0:0:
256,192,61444,1,0,0:0:0:0:
256,192,61658,1,8,0:0:0:0:
256,192,61765,1,8,0:0:0:0:
256,192,61872,1,0,0:0:0:0:
256,192,61979,1,0,0:0:0:0:
256,192,62087,1,0,0:0:0:0:
256,192,62194,1,0,0:0:0:0:
256,192,62301,1,8,0:0:0:0:
256,192,62515,1,0,0:0:0:0:
256,192,62622,1,0,0:0:0:0:
256,192,62729,1,8,0:0:0:0:
256,192,62944,1,0,0:0:0:0:
256,192,63051,1,0,0:0:0:0:
256,192,63158,1,8,0:0:0:0:
256,192,63372,1,0,0:0:0:0:
256,192,63479,1,0,0:0:0:0:
256,192,63587,1,8,0:0:0:0:
256,192,63694,1,8,0:0:0:0:
256,192,63801,1,8,0:0:0:0:
256,192,63908,1,8,0:0:0:0:
256,192,64015,1,4,0:0:0:0:
256,192,64229,1,8,0:0:0:0:
256,192,64337,1,0,0:0:0:0:
256,192,64444,1,8,0:0:0:0:
256,192,64658,1,8,0:0:0:0:
256,192,64872,1,0,0:0:0:0:
256,192,64979,1,0,0:0:0:0:
256,192,65087,1,8,0:0:0:0:
256,192,65194,1,8,0:0:0:0:
256,192,65301,1,0,0:0:0:0:
256,192,65515,1,8,0:0:0:0:
256,192,65622,1,8,0:0:0:0:
256,192,65729,1,8,0:0:0:0:
256,192,65944,1,0,0:0:0:0:
256,192,66051,1,8,0:0:0:0:
256,192,66158,1,8,0:0:0:0:
256,192,66372,1,0,0:0:0:0:
256,192,66587,1,8,0:0:0:0:
256,192,66694,1,8,0:0:0:0:
256,192,66801,1,0,0:0:0:0:
256,192,66908,1,0,0:0:0:0:
256,192,67015,1,8,0:0:0:0:
256,192,67229,1,0,0:0:0:0:
256,192,67337,1,8,0:0:0:0:
256,192,67444,1,0,0:0:0:0:
256,192,67658,1,0,0:0:0:0:
256,192,67872,1,8,0:0:0:0:
256,192,68087,1,8,0:0:0:0:
256,192,68194,1,0,0:0:0:0:
256,192,68301,1,8,0:0:0:0:
256,192,68515,1,8,0:0:0:0:
256,192,68622,1,8,0:0:0:0:
256,192,68729,1,0,0:0:0:0:
256,192,68837,1,0,0:0:0:0:
256,192,68944,1,8,0:0:0:0:
256,192,69051,1,0,0:0:0:0:
256,192,69158,1,8,0:0:0:0:
256,192,69372,1,8,0:0:0:0:
256,192,69479,1,8,0:0:0:0:
256,192,69587,1,8,0:0:0:0:
256,192,69801,1,0,0:0:0:0:
256,192,69908,1,8,0:0:0:0:
256,192,70015,1,8,0:0:0:0:
256,192,70122,1,0,0:0:0:0:
256,192,70229,1,0,0:0:0:0:
256,192,70337,1,0,0:0:0:0:
256,192,70444,1,8,0:0:0:0:
256,192,70551,1,8,0:0:0:0:
256,192,70658,1,0,0:0:0:0:
256,192,70765,1,0,0:0:0:0:
256,192,70872,1,12,0:0:0:0:
256,192,71087,1,8,0:0:0:0:
256,192,71301,1,0,0:0:0:0:
256,192,71515,1,8,0:0:0:0:
256,192,71622,1,8,0:0:0:0:
256,192,71729,1,0,0:0:0:0:
256,192,71944,1,0,0:0:0:0:
256,192,72158,1,8,0:0:0:0:
256,192,72372,1,8,0:0:0:0:
256,192,72479,1,0,0:0:0:0:
256,192,72587,1,0,0:0:0:0:
256,192,72801,1,8,0:0:0:0:
256,192,72908,1,0,0:0:0:0:
256,192,73015,1,8,0:0:0:0:
256,192,73229,1,0,0:0:0:0:
256,192,73444,1,8,0:0:0:0:
256,192,73551,1,8,0:0:0:0:
256,192,73658,1,0,0:0:0:0:
256,192,73765,1,0,0:0:0:0:
256,192,73872,1,8,0:0:0:0:
256,192,74087,1,8,0:0:0:0:
256,192,74301,1,0,0:0:0:0:
256,192,74515,1,8,0:0:0:0:
256,192,74622,1,0,0:0:0:0:
256,192,74729,1,8,0:0:0:0:
256,192,74944,1,0,0:0:0:0:
256,192,75051,1,0,0:0:0:0:
256,192,75158,1,8,0:0:0:0:
256,128,75372,1,8,0:0:0:0:
256,192,75587,1,0,0:0:0:0:
256,192,75801,1,8,0:0:0:0:
256,192,76015,1,0,0:0:0:0:
256,192,76229,1,8,0:0:0:0:
256,192,76337,1,8,0:0:0:0:
256,192,76444,1,0,0:0:0:0:
256,192,76658,1,8,0:0:0:0:
256,192,76765,1,0,0:0:0:0:
256,192,76872,1,8,0:0:0:0:
256,192,76979,1,8,0:0:0:0:
256,192,77087,1,0,0:0:0:0:
256,192,77194,1,0,0:0:0:0:
256,192,77301,1,8,0:0:0:0:
256,192,77408,1,8,0:0:0:0:
256,192,77515,1,0,0:0:0:0:
256,192,77729,1,12,0:0:0:0:
256,192,77944,1,0,0:0:0:0:
256,192,78158,1,0,0:0:0:0:
256,192,78372,1,12,0:0:0:0:
256,192,78801,1,8,0:0:0:0:
256,192,79015,1,0,0:0:0:0:
256,192,79229,1,8,0:0:0:0:
256,192,79337,1,8,0:0:0:0:
256,192,79444,1,4,0:0:0:0:
256,192,79658,1,8,0:0:0:0:
256,192,79872,1,8,0:0:0:0:
256,192,80087,1,4,0:0:0:0:
256,192,80515,1,0,0:0:0:0:
256,192,80729,1,8,0:0:0:0:
256,192,80944,1,0,0:0:0:0:
256,192,81051,1,0,0:0:0:0:
256,192,81158,1,12,0:0:0:0:
256,192,81372,1,8,0:0:0:0:
256,192,81587,1,0,0:0:0:0:
256,192,81801,1,8,0:0:0:0:
256,192,81908,1,8,0:0:0:0:
256,192,82015,1,0,0:0:0:0:
256,192,82229,1,8,0:0:0:0:
256,192,82337,1,0,0:0:0:0:
256,192,82444,1,8,0:0:0:0:
256,192,82551,1,8,0:0:0:0:
256,192,82658,1,8,0:0:0:0:
256,192,82765,1,8,0:0:0:0:
256,192,82872,1,0,0:0:0:0:
256,192,83301,1,12,0:0:0:0:
256,192,83729,1,0,0:0:0:0:
256,192,84158,1,0,0:0:0:0:
256,192,84587,1,12,0:0:0:0:
256,192,86301,12,0,88015,0:0:0:0:
