osu file format v14

[General]
AudioFilename: audio.mp3
AudioLeadIn: 0
PreviewTime: 56220
Countdown: 0
SampleSet: Soft
StackLeniency: 0.3
Mode: 0
LetterboxInBreaks: 0
WidescreenStoryboard: 0

[Editor]
DistanceSpacing: 1.2
BeatDivisor: 4
GridSize: 4
TimelineZoom: 1

[Metadata]
Title:Endoro~ru! (TV Size)
TitleUnicode:えんどろ~る!(TV Size)
Artist:Yuusha Party
ArtistUnicode:勇者パーティー
Creator:Cosmolade
Version:Insane
Source:えんどろ~!
Tags:Endoro~! Endro 勇者パーティー ユーシャ Seira セイラ Fai ファイ Mei メイ :赤尾ひかる 夏川椎菜 小澤亜李 水瀬いのり CV: Hikaru Akao Natsukawa Shiina Ozawa Ari Minase Inori Hazu- Anime Japanese
BeatmapID:1954783
BeatmapSetID:935660

[Difficulty]
HPDrainRate:6
CircleSize:4
OverallDifficulty:7
ApproachRate:9
SliderMultiplier:1.4
SliderTickRate:1

[Events]
//Background and Video events
Video,0,"EndroOP1.avi"
0,0,"BG.jpg",0,0
//Break Periods
//Storyboard Layer 0 (Background)
//Storyboard Layer 1 (Fail)
//Storyboard Layer 2 (Pass)
//Storyboard Layer 3 (Foreground)
//Storyboard Sound Samples

[TimingPoints]
-1208,428.571428571429,4,2,1,60,1,0
77,-250,4,2,1,60,0,0
506,428.571428571429,4,2,1,60,1,0
506,-83.3333333333333,4,2,1,60,0,0
14220,-100,4,2,1,60,0,0
53434,-66.6666666666667,4,2,1,60,0,0
53863,-100,4,2,1,60,0,0
57077,-50,4,2,1,60,0,1
57506,-76.9230769230769,4,2,1,60,0,1
70791,-66.6666666666667,4,2,1,60,0,1
87506,-66.6666666666667,4,2,1,30,0,1
87934,-100,4,2,1,10,0,0

[Colours]
Combo1 : 253,233,136
Combo2 : 186,164,210
Combo3 : 254,171,196
Combo4 : 142,208,253

[HitObjects]
95,188,77,6,0,P|88:203|88:187,1,42,2|0,0:0|0:0,0:0:0:0:
87,187,506,6,0,P|88:229|99:291,1,83.9999974365235,6|0,0:0|0:0,0:0:0:0:
215,349,934,1,2,0:0:0:0:
290,298,1148,2,0,P|296:254|295:189,1,83.9999974365235,2|0,0:0|0:0,0:0:0:0:
215,76,1577,1,2,0:0:0:0:
291,32,1791,1,0,0:0:0:0:
217,170,2006,1,2,0:0:0:0:
114,33,2220,6,0,P|106:95|109:138,1,83.9999974365235,2|0,0:0|0:0,0:0:0:0:
217,188,2648,1,2,0:0:0:0:
293,138,2863,1,2,0:0:0:0:
396,291,3077,1,2,0:0:0:0:
476,85,3506,1,2,0:0:0:0:
388,309,3934,6,0,P|337:312|285:303,1,83.9999974365235,6|0,0:0|0:0,0:0:0:0:
205,231,4363,1,2,0:0:0:0:
131,284,4577,2,0,P|131:334|142:387,1,83.9999974365235,2|0,0:0|0:0,0:0:0:0:
256,227,5006,1,2,0:0:0:0:
174,187,5220,1,0,0:0:0:0:
254,315,5434,1,2,0:0:0:0:
338,155,5648,6,0,P|374:151|446:162,1,83.9999974365235,2|0,0:0|0:0,0:0:0:0:
502,255,6077,1,2,0:0:0:0:
441,323,6291,1,2,0:0:0:0:
338,155,6506,1,2,0:0:0:0:
277,373,6934,2,0,P|300:368|322:359,3,41.9999987182618,2|0|0|0,0:0|0:0|0:0|0:0,0:0:0:0:
254,361,7363,6,0,P|217:355|159:358,1,83.9999974365235,6|0,0:0|0:0,0:0:0:0:
46,378,7791,1,2,3:2:0:0:
0,298,8006,1,2,0:0:0:0:
111,127,8220,1,0,3:2:0:0:
187,176,8434,2,0,L|243:175,1,41.9999987182618,2|0,0:0|0:0,0:0:0:0:
353,118,8648,1,0,3:2:0:0:
294,45,8863,1,2,0:0:0:0:
114,43,9077,6,0,P|108:77|112:132,1,83.9999974365235,2|0,3:2|0:0,0:0:0:0:
192,219,9506,1,2,3:2:0:0:
117,270,9720,1,2,0:0:0:0:
302,343,9934,2,0,L|388:344,1,83.9999974365235,2|0,3:2|0:0,0:0:0:0:
460,231,10363,2,0,L|375:233,1,83.9999974365235,2|0,3:2|0:0,0:0:0:0:
257,43,10791,6,0,P|259:80|255:131,1,83.9999974365235,6|0,0:0|0:0,0:0:0:0:
133,74,11220,1,10,0:0:0:0:
280,46,11434,2,0,P|282:83|278:134,1,83.9999974365235,2|0,3:2|0:0,0:0:0:0:
135,158,11863,2,0,P|131:116|133:74,1,83.9999974365235,2|8,3:2|0:0,0:0:0:0:
361,223,12291,6,0,P|298:226|223:221,1,125.999996154785,6|0,0:0|0:0,0:0:0:0:
193,219,12720,1,10,0:0:0:0:
318,377,12934,1,10,0:0:0:0:
442,147,13363,6,0,L|442:105,1,41.9999987182618,2|0,0:0|0:0,0:0:0:0:
439,77,13577,1,0,0:0:0:0:
416,93,13684,1,0,0:0:0:0:
390,104,13791,1,0,0:0:0:0:
362,108,13898,1,0,0:0:0:0:
334,103,14006,1,0,0:0:0:0:
308,92,14113,1,0,0:0:0:0:
286,56,14220,6,0,P|291:89|289:153,1,70,6|0,3:2|0:0,0:0:0:0:
207,231,14648,1,2,3:2:0:0:
150,159,14863,1,0,0:0:0:0:
321,200,15077,2,0,P|326:233|324:297,1,70,2|0,3:2|0:0,0:0:0:0:
242,375,15505,1,2,3:2:0:0:
185,303,15720,1,2,0:0:0:0:
291,125,15934,6,0,L|384:124,1,70,2|0,3:2|0:0,0:0:0:0:
490,119,16363,1,0,3:2:0:0:
415,25,16577,1,2,0:0:0:0:
310,233,16791,1,2,3:2:0:0:
211,156,17006,1,0,0:0:0:0:
330,100,17220,1,0,3:2:0:0:
217,256,17434,1,2,0:0:0:0:
69,120,17648,6,0,L|150:128,1,70,2|0,3:2|0:0,0:0:0:0:
166,104,17970,1,2,0:0:0:0:
189,77,18077,2,0,P|193:110|187:163,1,70,2|0,3:2|0:0,0:0:0:0:
163,270,18506,1,2,3:2:0:0:
242,317,18720,1,0,0:0:0:0:
107,384,18934,1,2,3:2:0:0:
93,231,19148,1,0,0:0:0:0:
260,332,19363,6,0,L|386:338,1,105,2|0,3:2|0:0,0:0:0:0:
410,336,19791,1,2,3:2:0:0:
460,259,20006,1,0,0:0:0:0:
318,165,20220,1,2,3:2:0:0:
369,239,20434,1,0,0:0:0:0:
363,82,20648,1,2,3:2:0:0:
227,165,20863,1,2,0:0:0:0:
489,188,21077,6,0,P|493:134|483:95,1,70,6|0,0:0|0:0,0:0:0:0:
389,31,21506,1,2,3:2:0:0:
327,97,21720,1,2,0:0:0:0:
200,63,21934,2,0,L|121:67,1,70,0|2,3:2|0:0,0:0:0:0:
37,147,22363,1,0,3:2:0:0:
84,224,22577,1,2,0:0:0:0:
165,372,22791,6,0,P|168:327|164:289,1,70,2|0,3:2|0:0,0:0:0:0:
64,229,23220,1,2,3:2:0:0:
118,156,23434,1,2,0:0:0:0:
253,265,23648,1,2,3:2:0:0:
324,206,23863,1,0,0:0:0:0:
338,237,23970,1,0,0:0:0:0:
353,268,24077,1,2,3:2:0:0:
212,155,24291,1,2,0:0:0:0:
234,128,24398,1,0,0:0:0:0:
256,100,24506,6,0,L|337:96,1,70,2|0,3:2|0:0,0:0:0:0:
463,91,24934,1,2,3:2:0:0:
414,167,25148,1,0,0:0:0:0:
399,0,25363,1,2,3:2:0:0:
335,64,25577,1,2,0:0:0:0:
325,97,25684,1,2,0:0:0:0:
315,130,25791,1,0,3:2:0:0:
236,83,26006,1,2,0:0:0:0:
109,181,26220,6,0,P|104:223|114:278,1,70,2|0,3:2|0:0,0:0:0:0:
173,359,26648,1,2,3:2:0:0:
230,283,26863,1,0,0:0:0:0:
321,352,27077,1,2,3:2:0:0:
401,234,27291,1,8,0:0:0:0:
453,383,27506,2,0,L|451:338,1,35,10|0,0:0|0:0,0:0:0:0:
308,216,27720,1,10,0:0:0:0:
274,207,27827,1,8,0:0:0:0:
240,197,27934,6,0,P|237:162|241:118,1,70,6|0,0:0|0:0,0:0:0:0:
341,48,28363,1,10,0:0:0:0:
421,89,28577,1,0,0:0:0:0:
322,247,28791,2,0,P|319:212|323:168,1,70,2|0,3:2|0:0,0:0:0:0:
423,98,29220,1,10,0:0:0:0:
503,139,29434,1,2,0:0:0:0:
426,317,29648,6,0,P|371:321|328:323,1,70,2|0,3:2|0:0,0:0:0:0:
229,308,30077,1,8,0:0:0:0:
180,228,30291,1,2,0:0:0:0:
356,101,30506,2,0,P|363:160|359:212,1,105,2|0,3:2|0:0,0:0:0:0:
341,246,30934,1,8,0:0:0:0:
273,186,31148,1,2,0:0:0:0:
159,338,31363,6,0,P|125:337|56:340,1,70,2|0,3:2|0:0,0:0:0:0:
55,347,31684,1,2,0:0:0:0:
24,363,31791,2,0,P|14:323|13:263,1,70,10|0,0:0|0:0,0:0:0:0:
55,167,32220,1,2,3:2:0:0:
140,136,32434,1,0,0:0:0:0:
95,257,32648,1,10,0:0:0:0:
11,92,32863,1,2,0:0:0:0:
224,205,33077,5,2,3:2:0:0:
286,129,33291,1,0,0:0:0:0:
320,131,33398,1,0,0:0:0:0:
355,135,33506,2,0,L|357:225,1,70,10|0,0:0|0:0,0:0:0:0:
364,335,33934,1,2,3:2:0:0:
425,268,34148,1,0,0:0:0:0:
295,268,34363,1,10,0:0:0:0:
364,384,34577,1,2,0:0:0:0:
440,186,34791,6,0,L|437:101,1,70,2|0,3:2|0:0,0:0:0:0:
322,43,35220,1,10,0:0:0:0:
264,113,35434,1,2,0:0:0:0:
134,54,35648,2,0,P|105:48|52:56,1,70,0|2,3:2|0:0,0:0:0:0:
0,163,36077,1,8,0:0:0:0:
62,228,36291,1,2,0:0:0:0:
219,202,36506,6,0,L|222:291,1,70,2|0,3:2|0:0,0:0:0:0:
328,352,36934,1,10,0:0:0:0:
391,286,37148,1,2,0:0:0:0:
507,369,37363,2,0,P|473:371|437:366,1,70,2|0,3:2|0:0,0:0:0:0:
371,261,37791,1,10,0:0:0:0:
429,190,38006,1,2,0:0:0:0:
460,175,38113,1,0,0:0:0:0:
491,159,38220,6,0,L|486:76,1,70,2|0,3:2|0:0,0:0:0:0:
366,26,38648,1,10,0:0:0:0:
306,95,38863,1,2,0:0:0:0:
273,81,38970,1,0,0:0:0:0:
240,68,39077,2,0,L|162:68,1,70,0|2,3:2|0:0,0:0:0:0:
68,152,39506,1,8,0:0:0:0:
136,212,39720,1,2,0:0:0:0:
4,328,39934,5,2,3:2:0:0:
56,248,40148,1,2,3:2:0:0:
192,352,40363,2,0,L|234:355,1,35,10|8,0:0|0:3,0:0:0:0:
318,261,40684,1,8,0:0:0:0:
283,267,40791,1,10,0:0:0:0:
348,176,41006,1,4,0:3:0:0:
438,323,41220,1,8,0:3:0:0:
481,90,41434,1,2,0:0:0:0:
452,69,41541,1,2,0:0:0:0:
421,51,41648,6,0,P|378:50|331:56,1,70,6|0,0:0|0:0,0:0:0:0:
297,108,41970,2,0,P|262:110|227:109,1,70,2|0,3:2|0:0,0:0:0:0:
160,73,42291,1,2,0:0:0:0:
96,189,42506,1,8,0:0:0:0:
12,152,42720,2,0,L|11:60,1,70,2|0,0:0|0:0,0:0:0:0:
96,189,43148,1,2,3:2:0:0:
218,286,43363,6,0,P|288:293|368:281,1,140,2|0,3:2|0:0,0:0:0:0:
421,220,44006,1,2,3:0:0:0:
312,135,44220,2,0,L|323:86,1,35,10|8,0:0|0:3,0:0:0:0:
190,72,44541,1,4,0:3:0:0:
203,104,44648,1,10,0:3:0:0:
272,27,44863,1,6,0:3:0:0:
89,112,45077,6,0,P|83:155|91:194,1,70,2|0,3:2|0:0,0:0:0:0:
137,241,45398,2,0,P|142:284|135:323,1,70,2|0,3:2|0:0,0:0:0:0:
101,380,45720,1,2,3:0:0:0:
232,324,45934,1,8,0:0:0:0:
308,373,46148,2,0,L|404:369,1,70,2|0,0:0|0:0,0:0:0:0:
232,324,46577,1,2,3:2:0:0:
404,228,46791,6,0,P|415:161|404:80,1,140,2|0,3:2|0:0,0:0:0:0:
329,39,47434,1,2,3:0:0:0:
228,129,47648,1,8,0:0:0:0:
309,169,47863,1,6,0:0:0:0:
208,44,48077,1,10,0:0:0:0:
160,200,48291,1,4,0:3:0:0:
192,216,48398,1,8,0:3:0:0:
232,236,48506,6,0,L|228:148,1,70,2|0,3:0|0:0,0:0:0:0:
108,220,48934,1,0,3:2:0:0:
160,292,49148,1,2,0:0:0:0:
320,316,49363,2,0,L|316:228,1,70,0|0,3:2|0:0,0:0:0:0:
280,120,49791,1,2,3:2:0:0:
204,168,50006,1,0,0:0:0:0:
88,96,50220,6,0,P|44:92|0:104,1,70,2|0,3:2|0:0,0:0:0:0:
0,216,50648,1,2,3:2:0:0:
60,284,50863,1,2,0:0:0:0:
148,152,51077,1,0,3:2:0:0:
236,312,51291,1,14,0:0:0:0:
308,92,51506,1,6,0:0:0:0:
380,196,51720,1,2,0:0:0:0:
408,176,51827,1,0,0:0:0:0:
440,160,51934,6,0,L|524:168,1,70,2|0,3:0|0:0,0:0:0:0:
460,296,52363,1,10,0:0:0:0:
388,240,52577,1,2,0:0:0:0:
288,344,52791,2,0,P|276:308|276:256,1,70,2|0,3:2|0:0,0:0:0:0:
336,152,53220,1,10,0:0:0:0:
120,260,53434,6,0,P|128:196|192:112,1,157.500006008148,6|0,0:0|0:0,0:0:0:0:
248,80,53863,1,8,0:0:0:0:
284,88,53970,1,8,0:0:0:0:
316,96,54077,1,10,0:0:0:0:
416,232,54291,1,8,0:0:0:0:
384,248,54398,1,8,0:0:0:0:
352,264,54506,2,0,L|296:288,1,35,10|0,0:0|0:0,0:0:0:0:
244,160,54827,1,8,0:0:0:0:
280,168,54934,1,10,0:0:0:0:
212,336,55148,5,6,0:0:0:0:
88,108,55577,1,6,0:0:0:0:
96,100,55791,1,6,0:0:0:0:
154,26,56220,6,0,L|255:30,1,70,2|0,0:0|0:0,0:0:0:0:
311,117,56648,1,2,0:0:0:0:
182,114,56863,1,0,1:2:0:0:
393,49,57077,6,0,P|413:111|382:199,1,140,6|0,0:0|1:2,0:0:0:0:
224,116,57506,6,0,L|314:119,1,90.9999958343508,10|0,0:0|1:2,0:0:0:0:
168,224,57934,1,10,0:0:0:0:
108,156,58148,1,2,1:2:0:0:
116,128,58256,1,0,1:2:0:0:
120,100,58363,2,0,L|60:96,1,45.4999979171754,10|0,0:0|0:0,0:0:0:0:
156,280,58577,1,2,1:2:0:0:
164,252,58685,1,0,1:2:0:0:
168,224,58792,6,0,L|108:220,1,45.4999979171754,10|0,0:0|0:0,0:0:0:0:
36,124,59006,1,2,1:2:0:0:
60,104,59113,1,0,1:2:0:0:
84,84,59220,2,0,L|184:84,1,90.9999958343508,10|0,0:0|1:2,0:0:0:0:
272,84,59541,1,0,1:2:0:0:
300,68,59648,1,10,0:0:0:0:
400,208,59863,1,2,1:2:0:0:
432,20,60077,1,10,0:0:0:0:
252,180,60291,1,2,1:2:0:0:
280,204,60398,1,0,1:2:0:0:
308,228,60506,6,0,L|300:344,1,90.9999958343508,10|2,0:0|1:2,0:0:0:0:
168,292,60827,1,0,1:2:0:0:
168,292,60934,2,0,L|161:201,1,90.9999958343508,10|0,0:0|1:2,0:0:0:0:
152,104,61256,1,0,1:2:0:0:
148,72,61363,1,10,0:0:0:0:
268,108,61577,1,2,1:2:0:0:
72,152,61791,1,10,0:0:0:0:
288,16,62006,1,2,1:2:0:0:
316,36,62113,1,0,1:2:0:0:
344,56,62220,6,0,P|352:96|344:152,1,90.9999958343508,10|0,0:0|1:2,0:0:0:0:
444,124,62648,2,0,P|420:192|384:228,1,90.9999958343508,10|0,0:0|1:2,0:0:0:0:
496,240,63077,2,0,P|444:284|400:296,1,90.9999958343508,10|0,0:0|1:2,0:0:0:0:
308,384,63506,1,10,0:0:0:0:
184,204,63720,1,2,1:2:0:0:
208,184,63827,1,0,1:2:0:0:
232,164,63934,6,0,P|276:160|328:164,1,90.9999958343508,14|0,0:0|1:2,0:0:0:0:
296,268,64256,1,0,1:2:0:0:
268,284,64363,1,10,0:0:0:0:
156,168,64577,1,2,1:2:0:0:
180,148,64684,1,0,1:2:0:0:
208,132,64791,2,0,P|252:128|304:132,1,90.9999958343508,10|0,0:0|1:2,0:0:0:0:
378,203,65113,1,0,1:2:0:0:
397,178,65220,2,0,L|395:129,1,45.4999979171754,10|0,0:0|0:0,0:0:0:0:
440,44,65434,1,2,1:2:0:0:
472,52,65541,1,0,1:2:0:0:
504,60,65648,6,0,L|504:160,1,90.9999958343508,10|0,0:0|1:2,0:0:0:0:
504,264,65970,1,0,1:2:0:0:
484,240,66077,1,10,0:0:0:0:
404,168,66291,1,2,1:2:0:0:
392,196,66398,1,0,1:2:0:0:
380,224,66506,1,10,0:0:0:0:
272,292,66720,1,0,1:2:0:0:
252,268,66827,1,0,1:2:0:0:
228,244,66934,2,0,L|172:244,1,45.4999979171754,10|0,0:0|0:0,0:0:0:0:
304,192,67148,1,0,1:2:0:0:
284,168,67256,1,0,1:2:0:0:
260,144,67363,6,0,L|152:144,1,90.9999958343508,10|0,0:0|1:2,0:0:0:0:
68,144,67684,1,0,1:2:0:0:
44,160,67791,2,0,L|48:232,1,45.4999979171754,10|0,0:0|0:0,0:0:0:0:
140,264,68006,1,0,1:2:0:0:
160,244,68113,1,0,1:2:0:0:
180,228,68220,2,0,L|270:230,1,90.9999958343508,10|0,0:0|1:2,0:0:0:0:
368,232,68541,1,0,1:2:0:0:
396,216,68648,1,10,0:0:0:0:
472,128,68863,1,0,1:2:0:0:
444,112,68970,1,0,1:2:0:0:
416,96,69077,6,0,L|440:56,1,45.4999979171754,10|0,0:0|0:0,0:0:0:0:
340,136,69291,1,2,1:2:0:0:
312,120,69398,1,0,1:2:0:0:
284,104,69505,2,0,L|312:60,1,45.4999979171754,10|0,0:0|0:0,0:0:0:0:
208,144,69720,1,2,1:2:0:0:
180,128,69827,1,0,1:2:0:0:
152,112,69934,6,0,L|144:168,1,45.4999979171754,10|0,3:2|0:0,0:0:0:0:
248,288,70148,2,0,L|240:228,1,45.4999979171754,0|0,3:2|0:0,0:0:0:0:
72,148,70363,2,0,L|60:224,1,45.4999979171754,2|0,3:2|0:0,0:0:0:0:
304,176,70577,1,2,3:2:0:0:
376,184,70684,1,0,3:2:0:0:
452,192,70791,6,0,P|460:236|448:316,1,105.000004005432,6|0,0:0|0:0,0:0:0:0:
304,176,71220,2,0,P|301:130|312:72,1,105.000004005432,10|0,0:0|0:0,0:0:0:0:
448,0,71648,1,2,3:2:0:0:
484,120,71863,1,2,0:0:0:0:
476,0,72077,1,8,0:0:0:0:
392,148,72291,1,2,0:0:0:0:
256,24,72506,6,0,P|211:22|148:28,1,105.000004005432,2|0,3:2|0:0,0:0:0:0:
7,159,72934,2,0,P|64:167|115:163,1,105.000004005432,10|0,0:0|0:0,0:0:0:0:
277,143,73363,1,2,3:2:0:0:
213,248,73577,1,2,0:0:0:0:
256,139,73791,1,8,0:0:0:0:
317,302,74006,1,2,0:0:0:0:
433,97,74220,6,0,L|315:108,1,105.000004005432,2|0,3:2|0:0,0:0:0:0:
392,272,74648,2,0,L|510:261,1,105.000004005432,10|0,0:0|0:0,0:0:0:0:
328,348,75077,1,2,3:2:0:0:
216,288,75291,1,2,0:0:0:0:
392,272,75506,1,8,0:0:0:0:
176,376,75720,1,2,0:0:0:0:
472,332,75934,6,0,P|488:268|468:204,1,105.000004005432,2|0,3:2|0:0,0:0:0:0:
392,272,76363,2,0,P|368:220|316:184,1,105.000004005432,10|0,0:0|1:2,0:0:0:0:
232,180,76684,1,0,1:2:0:0:
200,176,76791,2,0,L|208:108,1,52.5000020027161,10|0,0:0|0:0,0:0:0:0:
128,120,77006,2,0,L|136:52,1,52.5000020027161,0|0,1:2|1:2,0:0:0:0:
120,236,77220,1,10,0:0:0:0:
216,32,77434,1,2,0:0:0:0:
316,304,77648,6,0,L|368:308,1,52.5000020027161,14|0,0:0|0:0,0:0:0:0:
480,192,77863,2,0,L|428:196,1,52.5000020027161,2|0,0:0|1:2,0:0:0:0:
328,204,78077,1,8,0:0:0:0:
310,192,78291,2,0,L|310:87,1,105.000004005432,6|0,0:0|3:2,0:0:0:0:
196,304,78720,6,0,L|144:308,1,52.5000020027161,2|0,0:0|0:0,0:0:0:0:
32,192,78935,2,0,L|84:196,1,52.5000020027161,10|0,0:0|0:0,0:0:0:0:
184,204,79149,1,0,1:2:0:0:
200,176,79256,1,0,1:2:0:0:
212,148,79363,6,0,L|204:64,1,52.5000020027161,14|0,0:0|0:0,0:0:0:0:
348,28,79577,2,0,L|343:80,1,52.5000020027161,2|0,0:0|1:2,0:0:0:0:
328,176,79791,1,8,0:0:0:0:
341,191,80006,2,0,P|389:187|461:191,1,105.000004005432,6|0,0:0|3:2,0:0:0:0:
340,340,80434,1,2,0:0:0:0:
276,268,80648,1,10,0:0:0:0:
124,368,80863,1,0,1:2:0:0:
100,348,80970,1,0,1:2:0:0:
76,328,81077,6,0,P|76:272|88:184,1,105.000004005432,6|0,0:0|0:0,0:0:0:0:
184,105,81506,1,2,3:2:0:0:
238,208,81720,1,0,1:2:0:0:
210,223,81827,1,0,1:2:0:0:
182,238,81934,1,10,0:0:0:0:
296,61,82148,1,0,1:2:0:0:
295,257,82363,1,0,1:2:0:0:
266,244,82470,1,0,1:2:0:0:
235,235,82577,2,0,L|156:240,1,52.5000020027161,2|0,0:0|1:2,0:0:0:0:
360,157,82791,5,6,0:0:0:0:
376,173,83220,1,6,0:0:0:0:
212,146,83648,2,0,P|179:186|178:238,1,105.000004005432,2|0,0:0|0:0,0:0:0:0:
338,277,84077,2,0,P|309:233|260:216,1,105.000004005432,2|0,0:0|0:0,0:0:0:0:
98,271,84506,6,0,B|112:329|208:405|344:361|452:141|200:53|136:185|180:240,1,525.000020027161,6|0,0:0|0:0,0:0:0:0:
98,271,85791,1,2,0:0:0:0:
44,196,86006,2,0,L|48:308,1,105.000004005432,0|2,0:0|0:0,0:0:0:0:
256,192,86327,12,0,87934,0:0:0:0:
