osu file format v14

[General]
AudioFilename: audio.mp3
AudioLeadIn: 0
PreviewTime: 160079
Countdown: 0
SampleSet: Soft
StackLeniency: 0.7
Mode: 0
LetterboxInBreaks: 0
WidescreenStoryboard: 1

[Editor]
DistanceSpacing: 1.2
BeatDivisor: 4
GridSize: 32
TimelineZoom: 1.7

[Metadata]
Title:Hikousen
TitleUnicode:飛行船
Artist:Yuuri
ArtistUnicode:優里
Creator:alevi
Version:Lost's Insane
Source:
Tags:japanese rock jrock j-rock male vocalist 壱 ichi airship vanya2 kirishima- [_lost_] conner c_o_n_n_e_r sarawatlism
BeatmapID:3614870
BeatmapSetID:1762468

[Difficulty]
HPDrainRate:5
CircleSize:3.6
OverallDifficulty:8
ApproachRate:9
SliderMultiplier:1.85
SliderTickRate:1

[Events]
//Background and Video events
0,0,"1128513.jpg",0,0
//Break Periods
2,144554,151154
//Storyboard Layer 0 (Background)
//Storyboard Layer 1 (Fail)
//Storyboard Layer 2 (Pass)
//Storyboard Layer 3 (Foreground)
//Storyboard Layer 4 (Overlay)
//Storyboard Sound Samples

[TimingPoints]
554,300,4,2,1,30,1,0
1154,-100,4,2,1,40,0,0
1754,-100,4,2,1,50,0,0
2354,-100,4,2,1,60,0,0
2954,-100,4,2,1,70,0,0
4154,-100,4,2,1,40,0,0
4754,-166.666666666667,4,2,1,60,0,0
5278,-166.666666666667,4,2,1,5,0,0
5354,-90.9090909090909,4,2,1,80,0,0
6779,-90.9090909090909,4,2,1,5,0,0
6854,-90.9090909090909,4,2,1,80,0,0
7979,-90.9090909090909,4,2,1,5,0,0
8054,-90.9090909090909,4,2,1,80,0,0
9854,-83.3333333333333,4,2,1,80,0,0
10078,-83.3333333333333,4,2,1,5,0,0
10154,-90.9090909090909,4,2,1,80,0,0
11579,-90.9090909090909,4,2,1,5,0,0
11654,-90.9090909090909,4,2,1,80,0,0
13604,-83.3333333333333,4,2,1,80,0,0
13828,-83.3333333333333,4,2,1,5,0,0
13904,-83.3333333333333,4,2,1,80,0,0
14204,-90.9090909090909,4,2,1,80,0,0
14429,-90.9090909090909,4,2,1,5,0,0
14504,-90.9090909090909,4,2,1,80,0,0
14654,-83.3333333333333,4,2,1,80,0,0
15404,-125,4,2,1,80,0,0
17204,-111.111111111111,4,2,1,80,0,0
19754,-142.857142857143,4,2,1,50,0,0
22078,-142.857142857143,4,2,1,5,0,0
22154,-142.857142857143,4,2,1,50,0,0
31754,-142.857142857143,4,2,1,40,0,0
32054,-142.857142857143,4,2,1,45,0,0
32354,-142.857142857143,4,2,1,50,0,0
32654,-142.857142857143,4,2,1,55,0,0
32954,-142.857142857143,4,2,1,50,0,0
34004,-66.6666666666667,4,2,1,70,0,0
34154,-76.9230769230769,4,2,1,70,0,0
34378,-76.9230769230769,4,2,1,5,0,0
34454,-76.9230769230769,4,2,1,70,0,0
34604,-83.3333333333333,4,2,1,70,0,0
34828,-83.3333333333333,4,2,1,5,0,0
34904,-83.3333333333333,4,2,1,70,0,0
35054,-90.9090909090909,4,2,1,70,0,0
37454,-111.111111111111,4,2,1,70,0,0
38354,-100,4,2,1,70,0,0
38579,-100,4,2,1,5,0,0
38654,-100,4,2,1,70,0,0
38954,-111.111111111111,4,2,1,70,0,0
39153,-111.111111111111,4,2,1,5,0,0
39254,-111.111111111111,4,2,1,70,0,0
39753,-111.111111111111,4,2,1,5,0,0
39854,-111.111111111111,4,2,1,70,0,0
40979,-111.111111111111,4,2,1,5,0,0
41054,-111.111111111111,4,2,1,70,0,0
41553,-111.111111111111,4,2,1,5,0,0
41654,-111.111111111111,4,2,1,70,0,0
42153,-111.111111111111,4,2,1,5,0,0
42254,-111.111111111111,4,2,1,70,0,0
43353,-111.111111111111,4,2,1,5,0,0
43454,-111.111111111111,4,2,1,70,0,0
43754,-90.9090909090909,4,2,1,70,0,0
43979,-90.9090909090909,4,2,1,5,0,0
44054,-90.9090909090909,4,2,1,70,0,0
44954,-90.9090909090909,4,2,1,75,0,0
45179,-90.9090909090909,4,2,1,5,0,0
45254,-90.9090909090909,4,2,1,75,0,0
46154,-83.3333333333333,4,2,1,80,0,0
46378,-83.3333333333333,4,2,1,5,0,0
46454,-83.3333333333333,4,2,1,80,0,0
47354,-200,4,2,1,85,0,0
48179,-200,4,2,1,5,0,0
48254,-333.333333333333,4,2,1,85,0,0
48554,-83.3333333333333,4,2,1,90,0,0
49678,-83.3333333333333,4,2,1,5,0,0
49754,-83.3333333333333,4,2,1,90,0,0
52378,-83.3333333333333,4,2,1,5,0,0
52454,-83.3333333333333,4,2,1,90,0,0
54778,-83.3333333333333,4,2,1,5,0,0
54854,-83.3333333333333,4,2,1,90,0,0
56804,-76.9230769230769,4,2,1,90,0,0
57028,-76.9230769230769,4,2,1,5,0,0
57104,-76.9230769230769,4,2,1,90,0,0
57404,-83.3333333333333,4,2,1,90,0,0
58828,-83.3333333333333,4,2,1,5,0,0
58904,-83.3333333333333,4,2,1,90,0,0
61978,-83.3333333333333,4,2,1,5,0,0
62054,-83.3333333333333,4,2,1,90,0,0
64154,-83.3333333333333,4,2,1,60,0,0
65354,-200,4,2,1,40,0,0
66554,-200,4,2,1,50,0,0
67154,-125,4,2,1,50,0,0
67454,-166.666666666667,4,2,1,50,0,0
67678,-166.666666666667,4,2,1,5,0,0
67754,-200,4,2,1,40,0,0
70079,-200,4,2,1,5,0,0
70154,-200,4,2,1,40,0,0
76604,-200,4,2,1,60,0,0
76754,-125,4,2,1,60,0,0
77054,-142.857142857143,4,2,1,60,0,0
77354,-125,4,2,1,60,0,0
78479,-125,4,2,1,5,0,0
78554,-125,4,2,1,60,0,0
80879,-125,4,2,1,5,0,0
80954,-125,4,2,1,60,0,0
83579,-125,4,2,1,5,0,0
83654,-117.647058823529,4,2,1,60,0,0
83879,-117.647058823529,4,2,1,5,0,0
83954,-111.111111111111,4,2,1,60,0,0
84178,-111.111111111111,4,2,1,5,0,0
84254,-105.263157894737,4,2,1,60,0,0
84554,-111.111111111111,4,2,1,60,0,0
85754,-100,4,2,1,70,0,0
85979,-100,4,2,1,5,0,0
86054,-100,4,2,1,70,0,0
86954,-142.857142857143,4,2,1,70,0,0
91454,-166.666666666667,4,2,1,70,0,0
91754,-111.111111111111,4,2,1,70,0,0
96254,-166.666666666667,4,2,1,70,0,0
96554,-142.857142857143,4,2,1,60,0,0
101054,-111.111111111111,4,2,1,60,0,0
101354,-125,4,2,1,60,0,0
101579,-125,4,2,1,5,0,0
101654,-125,4,2,1,60,0,0
102554,-125,4,2,1,65,0,0
103754,-100,4,2,1,70,0,0
104354,-100,4,2,1,75,0,0
104954,-100,4,2,1,80,0,0
105554,-90.9090909090909,4,2,1,85,0,0
106154,-83.3333333333333,4,2,1,90,0,0
107278,-83.3333333333333,4,2,1,5,0,0
107354,-83.3333333333333,4,2,1,90,0,0
109978,-83.3333333333333,4,2,1,5,0,0
110054,-83.3333333333333,4,2,1,90,0,0
112378,-83.3333333333333,4,2,1,5,0,0
112454,-83.3333333333333,4,2,1,90,0,0
114404,-76.9230769230769,4,2,1,90,0,0
114628,-76.9230769230769,4,2,1,5,0,0
114704,-76.9230769230769,4,2,1,90,0,0
115004,-83.3333333333333,4,2,1,90,0,0
116428,-83.3333333333333,4,2,1,5,0,0
116504,-83.3333333333333,4,2,1,90,0,0
119578,-83.3333333333333,4,2,1,5,0,0
119654,-83.3333333333333,4,2,1,90,0,0
121978,-83.3333333333333,4,2,1,5,0,0
122054,-83.3333333333333,4,2,1,90,0,0
122354,-100,4,2,1,90,0,0
123254,-100,4,2,1,50,0,0
125204,-100,4,2,1,50,0,0
125354,-100,4,2,1,90,0,0
125654,-100,4,2,1,50,0,0
127754,-100,4,2,1,90,0,0
128054,-100,4,2,1,50,0,0
129704,-100,4,2,1,80,0,0
129854,-142.857142857143,4,2,1,80,0,0
130078,-142.857142857143,4,2,1,5,0,0
130154,-142.857142857143,4,2,1,90,0,0
130454,-142.857142857143,4,2,1,50,0,0
130904,-142.857142857143,4,2,1,50,0,0
131278,-142.857142857143,4,2,1,5,0,0
131354,-100,4,2,1,70,0,0
132554,-125,4,2,1,80,0,0
137054,-100,4,2,1,80,0,0
137279,-100,4,2,1,5,0,0
137354,-125,4,2,1,85,0,0
139154,-100,4,2,1,85,0,0
139454,-166.666666666667,4,2,1,85,0,0
139754,-166.666666666667,4,2,1,90,0,0
140354,-100,4,2,1,90,0,0
140654,-200,4,2,1,90,0,0
141254,-200,4,2,1,60,0,0
141479,-200,4,2,1,5,0,0
141554,-200,4,2,1,50,0,0
141854,-200,4,2,1,40,0,0
142154,-200,4,2,1,5,0,0
144254,-200,4,2,1,40,0,0
151754,-200,4,2,1,80,0,0
152804,-90.9090909090909,4,2,1,80,0,0
153029,-90.9090909090909,4,2,1,5,0,0
153104,-90.9090909090909,4,2,1,80,0,0
153254,-100,4,2,1,80,0,0
153554,-111.111111111111,4,2,1,80,0,0
153854,-125,4,2,1,80,0,0
158954,-90.9090909090909,4,2,1,80,0,0
159179,-90.9090909090909,4,2,1,5,0,0
159254,-90.9090909090909,4,2,1,80,0,0
160154,-90.9090909090909,4,2,1,50,0,0
161354,-83.3333333333333,4,2,1,90,0,0
162778,-83.3333333333333,4,2,1,5,0,0
162854,-83.3333333333333,4,2,1,90,0,0
165178,-83.3333333333333,4,2,1,5,0,0
165254,-83.3333333333333,4,2,1,90,0,0
167578,-83.3333333333333,4,2,1,5,0,0
167654,-83.3333333333333,4,2,1,90,0,0
169604,-76.9230769230769,4,2,1,90,0,0
169828,-76.9230769230769,4,2,1,5,0,0
169904,-76.9230769230769,4,2,1,90,0,0
170204,-83.3333333333333,4,2,1,90,0,0
171628,-83.3333333333333,4,2,1,5,0,0
171704,-83.3333333333333,4,2,1,90,0,0
172378,-83.3333333333333,4,2,1,5,0,0
172454,-83.3333333333333,4,2,1,90,0,0
174778,-83.3333333333333,4,2,1,5,0,0
174854,-83.3333333333333,4,2,1,90,0,0
180778,-83.3333333333333,4,2,1,5,0,0
180854,-83.3333333333333,4,2,1,90,0,0
181228,-83.3333333333333,4,2,1,5,0,0
181304,-83.3333333333333,4,2,1,90,0,0
182128,-83.3333333333333,4,2,1,5,0,0
182204,-83.3333333333333,4,2,1,90,0,0
183178,-83.3333333333333,4,2,1,5,0,0
183254,-83.3333333333333,4,2,1,90,0,0
190154,-83.3333333333333,4,2,1,80,0,0
191354,-83.3333333333333,4,2,1,70,0,0
191954,-83.3333333333333,4,2,1,60,0,0
192254,-83.3333333333333,4,2,1,50,0,0
192404,-83.3333333333333,4,2,1,40,0,0
192554,-83.3333333333333,4,2,1,5,0,0

[Colours]
Combo1 : 13,147,147
Combo2 : 241,146,99
Combo3 : 100,200,200
Combo4 : 155,148,245

[HitObjects]
256,192,554,12,2,4154,0:0:0:0:
56,111,4754,6,0,B|116:184|199:148|188:79|129:88,1,194.249994071961,2|0,0:0|0:0,2:0:0:0:
103,9,5354,6,0,L|103:232,1,203.500006210327,14|10,3:2|1:2,2:0:0:0:
174,312,5804,1,0,2:0:0:0:
275,243,5954,2,0,P|210:226|170:210,1,101.750003105164,10|0,3:2|3:2,2:0:0:0:
354,328,6254,2,0,P|401:310|451:298,1,101.750003105164,10|0,1:2|2:0,2:0:0:0:
445,175,6554,6,0,B|379:195|379:195|365:216|365:216|301:240,1,152.625004657746,10|0,3:2|0:0,2:0:0:0:
275,243,6854,2,0,P|249:200|268:149,1,101.750003105164,10|0,1:2|2:0,2:0:0:0:
351,68,7154,1,10,3:2:0:0:
243,11,7304,1,2,3:2:0:0:
351,68,7454,2,0,P|415:59|435:17,1,101.750003105164,10|2,1:2|1:2,2:0:0:0:
442,1,7679,1,0,1:2:0:0:
442,1,7754,6,0,L|442:170,1,152.625004657746,12|0,3:2|0:0,2:0:0:0:
445,175,8054,2,0,P|394:147|345:156,1,101.750003105164,10|0,1:2|2:0,2:0:0:0:
353,315,8354,1,10,3:2:0:0:
252,246,8504,1,0,3:2:0:0:
353,315,8654,2,0,P|391:271|379:223,1,101.750003105164,10|0,1:2|2:0,2:0:0:0:
305,138,8954,6,0,B|232:121|202:174|217:168|189:224|117:207,1,203.500006210327,10|10,3:2|1:2,2:0:0:0:
31,131,9404,1,2,1:2:0:0:
117,45,9554,2,0,P|167:53|215:69,1,101.750003105164,10|2,3:2|3:2,2:0:0:0:
11,1,9854,6,0,L|11:180,1,166.499994918823,10|0,1:2|0:0,2:0:0:0:
1,202,10154,6,0,P|43:134|147:186,1,203.500006210327,14|10,3:2|1:2,2:0:0:0:
215,270,10604,1,0,2:0:0:0:
106,353,10754,2,0,P|123:292|131:229,1,101.750003105164,10|0,3:2|3:2,2:0:0:0:
201,86,11054,2,0,P|209:136|223:184,1,101.750003105164,10|2,1:2|0:0,2:0:0:0:
400,270,11354,6,0,P|322:266|225:269,1,152.625004657746,10|0,3:2|0:0,2:0:0:0:
215,270,11654,2,0,P|271:257|302:214,1,101.750003105164,10|0,1:2|2:0,2:0:0:0:
129,152,11954,2,0,P|73:165|42:208,1,101.750003105164,10|2,3:2|3:2,2:0:0:0:
298,108,12254,1,10,1:2:0:0:
184,0,12404,1,2,1:2:0:0:
184,0,12479,1,0,1:2:0:0:
184,0,12554,6,0,L|184:210,1,203.500006210327,12|10,3:2|1:2,2:0:0:0:
85,277,13004,1,2,0:0:0:0:
267,315,13154,2,0,P|216:294|162:289,1,101.750003105164,10|2,3:2|3:2,2:0:0:0:
330,270,13454,1,8,1:2:0:0:
471,371,13604,6,0,B|483:293|483:293|500:270|500:270|510:185,1,166.499994918823,6|0,3:2|0:0,2:0:0:0:
510,184,13904,1,2,3:2:0:0:
330,270,14054,1,8,1:2:0:0:
289,99,14204,6,0,P|356:83|406:171,1,152.625004657746,6|0,3:2|0:0,2:0:0:0:
410,164,14504,1,2,1:2:0:0:
215,152,14654,6,0,P|194:96|215:48,1,110.999996612549,10|6,0:3|0:3,2:0:0:0:
254,228,14954,5,6,1:2:0:0:
111,120,15104,1,2,1:2:0:0:
111,120,15404,6,0,B|45:153|45:153|21:190|54:224,1,148,6|2,1:2|3:2,2:0:0:0:
80,238,15779,1,0,3:2:0:0:
80,238,15854,1,10,1:2:0:0:
215,152,16004,1,2,1:2:0:0:
215,152,16304,6,0,B|266:143|324:120|324:120|319:149|316:168,1,148,6|2,3:2|1:2,2:0:0:0:
315,184,16679,1,0,1:2:0:0:
315,184,16754,1,2,1:2:0:0:
247,54,16904,1,10,0:3:0:0:
401,175,17054,1,4,0:3:0:0:
252,277,17204,6,0,P|191:226|214:151,1,166.499994918823,6|2,3:2|3:2,2:0:0:0:
273,71,17654,2,0,P|328:84|366:85,1,83.2499974594117,10|0,1:2|2:0,2:0:0:0:
473,122,17954,2,0,P|402:103|406:178,1,166.499994918823,10|10,3:2|1:2,2:0:0:0:
487,247,18404,1,2,1:2:0:0:
487,247,18479,1,0,1:2:0:0:
487,247,18554,5,10,3:2:0:0:
386,294,18704,1,6,1:2:0:0:
467,363,18854,2,0,P|473:321|480:280,1,83.2499974594117,0|0,1:0|3:2,2:0:0:0:
309,219,19154,1,10,1:2:0:0:
386,294,19304,1,4,0:3:0:0:
263,358,19454,2,0,P|258:316|250:275,1,83.2499974594117,8|0,3:2|1:2,2:0:0:0:
239,156,19754,6,0,P|180:123|128:175,1,129.499996047974,14|2,3:2|1:2,2:0:0:0:
60,163,20204,1,2,1:2:0:0:
60,163,20354,2,0,P|72:216|76:246,1,64.7499980239869,0|2,2:0|3:2,2:0:0:0:
149,91,20654,2,0,P|137:144|133:174,1,64.7499980239869,2|0,1:2|1:2,2:0:0:0:
8,58,20954,6,0,P|37:67|152:82,1,129.499996047974,8|8,0:0|0:0,2:0:0:0:
264,22,21404,1,2,0:0:0:0:
264,22,21554,2,0,P|211:28|192:38,1,64.7499980239869,0|2,1:2|0:0,2:0:0:0:
340,134,21854,2,0,P|346:90|350:35,1,97.1249970359803,2|0,0:0|0:0,2:0:0:0:
360,26,22154,6,0,P|352:109|346:173,1,129.499996047974,6|0,3:2|2:0,2:0:0:0:
401,215,22604,1,0,1:2:0:0:
401,215,22754,2,0,P|450:200|480:195,1,64.7499980239869,0|0,1:2|3:2,2:0:0:0:
338,270,23054,2,0,P|289:255|259:250,1,64.7499980239869,0|2,1:2|0:0,2:0:0:0:
211,209,23354,6,0,B|172:195|145:226|152:225|130:252|79:239,1,129.499996047974,10|10,0:0|3:2,2:0:0:0:
38,184,23804,1,2,0:0:0:0:
73,115,23954,2,0,P|121:118|157:134,1,64.7499980239869,0|10,1:2|0:2,2:0:0:0:
296,56,24254,1,10,0:2:0:0:
233,10,24404,1,8,0:2:0:0:
224,6,24479,1,8,0:2:0:0:
215,0,24554,6,0,L|215:134,1,129.499996047974,4|0,3:2|1:2,2:0:0:0:
239,203,25004,1,0,1:2:0:0:
364,163,25154,2,0,P|313:145|287:143,1,64.7499980239869,0|2,1:2|3:2,2:0:0:0:
306,259,25454,2,0,P|357:241|383:239,1,64.7499980239869,2|2,1:2|0:0,2:0:0:0:
436,275,25754,6,0,P|396:237|456:186,1,129.499996047974,10|0,3:2|1:2,2:0:0:0:
493,135,26204,1,2,1:2:0:0:
434,83,26354,2,0,P|394:104|366:111,1,64.7499980239869,0|2,1:2|3:2,2:0:0:0:
216,122,26654,1,2,1:2:0:0:
280,166,26804,1,8,0:3:0:0:
290,173,26879,1,4,0:3:0:0:
299,178,26954,6,0,P|287:99|281:32,1,129.499996047974,8|0,3:2|1:2,2:0:0:0:
128,92,27404,1,0,1:2:0:0:
196,44,27554,2,0,P|205:84|211:120,1,64.7499980239869,0|2,1:2|3:2,2:0:0:0:
161,169,27854,2,0,P|152:209|146:245,1,64.7499980239869,2|2,1:2|1:2,2:0:0:0:
90,284,28154,6,0,B|135:269|162:293|153:297|179:322|227:309,1,129.499996047974,2|2,3:2|1:2,2:0:0:0:
271,262,28604,1,2,0:0:0:0:
339,298,28754,2,0,P|379:286|410:278,1,64.7499980239869,0|2,2:0|0:0,2:0:0:0:
319,170,29054,2,0,P|326:192|329:212,3,32.3749990119934,2|0|0|0,1:2|1:2|1:2|1:2,2:0:0:0:
319,148,29354,6,0,P|335:123|416:162,1,129.499996047974,6|0,3:2|1:2,2:0:0:0:
480,107,29804,1,0,1:2:0:0:
480,107,29954,2,0,P|487:53|489:31,1,64.7499980239869,0|2,1:2|1:2,2:0:0:0:
500,185,30254,2,0,P|493:239|491:261,1,64.7499980239869,2|2,1:2|1:2,2:0:0:0:
499,325,30554,6,0,B|448:331|448:331|420:352|420:352|377:357,1,129.499996047974,2|2,1:2|1:2,2:0:0:0:
309,309,31004,1,2,1:2:0:0:
353,245,31154,2,0,P|410:253|433:265,1,64.7499980239869,0|2,1:2|1:2,2:0:0:0:
232,336,31454,2,0,P|175:328|152:316,1,64.7499980239869,2|0,1:2|1:2,2:0:0:0:
214,195,31754,6,0,L|224:228,3,32.3749990119934,0|0|0|0,3:2|1:2|1:2|1:2,2:0:0:0:
296,139,32054,6,0,L|286:172,3,32.3749990119934,0|0|0|0,1:2|1:2|1:2|1:2,2:0:0:0:
197,83,32354,6,0,L|207:116,3,32.3749990119934,0|0|2|0,1:2|1:2|1:2|1:2,2:0:0:0:
289,19,32654,5,2,1:2:0:0:
286,31,32729,1,0,1:2:0:0:
284,43,32804,1,0,1:2:0:0:
281,55,32879,1,0,1:2:0:0:
278,67,32954,1,2,0:0:0:0:
278,67,34004,6,0,P|235:58|197:48,1,69.3750026464463,2|2,0:0|0:0,2:0:0:0:
129,0,34154,6,0,L|129:188,1,180.374991743088,4|0,3:2|0:0,2:0:0:0:
130,215,34454,1,2,1:2:0:0:
21,292,34604,6,0,B|70:274|97:317|88:321|119:359|168:348,1,166.499994918823,2|0,3:2|0:0,2:0:0:0:
197,344,34904,1,0,1:2:0:0:
331,236,35054,6,0,P|271:245|225:264,1,101.750003105164,2|8,3:2|0:3,2:0:0:0:
219,251,35279,1,4,0:3:0:0:
219,251,35354,2,0,P|266:233|317:227,1,101.750003105164,2|0,3:2|2:0,2:0:0:0:
432,163,35654,2,0,P|384:145|333:139,1,101.750003105164,2|0,3:2|2:0,2:0:0:0:
454,333,35954,2,0,P|473:271|478:229,1,101.750003105164,2|0,3:2|2:0,2:0:0:0:
333,139,36254,2,0,P|314:201|309:243,1,101.750003105164,2|0,3:2|1:2,2:0:0:0:
428,68,36554,5,4,1:2:0:0:
243,150,36704,1,0,1:2:0:0:
488,125,36854,1,0,1:2:0:0:
290,34,37004,1,2,1:2:0:0:
290,34,37454,6,0,P|199:17|159:84,1,166.499994918823,6|2,1:2|0:0,2:0:0:0:
154,166,37904,1,2,1:2:0:0:
73,93,38054,2,0,P|112:78|158:74,1,83.2499974594117,10|2,3:2|3:2,2:0:0:0:
246,155,38354,6,0,B|291:162|313:129|307:128|331:99|378:114,1,138.75,10|0,1:2|0:0,2:0:0:0:
390,124,38654,2,0,P|435:130|481:140,1,92.5,2|0,3:2|2:0,2:0:0:0:
346,319,38954,6,0,P|300:292|308:233,1,110.999996612549,2|0,3:2|0:0,2:0:0:0:
380,209,39254,2,0,P|419:217|440:219,2,55.4999983062745,2|0|0,3:2|1:2|1:2,2:0:0:0:
303,240,39554,2,0,B|252:246|252:246|229:264|229:264|183:269,1,110.999996612549,2|0,1:2|0:0,2:0:0:0:
122,211,39854,2,0,P|82:203|62:201,2,55.4999983062745,2|0|0,3:2|1:2|1:2,2:0:0:0:
175,155,40154,6,0,P|185:111|190:64,1,83.2499974594117,2|2,1:2|0:0,2:0:0:0:
110,10,40454,2,0,P|100:54|95:101,1,83.2499974594117,2|2,3:2|0:0,2:0:0:0:
175,155,40754,2,0,B|221:148|221:148|249:131|249:131|299:121,1,124.874996189118,2|0,1:2|0:0,2:0:0:0:
345,58,41054,2,0,P|390:73|441:86,1,83.2499974594117,8|2,1:2|0:0,2:0:0:0:
508,11,41354,6,0,P|462:0|452:72,1,110.999996612549,2|0,3:2|0:0,2:0:0:0:
498,148,41654,2,0,P|505:105|507:66,2,55.4999983062745,2|0|0,3:2|1:2|1:2,2:0:0:0:
410,184,41954,2,0,P|419:242|431:301,1,110.999996612549,2|0,1:2|0:0,2:0:0:0:
268,302,42254,2,0,P|311:295|350:293,2,55.4999983062745,2|0|0,3:2|1:2|1:2,2:0:0:0:
196,249,42554,6,0,P|205:191|215:153,1,83.2499974594117,2|0,1:2|2:0,2:0:0:0:
80,64,42854,2,0,P|69:26|63:-6,2,55.4999983062745,2|0|0,3:2|1:2|1:2,2:0:0:0:
43,142,43154,2,0,P|89:105|151:105,1,110.999996612549,2|0,1:2|0:0,2:0:0:0:
214,66,43454,6,0,P|241:70|268:72,2,55.4999983062745,10|8|4,0:3|0:3|0:3,2:0:0:0:
169,0,43754,6,0,L|169:161,1,152.625004657746,14|0,3:2|0:0,2:0:0:0:
169,152,44054,2,0,P|109:120|65:133,1,101.750003105164,10|0,3:2|1:2,2:0:0:0:
264,212,44354,2,0,P|321:176|332:131,1,101.750003105164,10|0,1:2|1:2,2:0:0:0:
160,258,44654,2,0,P|162:325|195:357,1,101.750003105164,10|0,3:2|1:2,2:0:0:0:
433,278,44954,6,0,B|381:261|355:299|371:298|347:334|280:314,1,152.625004657746,14|0,3:2|0:0,2:0:0:0:
272,301,45254,2,0,P|248:242|272:204,1,101.750003105164,8|0,3:2|1:2,2:0:0:0:
394,65,45554,5,8,1:2:0:0:
408,59,45629,1,0,1:2:0:0:
421,52,45704,2,0,L|412:114,1,50.8750015525818,0|0,1:2|1:2,2:0:0:0:
289,118,45854,5,10,1:2:0:0:
275,124,45929,1,0,1:2:0:0:
262,131,46004,2,0,L|271:69,1,50.8750015525818,2|0,1:2|1:2,2:0:0:0:
341,0,46154,6,0,L|341:188,1,166.499994918823,14|0,1:2|0:0,2:0:0:0:
408,256,46454,2,0,L|415:191,3,55.4999983062745,0|0|10|8,1:2|1:2|0:3|0:3,2:0:0:0:
322,338,46754,2,0,L|315:273,3,55.4999983062745,6|4|0|2,0:3|0:3|3:2|3:2,2:0:0:0:
202,220,47054,6,0,P|230:213|254:203,1,55.4999983062745,0|0,1:2|2:0,2:0:0:0:
144,286,47204,2,0,P|118:275|91:268,1,55.4999983062745,2|0,3:2|2:0,2:0:0:0:
5,141,47354,6,0,P|27:84|76:188,1,254.375,4|0,3:2|0:0,2:0:0:0:
94,180,48254,6,0,L|131:170,1,27.7499991531372,6|2,0:3|0:0,2:0:0:0:
212,0,48554,6,0,L|212:239,1,221.999993225098,14|10,3:2|1:2,2:0:0:0:
304,317,49004,1,2,0:0:0:0:
393,217,49154,2,0,P|340:185|283:185,1,110.999996612549,10|2,3:2|3:2,2:0:0:0:
166,338,49454,2,0,P|222:313|202:215,1,166.499994918823,10|0,1:2|0:0,2:0:0:0:
191,202,49754,6,0,B|128:180|77:237|110:240|82:288|-4:277,1,221.999993225098,10|10,3:2|1:2,2:0:0:0:
50,153,50204,1,2,2:0:0:0:
203,215,50354,2,0,P|272:192|320:180,1,110.999996612549,8|0,3:2|3:2,2:0:0:0:
128,116,50654,1,10,1:2:0:0:
258,17,50804,1,2,1:2:0:0:
258,17,50879,1,0,1:2:0:0:
258,17,50954,6,0,P|235:89|223:135,1,110.999996612549,14|2,3:2|0:0,2:0:0:0:
276,288,51254,2,0,P|299:216|311:170,1,110.999996612549,10|2,1:2|0:0,2:0:0:0:
124,32,51554,1,10,3:2:0:0:
225,123,51704,1,2,3:2:0:0:
39,161,51854,2,0,P|73:119|127:115,1,110.999996612549,10|0,1:2|2:0,2:0:0:0:
141,365,52154,6,0,P|81:316|128:233,1,166.499994918823,10|0,3:2|0:0,2:0:0:0:
125,225,52454,2,0,P|72:238|10:247,1,110.999996612549,10|0,1:2|2:0,2:0:0:0:
225,123,52754,1,8,3:2:0:0:
339,255,52904,1,0,1:2:0:0:
339,255,52979,1,0,1:2:0:0:
339,255,53054,1,10,1:2:0:0:
332,54,53204,2,0,P|322:79|315:106,1,55.4999983062745,2|0,1:2|1:2,2:0:0:0:
222,0,53354,6,0,L|222:229,1,221.999993225098,14|10,3:2|1:2,2:0:0:0:
291,335,53804,1,2,0:0:0:0:
407,228,53954,2,0,P|339:210|295:194,1,110.999996612549,10|2,3:2|3:2,2:0:0:0:
124,277,54254,2,0,P|176:258|230:245,1,110.999996612549,10|2,1:2|3:2,2:0:0:0:
35,121,54554,6,0,B|91:97|121:135|109:139|148:178|210:152,1,166.499994918823,10|0,3:2|0:0,2:0:0:0:
212,133,54854,2,0,P|261:101|316:95,1,110.999996612549,10|0,1:2|2:0,2:0:0:0:
407,228,55154,2,0,P|358:196|303:190,1,110.999996612549,10|0,3:2|3:2,2:0:0:0:
485,149,55454,1,10,1:2:0:0:
407,6,55604,1,0,1:2:0:0:
407,6,55679,1,0,1:2:0:0:
407,6,55754,6,0,L|407:247,1,221.999993225098,12|8,3:2|1:2,2:0:0:0:
348,347,56204,1,2,0:0:0:0:
220,285,56354,2,0,P|278:270|328:253,1,110.999996612549,10|2,3:2|3:2,2:0:0:0:
167,212,56654,1,8,1:2:0:0:
32,313,56804,6,0,B|100:295|100:295|138:312|138:312|223:290,1,180.374991743088,6|0,3:2|0:0,2:0:0:0:
220,285,57104,1,0,3:2:0:0:
60,203,57254,1,10,1:2:0:0:
123,71,57404,6,0,P|182:65|168:198,1,221.999993225098,6|2,3:2|1:2,2:0:0:0:
167,212,57779,1,0,1:2:0:0:
167,212,57854,2,0,P|204:200|230:194,1,55.4999983062745,10|0,1:2|1:2,2:0:0:0:
298,95,58004,2,0,P|261:107|235:113,1,55.4999983062745,0|0,1:2|1:2,2:0:0:0:
343,255,58154,6,0,P|402:238|453:227,1,110.999996612549,14|2,3:2|0:0,2:0:0:0:
305,181,58454,1,10,1:2:0:0:
448,35,58604,2,0,L|448:211,1,166.499994918823,2|0,0:0|0:0,2:0:0:0:
450,227,58904,1,2,3:2:0:0:
481,360,59054,2,0,P|434:324|373:330,1,110.999996612549,10|2,1:2|0:0,2:0:0:0:
251,342,59354,6,0,P|348:344|351:233,1,221.999993225098,10|10,3:2|1:2,2:0:0:0:
159,223,59804,1,2,2:0:0:0:
243,119,59954,2,0,P|271:193|276:242,1,110.999996612549,8|0,3:2|3:2,2:0:0:0:
151,107,60254,1,10,1:2:0:0:
280,14,60404,1,2,1:2:0:0:
280,14,60479,1,0,1:2:0:0:
280,14,60554,5,10,3:2:0:0:
151,107,60704,1,2,0:0:0:0:
345,152,60854,2,0,P|288:122|239:119,1,110.999996612549,10|2,1:2|3:2,2:0:0:0:
376,256,61154,2,0,P|430:221|457:180,1,110.999996612549,10|2,1:2|3:2,2:0:0:0:
255,222,61454,2,0,P|257:286|279:330,1,110.999996612549,10|2,1:2|1:2,2:0:0:0:
301,345,61679,1,0,1:2:0:0:
301,345,61754,6,0,L|130:345,1,166.499994918823,10|0,3:2|0:0,2:0:0:0:
108,365,62054,2,0,P|75:323|93:254,1,110.999996612549,10|0,1:2|2:0,2:0:0:0:
152,155,62354,2,0,P|185:197|167:266,1,110.999996612549,8|0,3:2|3:2,2:0:0:0:
104,70,62654,1,10,1:2:0:0:
243,129,62804,1,2,1:2:0:0:
243,129,62879,1,0,1:2:0:0:
243,129,62954,5,14,3:2:0:0:
53,154,63104,1,2,0:0:0:0:
187,20,63254,2,0,P|257:19|297:53,1,110.999996612549,10|2,1:2|0:0,2:0:0:0:
388,129,63554,1,10,3:2:0:0:
253,221,63704,1,2,3:2:0:0:
482,152,63854,1,10,1:2:0:0:
288,41,64004,1,2,0:0:0:0:
400,273,64154,5,6,3:2:0:0:
400,273,65354,2,0,P|438:264|462:261,1,46.25,2|2,0:0|0:0,2:0:0:0:
341,348,65654,2,0,P|292:341|241:336,1,92.5,2|0,0:0|2:0,2:0:0:0:
223,252,66104,2,0,P|272:259|323:264,1,92.5,2|2,0:0|0:0,2:0:0:0:
348,188,66554,6,0,P|343:165|341:142,2,46.25,2|8|8,0:0|0:0|0:0,2:0:0:0:
241,150,67004,1,2,0:0:0:0:
298,10,67154,6,0,P|290:56|287:87,1,74,0|0,1:2|3:2,2:0:0:0:
164,188,67454,6,0,P|160:151|149:89,1,83.2499974594117,2|0,0:0|0:0,2:0:0:0:
152,105,67754,6,0,P|59:124|132:34,1,277.5,2|2,3:2|0:0,2:0:0:0:
164,256,69704,1,2,0:0:0:0:
164,256,69854,2,0,P|130:243|80:234,1,69.375,2|0,0:0|0:0,2:0:0:0:
77,231,70154,6,0,B|125:244|152:215|142:211|165:177|212:193,1,138.75,2|0,0:0|2:0,2:0:0:0:
55,43,71204,1,2,0:0:0:0:
55,43,71354,2,0,P|99:14|147:29,1,92.5,2|2,0:0|0:0,2:0:0:0:
204,56,71804,2,0,P|248:85|296:70,1,92.5,2|2,0:0|0:0,2:0:0:0:
340,28,72254,1,2,0:0:0:0:
340,28,72554,6,0,P|333:97|325:178,2,138.75,2|0|2,0:0|2:0|0:0,2:0:0:0:
380,295,73754,6,0,P|389:241|397:191,1,92.5,2|2,0:0|0:0,2:0:0:0:
326,166,74204,2,0,P|318:211|310:257,1,92.5,2|2,0:0|0:0,2:0:0:0:
254,306,74654,2,0,P|217:291|199:288,1,46.25,2|0,0:0|2:0,2:0:0:0:
145,323,74954,6,0,P|195:299|114:256,1,185,2|0,0:0|2:0,2:0:0:0:
41,206,75704,1,2,0:0:0:0:
41,206,75854,2,0,P|48:170|52:146,1,46.25,2|2,0:0|0:0,2:0:0:0:
114,89,76154,6,0,P|122:124|127:141,1,46.25,2|8,0:0|0:0,2:0:0:0:
98,262,76454,1,8,0:0:0:0:
41,206,76604,1,2,1:2:0:0:
98,262,76754,6,0,P|120:257|181:239,1,74,0|2,1:2|3:2,2:0:0:0:
189,154,77054,6,0,P|166:158|111:177,1,64.7499980239869,0|0,1:2|2:0,2:0:0:0:
249,98,77354,6,0,P|298:79|359:157,1,148,6|0,3:2|2:0,2:0:0:0:
387,217,77804,1,0,2:0:0:0:
387,217,77954,2,0,P|379:274|374:304,1,74,0|2,3:2|0:0,2:0:0:0:
444,147,78254,2,0,P|454:80|454:28,1,111,2|0,0:0|0:0,2:0:0:0:
454,36,78554,6,0,B|427:14|381:13|381:13|374:45|336:64,1,148,2|2,3:2|0:0,2:0:0:0:
257,104,79004,1,2,0:0:0:0:
190,44,79154,2,0,P|227:25|262:17,1,74,0|2,3:2|0:0,2:0:0:0:
165,122,79454,2,0,P|134:112|95:91,1,74,10|0,0:0|2:0,2:0:0:0:
48,16,79754,6,0,P|63:109|70:173,1,148,8|0,3:2|2:0,2:0:0:0:
132,216,80204,1,0,2:0:0:0:
132,216,80354,2,0,P|120:264|113:301,1,74,0|2,3:2|0:0,2:0:0:0:
175,375,80654,2,0,P|192:321|199:263,1,111,2|0,0:0|0:0,2:0:0:0:
199,267,80954,6,0,P|263:282|267:202,1,148,2|2,3:2|0:0,2:0:0:0:
253,135,81404,1,2,0:0:0:0:
253,135,81554,2,0,P|207:149|180:164,1,74,0|2,3:2|0:0,2:0:0:0:
302,73,81854,2,0,P|339:88|394:37,1,111,10|2,0:0|0:0,2:0:0:0:
414,20,82154,6,0,P|402:105|393:172,1,148,10|0,3:2|2:0,2:0:0:0:
462,211,82604,1,0,2:0:0:0:
462,211,82754,2,0,P|476:164|480:133,1,74,0|0,3:2|2:0,2:0:0:0:
379,244,83054,2,0,P|386:275|404:318,1,74,2|0,0:0|2:0,2:0:0:0:
497,354,83354,6,0,P|443:340|388:333,1,111,2|0,3:2|0:0,2:0:0:0:
364,321,83654,6,0,P|315:327|249:353,1,117.937502249479,2|0,0:0|0:0,2:0:0:0:
199,361,83954,6,0,P|131:351|86:298,1,124.874996189118,2|0,3:2|0:0,2:0:0:0:
34,267,84254,6,0,P|105:261|144:208,1,131.812496480227,10|2,0:0|0:0,2:0:0:0:
211,164,84554,6,0,P|137:182|104:93,1,166.499994918823,10|10,3:2|0:0,2:0:0:0:
240,70,85004,2,0,P|231:110|217:149,1,83.2499974594117,2|8,0:0|3:2,2:0:0:0:
175,15,85303,1,2,0:0:0:0:
296,192,85454,2,0,P|310:152|319:112,1,83.2499974594117,10|0,0:0|2:0,2:0:0:0:
429,25,85754,6,0,P|421:90|418:180,1,138.75,4|0,3:2|0:0,2:0:0:0:
418,164,86054,1,0,3:2:0:0:
322,85,86204,1,0,1:2:0:0:
418,164,86354,2,0,P|467:146|511:137,1,92.5,2|0,3:2|1:2,2:0:0:0:
503,296,86654,2,0,P|453:278|407:271,1,92.5,2|0,1:2|1:2,2:0:0:0:
241,373,86954,6,0,B|257:300|257:300|281:275|281:275|305:178,2,194.249994071961,12|12|12,3:2|3:2|3:2,2:0:0:0:
120,34,89354,6,0,B|140:116|140:116|164:141|164:141|180:214,2,194.249994071961,12|12|12,3:2|3:2|3:2,2:0:0:0:
120,34,91004,1,2,0:0:0:0:
120,34,91079,1,2,0:0:0:0:
120,34,91154,6,0,P|168:45|192:49,1,64.7499980239869,2|10,1:2|0:3,2:0:0:0:
246,95,91454,6,0,P|292:81|312:78,1,55.4999983062745,10|4,0:3|0:3,2:0:0:0:
375,44,91754,6,0,P|434:8|487:81,1,166.499994918823,14|2,3:2|0:0,2:0:0:0:
493,155,92204,2,0,P|487:213|479:329,1,166.499994918823,14|2,3:2|3:2,2:0:0:0:
401,350,92654,1,14,1:2:0:0:
338,304,92804,1,2,0:0:0:0:
279,362,92954,6,0,B|297:307|267:260|267:260|270:224|301:206,1,166.499994918823,10|2,3:2|3:2,2:0:0:0:
224,164,93404,1,10,0:2:0:0:
224,164,93554,2,0,P|186:181|139:193,1,83.2499974594117,0|2,1:2|3:2,2:0:0:0:
278,102,93854,2,0,P|318:112|357:126,1,83.2499974594117,10|0,1:2|1:2,2:0:0:0:
235,26,94154,6,0,P|139:13|101:66,1,166.499994918823,12|2,3:2|0:0,2:0:0:0:
59,133,94604,2,0,B|82:182|47:234|47:234|52:262|81:288,1,166.499994918823,8|0,3:2|3:2,2:0:0:0:
127,350,95054,2,0,P|162:339|222:330,1,83.2499974594117,10|0,1:2|2:0,2:0:0:0:
271,277,95354,6,0,P|318:292|448:308,1,166.499994918823,10|10,3:2|0:0,2:0:0:0:
454,227,95804,1,2,3:2:0:0:
383,182,95954,2,0,P|345:191|294:209,1,83.2499974594117,8|2,0:0|1:2,2:0:0:0:
432,113,96254,6,0,P|470:122|505:137,1,55.4999983062745,10|4,0:3|0:3,2:0:0:0:
363,58,96554,6,0,P|300:54|264:114,1,129.499996047974,4|8,3:2|0:0,2:0:0:0:
200,332,97154,2,0,P|215:238|221:180,1,129.499996047974,0|10,3:2|0:0,2:0:0:0:
88,32,97754,6,0,P|103:126|109:184,1,129.499996047974,2|10,3:2|0:0,2:0:0:0:
63,225,98204,1,2,0:0:0:0:
63,225,98354,2,0,P|80:276|85:300,1,64.7499980239869,0|2,3:2|0:0,2:0:0:0:
126,351,98654,2,0,P|177:334|201:329,1,64.7499980239869,10|0,0:0|2:0,2:0:0:0:
251,286,98954,6,0,B|292:275|320:301|312:303|329:335|391:314,1,129.499996047974,4|10,3:2|0:0,2:0:0:0:
427,266,99404,1,0,2:0:0:0:
338,171,99554,2,0,P|352:219|358:248,1,64.7499980239869,2|0,3:2|2:0,2:0:0:0:
438,122,99854,2,0,P|428:152|420:184,1,64.7499980239869,10|0,0:0|2:0,2:0:0:0:
316,43,100154,6,0,P|329:108|339:183,1,129.499996047974,0|8,3:2|0:0,2:0:0:0:
117,177,100754,1,0,3:2:0:0:
176,126,100904,1,0,3:2:0:0:
117,177,101054,6,0,P|78:163|29:152,1,83.2499974594117,0|2,1:2|0:0,2:0:0:0:
54,72,101354,6,0,P|93:86|172:108,1,111,6|0,3:2|0:0,2:0:0:0:
176,126,101654,2,0,P|197:78|190:51,1,74,10|2,3:2|0:0,2:0:0:0:
197,211,101954,2,0,P|176:259|183:286,1,74,10|2,3:2|0:0,2:0:0:0:
268,169,102254,2,0,P|309:149|345:147,1,74,10|2,3:2|0:0,2:0:0:0:
457,191,102554,5,10,3:2:0:0:
378,231,102704,1,2,0:0:0:0:
457,191,102854,2,0,P|472:144|471:113,1,74,10|2,3:2|0:0,2:0:0:0:
486,271,103154,2,0,P|472:305|471:342,1,74,10|2,3:2|0:0,2:0:0:0:
378,231,103454,2,0,P|341:232|308:253,1,74,8|2,3:2|0:0,2:0:0:0:
163,109,103754,6,0,B|221:90|257:128|243:133|284:168|357:139,1,185,10|10,3:2|3:2,2:0:0:0:
282,47,104204,1,2,0:0:0:0:
156,118,104354,2,0,P|147:73|147:25,1,92.5,8|2,3:2|0:0,2:0:0:0:
49,175,104654,2,0,P|58:130|57:82,1,92.5,10|2,3:2|0:0,2:0:0:0:
157,217,104954,5,14,1:2:0:0:
58,288,105104,1,0,3:2:0:0:
235,245,105254,1,8,1:2:0:0:
49,175,105404,1,0,3:2:0:0:
129,354,105554,6,0,P|164:338|194:327,3,50.8750015525818,12|0|0|0,1:2|1:2|1:2|1:2,2:0:0:0:
235,245,105854,6,0,P|270:261|300:272,3,50.8750015525818,0|0|0|0,3:2|1:2|1:2|1:2,2:0:0:0:
369,374,106154,6,0,P|423:320|374:195,1,221.999993225098,14|10,3:2|1:2,2:0:0:0:
253,149,106604,1,2,0:0:0:0:
377,197,106754,2,0,P|444:182|452:123,1,110.999996612549,10|2,3:2|3:2,2:0:0:0:
421,18,107054,2,0,B|371:2|334:47|349:50|320:85|266:68,1,166.499994918823,10|0,1:2|0:0,2:0:0:0:
253,54,107354,6,0,P|202:7|99:100,1,221.999993225098,10|10,3:2|1:2,2:0:0:0:
187,181,107804,1,2,2:0:0:0:
58,216,107954,2,0,P|81:147|93:99,1,110.999996612549,8|0,3:2|3:2,2:0:0:0:
177,266,108254,1,10,1:2:0:0:
44,317,108404,1,2,1:2:0:0:
44,317,108479,1,0,1:2:0:0:
44,317,108554,6,0,P|116:294|162:282,1,110.999996612549,10|2,3:2|0:0,2:0:0:0:
293,213,108854,2,0,P|239:198|186:180,1,110.999996612549,10|2,1:2|0:0,2:0:0:0:
305,324,109154,1,10,3:2:0:0:
416,251,109304,1,2,3:2:0:0:
262,106,109454,2,0,P|281:158|292:212,1,110.999996612549,10|0,1:2|2:0,2:0:0:0:
386,0,109754,6,0,L|386:179,1,166.499994918823,10|0,3:2|0:0,2:0:0:0:
386,166,110054,2,0,P|430:124|486:134,1,110.999996612549,10|0,1:2|2:0,2:0:0:0:
416,251,110354,1,8,3:2:0:0:
262,106,110504,1,0,1:2:0:0:
262,106,110579,1,0,1:2:0:0:
262,106,110654,1,10,1:2:0:0:
147,234,110804,2,0,P|172:224|199:217,1,55.4999983062745,2|0,1:2|1:2,2:0:0:0:
133,329,110954,6,0,P|14:324|32:228,1,221.999993225098,14|10,3:2|1:2,2:0:0:0:
102,144,111404,1,2,0:0:0:0:
253,265,111554,2,0,P|200:246|146:233,1,110.999996612549,10|2,3:2|3:2,2:0:0:0:
0,164,111854,2,0,P|52:145|106:132,1,110.999996612549,10|2,1:2|3:2,2:0:0:0:
195,0,112154,6,0,B|195:169,1,166.499994918823,10|0,3:2|0:0,2:0:0:0:
195,166,112454,2,0,P|237:124|299:128,1,110.999996612549,10|0,1:2|2:0,2:0:0:0:
404,245,112754,2,0,P|349:241|311:202,1,110.999996612549,10|0,3:2|3:2,2:0:0:0:
405,108,113054,1,10,1:2:0:0:
492,283,113204,1,0,1:2:0:0:
492,283,113279,1,0,1:2:0:0:
492,283,113354,6,0,B|419:248|385:300|395:300|365:344|285:322,1,221.999993225098,12|8,3:2|1:2,2:0:0:0:
176,249,113804,1,2,0:0:0:0:
279,133,113954,2,0,P|265:196|257:248,1,110.999996612549,10|2,3:2|3:2,2:0:0:0:
190,111,114254,1,8,1:2:0:0:
358,0,114404,6,0,B|358:190,1,180.374991743088,6|0,3:2|0:0,2:0:0:0:
358,205,114704,1,0,3:2:0:0:
453,96,114854,1,10,1:2:0:0:
492,291,115004,6,0,P|477:242|334:257,1,221.999993225098,6|2,3:2|1:2,2:0:0:0:
301,322,115379,1,0,1:2:0:0:
301,322,115454,2,0,P|264:310|238:304,1,55.4999983062745,10|0,1:2|1:2,2:0:0:0:
181,262,115604,2,0,P|144:274|118:280,1,55.4999983062745,0|0,1:2|1:2,2:0:0:0:
22,347,115754,6,0,P|39:288|50:237,1,110.999996612549,14|2,3:2|0:0,2:0:0:0:
181,262,116054,1,10,1:2:0:0:
48,47,116204,2,0,L|48:223,1,166.499994918823,2|0,0:0|0:0,2:0:0:0:
49,239,116504,1,2,3:2:0:0:
221,175,116654,2,0,P|174:139|113:145,1,110.999996612549,10|2,1:2|0:0,2:0:0:0:
288,277,116954,6,0,B|368:308|427:224|427:224|384:208|360:174,1,221.999993225098,10|10,3:2|1:2,2:0:0:0:
271,101,117404,1,2,2:0:0:0:
389,40,117554,2,0,P|380:105|379:164,1,110.999996612549,8|0,3:2|3:2,2:0:0:0:
308,9,117854,1,10,1:2:0:0:
465,102,118004,1,2,1:2:0:0:
465,102,118079,1,0,1:2:0:0:
465,102,118154,5,10,3:2:0:0:
308,9,118304,1,2,0:0:0:0:
279,190,118454,2,0,P|323:159|386:151,1,110.999996612549,10|2,1:2|3:2,2:0:0:0:
171,244,118754,2,0,P|116:235|71:204,1,110.999996612549,10|2,1:2|3:2,2:0:0:0:
289,342,119054,2,0,P|343:314|397:308,1,110.999996612549,10|2,1:2|1:2,2:0:0:0:
421,335,119279,1,0,1:2:0:0:
421,335,119354,6,0,P|462:295|425:198,1,166.499994918823,10|0,3:2|0:0,2:0:0:0:
395,191,119654,2,0,P|336:216|275:225,1,110.999996612549,10|0,1:2|2:0,2:0:0:0:
460,29,119954,2,0,B|484:78|484:78|456:149,1,110.999996612549,8|0,3:2|3:2,2:0:0:0:
263,107,120254,1,10,1:2:0:0:
345,2,120404,1,2,1:2:0:0:
345,2,120479,1,0,1:2:0:0:
345,2,120554,5,14,3:2:0:0:
174,126,120704,1,2,0:0:0:0:
397,83,120854,1,10,1:2:0:0:
194,3,121004,1,2,0:0:0:0:
290,224,121154,2,0,P|344:213|395:191,1,110.999996612549,10|2,3:2|3:2,2:0:0:0:
218,301,121454,2,0,P|168:276|113:267,1,110.999996612549,10|2,1:2|0:0,2:0:0:0:
6,118,121754,6,0,B|65:130|65:130|91:152|91:152|180:171,1,166.499994918823,14|0,3:2|0:0,2:0:0:0:
186,145,122054,2,0,L|69:115,1,110.999996612549,10|0,0:0|1:2,2:0:0:0:
315,82,122354,6,0,P|364:68|390:65,2,61.6666666666667,14|2|0,3:2|0:0|1:2,2:0:0:0:
252,145,122654,2,0,P|203:131|185:129,2,61.6666666666667,8|4|0,0:3|0:3|3:2,2:0:0:0:
329,190,122954,5,4,1:2:0:0:
218,42,123104,1,4,1:2:0:0:
218,42,125204,5,2,3:2:0:0:
329,190,125354,1,4,1:2:0:0:
334,0,125504,1,6,1:2:0:0:
334,0,127754,5,6,1:2:0:0:
146,133,127904,1,6,1:2:0:0:
146,133,129704,5,0,3:2:0:0:
224,187,129854,2,0,P|283:171|315:149,1,97.1249970359803,2|0,1:2|0:0,2:0:0:0:
328,136,130154,5,6,1:2:0:0:
103,50,130304,1,4,1:2:0:0:
103,50,130904,1,2,3:2:0:0:
63,184,131054,6,0,P|28:177|69:158,1,97.1249970359803,10|0,1:2|0:0,2:0:0:0:
78,173,131354,6,0,B|130:144|171:184|154:193|197:226|248:203,1,185,4|2,3:2|3:2,2:0:0:0:
314,113,131804,1,0,1:2:0:0:
348,218,131954,2,0,P|287:200|241:198,1,92.5,2|0,0:0|3:2,2:0:0:0:
431,85,132254,6,0,P|467:80|502:66,2,61.6666666666667,10|4|4,0:3|0:3|0:3,2:0:0:0:
403,6,132554,6,0,L|404:172,1,148,12|8,3:2|3:2,2:0:0:0:
453,227,133004,1,2,0:0:0:0:
396,295,133154,2,0,P|339:279|310:274,1,74,8|2,3:2|0:0,2:0:0:0:
245,236,133454,2,0,P|188:252|159:257,1,74,10|2,3:2|0:0,2:0:0:0:
156,341,133754,6,0,P|213:325|242:320,1,74,10|2,3:2|0:0,2:0:0:0:
96,279,134054,2,0,B|52:236|79:193|79:193|108:180|108:149,1,148,10|8,3:2|3:2,2:0:0:0:
54,82,134504,1,2,0:0:0:0:
125,28,134654,2,0,P|180:44|225:46,1,74,8|2,3:2|0:0,2:0:0:0:
250,153,134954,6,0,P|262:104|272:68,1,74,12|2,3:2|0:0,2:0:0:0:
354,60,135254,2,0,P|342:109|332:145,1,74,10|2,3:2|0:0,2:0:0:0:
373,212,135554,2,0,P|427:193|461:186,1,74,10|2,3:2|0:0,2:0:0:0:
509,248,135854,2,0,P|455:267|421:274,1,74,10|2,3:2|0:0,2:0:0:0:
359,311,136154,6,0,B|402:289|436:321|427:324|459:357|498:340,2,148,10|10|8,3:2|3:2|3:2,2:0:0:0:
279,351,136904,1,2,3:2:0:0:
178,237,137054,6,0,B|134:225|134:225|255:207,1,138.75,8|0,1:2|0:0,2:0:0:0:
237,181,137354,6,0,B|280:159|314:191|305:194|337:227|376:210,1,148,12|10,3:2|3:2,2:0:0:0:
432,145,137804,1,2,3:2:0:0:
375,76,137954,2,0,P|321:91|299:103,1,74,10|0,1:2|1:2,2:0:0:0:
225,58,138254,2,0,P|171:43|149:31,1,74,10|2,3:2|0:0,2:0:0:0:
93,99,138554,6,0,P|27:98|21:175,1,148,14|10,3:2|1:2,2:0:0:0:
92,209,139004,1,0,2:0:0:0:
88,304,139154,6,0,P|101:248|106:208,1,92.5,8|8,1:2|0:3,2:0:0:0:
193,137,139454,6,0,P|184:182|181:202,1,55.4999983062745,10|0,3:2|2:0,2:0:0:0:
228,263,139754,5,6,1:2:0:0:
93,99,139904,1,0,1:2:0:0:
93,99,140204,1,8,0:3:0:0:
216,37,140354,6,0,P|202:114|199:134,1,92.5,4|0,0:3|3:2,2:0:0:0:
378,244,140654,6,0,B|425:204|363:130|276:152|289:243|299:245|265:271|209:261,1,254.375,6|0,1:2|0:0,2:0:0:0:
171,316,141554,6,0,L|182:364,2,30.8333333333333,10|8|8,0:0|0:0|0:0,2:0:0:0:
152,239,141854,1,10,0:0:0:0:
162,72,151754,5,4,1:2:0:0:
314,167,151904,1,0,1:2:0:0:
314,167,152204,5,10,0:3:0:0:
232,181,152354,2,0,P|237:143|244:125,1,46.25,6|2,0:3|3:2,2:0:0:0:
294,250,152654,1,0,1:2:0:0:
133,257,152804,6,0,B|188:248|188:248|225:267|225:267|299:252,1,152.625004657746,6|0,3:2|0:0,2:0:0:0:
294,250,153104,1,0,3:2:0:0:
398,135,153254,6,0,P|333:151|302:180,1,92.5,2|2,1:2|0:0,2:0:0:0:
484,159,153554,6,0,P|492:125|494:92,2,55.4999983062745,0|8|4,3:2|0:3|0:3,2:0:0:0:
427,220,153854,6,0,P|435:253|438:276,2,49.3333333333333,2|8|4,1:2|0:3|0:3,2:0:0:0:
487,348,154154,6,0,P|439:342|408:341,1,74,6|2,3:2|0:0,2:0:0:0:
341,288,154454,2,0,P|298:301|261:309,1,74,2|2,3:2|0:0,2:0:0:0:
192,350,154754,2,0,P|149:337|112:329,1,74,0|2,3:2|0:0,2:0:0:0:
99,244,155054,2,0,P|142:257|179:265,1,74,2|2,3:2|0:0,2:0:0:0:
226,194,155354,6,0,P|295:162|322:220,2,148,2|2|0,3:2|3:2|3:2,2:0:0:0:
142,160,156104,1,2,2:0:0:0:
187,83,156254,2,0,P|233:71|270:69,1,74,2|2,3:2|0:0,2:0:0:0:
337,26,156554,6,0,P|383:38|420:40,1,74,2|2,3:2|0:0,2:0:0:0:
463,110,156854,2,0,P|451:156|449:193,1,74,2|2,3:2|0:0,2:0:0:0:
447,271,157154,2,0,P|401:259|364:257,1,74,2|0,3:2|2:0,2:0:0:0:
315,323,157454,2,0,P|361:335|398:337,1,74,2|2,3:2|0:0,2:0:0:0:
264,250,157754,5,2,3:2:0:0:
188,296,157904,1,0,3:2:0:0:
264,250,158054,2,0,P|276:202|277:163,1,74,2|8,1:2|0:3,2:0:0:0:
271,155,158279,1,8,0:3:0:0:
271,155,158354,2,0,P|226:162|198:173,1,74,0|8,1:2|0:3,2:0:0:0:
257,66,158654,1,6,0:3:0:0:
338,101,158804,1,2,3:2:0:0:
164,0,158954,6,0,B|143:45|175:79|175:68|191:105|165:151,1,152.625004657746,6|0,1:2|0:0,2:0:0:0:
149,169,159254,1,2,3:2:0:0:
63,81,159404,1,6,1:2:0:0:
149,169,159554,2,0,P|210:157|254:131,1,101.750003105164,2|2,3:2|1:2,2:0:0:0:
164,0,159854,1,4,1:2:0:0:
0,144,160004,1,6,3:2:0:0:
0,144,161354,6,0,P|55:110|128:107,1,110.999996612549,14|2,3:2|0:0,2:0:0:0:
174,255,161654,2,0,P|116:229|46:230,1,110.999996612549,10|2,1:2|0:0,2:0:0:0:
204,167,161954,1,10,3:2:0:0:
275,264,162104,1,2,3:2:0:0:
204,167,162254,2,0,P|175:108|187:57,1,110.999996612549,10|0,1:2|2:0,2:0:0:0:
306,0,162554,6,0,L|306:179,1,166.499994918823,10|0,3:2|0:0,2:0:0:0:
307,187,162854,2,0,P|324:113|447:162,1,221.999993225098,10|8,1:2|3:2,2:0:0:0:
408,274,163304,1,0,3:2:0:0:
307,187,163454,1,10,1:2:0:0:
206,314,163604,1,2,1:2:0:0:
206,314,163679,1,0,1:2:0:0:
206,314,163754,6,0,P|274:300|318:292,1,110.999996612549,10|2,3:2|0:0,2:0:0:0:
203,208,164054,2,0,P|150:222|79:233,1,110.999996612549,10|2,1:2|0:0,2:0:0:0:
307,187,164354,1,10,3:2:0:0:
189,124,164504,1,2,3:2:0:0:
307,187,164654,2,0,P|336:128|315:84,1,110.999996612549,10|0,1:2|2:0,2:0:0:0:
204,24,164954,6,0,B|139:8|98:53|98:53|96:80|68:101,1,166.499994918823,10|0,3:2|0:0,2:0:0:0:
54,111,165254,2,0,P|22:58|48:-2,1,110.999996612549,10|0,1:2|2:0,2:0:0:0:
189,124,165554,1,8,3:2:0:0:
57,204,165704,1,0,1:2:0:0:
57,204,165779,1,0,1:2:0:0:
57,204,165854,1,10,1:2:0:0:
229,229,166004,2,0,P|185:214|167:211,1,55.4999983062745,2|0,1:2|1:2,2:0:0:0:
259,311,166154,6,0,P|322:299|373:284,1,110.999996612549,14|2,3:2|0:0,2:0:0:0:
436,171,166454,2,0,P|373:183|322:198,1,110.999996612549,10|2,1:2|0:0,2:0:0:0:
455,364,166754,2,0,B|470:269|470:269|499:241|499:241|514:149,1,221.999993225098,10|10,3:2|1:2,2:0:0:0:
328,195,167204,1,2,0:0:0:0:
457,5,167354,6,0,L|432:200,1,166.499994918823,10|0,3:2|0:0,2:0:0:0:
435,170,167654,2,0,P|372:182|321:197,1,110.999996612549,10|0,1:2|2:0,2:0:0:0:
206,136,167954,2,0,P|269:124|320:109,1,110.999996612549,10|0,3:2|3:2,2:0:0:0:
93,98,168254,1,10,1:2:0:0:
190,7,168404,1,0,1:2:0:0:
190,7,168479,1,0,1:2:0:0:
190,7,168554,6,0,L|190:244,1,221.999993225098,12|8,3:2|1:2,2:0:0:0:
83,309,169004,1,2,0:0:0:0:
208,353,169154,2,0,P|144:312|92:311,1,110.999996612549,10|2,3:2|3:2,2:0:0:0:
270,235,169454,1,8,1:2:0:0:
357,328,169604,6,0,P|458:323|480:236,1,180.374991743088,6|0,3:2|0:0,2:0:0:0:
480,231,169904,1,0,3:2:0:0:
363,166,170054,1,10,1:2:0:0:
479,21,170204,6,0,B|446:-25|350:29|397:125|459:147,1,221.999993225098,6|2,3:2|1:2,2:0:0:0:
480,231,170579,1,0,1:2:0:0:
480,231,170654,2,0,P|426:218|409:214,1,55.4999983062745,10|0,1:2|1:2,2:0:0:0:
295,142,170804,2,0,P|349:155|366:159,1,55.4999983062745,0|0,1:2|1:2,2:0:0:0:
235,304,170954,6,0,P|199:249|226:204,1,110.999996612549,14|2,3:2|0:0,2:0:0:0:
328,245,171254,1,10,1:2:0:0:
183,117,171404,2,0,P|125:135|0:167,1,166.499994918823,2|0,0:0|0:0,2:0:0:0:
5,166,171704,1,2,3:2:0:0:
88,269,171854,2,0,P|104:196|111:155,1,110.999996612549,10|2,1:2|0:0,2:0:0:0:
5,0,172154,6,0,L|5:177,1,166.499994918823,10|0,3:2|0:0,2:0:0:0:
0,195,172454,2,0,P|14:124|157:141,1,221.999993225098,10|8,1:2|3:2,2:0:0:0:
216,213,172904,1,0,3:2:0:0:
297,117,173054,1,10,1:2:0:0:
342,242,173204,1,2,1:2:0:0:
342,242,173279,1,0,1:2:0:0:
342,242,173354,6,0,P|271:217|225:215,1,110.999996612549,10|2,3:2|0:0,2:0:0:0:
375,80,173654,2,0,P|388:153|410:194,1,110.999996612549,10|2,1:2|3:2,2:0:0:0:
217,134,173954,2,0,P|274:85|298:46,1,110.999996612549,10|2,1:2|3:2,2:0:0:0:
96,132,174254,1,10,1:2:0:0:
179,0,174404,1,2,1:2:0:0:
179,0,174479,1,0,1:2:0:0:
179,0,174554,6,0,L|179:193,1,166.499994918823,10|0,3:2|0:0,2:0:0:0:
159,199,174854,2,0,P|208:161|268:160,1,110.999996612549,10|0,1:2|2:0,2:0:0:0:
236,338,175154,2,0,P|173:305|115:304,1,110.999996612549,8|0,3:2|3:2,2:0:0:0:
292,242,175454,1,10,1:2:0:0:
364,355,175604,1,2,1:2:0:0:
364,355,175679,1,0,1:2:0:0:
364,355,175754,6,0,P|383:291|390:244,1,110.999996612549,14|2,3:2|0:0,2:0:0:0:
317,134,176054,2,0,P|300:186|291:241,1,110.999996612549,10|2,1:2|0:0,2:0:0:0:
401,120,176354,1,10,3:2:0:0:
288,49,176504,1,2,3:2:0:0:
401,120,176654,2,0,P|470:110|492:71,1,110.999996612549,10|2,1:2|0:0,2:0:0:0:
288,49,176954,6,0,P|185:20|129:113,1,221.999993225098,14|10,3:2|1:2,2:0:0:0:
168,231,177404,1,0,2:0:0:0:
54,279,177554,2,0,P|76:198|85:156,1,110.999996612549,10|0,3:2|3:2,2:0:0:0:
155,362,177854,1,10,1:2:0:0:
258,231,178004,1,0,1:2:0:0:
258,231,178079,1,0,1:2:0:0:
258,231,178154,6,0,B|193:212|142:258|168:265|120:307|52:279,1,221.999993225098,4|8,3:2|1:2,2:0:0:0:
18,150,178604,1,0,3:2:0:0:
18,150,178679,1,0,1:2:0:0:
18,150,178754,2,0,P|81:147|138:127,1,110.999996612549,8|0,3:2|1:2,2:0:0:0:
237,58,179054,1,10,1:2:0:0:
331,183,179204,1,6,3:2:0:0:
484,59,179354,6,0,P|343:42|318:110,1,221.999993225098,2|10,0:0|1:2,2:0:0:0:
429,167,179804,1,0,3:2:0:0:
350,277,179954,2,0,P|316:220|345:170,1,110.999996612549,10|0,1:2|3:2,2:0:0:0:
417,351,180254,1,10,1:2:0:0:
237,363,180404,1,8,0:3:0:0:
237,363,180479,1,4,0:3:0:0:
237,363,180554,6,0,B|301:352|301:352|337:371|337:371|425:353,1,166.499994918823,12|0,1:2|0:0,2:0:0:0:
417,351,180854,1,0,3:2:0:0:
330,182,181004,2,0,P|242:166|198:245,1,166.499994918823,8|0,1:2|0:0,2:0:0:0:
195,256,181304,1,0,3:2:0:0:
94,343,181454,2,0,P|66:277|82:233,1,110.999996612549,10|2,1:2|0:0,2:0:0:0:
279,242,181754,5,2,3:2:0:0:
194,57,181904,2,0,B|194:232,1,166.499994918823,12|0,1:2|0:0,2:0:0:0:
195,256,182204,1,0,3:2:0:0:
377,275,182354,2,0,P|325:239|270:247,1,110.999996612549,10|0,1:2|3:2,2:0:0:0:
136,326,182654,1,10,0:3:0:0:
125,329,182729,1,4,0:3:0:0:
115,334,182804,1,4,0:3:0:0:
105,338,182879,1,0,3:2:0:0:
94,343,182954,6,0,P|37:273|68:198,1,166.499994918823,12|0,1:2|0:0,2:0:0:0:
84,182,183254,1,0,3:2:0:0:
194,57,183404,2,0,P|245:70|306:79,1,110.999996612549,8|0,1:2|2:0,2:0:0:0:
376,148,183704,1,0,3:2:0:0:
314,266,183854,2,0,P|304:211|289:156,1,110.999996612549,10|2,1:2|3:2,2:0:0:0:
383,35,184154,5,2,1:2:0:0:
289,157,184304,1,12,3:2:0:0:
454,219,184454,1,2,1:2:0:0:
460,210,184529,1,0,1:2:0:0:
467,201,184604,1,0,1:2:0:0:
473,192,184679,1,0,1:2:0:0:
479,182,184754,2,0,P|419:154|363:148,1,110.999996612549,10|0,3:2|3:2,2:0:0:0:
231,262,185054,6,0,L|163:253,1,55.4999983062745,10|0,1:2|1:2,2:0:0:0:
127,172,185204,2,0,L|193:179,1,55.4999983062745,0|0,1:2|1:2,2:0:0:0:
52,287,185354,6,0,B|13:243|13:243|35:179,1,110.999996612549,14|0,3:2|1:2,2:0:0:0:
44,160,185579,1,0,1:2:0:0:
44,160,185654,1,0,1:2:0:0:
154,78,185804,5,8,3:2:0:0:
260,157,185954,2,0,L|315:179,2,55.4999983062745,0|0|8,1:2|1:2|0:3,2:0:0:0:
127,172,186254,5,8,3:2:0:0:
246,69,186404,2,0,L|301:51,2,55.4999983062745,0|0|0,1:2|1:2|1:2,2:0:0:0:
127,172,186704,5,8,3:2:0:0:
241,278,186854,2,0,L|312:262,3,55.4999983062745,0|0|0|0,1:2|1:2|1:2|1:2,2:0:0:0:
364,336,187154,2,0,L|419:349,3,55.4999983062745,8|0|8|8,3:2|1:2|0:3|0:3,2:0:0:0:
458,241,187454,2,0,L|512:228,3,55.4999983062745,10|4|0|0,0:3|0:3|3:2|3:2,2:0:0:0:
394,96,187754,6,0,P|382:163|374:212,1,110.999996612549,14|8,1:2|0:3,2:0:0:0:
372,232,187979,1,8,0:3:0:0:
372,232,188054,1,4,0:3:0:0:
272,143,188204,2,0,P|284:82|293:29,1,110.999996612549,8|8,1:2|0:3,2:0:0:0:
296,14,188429,1,4,0:3:0:0:
296,14,188504,1,4,0:3:0:0:
145,179,188654,5,8,1:2:0:0:
394,96,188804,1,4,3:2:0:0:
256,192,188879,12,0,192554,2:0:0:0:
