osu file format v14

[General]
AudioFilename: audio.mp3
AudioLeadIn: 0
PreviewTime: 160079
Countdown: 0
SampleSet: Soft
StackLeniency: 0.5
Mode: 0
LetterboxInBreaks: 0
WidescreenStoryboard: 1

[Editor]
Bookmarks: 554,5354,19754,38954,48554,65354,77354,86954,96554,106154,122954,132554,144554,154154,161354,188804,192554
DistanceSpacing: 0.1
BeatDivisor: 4
GridSize: 32
TimelineZoom: 1.9

[Metadata]
Title:Hikousen
TitleUnicode:飛行船
Artist:Yuuri
ArtistUnicode:優里
Creator:alevi
Version:Kirishima-'s Expert
Source:
Tags:japanese rock jrock j-rock male vocalist 壱 ichi airship vanya2 kirishima- [_lost_] conner c_o_n_n_e_r sarawatlism
BeatmapID:3642326
BeatmapSetID:1762468

[Difficulty]
HPDrainRate:5.5
CircleSize:3.6
OverallDifficulty:9
ApproachRate:9.2
SliderMultiplier:1.8
SliderTickRate:1

[Events]
//Background and Video events
0,0,"1128513.jpg",0,0
//Break Periods
2,68204,75554
2,144554,151154
//Storyboard Layer 0 (Background)
//Storyboard Layer 1 (Fail)
//Storyboard Layer 2 (Pass)
//Storyboard Layer 3 (Foreground)
//Storyboard Layer 4 (Overlay)
//Storyboard Sound Samples

[TimingPoints]
554,300,4,2,1,30,1,0
554,-200,4,2,1,30,0,0
1154,-200,4,2,1,40,0,0
1754,-200,4,2,1,50,0,0
2354,-200,4,2,1,60,0,0
2954,-200,4,2,1,70,0,0
4154,-200,4,2,1,40,0,0
4754,-1000,4,2,1,60,0,0
5354,-90.9090909090909,4,2,1,80,0,1
5654,-90.9090909090909,4,2,1,80,0,0
17204,-90.9090909090909,4,2,1,80,0,1
17504,-90.9090909090909,4,2,1,80,0,0
19754,-133.333333333333,4,2,1,50,0,0
31754,-133.333333333333,4,2,1,40,0,0
32054,-133.333333333333,4,2,1,45,0,0
32354,-133.333333333333,4,2,1,50,0,0
32654,-133.333333333333,4,2,1,55,0,0
32954,-133.333333333333,4,2,1,50,0,0
34004,-133.333333333333,4,2,1,70,0,0
34154,-100,4,2,1,70,0,0
38954,-133.333333333333,4,2,1,70,0,0
43754,-111.111111111111,4,2,1,70,0,0
44954,-111.111111111111,4,2,1,75,0,0
46154,-111.111111111111,4,2,1,80,0,0
47354,-111.111111111111,4,2,1,85,0,0
48554,-83.3333333333333,4,2,1,90,0,1
64154,-100,4,2,1,60,0,0
65354,-133.333333333333,4,2,1,40,0,0
66554,-133.333333333333,4,2,1,50,0,0
67754,-200,4,2,1,60,0,0
77354,-133.333333333333,4,2,1,60,0,0
85754,-133.333333333333,4,2,1,70,0,0
86954,-111.111111111111,4,2,1,70,0,0
96554,-133.333333333333,4,2,1,60,0,0
101354,-99.9999999999999,4,2,1,60,0,0
102554,-99.9999999999999,4,2,1,65,0,0
103754,-99.9999999999999,4,2,1,70,0,0
104354,-99.9999999999999,4,2,1,75,0,0
104954,-99.9999999999999,4,2,1,80,0,0
105554,-99.9999999999999,4,2,1,85,0,0
106154,-83.3333333333333,4,2,1,90,0,1
122954,-111.111111111111,4,2,1,90,0,0
123254,-111.111111111111,4,2,1,50,0,0
125354,-111.111111111111,4,2,1,90,0,0
125654,-111.111111111111,4,2,1,50,0,0
127754,-111.111111111111,4,2,1,90,0,0
128054,-111.111111111111,4,2,1,50,0,0
129704,-111.111111111111,4,2,1,80,0,0
130154,-111.111111111111,4,2,1,90,0,0
130454,-111.111111111111,4,2,1,50,0,0
131354,-111.111111111111,4,2,1,70,0,0
132554,-100,4,2,1,80,0,0
137354,-100,4,2,1,85,0,0
139754,-100,4,2,1,90,0,0
140654,-133.333333333333,4,2,1,90,0,0
141254,-133.333333333333,4,2,1,60,0,0
141554,-133.333333333333,4,2,1,50,0,0
141854,-133.333333333333,4,2,1,40,0,0
142154,-133.333333333333,4,2,1,5,0,0
144254,-133.333333333333,4,2,1,40,0,0
144554,-200,4,2,1,40,0,0
151754,-100,4,2,1,80,0,0
154154,-90.9090909090909,4,2,1,80,0,0
160004,-133.333333333333,4,2,1,80,0,0
160154,-133.333333333333,4,2,1,50,0,0
160904,-500,4,2,1,50,0,0
161354,-83.3333333333333,4,2,1,90,0,1
188729,-83.3333333333333,4,2,1,90,0,0
188804,-500,4,2,1,90,0,1
190154,-500,4,2,1,80,0,1
191354,-500,4,2,1,70,0,1
191954,-500,4,2,1,60,0,1
192254,-500,4,2,1,50,0,1
192404,-500,4,2,1,40,0,1
192554,-500,4,2,1,5,0,0

[Colours]
Combo1 : 13,147,147
Combo2 : 241,146,99
Combo3 : 100,200,200
Combo4 : 155,148,245

[HitObjects]
256,192,554,12,2,4154,0:0:0:0:
249,96,4754,6,0,P|264:90|280:88,1,31.5,2|0,0:0|0:0,0:0:0:0:
333,9,5354,6,0,P|316:78|364:131,1,148.50000453186,14|0,3:2|0:0,0:0:0:0:
512,161,5654,2,0,B|458:135|422:178|424:184|425:190|389:233|336:208,1,198.000006042481,10|10,1:2|3:2,0:0:0:0:
200,115,6104,1,0,3:2:0:0:
342,42,6254,2,0,P|369:82|365:130,1,99.0000030212403,10|0,1:2|0:0,0:0:0:0:
253,382,6554,6,0,P|205:328|221:259,1,148.50000453186,10|0,3:2|0:0,0:0:0:0:
240,234,6854,2,0,P|288:223|335:208,1,99.0000030212403,10|0,1:2|0:0,0:0:0:0:
448,375,7154,1,10,3:2:0:0:
284,308,7304,1,2,3:2:0:0:
417,192,7454,1,10,1:2:0:0:
251,32,7604,5,2,1:2:0:0:
257,55,7679,1,0,1:2:0:0:
263,79,7754,2,0,P|315:126|385:110,1,148.50000453186,12|0,3:2|0:0,0:0:0:0:
403,101,8054,2,0,P|315:68|257:141,1,198.000006042481,10|10,1:2|3:2,0:0:0:0:
225,299,8504,1,0,3:2:0:0:
77,117,8654,2,0,P|125:121|165:94,1,99.0000030212403,10|0,1:2|0:0,0:0:0:0:
291,28,8954,6,0,P|262:122|239:219,1,198.000006042481,10|10,3:2|1:2,0:0:0:0:
20,16,9404,2,0,P|35:63|46:111,1,99.0000030212403,2|10,1:2|3:2,0:0:0:0:
6,275,9704,1,2,3:2:0:0:
166,93,9854,2,0,P|150:140|139:188,1,99.0000030212403,10|0,1:2|0:0,0:0:0:0:
268,376,10154,6,0,P|339:354|411:337,1,148.50000453186,14|0,3:2|0:0,0:0:0:0:
443,334,10454,2,0,P|470:294|466:246,1,99.0000030212403,10|0,1:2|0:0,0:0:0:0:
394,112,10754,1,10,3:2:0:0:
345,225,10904,1,0,3:2:0:0:
512,148,11054,1,10,1:2:0:0:
453,6,11204,1,2,0:0:0:0:
299,85,11354,6,0,P|346:100|395:112,1,99.0000030212403,10|2,3:2|0:0,0:0:0:0:
465,245,11654,2,0,P|416:256|369:271,1,99.0000030212403,10|0,1:2|0:0,0:0:0:0:
196,209,11954,1,10,3:2:0:0:
299,85,12104,1,2,3:2:0:0:
184,225,12254,1,10,1:2:0:0:
237,13,12404,5,2,1:2:0:0:
230,36,12479,1,0,1:2:0:0:
224,60,12554,2,0,B|199:113|242:149|248:148|254:146|297:182|271:236,1,198.000006042481,12|10,3:2|1:2,0:0:0:0:
117,290,13004,2,0,P|89:249|94:201,1,99.0000030212403,2|10,0:0|3:2,0:0:0:0:
298,85,13304,1,2,3:2:0:0:
184,225,13454,1,8,1:2:0:0:
343,378,13604,6,0,P|415:319|383:232,1,198.000006042481,6|2,3:2|3:2,0:0:0:0:
286,105,14054,1,8,1:2:0:0:
208,316,14204,2,0,P|255:300|303:289,1,99.0000030212403,6|0,3:2|0:0,0:0:0:0:
359,72,14504,1,2,1:2:0:0:
478,259,14654,2,0,P|430:243|382:232,1,99.0000030212403,10|6,0:3|0:3,0:0:0:0:
205,104,14954,5,6,1:2:0:0:
387,330,15104,1,2,1:2:0:0:
401,343,15404,2,0,P|372:249|349:152,1,198.000006042481,6|2,1:2|3:2,0:0:0:0:
435,98,15854,1,10,1:2:0:0:
266,283,16004,1,2,1:2:0:0:
254,299,16304,6,0,P|205:303|165:276,1,99.0000030212403,6|0,3:2|0:0,0:0:0:0:
55,159,16604,1,2,1:2:0:0:
62,135,16679,1,0,1:2:0:0:
68,111,16754,1,2,1:2:0:0:
231,207,16904,1,10,0:3:0:0:
176,113,17054,1,4,0:3:0:0:
78,346,17204,6,0,B|131:371|167:328|166:322|164:316|200:273|254:299,1,198.000006042481,6|2,3:2|3:2,0:0:0:0:
427,378,17654,2,0,P|411:330|400:282,1,99.0000030212403,10|0,1:2|0:0,0:0:0:0:
435,98,17954,1,10,3:2:0:0:
321,233,18104,1,0,0:0:0:0:
509,157,18254,1,10,1:2:0:0:
360,19,18404,5,2,1:2:0:0:
336,26,18479,1,0,1:2:0:0:
312,32,18554,1,10,3:2:0:0:
383,293,18704,1,6,1:2:0:0:
400,283,18854,2,0,P|427:242|422:194,1,99.0000030212403,0|0,1:0|3:2,0:0:0:0:
216,24,19154,1,10,1:2:0:0:
379,99,19304,1,4,0:3:0:0:
196,17,19454,1,8,3:2:0:0:
398,105,19604,1,0,1:2:0:0:
321,233,19754,6,0,P|270:191|205:202,1,135.000005149842,14|2,3:2|1:2,0:0:0:0:
232,334,20204,2,0,P|239:300|250:269,1,67.5000025749208,2|0,1:2|0:0,0:0:0:0:
126,199,20504,1,2,3:2:0:0:
164,270,20655,2,0,P|149:204|130:139,1,135.000005149842,2|8,1:2|0:0,0:0:0:0:
207,114,21104,5,8,0:0:0:0:
147,61,21254,1,8,0:0:0:0:
147,61,21554,1,0,1:2:0:0:
207,114,21704,1,2,0:0:0:0:
288,52,21854,2,0,P|254:45|223:35,1,67.5000025749208,2|8,0:0|0:0,0:0:0:0:
266,170,22154,6,0,P|317:128|382:139,1,135.000005149842,6|0,3:2|0:0,0:0:0:0:
319,271,22604,2,0,P|330:239|337:206,1,67.5000025749208,0|0,1:2|1:2,0:0:0:0:
368,48,22904,1,0,3:2:0:0:
381,138,23054,1,0,1:2:0:0:
288,52,23204,1,2,0:0:0:0:
391,146,23354,6,0,P|422:135|456:128,1,67.5000025749208,10|8,0:0|0:0,0:0:0:0:
401,154,23654,2,0,P|449:139|498:127,2,101.250003862381,10|2|10,3:2|0:2|0:2,0:0:0:0:
272,189,24254,2,0,P|305:195|337:206,1,67.5000025749208,10|8,0:2|0:2,0:0:0:0:
348,218,24479,1,8,0:2:0:0:
359,229,24554,6,0,P|294:209|228:194,1,135.000005149842,4|0,3:2|1:2,0:0:0:0:
172,137,25004,2,0,P|140:147|106:154,1,67.5000025749208,0|0,1:2|1:2,0:0:0:0:
35,118,25304,1,2,3:2:0:0:
40,198,25454,1,2,1:2:0:0:
100,74,25604,1,2,0:0:0:0:
77,270,25754,6,0,P|118:218|107:154,1,135.000005149842,10|0,3:2|1:2,0:0:0:0:
192,36,26204,2,0,P|181:68|175:102,1,67.5000025749208,2|0,1:2|1:2,0:0:0:0:
197,180,26504,1,2,3:2:0:0:
270,55,26654,2,0,P|259:87|253:121,1,67.5000025749208,2|8,1:2|0:3,0:0:0:0:
260,135,26879,1,4,0:3:0:0:
270,148,26954,6,0,P|285:82|305:18,1,135.000005149842,8|0,3:2|1:2,0:0:0:0:
158,36,27404,2,0,P|168:67|175:101,1,67.5000025749208,0|0,1:2|1:2,0:0:0:0:
197,180,27704,1,2,3:2:0:0:
139,236,27854,1,2,1:2:0:0:
29,206,28004,2,0,P|45:209|62:215,1,33.7500012874604,2|0,1:2|1:2,0:0:0:0:
215,257,28154,5,2,3:2:0:0:
119,158,28304,1,0,3:2:0:0:
159,315,28454,1,2,1:2:0:0:
262,162,28604,2,0,P|230:173|197:180,1,67.5000025749208,2|0,0:0|0:0,0:0:0:0:
139,236,28904,1,2,0:0:0:0:
237,334,29054,2,0,P|253:337|270:343,3,33.7500012874604,2|0|0|0,1:2|1:2|1:2|1:2,0:0:0:0:
284,350,29354,6,0,P|273:285|315:234,1,135.000005149842,6|0,3:2|1:2,0:0:0:0:
415,289,29804,2,0,P|381:296|350:307,1,67.5000025749208,0|0,1:2|1:2,0:0:0:0:
308,147,30104,1,2,1:2:0:0:
249,217,30254,2,0,P|282:223|314:234,1,67.5000025749208,2|2,1:2|1:2,0:0:0:0:
438,111,30554,6,0,P|373:132|308:147,1,135.000005149842,2|2,1:2|1:2,0:0:0:0:
249,217,31004,2,0,P|217:206|183:199,1,67.5000025749208,2|0,1:2|1:2,0:0:0:0:
108,222,31304,1,2,1:2:0:0:
230,295,31454,2,0,P|198:284|164:277,1,67.5000025749208,2|0,1:2|1:2,0:0:0:0:
126,144,31754,6,0,P|122:127|117:111,3,33.7500012874604,0|0|0|0,3:2|1:2|1:2|1:2,0:0:0:0:
200,106,32054,2,0,P|202:90|207:74,3,33.7500012874604,0|0|0|0,1:2|1:2|1:2|1:2,0:0:0:0:
240,0,32354,1,0,1:2:0:0:
255,3,32429,1,0,1:2:0:0:
274,9,32504,2,0,P|278:26|283:42,1,33.7500012874604,2|0,1:2|1:2,0:0:0:0:
385,126,32654,5,2,1:2:0:0:
353,114,32729,1,0,1:2:0:0:
320,116,32804,1,0,1:2:0:0:
290,131,32879,1,0,1:2:0:0:
269,158,32954,1,2,0:0:0:0:
269,158,34004,2,0,P|266:174|261:190,1,33.7500012874604,2|2,0:0|0:0,0:0:0:0:
237,384,34154,6,0,P|221:318|202:253,1,135,4|0,3:2|0:0,0:0:0:0:
197,236,34454,1,2,1:2:0:0:
314,301,34604,2,0,P|329:235|348:170,1,135,0|0,3:2|0:0,0:0:0:0:
354,153,34904,1,0,1:2:0:0:
238,43,35054,1,2,3:2:0:0:
169,107,35204,5,8,0:3:0:0:
191,113,35279,1,4,0:3:0:0:
213,119,35354,2,0,B|315:143|273:56|378:76,1,180,2|2,3:2|3:2,0:0:0:0:
487,159,35804,1,0,0:0:0:0:
373,58,35954,2,0,P|328:55|291:79,1,90,2|0,3:2|0:0,0:0:0:0:
233,279,36254,2,0,P|270:303|314:300,1,90,2|0,3:2|1:2,0:0:0:0:
373,58,36554,5,4,1:2:0:0:
291,224,36704,1,0,1:2:0:0:
436,346,36854,1,0,1:2:0:0:
364,173,37004,1,2,1:2:0:0:
356,156,37154,2,0,P|312:146|269:131,1,90,2|0,0:0|3:2,0:0:0:0:
146,299,37454,2,0,P|207:239|180:158,1,180,6|2,1:2|0:0,0:0:0:0:
102,145,37904,5,2,1:2:0:0:
128,221,38054,1,10,3:2:0:0:
154,84,38204,1,2,3:2:0:0:
50,205,38354,2,0,P|24:168|25:124,1,90,10|0,1:2|0:0,0:0:0:0:
128,221,38654,2,0,P|109:261|70:282,1,90,2|0,3:2|0:0,0:0:0:0:
232,98,38954,5,2,3:2:0:0:
280,162,39254,6,0,P|301:167|323:172,2,45.0000017166138,2|0|0,3:2|1:2|1:2,0:0:0:0:
242,89,39554,5,2,1:2:0:0:
338,253,39854,5,2,3:2:0:0:
359,248,39954,5,0,1:2:0:0:
381,242,40054,5,0,1:2:0:0:
403,236,40154,5,2,1:2:0:0:
459,294,40454,6,0,P|453:315|448:337,2,45.0000017166138,2|0|0,3:2|1:2|1:2,0:0:0:0:
480,217,40754,5,2,1:2:0:0:
485,204,41054,5,8,1:2:0:0:
157,344,41354,5,2,3:2:0:0:
180,267,41654,6,0,P|174:245|169:223,2,45.0000017166138,2|0|0,3:2|1:2|1:2,0:0:0:0:
103,285,41954,5,2,1:2:0:0:
92,205,42254,5,2,3:2:0:0:
97,184,42354,5,0,1:2:0:0:
103,162,42454,5,0,1:2:0:0:
109,140,42554,5,2,1:2:0:0:
70,70,42854,6,0,P|48:64|26:59,2,45.0000017166138,2|0|0,3:2|1:2|1:2,0:0:0:0:
150,71,43154,6,0,P|192:57|236:47,1,90.0000034332277,2|0,1:2|1:2,0:0:0:0:
257,54,43454,5,10,0:3:0:0:
277,62,43554,5,8,0:3:0:0:
298,69,43654,5,4,0:3:0:0:
322,80,43754,6,0,P|341:114|340:154,1,80.9999975280763,14|0,3:2|0:0,0:0:0:0:
303,287,44054,2,0,P|283:252|285:213,1,80.9999975280763,10|0,3:2|1:2,0:0:0:0:
263,136,44354,1,10,1:2:0:0:
362,233,44504,1,0,1:2:0:0:
322,80,44654,1,10,3:2:0:0:
303,287,44804,1,0,1:2:0:0:
245,58,44954,6,0,P|206:69|166:79,1,80.9999975280763,14|0,3:2|1:2,0:0:0:0:
147,72,45179,1,0,1:2:0:0:
128,64,45254,1,8,3:2:0:0:
31,148,45404,1,0,1:2:0:0:
27,167,45479,1,0,1:2:0:0:
29,187,45554,1,8,1:2:0:0:
37,206,45629,1,0,1:2:0:0:
49,222,45704,2,0,P|68:226|88:232,1,40.4999987640381,0|0,1:2|1:2,0:0:0:0:
180,162,45854,2,0,P|160:168|141:172,1,40.4999987640381,10|0,1:2|1:2,0:0:0:0:
35,301,46004,2,0,P|54:305|74:311,1,40.4999987640381,2|0,1:2|1:2,0:0:0:0:
287,375,46154,6,0,P|306:340|305:300,1,80.9999975280763,14|2,1:2|3:2,0:0:0:0:
293,284,46379,1,0,3:2:0:0:
280,268,46454,1,0,1:2:0:0:
420,148,46604,1,10,0:3:0:0:
401,153,46679,1,8,0:3:0:0:
381,158,46754,2,0,P|361:192|362:232,1,80.9999975280763,6|0,0:3|3:2,0:0:0:0:
374,249,46979,1,2,3:2:0:0:
387,264,47054,1,0,1:2:0:0:
270,173,47204,1,2,3:2:0:0:
48,366,47354,6,0,B|172:433|313:348|204:270|348:181|466:253,1,485.999985168458,4|6,3:2|0:3,0:0:0:0:
467,253,48554,6,0,P|392:272|337:217,1,161.999995056153,14|0,3:2|0:0,0:0:0:0:
329,196,48854,1,10,1:2:0:0:
367,348,49004,1,2,0:0:0:0:
243,225,49154,1,10,3:2:0:0:
352,104,49304,1,2,3:2:0:0:
467,253,49454,1,10,1:2:0:0:
262,132,49604,1,0,3:2:0:0:
419,1,49754,6,0,P|450:43|445:95,1,107.999996704102,10|0,3:2|0:0,0:0:0:0:
258,308,50054,2,0,P|361:278|467:253,1,215.999993408203,10|8,1:2|3:2,0:0:0:0:
352,104,50504,1,0,3:2:0:0:
506,167,50654,1,10,1:2:0:0:
332,95,50804,2,0,P|305:102|279:108,1,53.9999983520508,2|0,1:2|1:2,0:0:0:0:
194,232,50954,5,10,3:2:0:0:
37,171,51104,1,2,0:0:0:0:
154,304,51254,1,10,1:2:0:0:
270,204,51404,1,2,0:0:0:0:
158,60,51554,1,10,3:2:0:0:
283,220,51704,1,2,3:2:0:0:
100,243,51854,2,0,P|114:191|127:138,1,107.999996704102,10|0,1:2|0:0,0:0:0:0:
381,145,52154,6,0,P|399:220|345:274,1,161.999995056153,10|0,3:2|0:0,0:0:0:0:
185,296,52454,2,0,B|244:269|283:313|281:321|279:330|322:377|377:347,1,215.999993408203,10|8,1:2|3:2,0:0:0:0:
484,172,52904,1,0,1:2:0:0:
477,146,52979,1,0,1:2:0:0:
470,120,53054,1,10,1:2:0:0:
344,275,53204,2,0,P|351:248|357:222,1,53.9999983520508,2|0,1:2|1:2,0:0:0:0:
181,36,53354,6,0,P|240:116|331:75,1,215.999993408203,14|10,3:2|1:2,0:0:0:0:
342,55,53804,1,2,0:0:0:0:
228,198,53954,1,10,3:2:0:0:
381,145,54104,1,2,3:2:0:0:
260,39,54254,1,10,1:2:0:0:
149,213,54404,1,2,3:2:0:0:
383,317,54554,6,0,P|388:265|357:222,1,107.999996704102,10|0,3:2|0:0,0:0:0:0:
509,76,54854,2,0,P|478:119|484:172,1,107.999996704102,10|0,1:2|0:0,0:0:0:0:
227,232,55154,2,0,P|258:189|252:136,1,107.999996704102,10|0,3:2|3:2,0:0:0:0:
425,31,55454,1,10,1:2:0:0:
403,313,55604,2,0,P|397:287|391:261,1,53.9999983520508,0|0,1:2|1:2,0:0:0:0:
414,309,55754,6,0,P|389:203|359:100,1,215.999993408203,12|8,3:2|1:2,0:0:0:0:
353,79,56204,1,2,0:0:0:0:
485,192,56354,1,10,3:2:0:0:
261,54,56504,1,2,3:2:0:0:
468,180,56654,1,8,1:2:0:0:
254,341,56804,6,0,B|199:371|156:324|158:315|160:307|121:263|62:290,1,215.999993408203,6|0,3:2|3:2,0:0:0:0:
261,168,57254,1,10,1:2:0:0:
79,86,57404,2,0,P|94:138|107:191,1,107.999996704102,6|0,3:2|0:0,0:0:0:0:
223,18,57704,1,2,1:2:0:0:
273,33,57779,1,0,1:2:0:0:
303,77,57854,1,10,1:2:0:0:
298,130,57929,1,0,1:2:0:0:
261,168,58004,2,0,P|234:174|208:181,1,53.9999983520508,0|0,1:2|1:2,0:0:0:0:
62,290,58154,5,14,3:2:0:0:
170,96,58304,1,2,0:0:0:0:
0,200,58454,1,10,1:2:0:0:
143,362,58604,2,0,P|174:319|169:267,1,107.999996704102,2|10,0:0|3:2,0:0:0:0:
50,91,58904,1,2,3:2:0:0:
209,181,59054,1,10,1:2:0:0:
62,290,59204,1,2,0:0:0:0:
300,379,59354,6,0,P|285:327|272:274,1,107.999996704102,10|0,3:2|0:0,0:0:0:0:
435,65,59654,2,0,P|354:124|396:215,1,215.999993408203,10|8,1:2|3:2,0:0:0:0:
416,224,60104,1,0,3:2:0:0:
302,51,60254,1,10,1:2:0:0:
487,131,60404,2,0,P|461:137|435:145,1,53.9999983520508,2|0,1:2|1:2,0:0:0:0:
282,194,60554,5,10,3:2:0:0:
435,65,60704,1,2,0:0:0:0:
272,274,60854,5,10,1:2:0:0:
302,51,61004,1,2,3:2:0:0:
336,323,61154,5,10,1:2:0:0:
178,117,61304,1,2,3:2:0:0:
409,293,61454,5,10,1:2:0:0:
156,239,61604,2,0,P|182:233|209:225,1,53.9999983520508,2|0,1:2|1:2,0:0:0:0:
323,96,61754,6,0,P|378:150|360:225,1,161.999995056153,10|0,3:2|0:0,0:0:0:0:
347,243,62054,2,0,P|377:139|401:34,1,215.999993408203,10|8,1:2|3:2,0:0:0:0:
407,13,62504,1,0,3:2:0:0:
444,220,62654,1,10,1:2:0:0:
292,65,62804,2,0,P|286:91|279:117,1,53.9999983520508,2|0,1:2|1:2,0:0:0:0:
325,337,62954,5,14,3:2:0:0:
205,147,63104,1,2,0:0:0:0:
347,243,63254,1,10,1:2:0:0:
238,382,63404,1,2,0:0:0:0:
110,201,63554,1,10,3:2:0:0:
279,117,63704,2,0,P|284:169|253:212,1,107.999996704102,2|10,3:2|1:2,0:0:0:0:
81,305,64004,1,2,0:0:0:0:
23,20,64154,1,6,3:2:0:0:
23,20,65354,6,0,P|54:31|87:37,1,67.5000025749208,2|2,0:0|0:0,0:0:0:0:
155,106,65654,1,2,0:0:0:0:
142,109,65804,2,0,P|108:115|77:126,1,67.5000025749208
12,196,66104,1,2,0:0:0:0:
25,199,66254,2,0,P|59:206|90:217,1,67.5000025749208,2|2,0:0|0:0,0:0:0:0:
318,320,66554,5,2,0:0:0:0:
247,357,66704,1,8,0:0:0:0:
183,307,66854,2,0,P|177:274|166:243,1,67.5000025749208,8|2,0:0|0:0,0:0:0:0:
179,81,67154,1,0,1:2:0:0:
106,116,67304,2,0,P|157:158|222:148,1,135.000005149842,0|2,3:2|0:0,0:0:0:0:
259,77,67754,1,2,3:2:0:0:
259,77,76154,6,0,P|280:83|302:88,1,45,2|8,0:0|0:0,0:0:0:0:
379,112,76454,1,8,0:0:0:0:
397,190,76604,1,2,1:2:0:0:
360,33,76754,1,0,1:2:0:0:
320,167,76904,1,2,3:2:0:0:
499,123,77054,2,0,P|477:128|456:135,1,45,0|0,1:2|0:0,0:0:0:0:
222,260,77354,6,0,P|157:240|91:225,2,135.000005149842,6|0|0,3:2|0:0|3:2,0:0:0:0:
292,299,78104,1,2,0:0:0:0:
329,370,78254,1,2,0:0:0:0:
329,370,78554,2,0,P|393:379|444:337,1,135.000005149842,2|2,3:2|0:0,0:0:0:0:
388,236,79004,2,0,P|382:270|372:302,1,67.5000025749208,2|0,0:0|3:2,0:0:0:0:
467,260,79304,1,2,0:0:0:0:
447,182,79454,1,10,0:0:0:0:
447,182,79754,6,0,P|427:117|412:51,2,135.000005149842,8|0|0,3:2|0:0|3:2,0:0:0:0:
388,236,80504,1,2,0:0:0:0:
313,210,80654,1,2,0:0:0:0:
313,210,80954,2,0,P|262:168|197:178,1,135.000005149842,2|2,3:2|0:0,0:0:0:0:
257,310,81404,2,0,P|246:278|241:245,1,67.5000025749208,2|0,0:0|3:2,0:0:0:0:
161,249,81704,1,2,0:0:0:0:
313,210,81854,1,10,0:0:0:0:
313,210,82154,6,0,P|328:144|347:79,2,135.000005149842,10|0|0,3:2|0:0|3:2,0:0:0:0:
339,286,82904,1,0,0:0:0:0:
287,347,83054,1,2,0:0:0:0:
287,347,83354,2,0,P|253:352|221:363,1,67.5000025749208,2|0,3:2|0:0,0:0:0:0:
103,195,83654,2,0,P|135:206|169:212,1,67.5000025749208,2|0,0:0|0:0,0:0:0:0:
261,271,83954,2,0,P|227:276|195:287,1,67.5000025749208,2|0,3:2|0:0,0:0:0:0:
121,116,84254,2,0,P|152:126|186:132,1,67.5000025749208,10|2,0:0|0:0,0:0:0:0:
202,128,84479,1,2,0:0:0:0:
218,124,84554,6,0,P|153:114|102:156,1,135.000005149842,10|10,3:2|0:0,0:0:0:0:
158,257,85004,2,0,P|164:223|174:192,1,67.5000025749208,2|8,0:0|3:2,0:0:0:0:
23,160,85304,1,2,0:0:0:0:
81,293,85454,2,0,P|75:259|65:228,1,67.5000025749208,10|0,0:0|0:0,0:0:0:0:
259,194,85754,6,0,P|239:259|224:325,1,135.000005149842,4|0,3:2|3:2,0:0:0:0:
158,257,86204,1,0,1:2:0:0:
283,378,86354,1,2,3:2:0:0:
155,270,86504,1,0,1:2:0:0:
360,358,86654,1,2,1:2:0:0:
152,283,86804,1,0,1:2:0:0:
221,104,86954,6,0,B|310:85|278:161|367:143,1,161.999995056153,12|0,3:2|0:0,0:0:0:0:
452,101,87404,2,0,P|397:156|416:231,1,161.999995056153,12|0,3:2|0:0,0:0:0:0:
433,333,87854,2,0,P|451:254|475:177,1,161.999995056153,12|2,3:2|0:0,0:0:0:0:
475,177,89354,6,0,P|451:254|433:333,1,161.999995056153,12|0,3:2|0:0,0:0:0:0:
430,349,89804,2,0,P|442:272|383:222,1,161.999995056153,12|0,3:2|0:0,0:0:0:0:
255,184,90254,2,0,B|344:202|312:126|401:144,1,161.999995056153,12|2,3:2|0:0,0:0:0:0:
467,96,90704,2,0,P|471:76|477:56,2,40.4999987640381,2|2|10,0:0|0:0|0:0,0:0:0:0:
467,96,91154,1,2,1:2:0:0:
403,145,91304,1,10,0:3:0:0:
322,32,91454,1,10,0:3:0:0:
394,65,91604,1,4,0:3:0:0:
283,262,91754,6,0,P|227:207|152:226,1,161.999995056153,14|2,3:2|0:0,0:0:0:0:
85,113,92204,2,0,P|120:132|160:130,1,80.9999975280763,14|0,3:2|0:0,0:0:0:0:
245,3,92504,1,2,3:2:0:0:
138,53,92654,1,14,1:2:0:0:
241,129,92804,1,2,0:0:0:0:
125,42,92954,6,0,P|148:119|166:198,1,161.999995056153,10|2,3:2|3:2,0:0:0:0:
171,213,93404,1,10,0:2:0:0:
261,50,93554,2,0,P|249:89|241:129,1,80.9999975280763,0|2,1:2|3:2,0:0:0:0:
269,277,93854,1,10,1:2:0:0:
161,133,94004,1,0,1:2:0:0:
328,111,94154,6,0,P|347:146|345:186,1,80.9999975280763,12|0,3:2|0:0,0:0:0:0:
237,303,94454,1,2,0:0:0:0:
218,225,94604,2,0,B|307:206|275:282|364:264,1,161.999995056153,8|0,3:2|3:2,0:0:0:0:
433,175,95054,2,0,P|431:214|450:250,1,80.9999975280763,10|0,1:2|0:0,0:0:0:0:
512,383,95354,6,0,P|456:328|381:347,1,161.999995056153,10|10,3:2|0:0,0:0:0:0:
371,360,95804,1,2,3:2:0:0:
450,250,95954,1,8,0:0:0:0:
304,315,96104,1,2,1:2:0:0:
448,162,96254,1,10,0:3:0:0:
433,168,96404,1,4,0:3:0:0:
220,147,96554,6,0,P|284:165|350:180,2,135.000005149842,4|8|0,3:2|0:0|3:2,0:0:0:0:
350,180,97454,1,10,0:0:0:0:
184,219,97754,2,0,P|142:168|153:103,1,135.000005149842,2|10,3:2|0:0,0:0:0:0:
288,49,98204,2,0,P|255:56|223:66,1,67.5000025749208,2|0,0:0|3:2,0:0:0:0:
157,22,98504,1,2,0:0:0:0:
284,164,98654,2,0,P|252:153|219:146,1,67.5000025749208,10|0,0:0|0:0,0:0:0:0:
26,56,98954,6,0,P|91:41|156:22,1,135.000005149842,4|10,3:2|0:0,0:0:0:0:
159,36,99554,2,0,P|127:46|94:53,1,67.5000025749208,2|0,3:2|0:0,0:0:0:0:
42,125,99854,2,0,P|74:132|106:142,1,67.5000025749208,10|0,0:0|0:0,0:0:0:0:
195,230,100154,2,0,P|130:219|79:261,1,135.000005149842,0|8,3:2|0:0,0:0:0:0:
80,260,100754,1,0,3:2:0:0:
151,298,100904,1,0,3:2:0:0:
8,226,101054,1,0,1:2:0:0:
84,341,101204,1,2,0:0:0:0:
134,185,101354,6,0,P|178:181|215:205,1,90,6|0,3:2|0:0,0:0:0:0:
236,358,101654,2,0,P|198:381|154:378,1,90,10|2,3:2|0:0,0:0:0:0:
295,206,101954,1,10,3:2:0:0:
178,301,102104,1,2,0:0:0:0:
312,382,102254,2,0,P|356:385|393:361,1,90,10|2,3:2|0:0,0:0:0:0:
451,241,102554,5,10,3:2:0:0:
337,306,102704,2,0,P|350:263|360:219,1,90,2|10,0:0|3:2,0:0:0:0:
349,139,103004,1,2,0:0:0:0:
451,241,103154,2,0,P|437:198|427:154,1,90,10|2,3:2|0:0,0:0:0:0:
372,52,103454,2,0,P|362:96|349:138,1,90,8|2,3:2|0:0,0:0:0:0:
163,352,103754,6,0,P|249:326|337:306,1,180,10|10,3:2|3:2,0:0:0:0:
205,182,104204,2,0,P|242:205|286:202,1,90,2|8,0:0|3:2,0:0:0:0:
372,52,104504,1,2,0:0:0:0:
266,110,104654,1,10,3:2:0:0:
387,43,104804,1,2,0:0:0:0:
227,8,104954,5,14,1:2:0:0:
418,142,105104,1,0,3:2:0:0:
195,215,105254,5,8,1:2:0:0:
404,133,105404,1,0,3:2:0:0:
132,4,105554,1,12,1:2:0:0:
93,25,105629,1,0,1:2:0:0:
71,63,105704,1,0,1:2:0:0:
72,108,105779,1,0,1:2:0:0:
97,143,105854,2,0,P|118:147|140:154,1,45,0|0,3:2|1:2,0:0:0:0:
195,215,106004,2,0,P|216:208|238:203,1,45,0|0,1:2|1:2,0:0:0:0:
368,2,106154,6,0,P|422:57|404:133,1,161.999995056153,14|0,3:2|0:0,0:0:0:0:
392,151,106454,1,10,1:2:0:0:
345,79,106604,1,2,0:0:0:0:
463,187,106754,1,10,3:2:0:0:
291,20,106904,1,2,3:2:0:0:
397,231,107054,1,10,1:2:0:0:
368,2,107204,1,0,3:2:0:0:
327,290,107354,6,0,P|315:237|300:185,1,107.999996704102,10|0,3:2|0:0,0:0:0:0:
451,43,107654,2,0,B|392:16|353:60|355:68|357:77|314:124|259:94,1,215.999993408203,10|8,1:2|3:2,0:0:0:0:
103,43,108104,1,0,3:2:0:0:
291,20,108254,1,10,1:2:0:0:
167,155,108404,2,0,P|193:161|220:168,1,53.9999983520508,2|0,1:2|1:2,0:0:0:0:
327,290,108554,5,10,3:2:0:0:
393,145,108704,1,2,0:0:0:0:
247,320,108854,1,10,1:2:0:0:
220,168,109004,1,2,0:0:0:0:
312,368,109154,1,10,3:2:0:0:
466,267,109304,1,2,3:2:0:0:
194,380,109454,2,0,P|165:334|175:283,1,107.999996704102,10|0,1:2|0:0,0:0:0:0:
84,110,109754,6,0,P|102:185|47:239,1,161.999995056153,10|0,3:2|0:0,0:0:0:0:
25,245,110054,2,0,P|115:203|175:283,1,215.999993408203,10|8,1:2|3:2,0:0:0:0:
42,382,110504,1,0,1:2:0:0:
35,356,110579,1,0,1:2:0:0:
28,329,110654,1,10,1:2:0:0:
196,140,110804,2,0,P|202:114|208:88,1,53.9999983520508,2|0,1:2|1:2,0:0:0:0:
41,71,110954,6,0,P|71:175|96:280,1,215.999993408203,14|10,3:2|1:2,0:0:0:0:
101,301,111404,1,2,0:0:0:0:
249,205,111554,1,10,3:2:0:0:
403,252,111704,1,2,3:2:0:0:
294,107,111854,1,10,1:2:0:0:
416,269,112004,1,2,3:2:0:0:
440,50,112154,6,0,P|387:37|335:22,1,107.999996704102,10|0,3:2|0:0,0:0:0:0:
144,231,112454,2,0,P|196:216|249:205,1,107.999996704102,10|0,1:2|0:0,0:0:0:0:
445,28,112755,2,0,P|392:15|340:1,1,107.999996704102,10|0,3:2|3:2,0:0:0:0:
177,130,113054,1,10,1:2:0:0:
381,210,113204,2,0,P|354:216|328:222,1,53.9999983520508,0|0,1:2|1:2,0:0:0:0:
126,322,113354,6,0,B|96:267|143:224|152:226|160:228|204:189|177:130,1,215.999993408203,12|8,3:2|1:2,0:0:0:0:
31,25,113804,1,2,0:0:0:0:
104,162,113954,1,10,3:2:0:0:
20,6,114104,1,2,3:2:0:0:
93,143,114254,1,8,1:2:0:0:
275,283,114404,6,0,P|185:241|126:322,1,215.999993408203,6|0,3:2|3:2,0:0:0:0:
127,343,114854,1,10,1:2:0:0:
317,126,115004,2,0,P|274:157|222:152,1,107.999996704102,6|0,3:2|0:0,0:0:0:0:
7,62,115304,1,2,1:2:0:0:
42,26,115379,1,0,1:2:0:0:
96,23,115454,1,10,1:2:0:0:
139,53,115529,1,0,1:2:0:0:
153,104,115604,2,0,P|144:130|137:156,1,53.9999983520508,0|0,1:2|1:2,0:0:0:0:
204,318,115754,5,14,3:2:0:0:
44,170,115904,1,2,0:0:0:0:
127,343,116054,1,10,1:2:0:0:
237,101,116204,2,0,P|222:152|209:205,1,107.999996704102,2|10,0:0|3:2,0:0:0:0:
243,384,116504,1,2,3:2:0:0:
136,237,116654,1,10,1:2:0:0:
330,371,116804,1,2,0:0:0:0:
460,220,116954,6,0,P|407:214|365:246,1,107.999996704102,10|0,3:2|0:0,0:0:0:0:
243,384,117254,2,0,P|272:280|297:174,1,215.999993408203,10|8,1:2|3:2,0:0:0:0:
301,153,117704,1,0,3:2:0:0:
187,65,117854,1,10,1:2:0:0:
209,193,118004,2,0,P|214:167|220:141,1,53.9999983520508,2|0,1:2|1:2,0:0:0:0:
384,137,118154,5,10,3:2:0:0:
156,256,118304,1,2,0:0:0:0:
364,216,118454,5,10,1:2:0:0:
115,100,118604,1,2,3:2:0:0:
329,76,118754,5,10,1:2:0:0:
134,178,118904,1,2,3:2:0:0:
307,274,119054,5,10,1:2:0:0:
187,65,119204,2,0,P|214:72|240:78,1,53.9999983520508,2|0,1:2|1:2,0:0:0:0:
419,153,119354,6,0,P|344:135|290:191,1,161.999995056153,10|0,3:2|0:0,0:0:0:0:
266,352,119654,2,0,B|293:293|249:254|241:256|232:258|185:215|215:160,1,215.999993408203,10|8,1:2|3:2,0:0:0:0:
224,141,120104,1,0,3:2:0:0:
192,319,120254,1,10,1:2:0:0:
342,178,120404,2,0,P|315:185|289:191,1,53.9999983520508,2|0,1:2|1:2,0:0:0:0:
177,62,120554,5,14,3:2:0:0:
204,229,120704,1,2,0:0:0:0:
270,54,120854,1,10,1:2:0:0:
134,167,121004,1,2,0:0:0:0:
286,39,121154,1,10,3:2:0:0:
394,219,121304,2,0,P|342:204|289:191,1,107.999996704102,2|10,3:2|1:2,0:0:0:0:
177,62,121604,1,2,0:0:0:0:
177,323,121754,6,0,P|172:271|204:229,1,107.999996704102,14|0,3:2|3:2,0:0:0:0:
363,126,122054,1,10,0:0:0:0:
267,300,122204,1,0,1:2:0:0:
166,143,122354,2,0,P|131:136|97:125,2,71.9999978027344,14|2|0,3:2|0:0|1:2,0:0:0:0:
108,217,122654,2,0,P|72:225|38:236,2,71.9999978027344,8|4|0,0:3|0:3|3:2,0:0:0:0:
159,297,122954,5,4,1:2:0:0:
218,63,123104,1,4,1:2:0:0:
218,63,123554,2,0,P|257:54|296:41,1,80.9999975280763,8|2,0:0|0:0,0:0:0:0:
353,112,123854,2,0,P|313:120|274:133,1,80.9999975280763,10|2,0:0|0:0,0:0:0:0:
376,34,124154,2,0,P|410:54|428:89,1,80.9999975280763,10|0,0:0|0:0,0:0:0:0:
331,185,124454,2,0,P|331:145|353:112,1,80.9999975280763,10|0,0:0|0:0,0:0:0:0:
487,190,124754,2,0,P|448:177|408:168,1,80.9999975280763,8|2,0:0|0:0,0:0:0:0:
462,266,125054,2,0,P|423:253|384:245,1,80.9999975280763,10|2,0:0|3:2,0:0:0:0:
331,185,125354,5,4,1:2:0:0:
200,375,125504,1,6,1:2:0:0:
200,375,125954,2,0,P|160:377|125:357,1,80.9999975280763,10|2,0:0|0:0,0:0:0:0:
156,223,126254,2,0,P|178:256|178:296,1,80.9999975280763,10|2,0:0|0:0,0:0:0:0:
23,302,126554,2,0,P|62:293|100:280,1,80.9999975280763,10|0,0:0|0:0,0:0:0:0:
156,223,126854,2,0,P|194:235|233:244,1,80.9999975280763,10|0,0:0|0:0,0:0:0:0:
1,225,127154,2,0,P|40:216|78:203,1,80.9999975280763,8|2,0:0|0:0,0:0:0:0:
179,146,127454,2,0,P|217:158|256:167,1,80.9999975280763,8|2,0:0|3:2,0:0:0:0:
311,227,127754,5,6,1:2:0:0:
153,18,127904,1,6,1:2:0:0:
153,18,128354,2,0,P|113:15|78:35,1,80.9999975280763,10|2,0:0|0:0,0:0:0:0:
209,75,128654,2,0,P|231:41|231:1,1,80.9999975280763,10|2,0:0|0:0,0:0:0:0:
132,95,128954,2,0,P|149:130|184:150,1,80.9999975280763,10|2,0:0|0:0,0:0:0:0:
287,53,129254,2,0,P|249:66|210:75,1,80.9999975280763,10|0,0:0|0:0,0:0:0:0:
264,145,129554,2,0,P|302:132|341:123,1,80.9999975280763,8|0,0:0|3:2,0:0:0:0:
366,47,129854,1,2,1:2:0:0:
372,32,130154,5,6,1:2:0:0:
227,217,130304,1,4,1:2:0:0:
227,217,130754,2,0,P|225:257|245:292,1,80.9999975280763,0|2,0:0|3:2,0:0:0:0:
467,381,131054,1,10,1:2:0:0:
467,381,131354,6,0,P|454:342|445:303,1,80.9999975280763,4|0,3:2|0:0,0:0:0:0:
362,142,131654,1,2,3:2:0:0:
512,236,131804,1,0,1:2:0:0:
342,314,131954,2,0,P|355:276|364:237,1,80.9999975280763,2|0,0:0|3:2,0:0:0:0:
457,1,132254,5,10,0:3:0:0:
450,27,132354,5,4,0:3:0:0:
443,53,132454,5,4,0:3:0:0:
436,79,132554,6,0,P|376:140|295:113,1,180,12|8,3:2|3:2,0:0:0:0:
180,213,133004,2,0,P|218:188|262:192,1,90,2|8,0:0|3:2,0:0:0:0:
421,332,133304,1,2,0:0:0:0:
239,269,133454,1,10,3:2:0:0:
364,152,133604,1,2,0:0:0:0:
341,337,133754,6,0,P|331:293|316:250,1,90,10|2,3:2|0:0,0:0:0:0:
473,127,134054,2,0,P|446:213|427:300,1,180,10|8,3:2|3:2,0:0:0:0:
264,355,134504,2,0,P|254:311|239:269,1,90,2|8,0:0|3:2,0:0:0:0:
295,113,134804,5,2,0:0:0:0:
182,213,134954,1,12,3:2:0:0:
309,102,135104,1,2,0:0:0:0:
169,32,135254,2,0,P|145:69|148:113,1,90,10|2,3:2|0:0,0:0:0:0:
239,269,135554,1,10,3:2:0:0:
264,192,135704,2,0,B|162:168|204:255|100:235,1,180,2|2,0:0|0:0,0:0:0:0:
82,56,136154,6,0,P|126:46|169:32,1,90,10|0,3:2|0:0,0:0:0:0:
264,192,136454,2,0,P|237:110|298:51,1,180,10|8,3:2|3:2,0:0:0:0:
316,49,136904,1,2,3:2:0:0:
465,202,137054,1,8,1:2:0:0:
316,130,137204,1,2,0:0:0:0:
441,33,137354,6,0,P|464:70|461:114,1,90,12|2,3:2|0:0,0:0:0:0:
343,206,137654,1,10,3:2:0:0:
416,319,137804,1,2,3:2:0:0:
264,192,137954,1,10,1:2:0:0:
385,90,138104,1,0,1:2:0:0:
292,268,138254,1,10,3:2:0:0:
461,115,138404,1,2,0:0:0:0:
291,43,138554,6,0,P|306:86|316:130,1,90,10|0,3:2|3:2,0:0:0:0:
406,287,138854,2,0,P|415:243|430:200,1,90,10|0,1:2|0:0,0:0:0:0:
318,345,139154,1,8,1:2:0:0:
493,264,139304,1,8,0:3:0:0:
316,130,139454,2,0,P|330:172|340:216,1,90,10|0,3:2|0:0,0:0:0:0:
240,328,139754,5,6,1:2:0:0:
400,126,139904,1,0,1:2:0:0:
411,112,140204,1,8,0:3:0:0:
334,92,140354,1,4,0:3:0:0:
256,71,140504,1,0,3:2:0:0:
378,202,140654,6,0,B|346:237|356:279|356:279|296:264|261:203|276:150|276:150|321:135|334:92,1,337.500012874604,6|2,1:2|0:0,0:0:0:0:
256,71,141554,2,0,P|251:49|244:27,2,45.0000017166138,10|8|8,0:0|0:0|0:0,0:0:0:0:
200,127,141854,2,0,P|136:107|70:92,1,135.000005149842,10|0,0:0|0:0,0:0:0:0:
70,92,151754,5,4,1:2:0:0:
162,339,151904,1,0,1:2:0:0:
169,355,152204,1,10,0:3:0:0:
54,245,152354,1,6,0:3:0:0:
136,137,152504,1,2,3:2:0:0:
70,74,152654,1,0,1:2:0:0:
28,321,152804,6,0,B|130:345|88:258|193:278,1,180,6|0,3:2|3:2,0:0:0:0:
338,321,153254,1,2,1:2:0:0:
169,355,153404,1,2,0:0:0:0:
201,196,153554,2,0,P|230:189|258:180,2,60,0|8|4,3:2|0:3|0:3,0:0:0:0:
192,278,153854,2,0,P|163:269|134:262,2,60,2|8|4,1:2|0:3|0:3,0:0:0:0:
246,337,154154,5,6,3:2:0:0:
122,183,154304,1,2,0:0:0:0:
270,260,154454,1,2,3:2:0:0:
104,174,154604,2,0,P|77:134|81:86,1,99.0000030212403,2|0,0:0|3:2,0:0:0:0:
215,4,154904,1,2,0:0:0:0:
155,113,155054,1,2,3:2:0:0:
273,181,155204,1,2,0:0:0:0:
380,17,155354,6,0,P|332:32|284:43,1,99.0000030212403,2|0,3:2|0:0,0:0:0:0:
281,260,155654,2,0,P|352:200|318:114,1,198.000006042481,2|0,3:2|3:2,0:0:0:0:
239,109,156104,1,0,0:0:0:0:
380,17,156254,2,0,P|427:32|475:43,1,99.0000030212403,2|2,3:2|0:0,0:0:0:0:
318,114,156554,5,2,3:2:0:0:
442,234,156704,2,0,P|469:193|464:145,1,99.0000030212403,2|2,0:0|3:2,0:0:0:0:
273,181,157004,1,2,0:0:0:0:
397,368,157154,2,0,P|401:319|374:279,1,99.0000030212403,2|0,3:2|0:0,0:0:0:0:
193,174,157454,1,2,3:2:0:0:
303,378,157604,1,2,0:0:0:0:
368,154,157754,6,0,P|321:169|273:181,1,99.0000030212403,2|0,3:2|3:2,0:0:0:0:
101,315,158054,2,0,P|149:326|196:341,1,99.0000030212403,2|8,1:2|0:3,0:0:0:0:
210,361,158279,1,8,0:3:0:0:
223,381,158354,1,0,1:2:0:0:
146,241,158504,1,8,0:3:0:0:
193,174,158654,1,6,0:3:0:0:
240,106,158804,1,2,3:2:0:0:
326,257,158954,5,6,1:2:0:0:
342,245,159104,2,0,P|369:204|364:156,1,99.0000030212403,8|2,0:3|3:2,0:0:0:0:
205,32,159404,1,6,1:2:0:0:
273,181,159554,1,2,3:2:0:0:
159,100,159704,1,2,1:2:0:0:
258,168,159854,1,4,1:2:0:0:
350,350,160004,6,0,P|340:317|334:284,1,67.5000025749208,6|0,3:2|0:0,0:0:0:0:
350,204,160304,1,2,0:0:0:0:
424,174,160454,1,2,0:0:0:0:
416,93,160604,1,2,0:0:0:0:
416,93,160904,2,0,P|395:87|373:82,1,45,2|0,0:0|0:0,0:0:0:0:
296,29,161354,5,14,3:2:0:0:
345,173,161504,1,2,0:0:0:0:
289,8,161654,1,10,1:2:0:0:
268,197,161804,1,2,0:0:0:0:
158,141,161954,1,10,3:2:0:0:
327,251,162104,1,2,3:2:0:0:
449,197,162254,1,10,1:2:0:0:
310,330,162404,1,0,0:0:0:0:
314,99,162554,6,0,P|366:93|409:124,1,107.999996704102,10|0,3:2|0:0,0:0:0:0:
251,276,162854,2,0,P|226:170|196:67,1,215.999993408203,10|8,1:2|3:2,0:0:0:0:
345,173,163304,1,0,3:2:0:0:
183,319,163454,1,10,1:2:0:0:
298,382,163604,2,0,P|304:356|310:330,1,53.9999983520508,2|0,1:2|1:2,0:0:0:0:
154,230,163754,5,10,3:2:0:0:
314,99,163904,1,2,0:0:0:0:
246,249,164054,1,10,1:2:0:0:
84,171,164204,1,2,0:0:0:0:
182,6,164354,1,10,3:2:0:0:
154,230,164504,1,2,3:2:0:0:
28,97,164654,2,0,P|80:85|132:70,1,107.999996704102,10|0,1:2|0:0,0:0:0:0:
356,234,164954,6,0,P|281:252|227:198,1,161.999995056153,10|0,3:2|0:0,0:0:0:0:
205,38,165254,2,0,B|232:97|188:136|180:134|171:132|124:175|154:230,1,215.999993408203,10|8,1:2|3:2,0:0:0:0:
370,286,165704,1,0,1:2:0:0:
363,260,165779,1,0,1:2:0:0:
356,234,165854,1,10,1:2:0:0:
186,349,166004,2,0,P|192:323|198:297,1,53.9999983520508,2|0,1:2|1:2,0:0:0:0:
133,70,166154,5,14,3:2:0:0:
226,196,166304,1,2,0:0:0:0:
78,131,166454,1,10,1:2:0:0:
190,12,166604,1,2,0:0:0:0:
5,100,166754,2,0,P|0:152|30:195,1,107.999996704102,10|0,3:2|3:2,0:0:0:0:
198,296,167054,1,10,1:2:0:0:
78,131,167204,1,2,0:0:0:0:
283,81,167354,6,0,P|268:132|256:185,1,107.999996704102,10|0,3:2|0:0,0:0:0:0:
121,379,167654,2,0,P|109:326|94:274,1,107.999996704102,10|0,1:2|0:0,0:0:0:0:
362,99,167954,2,0,P|347:150|335:203,1,107.999996704102,10|0,3:2|3:2,0:0:0:0:
174,164,168254,1,10,1:2:0:0:
271,28,168404,2,0,P|277:54|283:80,1,53.9999983520508,0|0,1:2|1:2,0:0:0:0:
431,276,168554,6,0,P|340:234|280:314,1,215.999993408203,12|8,3:2|1:2,0:0:0:0:
282,336,169004,1,2,0:0:0:0:
367,199,169154,1,10,3:2:0:0:
238,146,169304,1,2,3:2:0:0:
305,103,169454,1,8,1:2:0:0:
360,312,169604,6,0,P|335:206|305:103,1,215.999993408203,6|0,3:2|3:2,0:0:0:0:
431,256,170054,1,10,1:2:0:0:
312,375,170204,2,0,P|259:380|216:349,1,107.999996704102,6|0,3:2|0:0,0:0:0:0:
93,142,170504,1,2,1:2:0:0:
57,179,170579,1,0,1:2:0:0:
53,233,170654,1,10,1:2:0:0:
84,276,170729,1,0,1:2:0:0:
134,288,170804,2,0,P|159:279|185:274,1,53.9999983520508,0|0,1:2|1:2,0:0:0:0:
305,103,170954,5,14,3:2:0:0:
425,235,171104,1,2,0:0:0:0:
312,375,171254,1,10,1:2:0:0:
350,169,171404,2,0,P|402:157|454:142,1,107.999996704102,2|10,0:0|3:2,0:0:0:0:
267,267,171704,1,2,3:2:0:0:
229,79,171854,1,10,1:2:0:0:
346,251,172004,1,2,0:0:0:0:
133,54,172154,6,0,P|185:48|229:79,1,107.999996704102,10|0,3:2|0:0,0:0:0:0:
251,239,172454,2,0,B|224:180|268:141|276:143|285:145|332:102|302:47,1,215.999993408203,10|8,1:2|3:2,0:0:0:0:
324,208,172904,1,0,3:2:0:0:
229,79,173054,1,10,1:2:0:0:
161,144,173204,2,0,P|155:170|149:196,1,53.9999983520508,2|0,1:2|1:2,0:0:0:0:
314,288,173354,5,10,3:2:0:0:
229,79,173504,1,2,0:0:0:0:
240,318,173654,5,10,1:2:0:0:
374,145,173804,1,2,3:2:0:0:
304,368,173954,5,10,1:2:0:0:
217,160,174104,1,2,3:2:0:0:
379,336,174254,5,10,1:2:0:0:
309,81,174404,2,0,P|302:107|294:133,1,53.9999983520508,2|0,1:2|1:2,0:0:0:0:
161,341,174554,6,0,P|141:262|119:184,1,161.999995056153,10|0,3:2|0:0,0:0:0:0:
112,163,174854,2,0,P|153:253|73:313,1,215.999993408203,10|8,1:2|3:2,0:0:0:0:
51,311,175304,1,0,3:2:0:0:
217,160,175454,1,10,1:2:0:0:
22,221,175604,2,0,P|48:227|74:233,1,53.9999983520508,2|0,1:2|1:2,0:0:0:0:
163,100,175754,5,14,3:2:0:0:
313,211,175904,1,2,0:0:0:0:
200,362,176054,1,10,1:2:0:0:
399,183,176204,1,2,0:0:0:0:
258,287,176354,1,10,3:2:0:0:
406,382,176504,2,0,P|391:330|380:278,1,107.999996704102,2|10,3:2|1:2,0:0:0:0:
466,134,176804,1,2,0:0:0:0:
258,287,176954,6,0,P|280:209|299:130,1,161.999995056153,14|0,3:2|0:0,0:0:0:0:
305,109,177254,2,0,P|347:77|400:83,1,107.999996704102,10|0,1:2|0:0,0:0:0:0:
374,246,177554,1,10,3:2:0:0:
193,217,177704,1,0,3:2:0:0:
220,42,177854,1,10,1:2:0:0:
272,235,178004,5,0,1:2:0:0:
265,261,178079,1,0,1:2:0:0:
258,287,178154,2,0,P|205:298|153:313,1,107.999996704102,4|0,3:2|3:2,0:0:0:0:
31,106,178454,2,0,P|82:120|135:132,1,107.999996704102,8|0,1:2|3:2,0:0:0:0:
161,124,178679,1,0,1:2:0:0:
186,115,178754,1,8,3:2:0:0:
80,232,178904,1,0,1:2:0:0:
258,151,179054,1,10,1:2:0:0:
127,39,179204,1,6,3:2:0:0:
153,313,179354,6,0,P|195:344|248:338,1,107.999996704102,2|0,0:0|3:2,0:0:0:0:
432,155,179654,5,10,1:2:0:0:
467,333,179804,1,0,3:2:0:0:
353,157,179954,5,10,1:2:0:0:
347,354,180104,1,0,3:2:0:0:
282,119,180254,5,10,1:2:0:0:
196,353,180404,1,8,0:3:0:0:
222,346,180479,1,4,0:3:0:0:
248,338,180554,2,0,P|259:285|274:233,1,107.999996704102,12|0,1:2|0:0,0:0:0:0:
206,91,180854,1,0,3:2:0:0:
380,262,181004,2,0,P|365:211|353:158,1,107.999996704102,8|0,1:2|0:0,0:0:0:0:
324,15,181304,1,0,3:2:0:0:
224,171,181454,1,10,1:2:0:0:
374,79,181604,1,2,0:0:0:0:
148,145,181754,5,2,3:2:0:0:
274,233,181904,1,12,1:2:0:0:
101,80,182054,2,0,P|69:122|75:175,1,107.999996704102,2|0,0:0|3:2,0:0:0:0:
348,263,182354,2,0,P|353:210|322:167,1,107.999996704102,10|0,1:2|3:2,0:0:0:0:
192,246,182654,1,10,0:3:0:0:
199,272,182729,1,4,0:3:0:0:
206,298,182804,1,4,0:3:0:0:
322,167,182954,6,0,P|373:182|426:194,1,107.999996704102,12|0,1:2|0:0,0:0:0:0:
283,313,183254,1,0,3:2:0:0:
240,92,183404,2,0,P|292:80|344:64,1,107.999996704102,8|0,1:2|0:0,0:0:0:0:
348,264,183704,1,0,3:2:0:0:
176,142,183854,5,10,1:2:0:0:
206,298,184004,1,2,3:2:0:0:
94,142,184154,5,2,1:2:0:0:
133,334,184304,1,12,3:2:0:0:
253,173,184454,1,2,1:2:0:0:
279,180,184529,1,0,1:2:0:0:
305,187,184604,1,0,1:2:0:0:
331,194,184679,1,0,1:2:0:0:
357,201,184754,2,0,P|388:243|382:296,1,107.999996704102,10|0,3:2|3:2,0:0:0:0:
85,280,185054,2,0,P|111:274|138:267,3,53.9999983520508,10|0|0|0,1:2|1:2|1:2|1:2,0:0:0:0:
83,270,185354,6,0,P|135:258|187:242,1,107.999996704102,14|0,3:2|1:2,0:0:0:0:
206,223,185579,1,0,1:2:0:0:
223,202,185654,1,0,1:2:0:0:
167,363,185804,1,8,3:2:0:0:
62,243,185954,2,0,P|55:216|48:190,2,53.9999983520508,0|0|8,1:2|1:2|0:3,0:0:0:0:
58,365,186254,1,8,3:2:0:0:
223,202,186404,5,0,1:2:0:0:
216,176,186479,1,0,1:2:0:0:
209,150,186554,2,0,P|166:118|113:124,1,107.999996704102,0|8,1:2|3:2,0:0:0:0:
219,338,186854,2,0,P|213:312|207:286,1,53.9999983520508,0|0,1:2|1:2,0:0:0:0:
291,268,187004,2,0,P|297:242|303:216,1,53.9999983520508,0|0,1:2|1:2,0:0:0:0:
290,134,187154,1,8,3:2:0:0:
389,211,187304,2,0,P|382:185|376:159,2,53.9999983520508,8|8|10,0:3|0:3|0:3,0:0:0:0:
351,80,187604,1,0,3:2:0:0:
223,202,187754,5,14,1:2:0:0:
147,88,187904,1,8,0:3:0:0:
154,62,187979,1,8,0:3:0:0:
161,36,188054,1,4,0:3:0:0:
147,225,188204,1,8,1:2:0:0:
290,134,188354,1,8,0:3:0:0:
283,108,188429,1,4,0:3:0:0:
276,82,188504,1,4,0:3:0:0:
207,285,188654,1,8,1:2:0:0:
99,156,188804,6,0,B|188:53|404:97|284:280|482:244,1,450,4|0,3:2|0:0,0:0:0:0:
