osu file format v14

[General]
AudioFilename: audio.mp3
AudioLeadIn: 0
PreviewTime: 160079
Countdown: 0
SampleSet: Soft
StackLeniency: 0.7
Mode: 0
LetterboxInBreaks: 0
WidescreenStoryboard: 1

[Editor]
DistanceSpacing: 1.3
BeatDivisor: 4
GridSize: 16
TimelineZoom: 1.8

[Metadata]
Title:Hikousen
TitleUnicode:飛行船
Artist:Yuuri
ArtistUnicode:優里
Creator:alevi
Version:Hard
Source:
Tags:japanese rock jrock j-rock male vocalist 壱 ichi airship vanya2 kirishima- [_lost_] conner c_o_n_n_e_r sarawatlism
BeatmapID:3614869
BeatmapSetID:1762468

[Difficulty]
HPDrainRate:4.5
CircleSize:3.4
OverallDifficulty:6
ApproachRate:8
SliderMultiplier:1.3
SliderTickRate:1

[Events]
//Background and Video events
0,0,"1128513.jpg",0,0
//Break Periods
2,144554,150915
//Storyboard Layer 0 (Background)
//Storyboard Layer 1 (Fail)
//Storyboard Layer 2 (Pass)
//Storyboard Layer 3 (Foreground)
//Storyboard Layer 4 (Overlay)
//Storyboard Sound Samples

[TimingPoints]
554,300,4,2,1,30,1,0
554,-100,4,2,1,30,0,0
1154,-100,4,2,1,40,0,0
1754,-100,4,2,1,50,0,0
2354,-100,4,2,1,60,0,0
2954,-100,4,2,1,70,0,0
4154,-100,4,2,1,40,0,0
4754,-142.857142857143,4,2,1,60,0,0
5354,-100,4,2,1,80,0,0
17204,-100,4,2,1,80,0,0
19754,-111.111111111111,4,2,1,50,0,0
31754,-100,4,2,1,40,0,0
32054,-100,4,2,1,45,0,0
32354,-100,4,2,1,50,0,0
32654,-100,4,2,1,55,0,0
32954,-100,4,2,1,50,0,0
34004,-100,4,2,1,70,0,0
34154,-100,4,2,1,70,0,0
37154,-100,4,2,1,70,0,0
38954,-100,4,2,1,70,0,0
43754,-100,4,2,1,70,0,0
44954,-100,4,2,1,75,0,0
46154,-100,4,2,1,80,0,0
47354,-100,4,2,1,85,0,0
48254,-100,4,2,1,85,0,0
48554,-95.2380952380952,4,2,1,90,0,1
64154,-100,4,2,1,60,0,0
65354,-111.111111111111,4,2,1,40,0,0
66554,-111.111111111111,4,2,1,50,0,0
67754,-133.333333333333,4,2,1,40,0,0
70154,-133.333333333333,4,2,1,40,0,0
71354,-133.333333333333,4,2,1,40,0,0
76604,-133.333333333333,4,2,1,60,0,0
77354,-111.111111111111,4,2,1,60,0,0
84554,-111.111111111111,4,2,1,60,0,0
85754,-111.111111111111,4,2,1,70,0,0
86954,-100,4,2,1,70,0,0
88154,-100,4,2,1,70,0,0
89354,-100,4,2,1,70,0,0
92954,-100,4,2,1,70,0,0
96554,-111.111111111111,4,2,1,60,0,0
100154,-111.111111111111,4,2,1,60,0,0
101354,-105.263157894737,4,2,1,60,0,0
102554,-105.263157894737,4,2,1,65,0,0
103754,-100,4,2,1,70,0,0
104354,-100,4,2,1,75,0,0
104954,-100,4,2,1,80,0,0
105554,-100,4,2,1,85,0,0
106154,-95.2380952380952,4,2,1,90,0,1
121979,-95.2380952380952,4,2,1,90,0,1
122054,-95.2380952380952,4,2,1,90,0,1
122954,-100,4,2,1,90,0,0
123254,-100,4,2,1,50,0,0
125354,-100,4,2,1,90,0,0
125654,-100,4,2,1,50,0,0
127754,-100,4,2,1,90,0,0
128054,-100,4,2,1,50,0,0
129704,-100,4,2,1,80,0,0
130154,-100,4,2,1,90,0,0
130454,-100,4,2,1,50,0,0
131354,-100,4,2,1,70,0,0
132554,-100,4,2,1,80,0,0
137354,-100,4,2,1,85,0,0
139754,-100,4,2,1,90,0,0
140654,-200,4,2,1,90,0,0
141254,-100,4,2,1,60,0,0
141554,-100,4,2,1,50,0,0
141854,-100,4,2,1,40,0,0
142154,-100,4,2,1,5,0,0
144254,-100,4,2,1,40,0,0
144554,-100,4,2,1,40,0,0
151754,-100,4,2,1,80,0,0
152804,-100,4,2,1,80,0,0
154154,-100,4,2,1,80,0,0
160154,-100,4,2,1,50,0,0
161354,-95.2380952380952,4,2,1,90,0,1
178154,-100,4,2,1,90,0,0
190154,-100,4,2,1,80,0,0
191354,-100,4,2,1,70,0,0
191954,-100,4,2,1,60,0,0
192254,-100,4,2,1,50,0,0
192404,-100,4,2,1,40,0,0
192554,-100,4,2,1,5,0,0

[Colours]
Combo1 : 13,147,147
Combo2 : 241,146,99
Combo3 : 100,200,200
Combo4 : 155,148,245

[HitObjects]
391,61,5354,6,0,P|449:88|521:108,2,130,14|10|10,3:2|1:2|3:2,0:0:0:0:
323,9,6104,1,0,3:2:0:0:
254,56,6254,2,0,P|225:77|187:92,1,65,10|0,1:2|0:0,0:0:0:0:
133,33,6554,2,0,P|98:13|62:2,1,65,10|2,3:2|0:0,0:0:0:0:
6,55,6854,1,10,1:2:0:0:
131,167,7154,2,0,P|117:201|108:238,1,65,10|2,3:2|3:2,0:0:0:0:
35,269,7454,2,0,P|49:303|58:340,1,65,10|2,1:2|1:2,0:0:0:0:
168,384,7754,6,0,P|228:364|297:346,1,130,12|10,3:2|1:2,0:0:0:0:
438,270,8354,2,0,P|423:235|420:208,1,65,10|0,3:2|3:2,0:0:0:0:
368,140,8654,2,0,P|383:105|386:78,1,65,10|0,1:2|0:0,0:0:0:0:
318,27,8954,2,0,P|282:14|250:-4,2,65,10|2|10,3:2|3:2|1:2,0:0:0:0:
398,2,9404,1,2,1:2:0:0:
282,125,9704,1,2,3:2:0:0:
203,93,9854,2,0,P|174:78|143:67,1,65,10|0,1:2|0:0,0:0:0:0:
35,141,10154,6,0,P|6:192|34:253,2,130,14|10|10,3:2|1:2|3:2,0:0:0:0:
106,185,10904,1,0,3:2:0:0:
190,182,11054,2,0,P|218:196|249:207,1,65,10|2,1:2|0:0,0:0:0:0:
316,259,11354,2,0,P|305:291|298:331,1,65,10|2,3:2|0:0,0:0:0:0:
238,377,11654,2,0,P|205:362|168:351,1,65,10|0,1:2|0:0,0:0:0:0:
108,304,11954,2,0,P|75:319|38:330,2,65,10|2|10,3:2|3:2|1:2,0:0:0:0:
184,267,12404,1,2,1:2:0:0:
194,262,12479,1,0,1:2:0:0:
205,255,12554,6,0,P|237:197|211:135,1,130,12|10,3:2|1:2,0:0:0:0:
140,104,13004,2,0,P|156:71|161:31,1,65,2|10,0:0|3:2,0:0:0:0:
235,3,13304,2,0,P|268:21|303:29,1,65,2|8,3:2|1:2,0:0:0:0:
401,110,13604,6,0,P|379:171|366:245,1,130,6|2,3:2|3:2,0:0:0:0:
339,314,14054,1,8,1:2:0:0:
260,281,14204,2,0,B|183:266|206:315|129:300,1,130,6|2,3:2|1:2,0:0:0:0:
67,251,14654,2,0,P|84:218|87:180,1,65,10|6,0:3|0:3,0:0:0:0:
174,105,14954,5,6,1:2:0:0:
204,183,15104,1,2,1:2:0:0:
317,57,15404,2,0,B|394:42|371:91|448:76,1,130,6|2,1:2|3:2,0:0:0:0:
410,182,15854,5,10,1:2:0:0:
332,147,16004,1,2,1:2:0:0:
216,270,16304,2,0,B|139:255|162:304|85:289,1,130,6|2,3:2|1:2,0:0:0:0:
64,257,16679,1,0,1:2:0:0:
57,246,16754,2,0,P|68:208|80:179,2,65,2|10|4,1:2|0:3|0:3,0:0:0:0:
17,320,17204,5,6,3:2:0:0:
180,380,17504,1,2,3:2:0:0:
259,352,17654,2,0,P|295:338|323:330,1,65,10|0,1:2|0:0,0:0:0:0:
399,301,17954,2,0,P|428:251|390:198,1,130,10|10,3:2|1:2,0:0:0:0:
305,202,18404,2,0,P|274:182|262:144,1,65,2|10,1:2|3:2,0:0:0:0:
244,74,18703,5,6,1:2:0:0:
322,38,18854,2,0,P|356:57|381:64,1,65,0|0,1:0|3:2,0:0:0:0:
437,127,19154,2,0,P|471:108|496:101,2,65,10|4|8,1:2|0:3|3:2,0:0:0:0:
398,202,19604,1,0,1:2:0:0:
398,202,19754,6,0,P|419:253|431:315,1,116.999996429443,14|2,3:2|1:2,0:0:0:0:
377,368,20204,1,2,1:2:0:0:
257,273,20504,1,2,3:2:0:0:
257,273,20654,2,0,B|192:263|215:309|149:301,1,116.999996429443,2|8,1:2|0:0,0:0:0:0:
94,246,21104,1,8,0:0:0:0:
94,246,21254,2,0,P|109:210|113:183,1,58.4999982147217,8|2,0:0|0:0,0:0:0:0:
171,142,21554,2,0,P|156:106|152:79,1,58.4999982147217,0|2,1:2|0:0,0:0:0:0:
118,18,21854,1,2,0:0:0:0:
263,62,22154,6,0,B|359:47|328:118|432:101,1,175.499994644165,6|0,3:2|1:2,0:0:0:0:
511,234,22904,1,0,3:2:0:0:
511,234,23054,2,0,P|500:264|494:299,1,58.4999982147217,0|2,1:2|0:0,0:0:0:0:
436,339,23354,2,0,P|379:314|327:300,1,116.999996429443,10|10,0:0|3:2,0:0:0:0:
210,201,23954,2,0,P|181:213|155:220,1,58.4999982147217,0|10,1:2|0:2,0:0:0:0:
103,277,24254,2,0,P|74:264|48:257,1,58.4999982147217,10|8,0:2|0:2,0:0:0:0:
15,188,24554,6,0,P|58:142|11:45,1,175.499994644165,4|0,3:2|1:2,0:0:0:0:
169,94,25304,1,2,3:2:0:0:
169,94,25454,2,0,P|205:80|230:68,1,58.4999982147217,2|2,1:2|0:0,0:0:0:0:
279,21,25754,6,0,B|375:6|344:77|448:60,1,175.499994644165,10|2,3:2|1:2,0:0:0:0:
500,207,26504,1,2,3:2:0:0:
500,207,26654,2,0,B|470:218|441:235|441:234,1,58.4999982147217,2|8,1:2|0:3,0:0:0:0:
437,247,26879,1,4,0:3:0:0:
432,258,26954,5,8,3:2:0:0:
338,322,27104,2,0,P|365:331|392:343,2,58.4999982147217,0|0|0,1:2|1:2|1:2,0:0:0:0:
300,186,27704,1,2,3:2:0:0:
300,186,27854,2,0,P|267:200|240:209,1,58.4999982147217,2|2,1:2|1:2,0:0:0:0:
222,195,28079,1,0,1:2:0:0:
212,185,28154,6,0,P|183:172|148:161,2,58.4999982147217,2|0|2,3:2|3:2|1:2,0:0:0:0:
248,113,28604,1,2,0:0:0:0:
133,0,28904,1,2,0:0:0:0:
133,0,29054,2,0,P|105:10|76:18,1,58.4999982147217,2|0,1:2|1:2,0:0:0:0:
28,83,29354,6,0,B|37:113|47:152|48:152,1,58.4999982147217,6|0,3:2|1:2,0:0:0:0:
110,186,29654,1,0,1:2:0:0:
110,186,29804,1,0,1:2:0:0:
8,299,30104,1,2,1:2:0:0:
8,299,30254,2,0,P|22:331|29:357,1,58.4999982147217,2|2,1:2|1:2,0:0:0:0:
108,384,30554,6,0,P|170:363|234:346,1,116.999996429443,2|2,1:2|1:2,0:0:0:0:
298,325,31004,2,0,P|322:276|286:215,1,116.999996429443,2|2,1:2|1:2,0:0:0:0:
262,149,31454,2,0,P|269:113|277:88,1,58.4999982147217,2|0,1:2|1:2,0:0:0:0:
329,26,31754,6,0,P|349:34|371:41,3,32.5,0|0|0|0,3:2|1:2|1:2|1:2,0:0:0:0:
393,62,32054,2,0,P|413:54|435:47,3,32.5,0|0|0|0,1:2|1:2|1:2|1:2,0:0:0:0:
458,74,32354,2,0,P|465:96|469:113,3,32.5,0|0|2|0,1:2|1:2|1:2|1:2,0:0:0:0:
498,133,32654,2,0,P|491:155|487:172,4,32.5,2|0|0|0|2,1:2|1:2|1:2|1:2|0:0,0:0:0:0:
284,364,34004,1,2,0:0:0:0:
277,356,34079,1,2,0:0:0:0:
272,348,34154,6,0,P|283:296|303:215,1,130,4|2,3:2|1:2,0:0:0:0:
241,161,34604,2,0,P|178:191|112:212,1,130,2|0,3:2|1:2,0:0:0:0:
44,246,35054,1,2,3:2:0:0:
6,170,35204,1,8,0:3:0:0:
11,162,35279,1,4,0:3:0:0:
18,155,35354,6,0,P|11:116|-1:87,1,65,2|0,3:2|0:0,0:0:0:0:
80,62,35654,2,0,P|87:23|99:-6,1,65,2|0,3:2|0:0,0:0:0:0:
176,26,35954,2,0,P|211:40|250:49,1,65,2|0,3:2|0:0,0:0:0:0:
297,106,36254,2,0,P|332:92|371:83,1,65,2|0,3:2|1:2,0:0:0:0:
427,134,36554,5,4,1:2:0:0:
396,212,36704,1,0,1:2:0:0:
471,249,36854,1,0,1:2:0:0:
502,170,37004,1,2,1:2:0:0:
314,340,37454,2,0,B|197:318|248:395|125:377,1,195,6|2,1:2|1:2,0:0:0:0:
73,316,38054,2,0,P|62:278|48:248,2,65,10|2|10,3:2|3:2|1:2,0:0:0:0:
182,186,38654,1,2,3:2:0:0:
83,55,38954,5,2,3:2:0:0:
75,65,39254,2,0,P|56:76|26:89,3,43.3333333333333,2|0|0|2,3:2|1:2|1:2|1:2,0:0:0:0:
100,241,39854,2,0,P|119:252|149:265,2,43.3333333333333,2|0|0,3:2|1:2|1:2,0:0:0:0:
54,274,40154,6,0,P|66:304|74:335,1,65,2|2,1:2|0:0,0:0:0:0:
153,367,40454,2,0,P|172:356|202:343,3,43.3333333333333,2|0|0|2,3:2|1:2|1:2|1:2,0:0:0:0:
335,258,41054,1,8,1:2:0:0:
477,348,41354,5,2,3:2:0:0:
485,335,41654,2,0,P|477:313|471:291,3,43.3333333333333,2|0|0|2,3:2|1:2|1:2|1:2,0:0:0:0:
359,167,42254,2,0,P|372:133|382:94,1,65,2|2,3:2|0:0,0:0:0:0:
431,37,42554,5,2,1:2:0:0:
442,44,42854,2,0,P|461:53|482:60,3,43.3333333333333,2|0|0|2,3:2|1:2|1:2|1:2,0:0:0:0:
433,222,43454,2,0,P|452:213|473:206,2,43.3333333333333,10|8|4,0:3|0:3|0:3,0:0:0:0:
405,270,43754,6,0,P|395:299|387:334,1,65,14|0,3:2|0:0,0:0:0:0:
309,367,44054,2,0,P|271:348|239:340,1,65,10|0,3:2|1:2,0:0:0:0:
201,271,44354,2,0,P|231:261|260:245,1,65,10|0,1:2|1:2,0:0:0:0:
305,174,44654,2,0,P|292:140|292:110,1,65,10|0,3:2|1:2,0:0:0:0:
235,48,44954,6,0,P|203:34|165:24,1,65,14|0,3:2|1:2,0:0:0:0:
137,47,45179,1,0,1:2:0:0:
130,59,45254,2,0,P|140:76|147:96,3,32.5,8|0|0|0,3:2|1:2|1:2|1:2,0:0:0:0:
177,115,45554,2,0,P|167:132|160:152,3,32.5,8|0|0|0,1:2|1:2|1:2|1:2,0:0:0:0:
133,174,45854,2,0,P|140:190|146:210,3,32.5,10|0|2|0,1:2|1:2|1:2|1:2,0:0:0:0:
179,229,46154,5,14,1:2:0:0:
179,229,46304,2,0,P|241:252|311:291,1,130,2|10,3:2|0:3,0:0:0:0:
363,335,46754,1,6,0:3:0:0:
443,308,46904,1,0,3:2:0:0:
451,299,46979,1,2,3:2:0:0:
456,288,47054,2,0,P|442:243|436:212,1,65,0|2,1:2|3:2,0:0:0:0:
389,155,47354,1,4,3:2:0:0:
86,348,48254,2,0,P|97:309|108:280,1,65,6|2,0:3|0:0,0:0:0:0:
216,218,48554,6,0,P|200:156|178:84,1,136.499995834351,14|10,3:2|1:2,0:0:0:0:
112,27,49004,1,2,0:0:0:0:
27,52,49154,2,0,P|12:77|19:122,1,68.2499979171754,10|2,3:2|3:2,0:0:0:0:
85,168,49454,2,0,P|101:197|94:244,1,68.2499979171754,10|0,1:2|3:2,0:0:0:0:
45,302,49754,2,0,P|103:272|178:292,2,136.499995834351,10|10|8,3:2|1:2|3:2,0:0:0:0:
114,358,50504,1,0,3:2:0:0:
199,382,50654,1,10,1:2:0:0:
276,338,50804,1,2,1:2:0:0:
285,329,50879,1,0,1:2:0:0:
294,318,50954,6,0,P|276:277|272:244,1,68.2499979171754,14|2,3:2|0:0,0:0:0:0:
205,195,51254,2,0,P|223:154|225:125,1,68.2499979171754,10|2,1:2|0:0,0:0:0:0:
288,68,51554,2,0,P|322:88|355:98,1,68.2499979171754,10|2,3:2|3:2,0:0:0:0:
430,134,51854,1,10,1:2:0:0:
508,293,52154,2,0,P|442:325|386:359,2,136.499995834351,10|10|8,3:2|1:2|3:2,0:0:0:0:
440,235,52904,1,0,1:2:0:0:
430,223,52979,1,0,1:2:0:0:
420,215,53054,2,0,P|381:203|348:185,1,68.2499979171754,10|2,1:2|1:2,0:0:0:0:
255,106,53354,6,0,P|191:133|203:211,1,136.499995834351,14|10,3:2|1:2,0:0:0:0:
256,250,53804,1,2,0:0:0:0:
315,315,53954,2,0,P|302:351|294:393,1,68.2499979171754,10|2,3:2|3:2,0:0:0:0:
206,379,54254,2,0,P|173:365|133:353,1,68.2499979171754,10|2,1:2|3:2,0:0:0:0:
66,308,54554,2,0,P|97:247|59:182,2,136.499995834351,10|10|10,3:2|1:2|3:2,0:0:0:0:
209,202,55454,1,10,1:2:0:0:
269,266,55604,1,0,1:2:0:0:
276,277,55679,1,0,1:2:0:0:
285,289,55754,6,0,B|373:273|332:329|426:312,1,136.499995834351,12|8,3:2|1:2,0:0:0:0:
494,276,56204,1,2,0:0:0:0:
437,207,56354,2,0,P|424:170|429:136,1,68.2499979171754,10|2,3:2|3:2,0:0:0:0:
496,86,56654,1,8,1:2:0:0:
429,27,56804,2,0,P|356:17|286:-1,1,136.499995834351,6|0,3:2|3:2,0:0:0:0:
223,53,57254,1,10,1:2:0:0:
164,120,57404,2,0,P|191:183|208:248,1,136.499995834351,6|2,3:2|1:2,0:0:0:0:
220,262,57779,1,0,1:2:0:0:
229,272,57854,2,0,P|247:278|276:290,3,34.1249989585877,10|0|0|0,1:2|1:2|1:2|1:2,0:0:0:0:
293,314,58154,6,0,P|321:302|362:287,1,68.2499979171754,14|2,3:2|0:0,0:0:0:0:
440,258,58454,1,10,1:2:0:0:
444,169,58604,2,0,P|413:128|325:122,1,136.499995834351,2|2,0:0|3:2,0:0:0:0:
267,178,59054,1,10,1:2:0:0:
185,142,59204,1,2,0:0:0:0:
123,205,59354,2,0,P|141:267|159:339,2,136.499995834351,10|10|8,3:2|1:2|3:2,0:0:0:0:
39,175,60104,1,0,3:2:0:0:
69,91,60254,2,0,P|88:58|91:20,1,68.2499979171754,10|2,1:2|1:2,0:0:0:0:
105,14,60479,1,0,1:2:0:0:
115,21,60554,5,10,3:2:0:0:
190,67,60704,1,2,0:0:0:0:
276,88,60854,2,0,P|313:72|358:61,1,68.2499979171754,10|2,1:2|3:2,0:0:0:0:
376,145,61154,2,0,P|339:161|294:172,1,68.2499979171754,10|2,1:2|3:2,0:0:0:0:
250,233,61454,1,10,1:2:0:0:
299,306,61604,1,2,1:2:0:0:
306,317,61679,1,0,1:2:0:0:
316,328,61754,6,0,P|377:302|381:231,2,136.499995834351,10|10|8,3:2|1:2|3:2,0:0:0:0:
242,378,62504,1,0,3:2:0:0:
171,324,62654,1,10,1:2:0:0:
84,345,62804,1,2,1:2:0:0:
76,335,62879,1,0,1:2:0:0:
69,324,62954,6,0,P|77:279|89:242,1,68.2499979171754,14|2,3:2|0:0,0:0:0:0:
18,196,63254,2,0,P|10:151|-2:113,1,68.2499979171754,10|2,1:2|0:0,0:0:0:0:
52,54,63554,2,0,P|94:71|140:82,1,68.2499979171754,10|2,3:2|3:2,0:0:0:0:
194,34,63854,1,10,1:2:0:0:
272,74,64004,1,2,0:0:0:0:
242,153,64154,1,6,3:2:0:0:
460,41,67154,5,0,1:2:0:0:
408,97,67304,1,0,3:2:0:0:
337,68,67454,2,0,P|307:56|271:46,1,58.4999982147217,2|2,0:0|0:0,0:0:0:0:
215,86,67754,6,0,P|175:131|212:214,1,146.250005578995,2|2,3:2|0:0,0:0:0:0:
308,272,68504,2,0,P|341:258|371:248,1,48.750001859665,2|2,0:0|0:0,0:0:0:0:
133,382,69704,1,2,0:0:0:0:
133,382,69854,2,0,P|99:369|71:357,1,48.750001859665,2|0,0:0|0:0,0:0:0:0:
44,300,70154,5,2,0:0:0:0:
347,41,71204,1,2,0:0:0:0:
347,41,71354,2,0,P|399:48|417:92,1,97.50000371933,2|2,0:0|0:0,0:0:0:0:
462,152,71804,2,0,P|449:201|438:253,1,97.50000371933,2|2,0:0|0:0,0:0:0:0:
383,303,72254,1,2,0:0:0:0:
200,374,72554,6,0,P|126:350|45:329,1,146.250005578995,2|0,0:0|0:0,0:0:0:0:
20,217,73304,1,2,0:0:0:0:
20,217,73454,2,0,P|53:209|80:193,1,48.750001859665,2|2,0:0|0:0,0:0:0:0:
103,131,73754,2,0,P|152:132|182:176,1,97.50000371933,2|2,0:0|0:0,0:0:0:0:
230,229,74204,2,0,P|281:226|315:179,1,97.50000371933,2|2,0:0|0:0,0:0:0:0:
359,125,74654,1,2,0:0:0:0:
507,185,74954,6,0,P|484:253|465:341,1,146.250005578995,2|0,0:0|0:0,0:0:0:0:
331,367,75704,1,2,0:0:0:0:
331,367,75854,2,0,P|303:352|278:344,1,48.750001859665,2|2,0:0|0:0,0:0:0:0:
230,285,76154,2,0,P|181:311|120:329,1,97.50000371933,2|8,0:0|0:0,0:0:0:0:
63,289,76604,1,2,1:2:0:0:
63,289,76754,2,0,P|51:260|36:233,1,48.750001859665,0|2,1:2|3:2,0:0:0:0:
83,172,77054,2,0,P|93:138|109:114,1,48.750001859665,0|0,1:2|0:0,0:0:0:0:
172,79,77354,6,0,P|207:117|278:126,1,116.999996429443,6|0,3:2|0:0,0:0:0:0:
336,174,77804,1,0,0:0:0:0:
336,174,77954,2,0,P|357:150|401:145,1,58.4999982147217,0|2,3:2|0:0,0:0:0:0:
453,168,78254,1,2,0:0:0:0:
375,298,78554,2,0,B|303:288|333:334|258:325,1,116.999996429443,2|2,3:2|0:0,0:0:0:0:
209,274,79004,2,0,P|179:283|138:303,1,58.4999982147217,2|0,0:0|3:2,0:0:0:0:
92,338,79304,1,2,0:0:0:0:
92,338,79454,2,0,P|54:318|30:307,1,58.4999982147217,10|0,0:0|0:0,0:0:0:0:
16,238,79754,6,0,P|42:181|23:126,1,116.999996429443,8|0,3:2|0:0,0:0:0:0:
82,78,80204,1,0,0:0:0:0:
82,78,80354,2,0,P|117:69|139:51,1,58.4999982147217,0|2,3:2|0:0,0:0:0:0:
194,9,80654,1,2,0:0:0:0:
316,99,80954,2,0,B|388:89|358:135|433:126,1,116.999996429443,2|2,3:2|0:0,0:0:0:0:
485,172,81404,2,0,P|474:204|464:246,1,58.4999982147217,2|0,0:0|3:2,0:0:0:0:
411,280,81704,1,2,0:0:0:0:
411,280,81854,2,0,P|422:312|432:354,1,58.4999982147217,10|0,0:0|0:0,0:0:0:0:
364,378,82154,6,0,P|300:374|276:333,1,116.999996429443,10|0,3:2|0:0,0:0:0:0:
296,262,82604,1,0,0:0:0:0:
296,262,82754,2,0,P|324:206|297:147,1,116.999996429443,0|2,3:2|0:0,0:0:0:0:
190,59,83354,2,0,B|141:85|78:109,1,116.999996429443,2|2,3:2|0:0,0:0:0:0:
2,238,83954,2,0,B|65:262|114:288,1,116.999996429443,2|10,3:2|0:0,0:0:0:0:
254,348,84554,6,0,P|298:322|290:255,1,116.999996429443,10|10,3:2|0:0,0:0:0:0:
233,217,85004,2,0,P|223:191|226:156,1,58.4999982147217,2|8,0:0|3:2,0:0:0:0:
277,106,85304,1,2,0:0:0:0:
277,106,85454,2,0,P|302:117|344:125,1,58.4999982147217,10|0,0:0|0:0,0:0:0:0:
404,150,85754,2,0,P|431:198|410:255,1,116.999996429443,4|0,3:2|3:2,0:0:0:0:
360,310,86204,1,0,1:2:0:0:
360,310,86354,2,0,P|323:320|288:335,1,58.4999982147217,2|0,3:2|1:2,0:0:0:0:
229,308,86654,1,2,1:2:0:0:
268,237,86804,1,0,1:2:0:0:
208,182,86954,6,0,B|81:157|131:244|0:224,2,195,12|12|12,3:2|3:2|3:2,0:0:0:0:
329,18,89354,6,0,B|441:-4|397:73|513:55,2,195,12|12|12,3:2|3:2|3:2,0:0:0:0:
379,288,91154,2,0,P|340:300|310:317,1,65,2|10,1:2|0:3,0:0:0:0:
250,355,91454,2,0,P|218:337|190:327,1,65,10|4,0:3|0:3,0:0:0:0:
115,362,91754,6,0,P|99:304|71:237,1,130,14|2,3:2|0:0,0:0:0:0:
7,189,92204,2,0,P|21:159|32:117,1,65,14|0,3:2|0:0,0:0:0:0:
90,72,92504,1,2,3:2:0:0:
90,72,92654,2,0,P|120:87|164:92,1,65,14|2,1:2|0:0,0:0:0:0:
207,149,92954,2,0,P|258:125|343:103,1,130,10|2,3:2|3:2,0:0:0:0:
388,159,93404,2,0,P|401:186|397:227,1,65,10|0,0:2|1:2,0:0:0:0:
324,262,93704,1,2,3:2:0:0:
324,262,93854,2,0,P|311:289|315:326,1,65,10|0,1:2|1:2,0:0:0:0:
258,384,94154,6,0,P|184:358|110:341,1,130,12|2,3:2|0:0,0:0:0:0:
86,280,94604,2,0,P|125:229|92:173,1,130,8|0,3:2|3:2,0:0:0:0:
28,136,95054,1,10,1:2:0:0:
137,21,95354,2,0,B|206:35|174:67|258:89,1,130,10|10,3:2|0:0,0:0:0:0:
304,149,95804,1,2,3:2:0:0:
304,149,95954,2,0,P|336:133|381:115,1,65,8|2,0:0|1:2,0:0:0:0:
415,54,96254,2,0,P|447:70|497:87,1,65,10|4,0:3|0:3,0:0:0:0:
512,157,96554,6,0,P|495:209|479:289,1,116.999996429443,4|8,3:2|0:0,0:0:0:0:
358,368,97154,2,0,P|345:310|327:255,1,116.999996429443,0|10,3:2|0:0,0:0:0:0:
188,193,97754,2,0,P|136:219|68:244,1,116.999996429443,2|10,3:2|0:0,0:0:0:0:
27,186,98204,2,0,P|6:126|37:78,1,116.999996429443,2|2,0:0|0:0,0:0:0:0:
94,41,98654,2,0,P|119:56|156:65,1,58.4999982147217,10|0,0:0|0:0,0:0:0:0:
211,105,98954,6,0,P|270:81|332:52,1,116.999996429443,4|10,3:2|0:0,0:0:0:0:
377,199,99554,2,0,P|318:223|256:252,1,116.999996429443,2|10,3:2|0:0,0:0:0:0:
164,356,100154,2,0,P|130:312|67:304,1,116.999996429443,0|8,3:2|0:0,0:0:0:0:
9,163,100754,2,0,P|20:137|23:104,1,58.4999982147217,0|0,3:2|3:2,0:0:0:0:
72,49,101054,2,0,P|95:38|137:28,1,58.4999982147217,0|2,1:2|0:0,0:0:0:0:
187,82,101354,6,0,P|209:131|225:210,1,123.499996702194,6|10,3:2|3:2,0:0:0:0:
282,261,101804,1,2,0:0:0:0:
282,261,101954,2,0,P|320:250|346:227,1,61.7499983510972,10|2,3:2|0:0,0:0:0:0:
379,167,102254,2,0,P|417:178|443:201,1,61.7499983510972,10|2,3:2|0:0,0:0:0:0:
494,252,102554,1,10,3:2:0:0:
494,252,102704,2,0,P|473:303|456:381,1,123.499996702194,2|2,0:0|0:0,0:0:0:0:
377,376,103154,2,0,P|339:359|306:348,1,61.7499983510972,10|2,3:2|0:0,0:0:0:0:
274,285,103454,2,0,P|236:302|203:313,1,61.7499983510972,8|2,3:2|0:0,0:0:0:0:
138,341,103754,6,0,P|90:300|109:240,1,130,10|10,3:2|3:2,0:0:0:0:
167,182,104204,2,0,P|178:149|169:113,1,65,2|8,0:0|3:2,0:0:0:0:
118,55,104504,1,2,0:0:0:0:
118,55,104654,2,0,P|150:42|182:12,1,65,10|2,3:2|0:0,0:0:0:0:
255,0,104954,6,0,P|286:14|326:26,1,65,14|0,1:2|3:2,0:0:0:0:
350,96,105254,1,8,1:2:0:0:
427,65,105404,1,0,3:2:0:0:
477,128,105554,2,0,P|483:149|493:171,3,32.5,12|0|0|0,1:2|1:2|1:2|1:2,0:0:0:0:
508,195,105854,2,0,P|502:216|493:242,3,32.5,0|0|0|0,3:2|1:2|1:2|1:2,0:0:0:0:
463,253,106154,6,0,B|390:271|438:309|358:334,1,136.499995834351,14|10,3:2|1:2,0:0:0:0:
281,375,106604,1,2,0:0:0:0:
212,318,106754,2,0,P|209:282|224:250,1,68.2499979171754,10|2,3:2|3:2,0:0:0:0:
294,202,107054,2,0,P|296:166|281:134,1,68.2499979171754,10|0,1:2|3:2,0:0:0:0:
212,83,107354,2,0,P|150:112|77:135,2,136.499995834351,10|10|8,3:2|1:2|3:2,0:0:0:0:
283,137,108104,1,0,3:2:0:0:
349,78,108254,1,10,1:2:0:0:
426,117,108404,1,2,1:2:0:0:
434,129,108479,1,0,1:2:0:0:
443,140,108554,6,0,P|425:181|422:216,1,68.2499979171754,10|2,3:2|0:0,0:0:0:0:
410,292,108854,2,0,P|374:307|332:332,1,68.2499979171754,10|2,1:2|0:0,0:0:0:0:
269,362,109154,2,0,P|235:348|205:330,1,68.2499979171754,10|2,3:2|3:2,0:0:0:0:
135,281,109454,1,10,1:2:0:0:
222,126,109754,2,0,B|311:112|274:174|376:147,2,136.499995834351,10|10|8,3:2|1:2|3:2,0:0:0:0:
153,183,110504,1,0,1:2:0:0:
143,171,110579,1,0,1:2:0:0:
133,163,110654,2,0,P|93:152|61:133,1,68.2499979171754,10|2,1:2|1:2,0:0:0:0:
0,235,110954,6,0,P|67:253|135:291,1,136.499995834351,14|10,3:2|1:2,0:0:0:0:
192,342,111404,1,2,0:0:0:0:
274,309,111554,2,0,P|281:274|294:240,1,68.2499979171754,10|2,3:2|3:2,0:0:0:0:
355,180,111854,2,0,P|347:145|334:111,1,68.2499979171754,10|2,1:2|3:2,0:0:0:0:
272,51,112154,2,0,P|231:105|146:110,2,136.499995834351,10|10|10,3:2|1:2|3:2,0:0:0:0:
446,85,113054,1,10,1:2:0:0:
497,157,113204,1,0,1:2:0:0:
490,172,113279,1,0,1:2:0:0:
483,192,113354,6,0,B|395:176|436:232|342:215,1,136.499995834351,12|8,3:2|1:2,0:0:0:0:
285,160,113804,1,2,0:0:0:0:
197,175,113954,2,0,P|184:212|189:247,1,68.2499979171754,10|2,3:2|3:2,0:0:0:0:
242,318,114254,1,8,1:2:0:0:
175,377,114404,2,0,P|102:367|25:350,1,136.499995834351,6|0,3:2|3:2,0:0:0:0:
1,273,114854,1,10,1:2:0:0:
57,204,115004,2,0,P|39:134|7:69,1,136.499995834351,6|2,3:2|1:2,0:0:0:0:
22,61,115379,1,0,1:2:0:0:
31,51,115454,2,0,P|49:45|78:33,3,34.1249989585877,10|0|0|0,1:2|1:2|1:2|1:2,0:0:0:0:
99,13,115754,6,0,P|131:27|169:40,1,68.2499979171754,14|2,3:2|0:0,0:0:0:0:
233,90,116054,1,10,1:2:0:0:
202,173,116204,2,0,P|221:223|239:324,1,136.499995834351,2|2,0:0|3:2,0:0:0:0:
300,366,116654,1,10,1:2:0:0:
374,317,116804,1,2,0:0:0:0:
351,231,116954,2,0,B|299:218|299:218|262:229|262:229|195:213,2,136.499995834351,10|10|8,3:2|1:2|3:2,0:0:0:0:
415,169,117704,1,0,3:2:0:0:
433,82,117854,2,0,P|407:56|358:52,1,68.2499979171754,10|2,1:2|1:2,0:0:0:0:
362,49,118079,1,0,1:2:0:0:
352,56,118154,5,10,3:2:0:0:
288,118,118304,1,2,0:0:0:0:
199,125,118454,2,0,P|164:115|131:100,1,68.2499979171754,10|2,1:2|3:2,0:0:0:0:
57,145,118754,2,0,P|73:182|82:232,1,68.2499979171754,10|2,1:2|3:2,0:0:0:0:
105,294,119054,1,10,1:2:0:0:
183,335,119204,1,2,1:2:0:0:
193,327,119279,1,0,1:2:0:0:
204,320,119354,6,0,B|293:303|261:357|361:336,2,136.499995834351,10|10|8,3:2|1:2|3:2,0:0:0:0:
176,234,120104,1,0,3:2:0:0:
241,174,120254,1,10,1:2:0:0:
181,108,120404,1,2,1:2:0:0:
173,98,120479,1,0,1:2:0:0:
166,87,120554,6,0,P|174:42|189:1,1,68.2499979171754,14|2,3:2|0:0,0:0:0:0:
259,62,120854,2,0,P|295:76|340:62,1,68.2499979171754,10|2,1:2|0:0,0:0:0:0:
409,47,121154,2,0,P|412:85|389:126,1,68.2499979171754,10|2,3:2|3:2,0:0:0:0:
357,190,121454,1,10,1:2:0:0:
416,255,121604,1,2,0:0:0:0:
356,320,121754,5,14,3:2:0:0:
184,366,122054,2,0,P|199:329|208:288,1,68.2499979171754,10|0,0:0|1:2,0:0:0:0:
224,214,122354,1,14,3:2:0:0:
66,133,122654,2,0,P|71:103|91:72,2,45.4999986114502,8|4|0,0:3|0:3|3:2,0:0:0:0:
94,187,122954,5,4,1:2:0:0:
94,187,123104,1,4,1:2:0:0:
449,68,125354,5,4,1:2:0:0:
449,68,125504,1,6,1:2:0:0:
48,344,127754,5,6,1:2:0:0:
48,344,127904,1,6,1:2:0:0:
463,205,130154,5,6,1:2:0:0:
463,205,130304,1,4,1:2:0:0:
107,34,131354,6,0,P|43:52|42:119,1,130,4|2,3:2|3:2,0:0:0:0:
96,166,131804,1,0,1:2:0:0:
96,166,131954,2,0,P|109:196|116:239,1,65,2|0,0:0|3:2,0:0:0:0:
183,276,132254,2,0,P|170:306|163:349,2,43.3333333333333,10|4|4,0:3|0:3|0:3,0:0:0:0:
231,246,132554,6,0,P|296:223|370:205,1,130,12|8,3:2|3:2,0:0:0:0:
428,250,133004,2,0,P|394:187|423:135,1,130,2|2,0:0|0:0,0:0:0:0:
482,85,133454,2,0,P|475:51|454:21,1,65,10|2,3:2|0:0,0:0:0:0:
374,14,133754,2,0,P|341:31|296:45,1,65,10|2,3:2|0:0,0:0:0:0:
256,101,134054,2,0,P|198:71|123:50,1,130,10|8,3:2|3:2,0:0:0:0:
53,35,134504,1,2,0:0:0:0:
2,196,134804,6,0,P|65:215|90:289,1,130,2|2,0:0|0:0,0:0:0:0:
146,342,135254,2,0,P|180:355|220:373,1,65,10|2,3:2|0:0,0:0:0:0:
284,319,135554,2,0,P|313:307|344:295,1,65,10|2,3:2|0:0,0:0:0:0:
424,339,135854,2,0,P|443:312|436:267,1,65,10|2,3:2|0:0,0:0:0:0:
385,218,136154,2,0,P|326:206|250:179,2,130,10|10|8,3:2|3:2|3:2,0:0:0:0:
465,191,136904,2,0,P|498:152|467:81,1,130,2|2,3:2|0:0,0:0:0:0:
413,24,137354,6,0,P|383:37|353:49,1,65,12|2,3:2|0:0,0:0:0:0:
290,107,137654,2,0,P|260:94|230:82,1,65,10|2,3:2|3:2,0:0:0:0:
157,126,137954,2,0,P|152:156|174:199,1,65,10|0,1:2|1:2,0:0:0:0:
244,213,138254,2,0,P|228:249|220:285,1,65,10|2,3:2|0:0,0:0:0:0:
208,357,138554,2,0,P|140:328|85:310,2,130,14|10|8,3:2|1:2|1:2,0:0:0:0:
288,323,139304,1,8,0:3:0:0:
288,323,139454,2,0,P|321:308|354:298,1,65,10|0,3:2|0:0,0:0:0:0:
398,231,139754,5,6,1:2:0:0:
398,231,139904,2,0,P|372:169|361:103,1,130,0|8,1:2|0:3,0:0:0:0:
323,31,140354,2,0,P|292:17|251:19,1,65,4|0,0:3|3:2,0:0:0:0:
196,73,140654,6,0,B|156:229|274:165|224:329,1,260,6|10,1:2|0:0,0:0:0:0:
456,193,151754,5,4,1:2:0:0:
456,193,151904,1,0,1:2:0:0:
343,319,152204,1,10,0:3:0:0:
343,319,152354,2,0,B|271:334|310:363|234:383,1,130,6|0,0:3|1:2,0:0:0:0:
189,310,152804,2,0,P|154:265|82:257,1,130,6|0,3:2|3:2,0:0:0:0:
56,176,153254,2,0,P|67:151|78:100,1,65,2|2,1:2|0:0,0:0:0:0:
155,84,153554,2,0,P|181:94|219:108,2,43.3333333333333,0|8|4,3:2|0:3|0:3,0:0:0:0:
123,37,153854,2,0,P|102:29|82:21,2,43.3333333333333,2|8|4,1:2|0:3|0:3,0:0:0:0:
178,25,154154,6,0,P|217:14|253:-4,1,65,6|2,3:2|0:0,0:0:0:0:
316,38,154454,1,2,3:2:0:0:
316,38,154604,2,0,P|330:72|344:117,1,65,2|0,0:0|3:2,0:0:0:0:
406,149,154904,1,2,0:0:0:0:
406,149,155054,2,0,P|392:183|378:228,1,65,2|2,3:2|0:0,0:0:0:0:
310,252,155354,2,0,P|250:233|237:170,2,130,2|2|0,3:2|3:2|3:2,0:0:0:0:
374,307,156104,1,0,0:0:0:0:
374,307,156254,2,0,P|387:335|396:373,1,65,2|2,3:2|0:0,0:0:0:0:
472,331,156554,5,2,3:2:0:0:
472,331,156704,2,0,P|484:265|503:203,1,130,2|2,0:0|0:0,0:0:0:0:
464,129,157154,2,0,P|441:114|404:115,1,65,2|0,3:2|0:0,0:0:0:0:
329,155,157454,2,0,P|306:170|269:169,1,65,2|2,3:2|0:0,0:0:0:0:
202,116,157754,2,0,B|124:101|150:152|66:137,1,130,2|2,3:2|1:2,0:0:0:0:
19,200,158204,1,8,0:3:0:0:
13,211,158279,1,8,0:3:0:0:
6,225,158354,2,0,P|22:258|33:298,1,65,0|8,1:2|0:3,0:0:0:0:
98,334,158654,2,0,P|139:313|171:304,1,65,6|2,0:3|3:2,0:0:0:0:
237,279,158954,5,6,1:2:0:0:
237,279,159104,2,0,P|284:303|363:332,1,130,8|6,0:3|1:2,0:0:0:0:
417,272,159554,2,0,P|428:236|411:206,1,65,2|2,3:2|1:2,0:0:0:0:
356,153,159854,1,4,1:2:0:0:
393,77,160004,1,6,3:2:0:0:
33,12,161354,6,0,P|63:26|114:43,1,68.2499979171754,14|2,3:2|0:0,0:0:0:0:
137,117,161654,2,0,P|104:128|73:142,1,68.2499979171754,10|2,1:2|0:0,0:0:0:0:
20,214,161954,2,0,P|35:244|49:298,1,68.2499979171754,10|2,3:2|3:2,0:0:0:0:
108,339,162254,2,0,P|142:344|178:325,1,68.2499979171754,10|0,1:2|0:0,0:0:0:0:
254,362,162554,2,0,P|207:311|229:250,2,136.499995834351,10|10|8,3:2|1:2|3:2,0:0:0:0:
323,306,163304,1,0,3:2:0:0:
403,343,163454,1,10,1:2:0:0:
465,279,163604,1,2,1:2:0:0:
473,268,163679,1,0,1:2:0:0:
481,259,163754,6,0,P|466:220|461:187,1,68.2499979171754,10|2,3:2|0:0,0:0:0:0:
392,137,164054,2,0,P|407:98|412:65,1,68.2499979171754,10|2,1:2|0:0,0:0:0:0:
342,14,164354,2,0,P|305:3|271:14,1,68.2499979171754,10|2,3:2|3:2,0:0:0:0:
212,70,164654,2,0,P|175:81|141:70,1,68.2499979171754,10|0,1:2|0:0,0:0:0:0:
81,133,164954,2,0,P|57:195|87:258,2,136.499995834351,10|10|8,3:2|1:2|3:2,0:0:0:0:
160,171,165704,1,0,1:2:0:0:
171,179,165779,1,0,1:2:0:0:
183,191,165854,2,0,P|221:176|261:167,1,68.2499979171754,10|2,1:2|1:2,0:0:0:0:
270,181,166079,1,0,1:2:0:0:
285,192,166154,6,0,P|298:222|292:267,1,68.2499979171754,14|2,3:2|0:0,0:0:0:0:
208,274,166454,2,0,P|195:306|205:340,1,68.2499979171754,10|2,1:2|0:0,0:0:0:0:
284,373,166754,2,0,P|321:355|372:339,1,68.2499979171754,10|0,3:2|3:2,0:0:0:0:
421,297,167054,1,10,1:2:0:0:
395,212,167204,1,2,0:0:0:0:
451,143,167354,2,0,P|429:73|419:8,2,136.499995834351,10|10|10,3:2|1:2|3:2,0:0:0:0:
395,212,168104,1,0,3:2:0:0:
325,156,168254,1,10,1:2:0:0:
243,190,168404,1,0,1:2:0:0:
236,202,168479,1,0,1:2:0:0:
228,217,168554,6,0,P|175:234|80:275,1,136.499995834351,12|8,3:2|1:2,0:0:0:0:
37,201,169004,1,2,0:0:0:0:
36,112,169154,2,0,P|62:88|104:83,1,68.2499979171754,10|2,3:2|3:2,0:0:0:0:
170,126,169454,1,8,1:2:0:0:
246,80,169604,2,0,B|330:104|270:135|358:162,1,136.499995834351,6|0,3:2|3:2,0:0:0:0:
434,129,170054,1,10,1:2:0:0:
498,190,170204,2,0,P|483:228|476:268,1,68.2499979171754,6|0,3:2|0:0,0:0:0:0:
425,326,170504,1,2,1:2:0:0:
410,318,170579,1,0,1:2:0:0:
396,313,170654,2,0,P|376:324|350:334,3,34.1249989585877,10|0|0|0,1:2|1:2|1:2|1:2,0:0:0:0:
336,351,170954,6,0,P|296:329|262:319,1,68.2499979171754,14|2,3:2|0:0,0:0:0:0:
195,341,171254,1,10,1:2:0:0:
123,294,171404,2,0,P|92:237|134:174,1,136.499995834351,2|2,0:0|3:2,0:0:0:0:
156,100,171854,1,10,1:2:0:0:
223,158,172004,1,2,0:0:0:0:
301,117,172154,2,0,B|360:101|360:101|385:110|385:110|444:93,2,136.499995834351,10|10|8,3:2|1:2|3:2,0:0:0:0:
223,158,172904,1,0,3:2:0:0:
273,231,173054,1,10,1:2:0:0:
218,300,173204,1,2,1:2:0:0:
210,311,173279,1,0,1:2:0:0:
201,321,173354,5,10,3:2:0:0:
265,382,173504,2,0,P|322:358|402:333,1,136.499995834351,2|2,0:0|3:2,0:0:0:0:
433,256,173954,2,0,P|414:220|412:180,1,68.2499979171754,10|2,1:2|3:2,0:0:0:0:
338,141,174254,2,0,P|357:105|359:65,1,68.2499979171754,10|2,1:2|1:2,0:0:0:0:
354,59,174479,1,0,1:2:0:0:
347,46,174554,6,0,P|305:2|214:11,2,136.499995834351,10|10|8,3:2|1:2|3:2,0:0:0:0:
267,85,175304,1,0,3:2:0:0:
196,138,175454,1,10,1:2:0:0:
115,101,175604,1,2,1:2:0:0:
105,108,175679,1,0,1:2:0:0:
97,120,175754,6,0,P|86:152|95:190,1,68.2499979171754,14|2,3:2|0:0,0:0:0:0:
171,226,176054,2,0,P|182:258|173:296,1,68.2499979171754,10|2,1:2|0:0,0:0:0:0:
114,355,176354,2,0,P|83:333|39:321,2,68.2499979171754,10|2|10,3:2|3:2|1:2,0:0:0:0:
199,379,176804,1,2,0:0:0:0:
263,318,176954,2,0,B|320:307|320:307|351:323|351:323|410:312,1,136.499995834351,14|10,3:2|1:2,0:0:0:0:
486,163,177554,2,0,P|470:130|470:96,1,68.2499979171754,10|0,3:2|3:2,0:0:0:0:
428,19,177854,1,10,1:2:0:0:
347,55,178004,1,0,1:2:0:0:
338,61,178079,1,0,1:2:0:0:
327,69,178154,6,0,P|276:50|197:27,1,130,4|8,3:2|1:2,0:0:0:0:
127,67,178604,1,0,3:2:0:0:
121,81,178679,1,0,1:2:0:0:
116,92,178754,2,0,P|134:135|141:169,1,65,8|0,3:2|1:2,0:0:0:0:
196,215,179054,1,10,1:2:0:0:
157,290,179204,1,6,3:2:0:0:
220,348,179354,2,0,P|284:343|334:301,1,130,2|10,0:0|1:2,0:0:0:0:
494,251,179954,2,0,P|475:215|474:172,1,65,10|0,1:2|3:2,0:0:0:0:
405,138,180254,2,0,P|424:102|425:59,1,65,10|8,1:2|0:3,0:0:0:0:
418,62,180479,1,4,0:3:0:0:
401,55,180554,6,0,P|339:79|256:94,1,130,12|0,1:2|3:2,0:0:0:0:
226,159,181004,2,0,P|164:135|81:120,1,130,8|0,1:2|3:2,0:0:0:0:
34,173,181454,2,0,P|21:205|36:245,1,65,10|2,1:2|0:0,0:0:0:0:
79,300,181754,1,2,3:2:0:0:
162,286,181904,2,0,P|225:299|286:322,1,130,12|0,1:2|3:2,0:0:0:0:
358,365,182354,2,0,P|393:347|416:318,1,65,10|0,1:2|3:2,0:0:0:0:
462,261,182654,2,0,P|455:243|451:227,3,32.5,10|4|4|0,0:3|0:3|0:3|3:2,0:0:0:0:
417,205,182954,6,0,P|377:160|306:169,1,130,12|0,1:2|3:2,0:0:0:0:
259,231,183404,2,0,P|203:208|130:196,1,130,8|0,1:2|3:2,0:0:0:0:
73,137,183854,2,0,P|60:99|78:71,1,65,10|2,1:2|3:2,0:0:0:0:
135,25,184154,1,2,1:2:0:0:
188,89,184304,1,12,3:2:0:0:
270,92,184454,2,0,P|286:85|304:82,3,32.5,2|0|0|0,1:2|1:2|1:2|1:2,0:0:0:0:
340,99,184754,2,0,P|356:129|350:173,1,65,10|0,3:2|3:2,0:0:0:0:
296,220,185054,2,0,P|288:235|291:257,3,32.5,10|0|0|0,1:2|1:2|1:2|1:2,0:0:0:0:
311,290,185354,6,0,P|362:311|410:342,1,97.5,14|0,3:2|1:2,0:0:0:0:
424,356,185654,1,0,1:2:0:0:
478,291,185804,2,0,P|456:224|509:176,1,130,8|8,3:2|0:3,0:0:0:0:
479,98,186254,2,0,P|458:57|399:57,1,97.5,8|0,3:2|1:2,0:0:0:0:
370,66,186554,1,0,1:2:0:0:
293,102,186704,2,0,P|228:83|158:61,1,130,8|0,3:2|1:2,0:0:0:0:
88,98,187154,2,0,P|74:130|85:172,1,65,8|8,3:2|0:3,0:0:0:0:
111,179,187379,1,8,0:3:0:0:
111,179,187454,2,0,P|146:187|176:204,1,65,10|0,0:3|3:2,0:0:0:0:
252,234,187754,5,14,1:2:0:0:
316,288,187904,2,0,P|309:301|304:321,2,32.5,8|8|4,0:3|0:3|0:3,0:0:0:0:
387,243,188204,1,8,1:2:0:0:
336,174,188354,2,0,P|329:160|324:140,2,32.5,8|4|4,0:3|0:3|0:3,0:0:0:0:
415,144,188654,1,8,1:2:0:0:
482,194,188804,1,4,3:2:0:0:
256,192,188879,12,0,192554,0:0:0:0:
