osu file format v14

[General]
AudioFilename: audio.mp3
AudioLeadIn: 0
PreviewTime: 105690
Countdown: 0
SampleSet: Soft
StackLeniency: 0.5
Mode: 0
LetterboxInBreaks: 0
WidescreenStoryboard: 1

[Editor]
DistanceSpacing: 0.3
BeatDivisor: 4
GridSize: 32
TimelineZoom: 2.4

[Metadata]
Title:Hikousen
TitleUnicode:飛行船
Artist:Yuuri
ArtistUnicode:優里
Creator:TheSea
Version:Pepekcz's Expert
Source:
Tags:Ichi 壱 male vocalist vocal jp japanese Rock Jrock J-rock Apis035 Uzawa_Reisa Uzawa Reisa Pepekcz
BeatmapID:3869835
BeatmapSetID:1839444

[Difficulty]
HPDrainRate:5
CircleSize:3.8
OverallDifficulty:8.8
ApproachRate:9.3
SliderMultiplier:1.88
SliderTickRate:1

[Events]
//Background and Video events
0,0,"BGHikousen.png",0,0
//Break Periods
2,123290,124636
2,125690,127186
2,128090,129136
2,144540,151186
//Storyboard Layer 0 (Background)
//Storyboard Layer 1 (Fail)
//Storyboard Layer 2 (Pass)
//Storyboard Layer 3 (Foreground)
//Storyboard Layer 4 (Overlay)
//Storyboard Sound Samples

[TimingPoints]
540,300,4,2,1,60,1,0
4140,-128.205128205129,4,2,1,60,0,0
5340,-92.5925925925926,4,2,1,70,0,0
5865,-92.5925925925926,4,2,1,5,0,0
5940,-92.5925925925926,4,2,1,70,0,0
10665,-92.5925925925926,4,2,1,5,0,0
10740,-92.5925925925926,4,2,1,70,0,0
14940,-92.5925925925926,4,2,1,75,0,0
17190,-102.040816326531,4,2,1,70,0,0
19740,-128.205128205129,4,2,1,60,0,0
26940,-113.636363636364,4,2,1,60,0,0
32940,-113.636363636364,4,2,1,60,0,0
34140,-102.040816326531,4,2,1,70,0,0
34365,-102.040816326531,4,2,1,5,0,0
34440,-102.040816326531,4,2,1,70,0,0
34815,-102.040816326531,4,2,1,5,0,0
34890,-102.040816326531,4,2,1,70,0,0
36465,-102.040816326531,4,2,1,5,0,0
36540,-102.040816326531,4,2,1,75,0,0
37140,-102.040816326531,4,2,1,60,0,0
37440,-102.040816326531,4,2,1,70,0,0
38940,-113.636363636364,4,2,1,60,0,0
39240,-113.636363636364,4,2,1,65,0,0
39765,-113.636363636364,4,2,1,5,0,0
39840,-113.636363636364,4,2,1,65,0,0
40365,-113.636363636364,4,2,1,5,0,0
40440,-113.636363636364,4,2,1,65,0,0
41040,-113.636363636364,4,2,1,63,0,0
41340,-113.636363636364,4,2,1,65,0,0
41565,-113.636363636364,4,2,1,5,0,0
41640,-113.636363636364,4,2,1,65,0,0
42165,-113.636363636364,4,2,1,5,0,0
42240,-113.636363636364,4,2,1,65,0,0
42765,-113.636363636364,4,2,1,5,0,0
42840,-113.636363636364,4,2,1,65,0,0
43440,-113.636363636364,4,2,1,70,0,0
43540,-113.636363636364,4,2,1,68,0,0
43640,-113.636363636364,4,2,1,66,0,0
43740,-102.040816326531,4,2,1,70,0,0
44865,-102.040816326531,4,2,1,5,0,0
44940,-92.592592592593,4,2,1,70,0,0
47340,-172.413793103449,4,2,1,70,0,0
48165,-172.413793103449,4,2,1,5,0,0
48240,-172.413793103449,4,2,1,65,0,0
48540,-84.7457627118644,4,2,1,80,0,1
48765,-84.7457627118644,4,2,1,5,0,1
48840,-84.7457627118644,4,2,1,80,0,1
49965,-84.7457627118644,4,2,1,5,0,1
50040,-84.7457627118644,4,2,1,80,0,1
52365,-84.7457627118644,4,2,1,5,0,1
52440,-84.7457627118644,4,2,1,80,0,1
57015,-84.7457627118644,4,2,1,5,0,1
57090,-84.7457627118644,4,2,1,80,0,1
57615,-84.7457627118644,4,2,1,5,0,1
57690,-84.7457627118644,4,2,1,80,0,1
59565,-84.7457627118644,4,2,1,5,0,1
59640,-84.7457627118644,4,2,1,80,0,1
61965,-84.7457627118644,4,2,1,5,0,1
62040,-84.7457627118644,4,2,1,80,0,1
64140,-113.636363636364,4,2,1,80,0,0
64215,-113.636363636364,4,2,1,80,0,0
65340,-147.058823529412,4,2,1,65,0,0
67740,-208.333333333333,4,2,1,55,0,0
70140,-555.555555555552,4,2,1,55,0,0
73740,-208.333333333333,4,2,1,55,0,0
74940,-555.555555555552,4,2,1,55,0,0
76140,-172.413793103448,4,2,1,55,0,0
76740,-172.413793103448,4,2,1,65,0,0
77040,-172.413793103448,4,2,1,75,0,0
77340,-147.058823529412,4,2,1,60,0,0
82140,-128.205128205128,4,2,1,60,0,0
84540,-113.636363636364,4,2,1,60,0,0
85740,-113.636363636364,4,2,1,70,0,0
86940,-102.040816326531,4,2,1,75,0,0
87315,-102.040816326531,4,2,1,5,0,0
87390,-102.040816326531,4,2,1,75,0,0
87765,-102.040816326531,4,2,1,5,0,0
87840,-102.040816326531,4,2,1,75,0,0
87990,-102.040816326531,4,2,1,75,0,0
89340,-102.040816326531,4,2,1,75,0,0
89715,-102.040816326531,4,2,1,5,0,0
89790,-102.040816326531,4,2,1,75,0,0
90165,-102.040816326531,4,2,1,5,0,0
90240,-102.040816326531,4,2,1,75,0,0
90390,-102.040816326531,4,2,1,75,0,0
90690,-102.040816326531,4,2,1,60,0,0
91140,-102.040816326531,4,2,1,65,0,0
91740,-102.040816326531,4,2,1,70,0,0
96540,-113.636363636364,4,2,1,60,0,0
101340,-147.058823529413,4,2,1,70,0,0
101565,-147.058823529413,4,2,1,5,0,0
101640,-147.058823529413,4,2,1,70,0,0
102540,-128.205128205129,4,2,1,70,0,0
103740,-102.040816326531,4,2,1,70,0,0
103965,-102.040816326531,4,2,1,5,0,0
104040,-102.040816326531,4,2,1,70,0,0
104940,-92.5925925925925,4,2,1,75,0,0
106140,-84.7457627118644,4,2,1,80,0,1
106365,-84.7457627118644,4,2,1,5,0,1
106440,-84.7457627118644,4,2,1,80,0,1
107565,-84.7457627118644,4,2,1,5,0,1
107640,-84.7457627118644,4,2,1,80,0,1
109965,-84.7457627118644,4,2,1,5,0,1
110040,-84.7457627118644,4,2,1,80,0,1
114615,-84.7457627118644,4,2,1,5,0,1
114690,-84.7457627118644,4,2,1,80,0,1
115215,-84.7457627118644,4,2,1,5,0,1
115290,-84.7457627118644,4,2,1,80,0,1
117165,-84.7457627118644,4,2,1,5,0,1
117240,-84.7457627118644,4,2,1,80,0,1
119565,-84.7457627118644,4,2,1,5,0,1
119640,-84.7457627118644,4,2,1,80,0,1
122440,-84.7457627118644,4,2,1,80,0,1
122540,-84.7457627118644,4,2,1,85,0,1
122640,-84.7457627118644,4,2,1,80,0,1
122740,-84.7457627118644,4,2,1,75,0,1
122840,-84.7457627118644,4,2,1,70,0,1
122940,-92.5925925925926,4,2,1,80,0,0
123015,-92.5925925925926,4,2,1,5,0,0
123090,-92.5925925925926,4,2,1,80,0,0
123390,-92.5925925925926,4,2,1,60,0,0
125340,-92.5925925925926,4,2,1,80,0,0
125415,-92.5925925925926,4,2,1,5,0,0
125490,-92.5925925925926,4,2,1,80,0,0
125640,-92.5925925925926,4,2,1,80,0,0
125940,-92.5925925925926,4,2,1,60,0,0
127740,-92.5925925925926,4,2,1,80,0,0
127815,-92.5925925925926,4,2,1,5,0,0
127890,-92.5925925925926,4,2,1,80,0,0
128040,-92.5925925925926,4,2,1,80,0,0
128340,-92.5925925925926,4,2,1,60,0,0
130140,-92.5925925925926,4,2,1,80,0,0
130215,-92.5925925925926,4,2,1,5,0,0
130290,-92.5925925925926,4,2,1,80,0,0
130440,-92.5925925925926,4,2,1,80,0,0
130740,-92.5925925925926,4,2,1,75,0,0
131340,-92.5925925925926,4,2,1,75,0,0
131565,-92.5925925925926,4,2,1,5,0,0
131640,-92.5925925925926,4,2,1,75,0,0
132540,-92.5925925925926,4,2,1,70,0,0
139665,-92.5925925925926,4,2,1,5,0,0
139740,-92.5925925925926,4,2,1,70,0,0
140640,-128.205128205129,4,2,1,70,0,0
141540,-128.205128205129,4,2,1,65,0,0
144240,-102.040816326531,4,2,1,65,0,0
144540,-102.040816326531,4,2,1,50,0,0
151740,-92.5925925925926,4,2,1,80,0,0
152790,-92.5925925925926,4,2,1,75,0,1
154140,-92.5925925925926,4,2,1,70,0,0
155565,-92.5925925925926,4,2,1,5,0,0
155640,-92.5925925925926,4,2,1,70,0,0
159990,-92.5925925925926,4,2,1,80,0,0
161340,-84.7457627118644,4,2,1,85,0,1
162765,-84.7457627118644,4,2,1,5,0,1
162840,-84.7457627118644,4,2,1,85,0,1
165165,-84.7457627118644,4,2,1,5,0,1
165240,-84.7457627118644,4,2,1,85,0,1
169815,-84.7457627118644,4,2,1,5,0,1
169890,-84.7457627118644,4,2,1,85,0,1
170415,-84.7457627118644,4,2,1,5,0,1
170490,-84.7457627118644,4,2,1,85,0,1
172365,-84.7457627118644,4,2,1,5,0,1
172440,-84.7457627118644,4,2,1,85,0,1
174765,-84.7457627118644,4,2,1,5,0,1
174840,-84.7457627118644,4,2,1,85,0,1
178140,-92.5925925925926,4,2,1,70,0,0
180540,-92.5925925925926,4,2,1,75,0,0
180765,-92.5925925925926,4,2,1,5,0,0
180840,-92.5925925925926,4,2,1,75,0,0
181215,-92.5925925925926,4,2,1,5,0,0
181290,-92.5925925925926,4,2,1,75,0,0
182115,-92.5925925925926,4,2,1,5,0,0
182190,-92.5925925925926,4,2,1,75,0,0
182565,-92.5925925925926,4,2,1,5,0,0
182640,-92.5925925925926,4,2,1,75,0,0
183165,-92.5925925925926,4,2,1,5,0,0
183240,-92.5925925925926,4,2,1,75,0,0
183615,-92.5925925925926,4,2,1,5,0,0
183690,-92.5925925925926,4,2,1,75,0,0
185340,-84.7457627118644,4,2,1,75,0,1
188790,-147.058823529412,4,2,1,75,0,0
188865,-147.058823529412,4,2,1,60,0,0
192540,-147.058823529412,4,2,1,5,0,0

[Colours]
Combo1 : 255,187,187
Combo2 : 155,148,245
Combo3 : 0,223,223
Combo4 : 0,159,236

[HitObjects]
256,192,540,12,0,3990,0:0:0:0:
424,97,4140,5,0,0:0:0:0:
364,152,4290,1,0,0:0:0:0:
467,233,4440,1,0,0:0:0:0:
467,233,4515,1,0,0:0:0:0:
466,233,4590,2,0,P|458:268|452:304,1,73.3200024613038
453,306,5340,6,0,P|403:283|394:219,1,101.520002478516,4|0,3:2|0:0,0:0:0:0:
502,95,5640,2,0,P|408:64|295:42,1,203.040004957031,10|2,0:0|3:2,0:0:0:0:
174,204,6090,1,0,3:0:0:0:
294,45,6240,2,0,P|309:93|317:143,1,101.520002478516,10|0,0:0|0:0,0:0:0:0:
82,249,6540,6,0,P|115:212|164:207,1,101.520002478516,2|0,3:2|0:0,0:0:0:0:
273,354,6840,2,0,P|239:336|221:277,1,101.520002478516,10|0,0:0|0:0,0:0:0:0:
463,177,7140,1,2,3:2:0:0:
314,271,7290,1,0,3:0:0:0:
196,121,7440,1,10,0:0:0:0:
381,200,7590,5,8,0:0:0:0:
381,200,7665,1,8,0:0:0:0:
381,200,7740,2,0,P|395:280|398:306,1,101.520002478516,2|0,3:2|0:0,0:0:0:0:
189,112,8040,2,0,P|253:46|365:82,1,203.040004957031,8|2,0:0|3:2,0:0:0:0:
241,210,8490,1,0,3:0:0:0:
50,80,8640,2,0,P|40:129|33:180,1,101.520002478516,10|0,0:0|0:0,0:0:0:0:
159,357,8940,6,0,P|191:318|186:270,1,101.520002478516,2|0,3:2|3:2,0:0:0:0:
16,254,9240,1,10,0:0:0:0:
152,354,9390,1,8,0:0:0:0:
200,113,9540,5,2,3:2:0:0:
129,222,9690,1,0,3:0:0:0:
332,350,9840,2,0,P|322:297|311:247,1,101.520002478516,10|0,0:0|0:0,0:0:0:0:
136,63,10140,6,0,P|176:33|247:52,1,101.520002478516,4|0,3:2|0:0,0:0:0:0:
383,175,10440,2,0,B|331:193|280:150|303:143|262:108|196:113,1,203.040004957031,10|2,0:0|3:2,0:0:0:0:
361,97,10890,1,0,3:0:0:0:
218,196,11040,2,0,P|229:245|235:295,1,101.520002478516,10|0,0:0|0:0,0:0:0:0:
293,146,11340,6,0,P|249:119|195:113,1,101.520002478516,2|0,3:2|0:0,0:0:0:0:
37,198,11640,2,0,P|86:191|129:164,1,101.520002478516,10|0,0:0|0:0,0:0:0:0:
108,66,11940,5,2,3:2:0:0:
218,196,12090,1,0,3:0:0:0:
415,63,12240,5,10,0:0:0:0:
293,146,12390,1,8,0:0:0:0:
293,146,12465,1,8,0:0:0:0:
293,146,12540,2,0,P|306:198|317:269,1,101.520002478516,2|0,3:2|0:0,0:0:0:0:
483,357,12840,1,10,0:0:0:0:
407,202,12990,2,0,P|394:254|383:325,1,101.520002478516,0|2,0:0|3:2,0:0:0:0:
481,159,13290,2,0,P|446:122|397:117,1,101.520002478516,0|10,3:0|0:0,0:0:0:0:
120,303,13590,6,0,P|214:266|313:244,1,203.040004957031,4|0,3:2|3:0,0:0:0:0:
241,370,14040,1,8,0:0:0:0:
213,143,14190,2,0,P|312:165|406:201,1,203.040004957031,4|8,3:2|0:0,0:0:0:0:
401,357,14640,1,4,0:3:0:0:
474,311,14790,1,8,0:3:0:0:
295,139,14940,5,8,0:0:0:0:
401,278,15090,1,8,0:0:0:0:
401,278,15390,2,0,B|345:297|301:261|319:245|284:201|216:218,1,203.040004957031,0|0,3:0|3:0,0:0:0:0:
51,288,15840,5,8,0:0:0:0:
162,140,15990,1,8,0:0:0:0:
162,140,16290,2,0,P|182:221|202:357,1,203.040004957031,0|8,3:0|0:3,0:0:0:0:
202,349,16665,5,8,0:3:0:0:
204,358,16740,1,4,0:3:0:0:
275,275,16890,1,8,0:3:0:0:
151,233,17040,1,8,0:3:0:0:
398,89,17190,6,0,P|378:170|361:289,1,184.239998313232,4|0,3:2|0:0,0:0:0:0:
206,160,17640,2,0,P|244:136|300:143,1,92.1199991566162,2|0,3:2|0:0,0:0:0:0:
319,360,17940,2,0,P|252:302|264:214,1,184.239998313232,10|2,0:0|3:2,0:0:0:0:
477,171,18390,5,8,0:0:0:0:
477,171,18465,1,8,0:0:0:0:
477,171,18540,1,2,3:2:0:0:
363,42,18690,2,0,P|271:56|166:91,1,184.239998313232,8|0,0:0|3:2,0:0:0:0:
73,208,19140,5,4,0:3:0:0:
172,96,19290,1,8,0:3:0:0:
70,63,19440,1,8,0:3:0:0:
102,137,19590,1,8,0:3:0:0:
265,70,19740,6,0,P|247:136|226:233,1,146.640004922608,6|2,3:2|0:0,0:0:0:0:
345,160,20190,2,0,P|362:226|384:323,1,146.640004922608,10|2,0:2|3:2,0:0:0:0:
284,284,20640,1,10,0:0:0:0:
284,284,20940,6,0,P|239:288|212:307,1,73.3200024613038
317,364,21240,1,0,3:0:0:0:
317,364,21540,5,8,0:0:0:0:
284,284,21690,1,2,0:0:0:0:
379,302,21840,2,0,P|387:266|398:231,1,73.3200024613038,2|0,0:0|0:0,0:0:0:0:
276,144,22140,6,0,P|337:131|326:53,1,146.640004922608,6|0,3:2|0:0,0:0:0:0:
173,21,22590,1,8,0:0:0:0:
178,31,22740,1,8,0:0:0:0:
326,46,22890,5,0,3:0:0:0:
248,69,23040,1,8,0:0:0:0:
276,144,23190,5,2,0:0:0:0:
355,126,23340,2,0,P|299:144|284:225,2,146.640004922608,2|2|8,0:0|3:2|0:0,0:0:0:0:
454,194,24090,1,2,0:0:0:0:
369,343,24240,2,0,P|315:328|282:326,1,73.3200024613038,2|0,0:0|0:0,0:0:0:0:
290,325,24465,5,0,0:0:0:0:
282,323,24540,2,0,P|274:271|183:283,1,146.640004922608,4|8,3:2|0:0,0:0:0:0:
70,347,24990,2,0,P|63:312|52:277,1,73.3200024613038,8|8,0:0|0:0,0:0:0:0:
123,225,25290,1,2,3:2:0:0:
41,277,25440,2,0,P|34:242|23:207,1,73.3200024613038,10|2,0:0|0:0,0:0:0:0:
135,121,25740,6,0,P|73:94|96:25,1,146.640004922608,6|8,3:2|0:0,0:0:0:0:
229,106,26190,2,0,P|211:177|199:249,1,146.640004922608,10|2,0:0|3:2,0:0:0:0:
295,221,26640,1,10,0:0:0:0:
196,332,26790,5,8,0:3:0:0:
196,332,26865,1,8,0:3:0:0:
196,332,26940,2,0,P|156:322|126:287,1,82.7200025244141,4|8,3:2|0:0,0:0:0:0:
198,249,27240,1,8,0:0:0:0:
59,333,27390,2,0,P|47:293|62:249,1,82.7200025244141,8|8,0:0|0:0,0:0:0:0:
177,149,27690,1,2,3:2:0:0:
101,193,27840,1,10,0:0:0:0:
23,87,27990,5,10,0:0:0:0:
23,87,28065,1,8,0:0:0:0:
23,87,28140,1,6,3:2:0:0:
98,116,28290,1,0,3:0:0:0:
235,27,28440,5,10,0:0:0:0:
165,65,28590,2,0,P|188:143|209:246,1,165.440005048828,2|2,0:0|0:0,0:0:0:0:
368,308,29040,5,10,0:0:0:0:
370,291,29115,1,8,0:0:0:0:
373,274,29190,1,8,0:0:0:0:
376,257,29265,1,8,0:0:0:0:
379,240,29340,5,4,3:2:0:0:
307,147,29490,1,8,0:0:0:0:
430,113,29640,1,8,0:0:0:0:
296,231,29790,6,0,P|220:212|115:197,1,165.440005048828,8|2,0:0|3:2,0:0:0:0:
66,332,30240,2,0,P|105:321|126:285,1,82.7200025244141,10|8,0:0|0:0,0:0:0:0:
48,172,30540,6,0,P|128:152|210:139,1,165.440005048828,2|10,3:2|0:0,0:0:0:0:
355,182,30990,1,2,0:0:0:0:
408,118,31140,1,8,0:0:0:0:
304,85,31290,1,2,3:2:0:0:
441,188,31440,2,0,P|450:236|457:292,1,82.7200025244141,10|8,0:0|0:0,0:0:0:0:
355,351,31740,6,0,P|355:334|363:306,3,41.3600012622071,0|0|0|0,3:0|3:0|3:0|3:0,0:0:0:0:
239,351,32040,2,0,P|239:334|231:306,3,41.3600012622071,8|0|0|0,3:2|3:0|3:0|3:0,0:0:0:0:
303,228,32340,5,8,3:2:0:0:
301,211,32415,1,0,3:0:0:0:
303,194,32490,1,2,3:2:0:0:
310,179,32565,1,0,3:0:0:0:
333,156,32640,5,10,0:0:0:0:
347,126,32715,1,8,0:0:0:0:
345,92,32790,1,8,0:0:0:0:
326,64,32865,1,8,0:0:0:0:
309,59,32940,5,2,0:0:0:0:
309,59,33990,5,0,0:0:0:0:
309,59,34065,1,0,0:0:0:0:
309,59,34140,2,0,P|237:68|149:97,1,138.179998734924,4|0,3:2|0:0,0:0:0:0:
174,86,34440,1,10,0:0:0:0:
86,249,34590,2,0,P|144:237|149:156,1,138.179998734924,4|0,3:2|0:0,0:0:0:0:
156,167,34890,1,0,3:0:0:0:
11,104,35040,6,0,P|21:150|30:209,1,92.1199991566162,14|8,0:0|0:0,0:0:0:0:
24,207,35265,1,8,0:0:0:0:
20,219,35340,2,0,P|72:225|90:265,1,92.1199991566162,4|0,3:2|0:0,0:0:0:0:
5,377,35640,6,0,P|67:356|149:341,1,138.179998734924,6|0,3:2|0:0,0:0:0:0:
151,348,35940,2,0,P|208:347|204:262,1,138.179998734924,6|0,3:2|0:0,0:0:0:0:
211,266,36240,2,0,P|244:320|312:302,1,138.179998734924,6|0,3:2|0:0,0:0:0:0:
309,305,36540,5,8,0:0:0:0:
225,104,36690,1,8,0:0:0:0:
469,154,36840,1,8,0:0:0:0:
328,204,36990,1,10,0:0:0:0:
391,154,37140,2,0,P|403:198|414:244,1,92.1199991566162,2|0,0:0|3:0,0:0:0:0:
233,310,37440,6,0,B|286:294|326:329|308:341|343:380|398:366,1,184.239998313232,14|2,0:0|0:0,0:0:0:0:
504,224,37890,2,0,P|492:268|481:314,1,92.1199991566162,2|2,3:2|0:0,0:0:0:0:
328,204,38190,1,2,3:2:0:0:
328,204,38265,1,0,0:0:0:0:
328,204,38340,2,0,P|338:159|350:114,1,92.1199991566162,10|0,0:0|0:0,0:0:0:0:
485,38,38640,5,2,3:2:0:0:
496,33,38740,5,8,0:3:0:0:
488,23,38840,5,8,0:3:0:0:
479,30,38940,6,0,P|438:38|395:57,1,82.7200025244141,2|0,3:2|0:0,0:0:0:0:
246,132,39240,5,2,3:2:0:0:
238,120,39340,5,8,0:3:0:0:
248,115,39440,5,8,0:3:0:0:
256,127,39540,6,0,P|210:110|177:105,1,82.7200025244141,10|0,0:0|0:0,0:0:0:0:
24,157,39840,6,0,P|8:126|9:95,2,55.1466683496094,2|8|8,3:2|0:3|0:3,0:0:0:0:
76,74,40140,6,0,P|98:110|96:160,1,82.7200025244141,2|2,3:2|0:0,0:0:0:0:
127,334,40440,6,0,P|154:330|178:317,2,55.1466683496094,2|8|8,3:2|0:3|0:3,0:0:0:0:
208,233,40740,6,0,P|186:269|188:319,1,82.7200025244141,10|0,0:0|0:0,0:0:0:0:
391,298,41040,1,8,0:0:0:0:
391,298,41340,6,0,L|374:215,1,82.7200025244141,0|0,3:0|0:0,0:0:0:0:
301,152,41640,6,0,P|326:137|361:137,1,55.1466683496094,2|8,3:2|0:3,0:0:0:0:
372,63,41840,5,8,0:3:0:0:
382,59,41940,6,0,P|418:86|430:135,1,82.7200025244141,2|0,3:2|0:0,0:0:0:0:
464,226,42240,5,2,3:2:0:0:
471,234,42340,6,0,L|483:305,1,55.1466683496094,8|8,0:3|0:3,0:0:0:0:
397,316,42540,6,0,L|382:227,1,82.7200025244141,2|0,3:2|0:0,0:0:0:0:
220,230,42840,5,2,3:2:0:0:
214,238,42940,6,0,L|202:309,1,55.1466683496094,8|8,0:3|0:3,0:0:0:0:
285,307,43140,6,0,L|294:252,1,55.1466683496094,2|0,3:2|0:0,0:0:0:0:
258,148,43340,5,8,0:0:0:0:
283,127,43440,5,8,0:3:0:0:
310,123,43540,5,8,0:3:0:0:
330,131,43640,5,8,0:3:0:0:
342,141,43740,6,0,P|277:118|147:97,2,184.239998313232,6|2|2,3:2|3:2|3:2,0:0:0:0:
445,103,44490,1,0,0:0:0:0:
388,224,44640,2,0,P|342:233|298:245,1,92.1199991566162,2|0,3:2|0:0,0:0:0:0:
159,352,44940,5,10,3:2:0:0:
130,327,45015,1,0,3:0:0:0:
115,292,45090,1,0,3:0:0:0:
116,254,45165,1,0,3:0:0:0:
133,221,45240,2,0,P|141:201|142:167,1,50.7600012392578,8|0,3:0|3:0,0:0:0:0:
55,43,45390,5,0,3:0:0:0:
53,58,45465,1,0,3:0:0:0:
51,73,45540,5,8,3:2:0:0:
73,117,45615,1,8,0:0:0:0:
115,145,45690,1,8,0:0:0:0:
165,148,45765,1,8,0:0:0:0:
210,126,45840,5,10,3:2:0:0:
237,71,45915,1,8,0:0:0:0:
289,40,45990,1,10,0:0:0:0:
349,47,46065,1,8,0:0:0:0:
391,90,46140,6,0,P|379:139|369:189,1,101.520002478516,2|0,3:2|0:0,0:0:0:0:
180,324,46440,5,8,3:2:0:0:
223,298,46515,1,8,0:0:0:0:
271,282,46590,1,10,0:0:0:0:
322,274,46665,1,8,0:0:0:0:
372,276,46740,5,2,3:2:0:0:
339,295,46815,1,0,3:0:0:0:
303,289,46890,1,2,3:0:0:0:
277,262,46965,1,0,3:2:0:0:
275,225,47040,2,0,P|281:196|290:167,1,50.7600012392578,8|0,3:2|3:2,0:0:0:0:
469,117,47190,2,0,P|462:141|457:166,1,50.7600012392578,2|0,3:2|3:2,0:0:0:0:
438,383,47340,6,0,P|354:327|495:310,1,327.12000998291,6|2,3:2|3:2,0:0:0:0:
491,290,48540,6,0,B|450:314|412:299|388:264|406:256|386:214|356:197|311:208,1,221.839992214478,6|10,3:2|0:0,0:0:0:0:
173,372,48990,1,2,0:0:0:0:
318,289,49140,1,2,3:2:0:0:
130,153,49290,1,2,3:2:0:0:
209,266,49440,1,10,0:0:0:0:
301,104,49590,1,2,0:0:0:0:
14,256,49740,6,0,P|30:174|48:93,1,166.379994160858,2|0,3:2|0:0,0:0:0:0:
53,82,50040,2,0,B|97:60|132:75|148:112|138:117|158:158|188:175|233:164,1,221.839992214478,10|0,0:0|3:0,0:0:0:0:
349,0,50490,1,0,3:0:0:0:
218,87,50640,1,10,0:0:0:0:
444,223,50790,5,10,0:0:0:0:
444,223,50865,1,8,0:0:0:0:
444,223,50940,1,6,3:2:0:0:
345,114,51090,1,2,0:0:0:0:
223,315,51240,5,10,0:0:0:0:
346,210,51390,1,2,0:0:0:0:
226,195,51540,1,2,3:2:0:0:
335,335,51690,1,2,3:2:0:0:
448,136,51840,2,0,P|389:100|343:113,1,110.919996107239,10|2,0:0|0:0,0:0:0:0:
339,346,52140,6,0,P|388:317|397:252,1,110.919996107239,2|0,3:2|0:0,0:0:0:0:
195,128,52440,2,0,P|213:216|232:357,1,221.839992214478,10|4,0:0|3:2,0:0:0:0:
109,249,52890,1,8,0:0:0:0:
109,249,52965,1,8,0:0:0:0:
109,249,53040,1,2,3:2:0:0:
346,113,53190,5,10,0:0:0:0:
346,113,53265,1,8,0:0:0:0:
346,113,53340,2,0,B|301:134|269:117|247:81|255:78|261:75|241:36|211:20|166:31,1,221.839992214478,6|8,3:2|0:0,0:0:0:0:
332,21,53790,1,2,0:0:0:0:
201,186,53940,1,2,3:2:0:0:
20,78,54090,1,0,3:0:0:0:
180,106,54240,1,10,0:0:0:0:
115,162,54390,1,2,0:0:0:0:
95,53,54540,6,0,P|105:102|117:165,1,110.919996107239,2|0,3:2|0:0,0:0:0:0:
306,234,54840,2,0,P|297:179|286:125,1,110.919996107239,10|0,0:0|0:0,0:0:0:0:
225,273,55140,1,2,3:2:0:0:
385,190,55290,1,0,3:0:0:0:
198,23,55440,1,10,0:0:0:0:
480,129,55590,5,8,0:0:0:0:
480,129,55665,1,8,0:0:0:0:
480,129,55740,2,0,P|462:213|441:363,1,221.839992214478,4|8,3:2|0:0,0:0:0:0:
212,357,56190,1,2,0:0:0:0:
348,273,56340,1,2,3:2:0:0:
198,154,56490,1,2,3:2:0:0:
68,294,56640,1,8,0:0:0:0:
294,209,56790,6,0,P|325:132|237:19,1,221.839992214478,6|2,3:2|3:2,0:0:0:0:
88,55,57240,1,10,0:0:0:0:
185,244,57390,2,0,P|238:248|292:213,1,110.919996107239,6|0,3:2|0:0,0:0:0:0:
479,65,57690,5,10,0:0:0:0:
465,107,57765,1,8,0:0:0:0:
456,144,57840,1,10,0:0:0:0:
451,176,57915,1,8,0:0:0:0:
450,203,57990,1,8,0:0:0:0:
449,225,58065,1,8,0:0:0:0:
451,241,58140,6,0,P|396:250|326:279,1,110.919996107239,6|2,3:2|0:0,0:0:0:0:
200,363,58440,1,10,0:0:0:0:
120,174,58590,2,0,P|171:192|186:243,1,110.919996107239,2|2,0:0|3:2,0:0:0:0:
27,303,58890,1,2,3:2:0:0:
119,165,59040,1,10,0:0:0:0:
29,78,59190,1,2,0:0:0:0:
112,284,59340,6,0,P|200:257|298:241,1,166.379994160858,2|0,3:2|0:0,0:0:0:0:
283,237,59640,2,0,B|330:216|363:234|382:270|373:271|367:277|388:316|422:331|463:319,1,221.839992214478,10|0,0:0|3:0,0:0:0:0:
303,373,60090,1,0,3:0:0:0:
452,235,60240,1,10,0:0:0:0:
290,103,60390,5,10,0:0:0:0:
290,103,60465,1,8,0:0:0:0:
290,103,60540,1,6,3:2:0:0:
463,244,60690,2,0,P|491:196|487:142,1,110.919996107239,2|10,3:2|0:0,0:0:0:0:
258,11,60990,5,2,3:2:0:0:
394,172,61140,1,10,0:0:0:0:
435,24,61290,1,2,3:2:0:0:
225,150,61440,1,10,0:0:0:0:
398,335,61590,5,10,0:0:0:0:
398,335,61665,1,8,0:0:0:0:
398,335,61740,2,0,P|324:347|214:377,1,166.379994160858,6|0,3:2|0:0,0:0:0:0:
225,372,62040,2,0,P|190:323|200:273,1,110.919996107239,10|0,0:0|0:0,0:0:0:0:
271,86,62340,2,0,P|305:128|298:182,1,110.919996107239,0|0,3:0|3:0,0:0:0:0:
134,54,62640,1,10,0:0:0:0:
7,249,62790,5,10,0:0:0:0:
7,249,62865,1,8,0:0:0:0:
7,249,62940,2,0,P|66:235|122:227,1,110.919996107239,6|2,3:2|0:0,0:0:0:0:
330,333,63240,1,10,0:0:0:0:
200,181,63390,1,2,0:0:0:0:
400,157,63540,1,2,3:2:0:0:
245,274,63690,1,2,3:2:0:0:
191,52,63840,1,10,0:0:0:0:
321,217,63990,1,2,0:0:0:0:
506,17,64140,5,6,3:2:0:0:
506,17,65340,5,0,0:0:0:0:
493,30,65490,1,0,0:0:0:0:
496,49,65640,1,0,0:0:0:0:
434,99,65790,5,0,0:0:0:0:
439,110,65940,1,0,0:0:0:0:
450,116,66090,1,0,0:0:0:0:
393,24,66240,5,0,0:0:0:0:
369,31,66390,1,0,0:0:0:0:
347,42,66540,1,0,0:0:0:0:
260,14,66690,5,0,0:0:0:0:
247,48,66840,1,0,0:0:0:0:
245,86,66990,1,0,0:0:0:0:
311,194,67140,5,8,0:0:0:0:
169,114,67290,1,0,3:0:0:0:
245,86,67440,2,0,P|246:139|232:163,1,63.9200003901367
101,202,67740,6,0,B|37:194|38:157|34:129|41:54|151:44|277:111|166:236|242:347|372:336|509:221|461:42|305:80|301:162,1,676.800016523438,2|0,3:2|0:0,0:0:0:0:
360,270,70140,6,0,P|379:157|414:17,1,253.800006196289,2|0,0:0|0:0,0:0:0:0:
481,97,72540,6,0,P|427:84|418:23,1,118.440002891602,0|2,0:0|0:0,0:0:0:0:
512,178,73740,6,0,P|388:199|239:242,1,270.720006609375,2|2,0:0|0:0,0:0:0:0:
196,330,74940,6,0,P|236:315|246:245,1,118.440002891602,0|2,0:0|0:0,0:0:0:0:
179,184,76140,5,2,0:0:0:0:
177,194,76290,1,0,0:0:0:0:
175,204,76440,1,2,0:0:0:0:
247,246,76590,1,2,3:2:0:0:
104,144,76740,5,8,0:0:0:0:
233,101,76890,1,2,3:2:0:0:
128,275,77040,1,10,0:0:0:0:
128,275,77340,6,0,P|232:287|399:337,1,255.680001560547,4|0,3:2|3:0,0:0:0:0:
466,225,78090,1,2,0:0:0:0:
409,166,78240,2,0,P|387:197|387:239,1,63.9200003901367,2|0,0:0|0:0,0:0:0:0:
473,75,78540,6,0,P|411:83|335:109,1,127.840000780273,2|2,3:2|0:0,0:0:0:0:
213,192,78990,2,0,P|186:172|177:137,1,63.9200003901367,2|0,0:0|3:0,0:0:0:0:
252,124,79290,1,2,0:0:0:0:
100,140,79440,2,0,P|104:106|130:81,1,63.9200003901367,2|0,0:0|0:0,0:0:0:0:
260,25,79740,6,0,P|233:163|219:289,1,255.680001560547,0|0,3:0|3:0,0:0:0:0:
77,349,80490,1,2,0:0:0:0:
14,295,80640,2,0,P|39:274|70:267,1,63.9200003901367,2|0,0:0|0:0,0:0:0:0:
225,354,80940,6,0,P|167:339|151:256,1,127.840000780273,2|2,3:2|0:0,0:0:0:0:
243,207,81390,2,0,P|237:238|232:269,1,63.9200003901367,2|0,0:0|3:0,0:0:0:0:
176,158,81690,1,2,0:0:0:0:
321,221,81840,2,0,P|315:252|310:283,1,63.9200003901367,2|0,0:0|0:0,0:0:0:0:
218,363,82140,6,0,B|262:386|302:369|313:336|311:333|308:332|324:297|359:273|404:288,1,219.960007383911,0|0,3:0|0:0,0:0:0:0:
505,384,82740,2,0,P|480:358|473:323,1,73.3200024613038,0|0,3:0|0:0,0:0:0:0:
510,178,83040,2,0,P|501:212|474:236,1,73.3200024613038,2|0,0:0|0:0,0:0:0:0:
360,142,83340,6,0,P|433:149|505:167,2,146.640004922608,2|2|2,3:2|0:0|3:2,0:0:0:0:
253,251,84090,1,0,0:0:0:0:
193,189,84240,2,0,P|226:177|272:165,1,73.3200024613038,2|0,0:0|0:0,0:0:0:0:
274,165,84465,1,0,0:0:0:0:
286,168,84540,6,0,P|244:130|288:35,1,165.440005048828,2|2,3:2|0:0,0:0:0:0:
446,132,84990,2,0,P|436:171|430:212,1,82.7200025244141,2|0,0:0|3:0,0:0:0:0:
358,139,85290,1,2,0:0:0:0:
422,293,85440,2,0,P|474:287|497:258,1,82.7200025244141,2|0,0:0|0:0,0:0:0:0:
353,130,85740,6,0,B|308:121|276:152|285:162|257:199|208:188,1,165.440005048828,4|0,3:2|0:0,0:0:0:0:
114,39,86190,1,8,0:0:0:0:
213,103,86340,1,2,3:2:0:0:
28,265,86490,1,0,3:0:0:0:
130,122,86640,1,10,0:0:0:0:
248,306,86790,1,8,0:0:0:0:
129,130,86940,6,0,P|216:83|341:136,1,230.299997891541,4|0,3:2|0:0,0:0:0:0:
309,5,87390,6,0,P|394:56|410:191,1,230.299997891541,4|0,3:2|0:0,0:0:0:0:
498,128,87840,6,0,P|496:206|410:271,1,184.239998313232,4|2,3:2|0:0,0:0:0:0:
24,315,89340,6,0,L|264:370,1,230.299997891541,4|0,3:2|0:0,0:0:0:0:
175,265,89790,6,0,L|415:320,1,230.299997891541,4|0,3:2|0:0,0:0:0:0:
326,214,90240,6,0,L|511:256,1,184.239998313232,4|2,3:2|0:0,0:0:0:0:
437,137,90690,5,2,0:0:0:0:
437,137,90765,1,0,0:0:0:0:
437,137,90840,1,2,0:0:0:0:
437,137,91140,5,4,0:3:0:0:
326,214,91290,1,8,0:3:0:0:
256,107,91440,1,8,0:3:0:0:
333,129,91590,1,8,0:3:0:0:
157,247,91740,6,0,P|96:206|123:98,1,184.239998313232,6|2,3:2|0:0,0:0:0:0:
251,246,92190,2,0,P|210:322|115:334,1,184.239998313232,6|2,3:2|0:0,0:0:0:0:
202,170,92640,1,6,3:2:0:0:
326,214,92790,1,2,0:0:0:0:
193,171,92940,6,0,P|216:254|238:362,1,184.239998313232,6|2,3:2|3:2,0:0:0:0:
307,294,93390,1,6,3:2:0:0:
125,239,93540,1,8,0:0:0:0:
191,161,93690,1,2,3:2:0:0:
64,123,93840,1,14,0:0:0:0:
214,245,93990,1,8,0:0:0:0:
71,131,94140,6,0,P|52:206|34:320,1,184.239998313232,4|0,3:2|0:0,0:0:0:0:
232,360,94590,2,0,P|247:268|269:179,1,184.239998313232,4|0,3:2|0:0,0:0:0:0:
174,78,95040,2,0,P|206:45|250:39,1,92.1199991566162,14|0,0:0|0:0,0:0:0:0:
367,148,95340,6,0,P|272:118|261:43,1,184.239998313232,2|2,3:2|0:0,0:0:0:0:
393,51,95790,2,0,P|382:97|374:153,1,92.1199991566162,2|8,3:2|0:0,0:0:0:0:
268,279,96090,1,4,0:3:0:0:
370,218,96240,1,8,0:3:0:0:
305,170,96390,1,8,0:3:0:0:
352,299,96540,6,0,P|414:287|439:175,2,165.440005048828,4|0|0,3:2|0:0|3:0,0:0:0:0:
352,299,97440,2,0,P|313:285|273:277,1,82.7200025244141,2|0,0:0|0:0,0:0:0:0:
162,371,97740,6,0,P|106:346|109:246,1,165.440005048828,2|2,3:2|0:0,0:0:0:0:
232,154,98190,2,0,P|206:200|178:212,1,82.7200025244141,2|0,0:0|3:0,0:0:0:0:
109,171,98490,1,2,0:0:0:0:
180,293,98640,2,0,P|219:278|260:270,1,82.7200025244141,2|0,0:0|0:0,0:0:0:0:
410,365,98940,5,4,3:2:0:0:
410,365,99240,2,0,P|432:326|422:273,1,82.7200025244141,2|0,0:0|0:0,0:0:0:0:
511,265,99540,2,0,P|489:226|438:208,1,82.7200025244141,2|0,3:2|0:0,0:0:0:0:
477,128,99840,2,0,P|433:127|392:162,1,82.7200025244141,2|0,0:0|0:0,0:0:0:0:
333,232,100140,6,0,P|284:240|161:285,2,165.440005048828,0|0|4,3:0|0:0|3:2,0:0:0:0:
429,290,100890,1,0,3:0:0:0:
294,153,101040,1,8,0:0:0:0:
239,224,101190,1,2,0:0:0:0:
374,165,101340,6,0,L|394:82,1,63.9200003901367,6|0,3:2|0:0,0:0:0:0:
292,142,101640,2,0,L|312:59,1,63.9200003901367,2|2,3:2|0:0,0:0:0:0:
212,124,101940,2,0,L|232:41,1,63.9200003901367,2|2,3:2|0:0,0:0:0:0:
131,107,102240,2,0,L|151:24,1,63.9200003901367,2|2,3:2|0:0,0:0:0:0:
212,124,102540,5,2,3:2:0:0:
150,188,102690,2,0,P|84:207|11:233,1,146.640004922608,2|2,0:0|0:0,0:0:0:0:
196,282,103140,1,2,3:2:0:0:
245,212,103290,1,2,0:0:0:0:
98,288,103440,1,2,3:2:0:0:
149,352,103590,1,2,0:0:0:0:
151,188,103740,6,0,P|107:173|9:154,1,138.179998734924,6|0,3:2|0:0,0:0:0:0:
18,154,104040,1,2,3:2:0:0:
196,282,104190,2,0,P|231:259|246:209,1,92.1199991566162,2|0,0:0|3:0,0:0:0:0:
192,112,104490,1,2,0:0:0:0:
342,218,104640,2,0,P|340:176|304:138,1,92.1199991566162,2|2,3:2|0:0,0:0:0:0:
120,28,104940,5,12,0:0:0:0:
247,212,105090,1,0,3:0:0:0:
69,299,105240,5,12,0:0:0:0:
192,112,105390,1,0,3:0:0:0:
288,370,105540,5,12,0:0:0:0:
239,371,105615,1,8,0:0:0:0:
197,344,105690,1,8,0:0:0:0:
178,298,105765,1,8,0:0:0:0:
189,249,105840,1,10,0:0:0:0:
226,215,105915,1,8,0:0:0:0:
275,208,105990,1,10,0:0:0:0:
320,231,106065,1,8,0:0:0:0:
343,275,106140,6,0,P|241:299|131:343,1,221.839992214478,6|10,3:2|0:0,0:0:0:0:
15,134,106590,1,2,0:0:0:0:
180,244,106740,1,2,3:2:0:0:
22,302,106890,1,2,3:2:0:0:
143,126,107040,1,10,0:0:0:0:
257,285,107190,1,2,0:0:0:0:
71,203,107340,6,0,P|56:125|34:31,1,166.379994160858,2|0,3:2|0:0,0:0:0:0:
36,29,107640,2,0,B|77:7|117:24|130:62|126:64|123:66|136:104|177:124|218:108,1,221.839992214478,10|0,0:0|3:0,0:0:0:0:
370,15,108090,1,0,3:0:0:0:
225,103,108240,1,10,0:0:0:0:
417,223,108390,5,10,0:0:0:0:
417,223,108465,1,8,0:0:0:0:
417,223,108540,1,6,3:2:0:0:
315,86,108690,1,2,0:0:0:0:
506,18,108840,5,10,0:0:0:0:
361,154,108990,1,2,0:0:0:0:
266,21,109140,1,2,3:2:0:0:
433,90,109290,1,2,3:2:0:0:
259,240,109440,2,0,P|207:222|141:209,1,110.919996107239,10|2,0:0|0:0,0:0:0:0:
336,377,109740,6,0,P|384:355|388:292,1,110.919996107239,2|0,3:2|0:0,0:0:0:0:
508,111,110040,2,0,P|415:117|385:231,1,221.839992214478,10|4,0:0|3:2,0:0:0:0:
499,371,110490,1,8,0:0:0:0:
499,371,110565,1,8,0:0:0:0:
499,371,110640,1,2,3:2:0:0:
301,270,110790,5,10,0:0:0:0:
301,270,110865,1,8,0:0:0:0:
301,270,110940,2,0,P|192:292|86:324,1,221.839992214478,6|8,3:2|0:0,0:0:0:0:
186,173,111390,1,2,0:0:0:0:
345,338,111540,1,2,3:2:0:0:
462,176,111690,1,0,3:0:0:0:
301,270,111840,1,10,0:0:0:0:
387,269,111990,1,2,0:0:0:0:
281,160,112140,6,0,P|292:217|302:279,1,110.919996107239,2|0,3:2|0:0,0:0:0:0:
512,384,112440,2,0,P|503:329|493:274,1,110.919996107239,10|0,0:0|0:0,0:0:0:0:
353,91,112740,1,2,3:2:0:0:
512,169,112890,1,0,3:0:0:0:
346,333,113040,1,10,0:0:0:0:
468,71,113190,5,8,0:0:0:0:
468,71,113265,1,8,0:0:0:0:
468,71,113340,2,0,B|427:49|387:66|374:104|378:106|381:108|368:146|327:166|286:150,1,221.839992214478,4|8,3:2|0:0,0:0:0:0:
76,63,113790,1,2,0:0:0:0:
162,207,113940,1,2,3:2:0:0:
265,41,114090,1,2,3:2:0:0:
86,156,114240,1,8,0:0:0:0:
300,294,114390,6,0,P|308:231|343:68,1,221.839992214478,6|2,3:2|3:2,0:0:0:0:
162,207,114840,1,10,0:0:0:0:
383,353,114990,2,0,P|389:295|399:243,1,110.919996107239,6|0,3:2|0:0,0:0:0:0:
508,78,115290,5,10,0:0:0:0:
466,64,115365,1,8,0:0:0:0:
431,80,115440,1,10,0:0:0:0:
415,108,115515,1,8,0:0:0:0:
418,135,115590,1,8,0:0:0:0:
434,151,115665,1,8,0:0:0:0:
451,154,115740,6,0,P|396:163|326:192,1,110.919996107239,6|2,3:2|0:0,0:0:0:0:
128,101,116040,1,10,0:0:0:0:
194,272,116190,2,0,P|238:239|231:165,1,110.919996107239,2|2,0:0|3:2,0:0:0:0:
0,201,116490,1,2,3:2:0:0:
104,330,116640,1,10,0:0:0:0:
162,199,116790,1,2,0:0:0:0:
5,341,116940,6,0,P|82:355|170:381,1,166.379994160858,2|0,3:2|0:0,0:0:0:0:
178,380,117240,2,0,P|114:326|171:207,1,221.839992214478,10|0,0:0|3:0,0:0:0:0:
348,140,117690,1,0,3:0:0:0:
231,294,117840,1,10,0:0:0:0:
94,120,117990,5,10,0:0:0:0:
94,120,118065,1,8,0:0:0:0:
94,120,118140,1,6,3:2:0:0:
302,236,118290,2,0,P|354:221|427:211,1,110.919996107239,2|10,3:2|0:0,0:0:0:0:
235,139,118590,5,2,3:2:0:0:
409,297,118740,1,10,0:0:0:0:
423,126,118890,1,2,3:2:0:0:
231,294,119040,1,10,0:0:0:0:
509,375,119190,5,10,0:0:0:0:
509,375,119265,1,8,0:0:0:0:
509,375,119340,2,0,P|498:295|481:197,1,166.379994160858,6|0,3:2|0:0,0:0:0:0:
488,200,119640,2,0,P|431:180|423:131,1,110.919996107239,10|0,0:0|0:0,0:0:0:0:
272,15,119940,2,0,P|320:21|348:75,1,110.919996107239,0|0,3:0|3:0,0:0:0:0:
190,199,120240,1,10,0:0:0:0:
357,351,120390,5,10,0:0:0:0:
357,351,120465,1,8,0:0:0:0:
357,351,120540,2,0,P|367:294|379:233,1,110.919996107239,6|2,3:2|0:0,0:0:0:0:
230,103,120840,1,10,0:0:0:0:
380,231,120990,1,2,0:0:0:0:
166,313,121140,1,2,3:2:0:0:
282,202,121290,1,2,3:2:0:0:
468,370,121440,1,10,0:0:0:0:
305,282,121590,1,2,0:0:0:0:
485,113,121740,6,0,P|474:167|464:221,1,110.919996107239,6|0,3:2|3:0,0:0:0:0:
326,360,122040,1,2,0:0:0:0:
512,288,122190,1,8,0:0:0:0:
362,122,122340,6,0,P|295:132|283:203,1,147.893328142985,2|8,0:0|0:3,0:0:0:0:
404,312,122640,5,4,0:3:0:0:
414,291,122740,5,8,0:3:0:0:
407,269,122840,5,8,0:3:0:0:
388,263,122940,6,0,P|378:289|381:313,1,50.7600012392578,8|0,3:2|0:0,0:0:0:0:
477,203,123090,1,8,3:2:0:0:
510,15,125190,5,2,3:2:0:0:
363,146,125340,6,0,P|352:121|351:97,1,50.7600012392578,8|0,3:2|0:0,0:0:0:0:
498,97,125490,1,10,3:2:0:0:
498,97,127740,6,0,P|508:121|509:145,1,50.7600012392578,8|0,3:2|0:0,0:0:0:0:
363,146,127890,1,10,3:2:0:0:
363,146,129690,5,0,3:0:0:0:
460,252,129840,2,0,P|402:268|358:284,1,101.520002478516,10|2,0:0|0:0,0:0:0:0:
195,325,130140,6,0,P|184:300|183:276,1,50.7600012392578,8|0,3:2|0:0,0:0:0:0:
297,372,130290,1,8,3:2:0:0:
297,372,130590,5,2,0:0:0:0:
277,293,130740,1,0,0:0:0:0:
195,325,130890,5,2,3:2:0:0:
363,290,131040,2,0,P|412:302|460:317,1,101.520002478516,10|0,0:0|0:0,0:0:0:0:
201,334,131340,6,0,P|185:241|162:133,1,203.040004957031,2|2,3:2|3:2,0:0:0:0:
105,244,131790,1,10,0:0:0:0:
250,164,131940,2,0,P|261:102|271:56,1,101.520002478516,2|0,3:2|3:0,0:0:0:0:
64,83,132240,5,4,0:3:0:0:
95,92,132340,5,8,0:3:0:0:
122,72,132440,5,8,0:3:0:0:
75,11,132540,6,0,P|57:86|37:227,1,203.040004957031,4|0,3:2|3:0,0:0:0:0:
129,344,132990,2,0,P|79:329|56:284,1,101.520002478516,2|0,0:0|3:0,0:0:0:0:
213,223,133290,1,2,0:0:0:0:
134,259,133440,2,0,P|121:208|149:165,1,101.520002478516,2|2,3:2|0:0,0:0:0:0:
308,284,133740,2,0,P|258:293|210:311,1,101.520002478516,2|2,3:2|0:0,0:0:0:0:
302,149,134040,6,0,B|336:129|369:135|394:166|390:168|388:171|401:210|435:230|475:216,1,203.040004957031,2|0,3:2|3:0,0:0:0:0:
464,75,134490,2,0,P|421:86|392:138,1,101.520002478516,2|0,0:0|3:0,0:0:0:0:
480,213,134790,1,2,0:0:0:0:
384,345,134940,6,0,P|336:327|286:318,1,101.520002478516,0|2,3:0|0:0,0:0:0:0:
244,214,135240,2,0,P|194:223|146:240,1,101.520002478516,2|2,3:2|0:0,0:0:0:0:
66,368,135540,1,2,3:2:0:0:
126,312,135690,1,2,0:0:0:0:
6,222,135840,1,2,3:2:0:0:
48,289,135990,1,2,0:0:0:0:
159,141,136140,6,0,P|114:148|83:195,1,101.520002478516,2|0,3:2|0:0,0:0:0:0:
225,269,136440,2,0,P|242:172|263:69,1,203.040004957031,2|0,3:2|3:0,0:0:0:0:
428,77,136890,1,2,0:0:0:0:
308,234,137040,2,0,P|316:184|327:134,1,101.520002478516,8|2,0:0|0:0,0:0:0:0:
467,272,137340,6,0,B|352:290|407:336|275:359,1,203.040004957031,4|2,3:2|3:2,0:0:0:0:
151,256,137790,1,2,3:2:0:0:
321,139,137940,1,10,0:0:0:0:
238,271,138090,1,8,0:0:0:0:
93,139,138240,2,0,P|133:107|193:112,1,101.520002478516,2|2,3:2|0:0,0:0:0:0:
35,275,138540,6,0,P|26:225|13:175,1,101.520002478516,2|0,3:2|3:0,0:0:0:0:
245,279,138840,2,0,P|257:328|266:378,1,101.520002478516,10|0,0:0|0:0,0:0:0:0:
97,150,139140,1,8,0:0:0:0:
224,191,139290,1,4,0:3:0:0:
290,124,139440,2,0,P|247:137|233:195,1,101.520002478516,8|8,0:3|0:3,0:0:0:0:
375,296,139740,5,10,3:2:0:0:
483,136,139890,1,8,3:2:0:0:
483,136,140190,5,8,0:3:0:0:
360,215,140340,1,4,0:3:0:0:
433,237,140490,1,8,0:3:0:0:
486,28,140640,6,0,P|360:51|184:113,1,293.280009845215,6|0,3:2|0:0,0:0:0:0:
56,226,141540,5,2,0:0:0:0:
43,219,141640,5,0,0:0:0:0:
37,205,141740,5,0,0:0:0:0:
39,191,141840,5,2,0:0:0:0:
256,192,151740,5,8,3:2:0:0:
121,66,151890,1,8,3:2:0:0:
121,66,152190,5,4,0:3:0:0:
241,106,152340,1,4,0:3:0:0:
139,208,152490,1,8,0:3:0:0:
164,134,152640,1,8,0:3:0:0:
294,295,152790,6,0,P|208:316|88:358,1,203.040004957031,6|0,3:2|3:0,0:0:0:0:
147,214,153240,1,8,0:0:0:0:
301,301,153390,1,2,0:0:0:0:
420,187,153540,5,0,3:0:0:0:
399,221,153640,5,8,0:3:0:0:
404,261,153740,5,8,0:3:0:0:
417,276,153840,5,4,0:3:0:0:
422,295,153940,5,8,0:3:0:0:
417,314,154040,5,8,0:3:0:0:
411,318,154140,6,0,P|366:304|309:297,1,101.520002478516,6|2,3:2|0:0,0:0:0:0:
219,371,154440,1,2,3:2:0:0:
322,214,154590,2,0,P|272:225|225:245,1,101.520002478516,2|2,0:0|3:2,0:0:0:0:
125,363,154890,5,2,0:0:0:0:
91,291,155040,1,2,3:2:0:0:
167,293,155190,1,2,0:0:0:0:
47,356,155340,6,0,P|10:328|35:218,1,152.280003717774,2|0,3:2|0:0,0:0:0:0:
24,225,155640,2,0,P|118:186|218:167,1,203.040004957031,2|0,3:2|3:0,0:0:0:0:
427,307,156240,2,0,P|465:282|470:221,1,101.520002478516,2|2,3:2|0:0,0:0:0:0:
306,233,156540,5,2,3:2:0:0:
472,222,156690,2,0,B|438:242|405:236|380:205|384:203|386:200|372:162|339:141|298:154,1,203.040004957031,2|2,0:0|0:0,0:0:0:0:
139,251,157140,2,0,P|127:201|113:152,1,101.520002478516,2|2,3:2|0:0,0:0:0:0:
227,56,157440,1,2,3:2:0:0:
179,114,157590,1,2,0:0:0:0:
9,54,157740,6,0,P|22:102|34:152,1,101.520002478516,2|0,3:2|3:0,0:0:0:0:
147,255,158040,1,8,0:0:0:0:
32,361,158190,5,0,3:0:0:0:
32,361,158265,1,0,3:0:0:0:
32,361,158340,1,8,0:0:0:0:
59,235,158490,1,4,0:3:0:0:
157,332,158640,1,8,0:3:0:0:
85,305,158790,1,8,0:3:0:0:
252,186,158940,6,0,P|302:196|351:214,1,101.520002478516,2|0,3:2|3:0,0:0:0:0:
402,340,159240,1,10,0:0:0:0:
243,184,159390,1,2,3:2:0:0:
373,86,159540,1,2,3:2:0:0:
225,272,159690,1,2,3:2:0:0:
90,79,159840,1,10,0:0:0:0:
234,182,159990,5,2,3:2:0:0:
234,182,161340,5,6,3:2:0:0:
137,321,161490,1,0,0:0:0:0:
11,128,161640,1,10,0:0:0:0:
156,233,161790,1,2,0:0:0:0:
329,65,161940,1,2,3:2:0:0:
161,153,162090,1,2,3:2:0:0:
352,301,162240,1,10,0:0:0:0:
234,182,162390,1,2,0:0:0:0:
436,24,162540,6,0,P|420:105|408:188,1,166.379994160858,2|0,3:2|0:0,0:0:0:0:
416,195,162840,2,0,P|347:194|356:320,1,221.839992214478,10|0,0:0|3:0,0:0:0:0:
512,200,163290,1,0,3:0:0:0:
428,330,163440,1,10,0:0:0:0:
273,133,163590,5,10,0:0:0:0:
273,133,163665,1,8,0:0:0:0:
273,133,163740,1,6,3:2:0:0:
414,212,163890,1,2,0:0:0:0:
236,368,164040,5,10,0:0:0:0:
311,233,164190,1,2,0:0:0:0:
153,239,164340,1,2,3:2:0:0:
308,326,164490,1,2,3:2:0:0:
372,105,164640,2,0,P|317:101|272:132,1,110.919996107239,10|2,0:0|0:0,0:0:0:0:
88,311,164940,6,0,P|75:256|61:203,1,110.919996107239,2|0,3:2|0:0,0:0:0:0:
193,20,165240,2,0,P|170:128|152:238,1,221.839992214478,10|4,0:0|3:2,0:0:0:0:
308,326,165690,1,8,0:0:0:0:
308,326,165765,1,8,0:0:0:0:
308,326,165840,1,2,3:2:0:0:
133,128,165990,5,10,0:0:0:0:
133,128,166065,1,8,0:0:0:0:
133,128,166140,1,6,3:2:0:0:
273,46,166290,1,2,0:0:0:0:
313,240,166440,1,8,0:0:0:0:
219,115,166590,1,2,0:0:0:0:
412,215,166740,2,0,P|400:269|391:323,1,110.919996107239,2|0,3:2|3:0,0:0:0:0:
231,208,167040,1,10,0:0:0:0:
344,160,167190,1,2,0:0:0:0:
244,356,167340,6,0,P|192:359|130:311,1,110.919996107239,2|0,3:2|0:0,0:0:0:0:
38,151,167640,2,0,P|84:121|138:124,1,110.919996107239,10|0,0:0|0:0,0:0:0:0:
291,272,167940,1,2,3:2:0:0:
113,206,168090,1,0,3:0:0:0:
253,63,168240,1,10,0:0:0:0:
157,338,168390,5,8,0:0:0:0:
157,338,168465,1,8,0:0:0:0:
157,337,168540,2,0,P|144:226|128:117,1,221.839992214478,4|8,3:2|0:0,0:0:0:0:
336,165,168990,1,2,0:0:0:0:
176,248,169140,1,2,3:2:0:0:
350,368,169290,1,2,3:2:0:0:
236,172,169440,1,8,0:0:0:0:
3,335,169590,6,0,B|47:357|82:342|99:306|88:300|108:259|138:242|183:253,1,221.839992214478,6|0,3:2|3:0,0:0:0:0:
350,368,170040,1,10,0:0:0:0:
234,165,170190,2,0,P|288:174|339:194,1,110.919996107239,6|0,3:2|0:0,0:0:0:0:
509,304,170490,5,10,0:0:0:0:
495,262,170565,1,8,0:0:0:0:
486,225,170640,1,8,0:0:0:0:
481,193,170715,1,8,0:0:0:0:
480,166,170790,1,8,0:0:0:0:
479,144,170865,1,8,0:0:0:0:
481,128,170940,6,0,P|438:94|377:97,1,110.919996107239,6|2,3:2|0:0,0:0:0:0:
263,249,171240,1,10,0:0:0:0:
378,11,171390,2,0,P|327:31|299:85,1,110.919996107239,2|2,0:0|3:2,0:0:0:0:
398,226,171690,1,2,3:2:0:0:
227,124,171840,1,10,0:0:0:0:
383,94,171990,1,2,0:0:0:0:
182,206,172140,6,0,P|105:182|16:162,1,166.379994160858,2|0,3:2|0:0,0:0:0:0:
11,157,172440,2,0,B|53:141|85:152|117:183|102:197|122:228|154:244|207:230,1,221.839992214478,10|0,0:0|3:0,0:0:0:0:
300,81,172890,1,0,3:0:0:0:
210,228,173040,1,10,0:0:0:0:
431,239,173190,5,10,0:0:0:0:
431,239,173265,1,8,0:0:0:0:
431,239,173340,1,6,3:2:0:0:
194,116,173490,2,0,P|208:169|219:223,1,110.919996107239,2|10,3:2|0:0,0:0:0:0:
341,325,173790,5,2,3:2:0:0:
132,207,173940,1,10,0:0:0:0:
286,93,174090,1,2,3:2:0:0:
135,293,174240,1,10,0:0:0:0:
7,98,174390,5,10,0:0:0:0:
7,98,174465,1,8,0:0:0:0:
7,98,174540,2,0,P|59:47|165:61,1,166.379994160858,6|0,3:2|0:0,0:0:0:0:
151,60,174840,2,0,P|115:59|83:-8,1,110.919996107239,10|0,0:0|0:0,0:0:0:0:
293,87,175140,2,0,P|279:140|269:195,1,110.919996107239,0|0,3:0|3:0,0:0:0:0:
147,340,175440,1,10,0:0:0:0:
374,217,175590,5,10,0:0:0:0:
374,217,175665,1,8,0:0:0:0:
374,217,175740,2,0,P|383:162|397:108,1,110.919996107239,6|2,3:2|0:0,0:0:0:0:
202,129,176040,1,10,0:0:0:0:
307,280,176190,1,2,0:0:0:0:
403,103,176340,1,2,3:2:0:0:
269,195,176490,1,2,3:2:0:0:
469,342,176640,1,10,0:0:0:0:
374,217,176790,1,2,0:0:0:0:
191,336,176940,6,0,P|182:283|169:226,1,110.919996107239,2|0,3:2|0:0,0:0:0:0:
306,36,177240,2,0,P|318:90|327:144,1,110.919996107239,10|0,0:0|0:0,0:0:0:0:
462,336,177540,1,2,3:2:0:0:
265,190,177690,1,0,3:0:0:0:
465,32,177840,1,10,0:0:0:0:
296,277,177990,5,8,0:0:0:0:
296,277,178065,1,8,0:0:0:0:
296,277,178140,1,4,3:2:0:0:
172,147,178290,1,0,3:0:0:0:
402,231,178440,2,0,P|390:280|381:330,1,101.520002478516,8|0,0:0|0:0,0:0:0:0:
379,340,178665,1,8,0:0:0:0:
376,349,178740,1,0,3:0:0:0:
201,227,178890,1,0,3:0:0:0:
341,121,179040,1,10,0:0:0:0:
193,347,179190,5,6,3:2:0:0:
21,206,179340,2,0,P|58:174|116:177,1,101.520002478516,2|0,0:0|3:0,0:0:0:0:
195,358,179640,2,0,P|153:331|141:282,1,101.520002478516,10|0,0:0|3:0,0:0:0:0:
360,200,179940,2,0,P|348:249|340:299,1,101.520002478516,10|0,0:0|3:0,0:0:0:0:
229,185,180240,1,10,0:0:0:0:
460,142,180390,5,8,0:3:0:0:
460,142,180465,1,4,0:3:0:0:
460,142,180540,2,0,P|448:191|440:241,1,101.520002478516,12|0,0:0|0:0,0:0:0:0:
306,135,180840,1,0,3:0:0:0:
477,316,180990,2,0,P|407:329|268:367,1,203.040004957031,12|0,0:0|3:0,0:0:0:0:
139,191,181440,1,14,0:0:0:0:
274,276,181590,1,2,0:0:0:0:
123,355,181740,5,2,3:2:0:0:
236,187,181890,1,12,0:0:0:0:
42,154,182040,2,0,P|52:203|61:260,1,101.520002478516,2|0,0:0|3:0,0:0:0:0:
279,363,182340,2,0,P|270:312|260:263,1,101.520002478516,14|0,0:0|3:0,0:0:0:0:
144,55,182640,1,14,0:0:0:0:
163,70,182715,1,0,3:0:0:0:
173,93,182790,1,0,3:0:0:0:
176,118,182865,1,0,3:0:0:0:
165,140,182940,6,0,P|196:106|250:102,1,101.520002478516,12|0,0:0|0:0,0:0:0:0:
422,186,183240,1,0,3:0:0:0:
314,20,183390,2,0,P|331:114|344:239,1,203.040004957031,12|0,0:0|3:0,0:0:0:0:
466,365,183840,1,14,0:0:0:0:
298,293,183990,1,2,3:2:0:0:
429,190,184140,6,0,P|416:246|405:302,1,101.520002478516,10|4,0:0|3:2,0:0:0:0:
211,369,184440,1,10,0:0:0:0:
199,346,184515,1,8,0:0:0:0:
195,320,184590,1,8,0:0:0:0:
199,295,184665,1,8,0:0:0:0:
213,274,184740,2,0,P|167:302|121:291,1,101.520002478516,6|0,3:2|3:0,0:0:0:0:
52,106,185040,1,14,0:0:0:0:
77,107,185115,1,8,0:0:0:0:
101,112,185190,1,8,0:0:0:0:
124,121,185265,1,8,0:0:0:0:
145,133,185340,5,4,3:2:0:0:
45,286,185490,1,8,0:0:0:0:
40,269,185565,1,8,0:0:0:0:
36,252,185640,1,8,0:0:0:0:
233,164,185790,2,0,P|221:217|212:281,1,110.919996107239,4|8,3:2|0:0,0:0:0:0:
209,289,186015,1,8,0:0:0:0:
206,305,186090,1,8,0:0:0:0:
380,270,186240,5,4,3:2:0:0:
138,360,186390,1,8,0:0:0:0:
133,343,186465,1,8,0:0:0:0:
129,326,186540,1,8,0:0:0:0:
319,172,186690,2,0,P|307:225|298:289,1,110.919996107239,4|8,3:2|0:0,0:0:0:0:
219,304,186915,1,8,0:0:0:0:
215,320,186990,2,0,L|229:385,2,55.4599980536195,8|0|4,0:0|0:0|3:2,0:0:0:0:
409,197,187290,5,4,0:3:0:0:
409,197,187365,1,4,0:3:0:0:
409,197,187440,2,0,P|370:158|316:159,1,110.919996107239,4|0,0:3|3:0,0:0:0:0:
116,257,187740,5,12,0:0:0:0:
228,123,187890,2,0,L|242:188,2,55.4599980536195,8|8|0,0:3|0:3|3:0,0:0:0:0:
92,127,188190,5,12,0:0:0:0:
293,24,188340,2,0,L|307:89,2,55.4599980536195,8|8|8,0:3|0:3|3:0,0:0:0:0:
161,10,188640,5,12,3:2:0:0:
402,160,188790,1,4,3:2:0:0:
256,192,188940,12,0,192540,0:0:0:0:
