osu file format v14

[General]
AudioFilename: audio.mp3
AudioLeadIn: 0
PreviewTime: 105690
Countdown: 0
SampleSet: Soft
StackLeniency: 0.7
Mode: 0
LetterboxInBreaks: 0
WidescreenStoryboard: 0

[Editor]
DistanceSpacing: 0.3
BeatDivisor: 4
GridSize: 4
TimelineZoom: 2.4

[Metadata]
Title:Hikousen
TitleUnicode:飛行船
Artist:Yuuri
ArtistUnicode:優里
Creator:TheSea
Version:Our Blue Sky
Source:
Tags:Ichi 壱 male vocalist vocal jp japanese Rock Jrock J-rock Apis035 Uzawa_Reisa Uzawa Reisa Pepekcz
BeatmapID:3777700
BeatmapSetID:1839444

[Difficulty]
HPDrainRate:6
CircleSize:4
OverallDifficulty:9
ApproachRate:9.3
SliderMultiplier:1.8
SliderTickRate:1

[Events]
//Background and Video events
0,0,"BGHikousen.png",0,0
//Break Periods
2,144540,151186
//Storyboard Layer 0 (Background)
//Storyboard Layer 1 (Fail)
//Storyboard Layer 2 (Pass)
//Storyboard Layer 3 (Foreground)
//Storyboard Layer 4 (Overlay)
//Storyboard Sound Samples

[TimingPoints]
540,300,4,2,1,60,1,0
4140,-133.333333333333,4,2,1,60,0,0
5340,-95.2380952380951,4,2,1,70,0,0
5865,-95.2380952380951,4,2,1,5,0,0
5940,-95.2380952380951,4,2,1,70,0,0
10665,-95.2380952380951,4,2,1,5,0,0
10740,-95.2380952380951,4,2,1,70,0,0
14940,-86.9565217391304,4,2,1,75,0,0
17190,-117.64705882353,4,2,1,70,0,0
19740,-133.333333333333,4,2,1,60,0,0
32940,-133.333333333333,4,2,1,60,0,0
33990,-80,4,2,1,60,0,0
34140,-86.9565217391304,4,2,1,70,0,0
34365,-86.9565217391304,4,2,1,5,0,0
34440,-86.9565217391304,4,2,1,70,0,0
34815,-86.9565217391304,4,2,1,5,0,0
34890,-86.9565217391304,4,2,1,70,0,0
35865,-86.9565217391304,4,2,1,70,0,0
35940,-86.9565217391304,4,2,1,70,0,0
36165,-86.9565217391304,4,2,1,70,0,0
36240,-86.9565217391304,4,2,1,70,0,0
36465,-86.9565217391304,4,2,1,5,0,0
36540,-86.9565217391304,4,2,1,75,0,0
37140,-133.333333333333,4,2,1,60,0,0
37440,-133.333333333333,4,2,1,70,0,0
38640,-105.263157894737,4,2,1,70,0,0
38940,-105.263157894737,4,2,1,60,0,0
39240,-105.263157894737,4,2,1,65,0,0
39765,-105.263157894737,4,2,1,5,0,0
39840,-105.263157894737,4,2,1,65,0,0
40365,-105.263157894737,4,2,1,5,0,0
40440,-105.263157894737,4,2,1,65,0,0
41040,-105.263157894737,4,2,1,63,0,0
41340,-105.263157894737,4,2,1,65,0,0
41565,-105.263157894737,4,2,1,5,0,0
41640,-105.263157894737,4,2,1,65,0,0
42165,-105.263157894737,4,2,1,5,0,0
42240,-105.263157894737,4,2,1,65,0,0
42765,-105.263157894737,4,2,1,5,0,0
42840,-105.263157894737,4,2,1,65,0,0
43440,-105.263157894737,4,2,1,70,0,0
43540,-105.263157894737,4,2,1,68,0,0
43640,-105.263157894737,4,2,1,66,0,0
43740,-86.9565217391304,4,2,1,70,0,0
44865,-86.9565217391304,4,2,1,5,0,0
44940,-86.9565217391304,4,2,1,70,0,0
47340,-181.818181818182,4,2,1,70,0,0
48165,-181.818181818182,4,2,1,5,0,0
48240,-181.818181818182,4,2,1,65,0,0
48540,-76.9230769230769,4,2,1,80,0,1
48765,-76.9230769230769,4,2,1,5,0,1
48840,-76.9230769230769,4,2,1,80,0,1
49965,-76.9230769230769,4,2,1,5,0,1
50040,-76.9230769230769,4,2,1,80,0,1
52365,-76.9230769230769,4,2,1,5,0,1
52440,-76.9230769230769,4,2,1,80,0,1
57015,-76.9230769230769,4,2,1,5,0,1
57090,-76.9230769230769,4,2,1,80,0,1
57615,-76.9230769230769,4,2,1,5,0,1
57690,-76.9230769230769,4,2,1,80,0,1
59565,-76.9230769230769,4,2,1,5,0,1
59640,-76.9230769230769,4,2,1,80,0,1
61965,-76.9230769230769,4,2,1,5,0,1
62040,-76.9230769230769,4,2,1,80,0,1
64140,-76.9230769230769,4,2,1,80,0,0
64215,-76.9230769230769,4,2,1,80,0,0
65340,-76.9230769230769,4,2,1,65,0,0
67440,-133.333333333333,4,2,1,65,0,0
67740,-250,4,2,1,55,0,0
72540,-222.222222222222,4,2,1,55,0,0
76740,-222.222222222222,4,2,1,65,0,0
77040,-222.222222222222,4,2,1,75,0,0
77340,-117.647058823529,4,2,1,60,0,0
85740,-117.647058823529,4,2,1,70,0,0
86940,-95.2380952380952,4,2,1,75,0,0
87315,-95.2380952380952,4,2,1,5,0,0
87390,-95.2380952380952,4,2,1,75,0,0
87765,-95.2380952380952,4,2,1,5,0,0
87840,-95.2380952380952,4,2,1,75,0,0
87990,-95.2380952380952,4,2,1,75,0,0
89340,-95.2380952380952,4,2,1,75,0,0
89715,-95.2380952380952,4,2,1,5,0,0
89790,-95.2380952380952,4,2,1,75,0,0
90165,-95.2380952380952,4,2,1,5,0,0
90240,-95.2380952380952,4,2,1,75,0,0
90390,-95.2380952380952,4,2,1,75,0,0
90690,-133.333333333333,4,2,1,60,0,0
91140,-133.333333333333,4,2,1,65,0,0
91740,-95.2380952380952,4,2,1,70,0,0
96540,-133.333333333333,4,2,1,60,0,0
101340,-95.2380952380952,4,2,1,70,0,0
101565,-95.2380952380952,4,2,1,5,0,0
101640,-95.2380952380952,4,2,1,70,0,0
103740,-95.2380952380952,4,2,1,70,0,0
103965,-95.2380952380952,4,2,1,5,0,0
104040,-95.2380952380952,4,2,1,70,0,0
104940,-95.2380952380952,4,2,1,75,0,0
106140,-76.9230769230769,4,2,1,80,0,1
106365,-76.9230769230769,4,2,1,5,0,1
106440,-76.9230769230769,4,2,1,80,0,1
107565,-76.9230769230769,4,2,1,5,0,1
107640,-76.9230769230769,4,2,1,80,0,1
109965,-76.9230769230769,4,2,1,5,0,1
110040,-76.9230769230769,4,2,1,80,0,1
114615,-76.9230769230769,4,2,1,5,0,1
114690,-76.9230769230769,4,2,1,80,0,1
115215,-76.9230769230769,4,2,1,5,0,1
115290,-76.9230769230769,4,2,1,80,0,1
117165,-76.9230769230769,4,2,1,5,0,1
117240,-76.9230769230769,4,2,1,80,0,1
119565,-76.9230769230769,4,2,1,5,0,1
119640,-76.9230769230769,4,2,1,80,0,1
122440,-76.9230769230769,4,2,1,80,0,1
122540,-76.9230769230769,4,2,1,85,0,1
122640,-76.9230769230769,4,2,1,80,0,1
122740,-76.9230769230769,4,2,1,75,0,1
122840,-76.9230769230769,4,2,1,70,0,1
122940,-86.9565217391304,4,2,1,80,0,0
123015,-86.9565217391304,4,2,1,5,0,0
123090,-86.9565217391304,4,2,1,80,0,0
123390,-86.9565217391304,4,2,1,60,0,0
123540,-133.333333333333,4,2,1,60,0,0
125340,-86.9565217391304,4,2,1,80,0,0
125415,-86.9565217391304,4,2,1,5,0,0
125490,-86.9565217391304,4,2,1,80,0,0
125640,-86.9565217391304,4,2,1,80,0,0
125940,-133.333333333333,4,2,1,60,0,0
127740,-86.9565217391304,4,2,1,80,0,0
127815,-86.9565217391304,4,2,1,5,0,0
127890,-86.9565217391304,4,2,1,80,0,0
128040,-86.9565217391304,4,2,1,80,0,0
128340,-133.333333333333,4,2,1,60,0,0
130140,-86.9565217391304,4,2,1,80,0,0
130215,-86.9565217391304,4,2,1,5,0,0
130290,-86.9565217391304,4,2,1,80,0,0
130440,-86.9565217391304,4,2,1,80,0,0
130740,-133.333333333333,4,2,1,75,0,0
131340,-86.9565217391304,4,2,1,75,0,0
131565,-86.9565217391304,4,2,1,5,0,0
131640,-86.9565217391304,4,2,1,75,0,0
132540,-95.2380952380952,4,2,1,70,0,0
139665,-95.2380952380952,4,2,1,5,0,0
139740,-95.2380952380952,4,2,1,70,0,0
140640,-181.818181818182,4,2,1,70,0,0
141540,-181.818181818182,4,2,1,65,0,0
144240,-181.818181818182,4,2,1,65,0,0
144540,-181.818181818182,4,2,1,50,0,0
151740,-86.9565217391305,4,2,1,80,0,0
152790,-86.9565217391305,4,2,1,75,0,0
154140,-95.2380952380952,4,2,1,70,0,0
155565,-95.2380952380952,4,2,1,5,0,0
155640,-95.2380952380952,4,2,1,70,0,0
159990,-62.5,4,2,1,80,0,0
161340,-76.9230769230769,4,2,1,85,0,1
162765,-76.9230769230769,4,2,1,5,0,1
162840,-76.9230769230769,4,2,1,85,0,1
165165,-76.9230769230769,4,2,1,5,0,1
165240,-76.9230769230769,4,2,1,85,0,1
169815,-76.9230769230769,4,2,1,5,0,1
169890,-76.9230769230769,4,2,1,85,0,1
170415,-76.9230769230769,4,2,1,5,0,1
170490,-76.9230769230769,4,2,1,85,0,1
172365,-76.9230769230769,4,2,1,5,0,1
172440,-76.9230769230769,4,2,1,85,0,1
174765,-76.9230769230769,4,2,1,5,0,1
174840,-76.9230769230769,4,2,1,85,0,1
178140,-86.9565217391304,4,2,1,70,0,0
180540,-86.9565217391304,4,2,1,75,0,0
180765,-86.9565217391304,4,2,1,5,0,0
180840,-86.9565217391304,4,2,1,75,0,0
181215,-86.9565217391304,4,2,1,5,0,0
181290,-86.9565217391304,4,2,1,75,0,0
182115,-86.9565217391304,4,2,1,5,0,0
182190,-86.9565217391304,4,2,1,75,0,0
182565,-86.9565217391304,4,2,1,5,0,0
182640,-86.9565217391304,4,2,1,75,0,0
183165,-86.9565217391304,4,2,1,5,0,0
183240,-86.9565217391304,4,2,1,75,0,0
183615,-86.9565217391304,4,2,1,5,0,0
183690,-86.9565217391304,4,2,1,75,0,0
188865,-86.9565217391304,4,2,1,60,0,0
192540,-86.9565217391304,4,2,1,5,0,0

[Colours]
Combo1 : 255,187,187
Combo2 : 155,148,245
Combo3 : 0,223,223
Combo4 : 0,159,236

[HitObjects]
256,192,540,12,0,3990,0:0:0:0:
187,325,4140,5,0,0:0:0:0:
225,253,4290,1,0,0:0:0:0:
158,204,4440,1,0,0:0:0:0:
158,204,4515,1,0,0:0:0:0:
158,204,4590,2,0,P|153:170|145:138,1,67.5000025749208
459,291,5340,6,0,P|448:337|442:384,1,94.499997116089,4|0,3:2|0:0,0:0:0:0:
262,152,5640,2,0,P|329:161|369:105,1,141.749995674133,10|0,0:0|0:0,0:0:0:0:
372,83,5940,1,2,3:2:0:0:
199,65,6090,1,0,3:0:0:0:
420,202,6240,2,0,P|466:191|513:185,1,94.499997116089,10|0,0:0|0:0,0:0:0:0:
367,336,6540,6,0,P|322:325|275:319,1,94.499997116089,2|0,3:2|0:0,0:0:0:0:
145,138,6840,2,0,P|177:171|176:217,1,94.499997116089,10|0,0:0|0:0,0:0:0:0:
79,315,7140,1,2,3:2:0:0:
258,235,7290,1,0,3:0:0:0:
63,103,7440,1,10,0:0:0:0:
0,220,7590,1,8,0:0:0:0:
0,220,7665,1,8,0:0:0:0:
0,220,7740,6,0,P|45:209|92:203,1,94.499997116089,2|0,3:2|0:0,0:0:0:0:
221,384,8040,2,0,P|189:350|190:304,1,94.499997116089,8|0,0:0|0:0,0:0:0:0:
282,127,8340,1,2,3:2:0:0:
92,203,8490,1,0,3:0:0:0:
338,298,8640,2,0,P|343:251|354:205,1,94.499997116089,10|0,0:0|0:0,0:0:0:0:
139,23,8940,6,0,P|149:68|155:115,1,94.499997116089,2|0,3:2|3:2,0:0:0:0:
258,235,9240,1,10,0:0:0:0:
414,105,9390,1,8,0:0:0:0:
226,0,9540,5,2,3:2:0:0:
282,127,9690,1,0,3:0:0:0:
457,18,9840,1,10,0:0:0:0:
315,37,9990,1,0,0:0:0:0:
512,285,10140,6,0,P|474:258|428:267,1,94.499997116089,4|0,3:2|0:0,0:0:0:0:
169,368,10440,2,0,P|99:355|28:348,1,141.749995674133,10|0,0:0|0:0,0:0:0:0:
6,344,10740,1,2,3:2:0:0:
136,230,10890,1,0,3:0:0:0:
330,286,11040,2,0,P|319:332|314:379,1,94.499997116089,10|0,0:0|0:0,0:0:0:0:
208,174,11340,6,0,P|254:179|300:190,1,94.499997116089,2|0,3:2|0:0,0:0:0:0:
499,368,11640,2,0,P|452:373|406:384,1,94.499997116089,10|0,0:0|0:0,0:0:0:0:
245,315,11940,1,2,3:2:0:0:
429,266,12090,1,0,3:0:0:0:
316,96,12240,1,10,0:0:0:0:
425,49,12390,1,8,0:0:0:0:
425,49,12465,1,8,0:0:0:0:
425,49,12540,6,0,P|445:91|430:134,1,94.499997116089,2|0,3:2|0:0,0:0:0:0:
206,142,12840,2,0,P|186:100|201:57,1,94.499997116089,10|0,0:0|0:0,0:0:0:0:
349,1,13140,1,2,3:2:0:0:
300,190,13290,1,0,3:0:0:0:
127,7,13440,1,10,0:0:0:0:
12,257,13590,6,0,P|75:193|160:220,1,188.999994232178,4|0,3:2|3:0,0:0:0:0:
206,312,14040,1,8,0:0:0:0:
5,106,14190,2,0,P|27:19|115:0,1,188.999994232178,4|8,3:2|0:0,0:0:0:0:
201,57,14640,1,4,0:3:0:0:
109,103,14790,1,8,0:3:0:0:
440,256,14940,5,8,0:0:0:0:
296,56,15090,1,8,0:0:0:0:
296,56,15390,2,0,B|346:42|400:79|371:99|421:136|481:119,1,207.000003948212,0|0,3:0|3:0,0:0:0:0:
175,348,15840,5,8,0:0:0:0:
319,148,15990,1,8,0:0:0:0:
319,148,16290,2,0,B|268:134|214:171|243:191|193:228|133:211,1,207.000003948212,0|8,3:0|0:3,0:0:0:0:
110,201,16665,1,8,0:3:0:0:
110,201,16740,1,4,0:3:0:0:
58,111,16890,1,8,0:3:0:0:
160,125,17040,1,8,0:3:0:0:
26,325,17190,6,0,P|14:249|0:174,1,153.000002918243,4|0,3:2|0:0,0:0:0:0:
87,23,17640,2,0,P|78:61|74:99,1,76.5000014591217,2|0,3:2|0:0,0:0:0:0:
129,297,17940,2,0,P|201:312|257:264,1,153.000002918243,10|2,0:0|3:2,0:0:0:0:
448,371,18390,1,8,0:0:0:0:
436,368,18465,1,8,0:0:0:0:
424,366,18540,5,2,3:2:0:0:
331,345,18690,2,0,P|342:269|357:194,1,153.000002918243,8|0,0:0|3:2,0:0:0:0:
495,30,19140,1,4,0:3:0:0:
453,186,19290,1,8,0:3:0:0:
345,107,19440,1,8,0:3:0:0:
436,98,19590,1,8,0:3:0:0:
254,8,19740,6,0,P|191:21|179:84,1,135.000005149842,6|2,3:2|0:0,0:0:0:0:
43,119,20190,2,0,P|105:132|117:195,1,135.000005149842,10|2,0:2|3:2,0:0:0:0:
201,237,20640,1,10,0:0:0:0:
201,237,20940,6,0,P|204:203|212:170,1,67.5000025749208
261,89,21240,1,0,3:0:0:0:
261,89,21540,5,8,0:0:0:0:
336,227,21690,1,2,0:0:0:0:
395,153,21840,2,0,P|426:141|459:146,1,67.5000025749208,2|0,0:0|0:0,0:0:0:0:
512,354,22140,6,0,P|446:339|379:330,1,135.000005149842,6|0,3:2|0:0,0:0:0:0:
342,250,22590,2,0,P|374:241|408:238,1,67.5000025749208,8|8,0:0|0:0,0:0:0:0:
502,232,22890,1,0,3:0:0:0:
294,384,23040,2,0,P|291:350|283:318,1,67.5000025749208,8|2,0:0|0:0,0:0:0:0:
240,233,23340,5,2,0:0:0:0:
162,287,23490,1,0,0:0:0:0:
166,381,23640,2,0,P|139:323|75:325,1,135.000005149842,2|8,3:2|0:0,0:0:0:0:
4,268,24090,1,2,0:0:0:0:
165,116,24240,2,0,P|176:147|171:180,1,67.5000025749208,2|0,0:0|0:0,0:0:0:0:
161,202,24465,1,0,0:0:0:0:
161,202,24540,6,0,P|95:187|28:178,1,135.000005149842,4|8,3:2|0:0,0:0:0:0:
19,53,24990,2,0,P|51:44|85:41,1,67.5000025749208,8|8,0:0|0:0,0:0:0:0:
160,98,25290,1,2,3:2:0:0:
299,12,25440,2,0,P|266:3|232:0,1,67.5000025749208,10|2,0:0|0:0,0:0:0:0:
387,147,25740,6,0,P|408:86|471:83,1,135.000005149842,6|8,3:2|0:0,0:0:0:0:
404,249,26190,2,0,P|341:260|306:207,1,135.000005149842,10|2,0:0|3:2,0:0:0:0:
324,23,26640,1,10,0:0:0:0:
240,112,26790,1,8,0:3:0:0:
239,119,26865,1,8,0:3:0:0:
238,126,26940,6,0,P|270:117|304:114,1,67.5000025749208,4|8,3:2|0:0,0:0:0:0:
168,66,27240,1,8,0:0:0:0:
93,224,27390,2,0,P|60:215|26:212,1,67.5000025749208,8|8,0:0|0:0,0:0:0:0:
157,150,27690,1,2,3:2:0:0:
46,305,27840,1,10,0:0:0:0:
123,375,27990,1,10,0:0:0:0:
123,375,28065,1,8,0:0:0:0:
123,375,28140,5,6,3:2:0:0:
236,290,28290,1,0,3:0:0:0:
429,371,28440,1,10,0:0:0:0:
350,319,28590,2,0,P|359:252|373:186,1,135.000005149842,2|2,0:0|0:0,0:0:0:0:
475,109,29040,1,10,0:0:0:0:
470,82,29115,1,8,0:0:0:0:
465,55,29190,1,8,0:0:0:0:
460,29,29265,1,8,0:0:0:0:
456,2,29340,5,4,3:2:0:0:
379,57,29490,1,8,0:0:0:0:
231,0,29640,1,8,0:0:0:0:
171,138,29790,2,0,P|237:124|303:115,1,135.000005149842,8|2,0:0|3:2,0:0:0:0:
452,188,30240,1,10,0:0:0:0:
284,220,30390,1,8,0:0:0:0:
449,354,30540,6,0,P|410:302|349:319,1,135.000005149842,2|10,3:2|0:0,0:0:0:0:
214,384,30990,1,2,0:0:0:0:
116,254,31140,1,8,0:0:0:0:
267,310,31290,1,2,3:2:0:0:
57,384,31440,2,0,P|45:353|50:320,1,67.5000025749208,10|8,0:0|0:0,0:0:0:0:
199,213,31740,6,0,P|199:196|202:179,3,33.7500012874604,0|0|0|0,3:0|3:0|3:0|3:0,0:0:0:0:
121,128,32040,2,0,P|120:111|117:94,3,33.7500012874604,8|0|0|0,3:2|3:0|3:0|3:0,0:0:0:0:
199,43,32340,5,8,3:2:0:0:
229,36,32415,1,0,3:0:0:0:
259,43,32490,1,2,3:2:0:0:
285,62,32565,1,0,3:0:0:0:
298,88,32640,5,10,0:0:0:0:
344,127,32715,1,8,0:0:0:0:
402,122,32790,1,8,0:0:0:0:
442,78,32865,1,8,0:0:0:0:
452,51,32940,5,2,0:0:0:0:
98,159,33990,6,0,P|105:186|107:214,1,56.25
226,117,34140,6,0,B|187:127|147:99|169:84|131:57|86:69,1,155.250002961159,4|0,3:2|0:0,0:0:0:0:
64,81,34440,1,10,0:0:0:0:
321,296,34590,2,0,B|359:285|399:313|377:328|415:355|460:343,1,155.250002961159,4|0,3:2|0:0,0:0:0:0:
483,332,34890,1,0,3:0:0:0:
355,111,35040,2,0,P|313:138|306:188,1,103.500001974106,14|8,0:0|0:0,0:0:0:0:
325,205,35265,1,8,0:0:0:0:
325,205,35340,6,0,P|375:194|426:187,1,103.500001974106,4|0,3:2|0:0,0:0:0:0:
161,384,35640,2,0,P|107:332|125:261,1,155.250002961159,6|0,3:2|0:0,0:0:0:0:
101,171,35940,2,0,B|140:180|175:156|175:156|175:196|210:221,1,155.250002961159,6|0,3:2|0:0,0:0:0:0:
293,294,36240,2,0,B|188:312|188:312|234:331,1,155.250002961159,6|0,3:2|0:0,0:0:0:0:
305,383,36540,5,8,0:0:0:0:
45,234,36690,1,8,0:0:0:0:
259,152,36840,1,8,0:0:0:0:
37,58,36990,1,10,0:0:0:0:
138,25,37140,2,0,P|129:58|126:92,1,67.5000025749208,2|0,0:0|3:0,0:0:0:0:
365,57,37440,6,0,P|318:13|255:29,1,135.000005149842,14|2,0:0|0:0,0:0:0:0:
203,114,37890,2,0,P|194:147|191:181,1,67.5000025749208,2|2,3:2|0:0,0:0:0:0:
294,124,38190,1,2,3:2:0:0:
103,167,38340,2,0,P|112:200|115:234,1,67.5000025749208,10|0,0:0|0:0,0:0:0:0:
329,296,38640,5,2,3:2:0:0:
317,284,38740,6,0,B|290:272|290:272|262:275,1,56.9999984779358,8|8,0:3|0:3,0:0:0:0:
193,377,38940,6,0,P|236:365|281:361,1,85.4999977169037,2|0,3:2|0:0,0:0:0:0:
483,192,39240,5,2,3:2:0:0:
512,276,39340,5,8,0:3:0:0:
425,259,39440,5,8,0:3:0:0:
409,250,39540,6,0,P|404:207|393:166,1,85.4999977169037,10|0,0:0|0:0,0:0:0:0:
241,50,39840,5,2,3:2:0:0:
212,134,39940,5,8,0:3:0:0:
299,117,40040,5,8,0:3:0:0:
315,108,40140,6,0,P|320:65|331:24,1,85.4999977169037,2|2,3:2|0:0,0:0:0:0:
131,1,40440,5,2,3:2:0:0:
143,13,40540,6,0,B|154:38|154:38|151:67,1,56.9999984779358,8|8,0:3|0:3,0:0:0:0:
50,137,40740,6,0,P|62:94|66:49,1,85.4999977169037,10|0,0:0|0:0,0:0:0:0:
236,220,41040,1,8,0:0:0:0:
236,220,41340,6,0,P|249:260|239:301,1,85.4999977169037,0|0,3:0|0:0,0:0:0:0:
85,376,41640,5,2,3:2:0:0:
0,349,41740,5,8,0:3:0:0:
64,289,41840,5,8,0:3:0:0:
81,281,41940,6,0,P|122:269|164:265,1,85.4999977169037,2|0,3:2|0:0,0:0:0:0:
323,274,42240,5,2,3:2:0:0:
238,301,42340,5,8,0:3:0:0:
302,361,42440,5,8,0:3:0:0:
319,369,42540,6,0,P|361:373|402:384,1,85.4999977169037,2|0,3:2|0:0,0:0:0:0:
510,275,42840,5,2,3:2:0:0:
498,263,42940,6,0,B|472:251|472:251|444:254,1,56.9999984779358,8|8,0:3|0:3,0:0:0:0:
417,172,43140,6,0,B|390:181|390:181|372:203,1,56.9999984779358,2|0,3:2|0:0,0:0:0:0:
323,274,43340,5,8,0:0:0:0:
275,290,43440,5,8,0:3:0:0:
229,269,43540,5,8,0:3:0:0:
209,223,43640,5,8,0:3:0:0:
225,176,43740,6,0,P|262:142|312:147,1,103.500001974106,6|0,3:2|0:0,0:0:0:0:
485,233,44040,2,0,P|437:217|416:171,1,103.500001974106,2|0,3:2|0:0,0:0:0:0:
398,0,44340,2,0,P|408:49|378:90,1,103.500001974106,2|0,3:2|0:0,0:0:0:0:
53,77,44640,2,0,P|78:9|149:20,1,155.250002961159,2|0,3:2|0:0,0:0:0:0:
162,34,44940,5,10,3:2:0:0:
157,59,45015,1,0,3:0:0:0:
153,84,45090,1,0,3:0:0:0:
148,110,45165,1,0,3:0:0:0:
144,135,45240,2,0,P|136:159|134:185,1,51.7500009870529,8|0,3:0|3:0,0:0:0:0:
0,332,45390,5,0,3:0:0:0:
20,296,45465,1,0,3:0:0:0:
54,272,45540,1,8,3:2:0:0:
94,262,45615,1,8,0:0:0:0:
134,270,45690,1,8,0:0:0:0:
168,293,45765,1,8,0:0:0:0:
191,325,45840,5,10,3:2:0:0:
232,370,45915,1,8,0:0:0:0:
292,384,45990,1,10,0:0:0:0:
349,361,46065,1,8,0:0:0:0:
382,310,46140,6,0,P|388:258|400:208,1,103.500001974106,2|0,3:2|0:0,0:0:0:0:
361,7,46440,1,8,3:2:0:0:
305,2,46515,1,8,0:0:0:0:
262,36,46590,1,10,0:0:0:0:
257,92,46665,1,8,0:0:0:0:
292,134,46740,5,2,3:2:0:0:
317,130,46815,1,0,3:0:0:0:
342,125,46890,1,2,3:0:0:0:
368,121,46965,1,0,3:2:0:0:
394,117,47040,2,0,B|419:113|444:106,1,51.7500009870529,8|0,3:2|3:2,0:0:0:0:
512,279,47190,2,0,B|486:282|461:289,1,51.7500009870529,2|0,3:2|3:2,0:0:0:0:
302,270,47340,6,0,B|219:238|219:238|403:207,1,272.250008308411,6|0,3:2|0:0,0:0:0:0:
424,203,48240,1,2,3:2:0:0:
150,382,48540,6,0,P|99:315|18:333,1,175.499991966248,6|0,3:2|0:0,0:0:0:0:
0,349,48840,1,10,0:0:0:0:
219,238,48990,1,2,0:0:0:0:
23,157,49140,1,2,3:2:0:0:
110,288,49290,1,2,3:2:0:0:
220,101,49440,2,0,P|162:88|104:82,1,116.999994644165,10|2,0:0|0:0,0:0:0:0:
425,10,49740,6,0,P|489:62|468:142,1,175.499991966248,2|0,3:2|0:0,0:0:0:0:
379,154,50040,2,0,P|341:110|346:54,1,116.999994644165,10|0,0:0|0:0,0:0:0:0:
512,233,50340,1,0,3:0:0:0:
280,287,50490,1,0,3:0:0:0:
512,384,50640,1,10,0:0:0:0:
420,235,50790,1,10,0:0:0:0:
396,239,50865,1,8,0:0:0:0:
372,243,50940,6,0,P|359:300|353:358,1,116.999994644165,6|2,3:2|0:0,0:0:0:0:
171,171,51240,1,10,0:0:0:0:
249,373,51390,1,2,0:0:0:0:
0,375,51540,1,2,3:2:0:0:
144,287,51690,1,2,3:2:0:0:
0,84,51840,2,0,P|12:141|18:199,1,116.999994644165,10|2,0:0|0:0,0:0:0:0:
327,116,52140,6,0,B|283:104|238:136|262:153|220:183|169:170,1,175.499991966248,2|0,3:2|0:0,0:0:0:0:
92,127,52440,2,0,P|133:88|190:91,1,116.999994644165,10|0,0:0|0:0,0:0:0:0:
280,287,52740,1,4,3:2:0:0:
124,378,52890,1,8,0:0:0:0:
106,381,52965,1,8,0:0:0:0:
89,384,53040,1,2,3:2:0:0:
313,199,53190,1,10,0:0:0:0:
342,203,53265,1,8,0:0:0:0:
370,208,53340,6,0,B|396:363|396:363|423:291,1,233.999989288331,6|8,3:2|0:0,0:0:0:0:
512,72,53790,1,2,0:0:0:0:
327,116,53940,1,2,3:2:0:0:
462,206,54090,1,0,3:0:0:0:
343,5,54240,1,10,0:0:0:0:
221,225,54390,1,2,0:0:0:0:
46,115,54540,6,0,P|39:56|27:0,1,116.999994644165,2|0,3:2|0:0,0:0:0:0:
208,141,54840,2,0,P|214:82|226:25,1,116.999994644165,10|0,0:0|0:0,0:0:0:0:
18,313,55140,2,0,P|12:255|0:198,1,116.999994644165,2|0,3:2|3:0,0:0:0:0:
279,381,55440,2,0,P|285:322|297:265,1,116.999994644165,10|8,0:0|0:0,0:0:0:0:
305,243,55665,1,8,0:0:0:0:
305,243,55740,6,0,P|201:239|191:348,1,233.999989288331,4|8,3:2|0:0,0:0:0:0:
417,344,56190,1,2,0:0:0:0:
314,135,56340,1,2,3:2:0:0:
201,370,56490,1,2,3:2:0:0:
415,239,56640,1,8,0:0:0:0:
172,73,56790,6,0,P|89:91|39:25,1,175.499991966248,6|0,3:2|0:0,0:0:0:0:
35,1,57090,1,2,3:2:0:0:
270,42,57240,1,10,0:0:0:0:
100,313,57390,2,0,P|19:287|9:205,1,175.499991966248,6|0,3:2|0:0,0:0:0:0:
17,183,57690,5,10,0:0:0:0:
73,171,57765,1,8,0:0:0:0:
126,194,57840,1,10,0:0:0:0:
160,241,57915,1,8,0:0:0:0:
194,288,57990,1,8,0:0:0:0:
248,307,58065,1,8,0:0:0:0:
305,294,58140,6,0,P|311:235|323:178,1,116.999994644165,6|2,3:2|0:0,0:0:0:0:
453,8,58440,1,10,0:0:0:0:
512,138,58590,2,0,P|455:141|413:102,1,116.999994644165,2|2,0:0|3:2,0:0:0:0:
228,184,58890,1,2,3:2:0:0:
357,0,59040,1,10,0:0:0:0:
407,225,59190,1,2,0:0:0:0:
172,5,59340,6,0,P|84:16|0:34,1,175.499991966248,2|0,3:2|0:0,0:0:0:0:
6,123,59640,2,0,P|63:111|121:105,1,116.999994644165,10|0,0:0|0:0,0:0:0:0:
316,137,59940,1,0,3:0:0:0:
137,233,60090,1,0,3:0:0:0:
274,24,60240,1,10,0:0:0:0:
305,294,60390,1,10,0:0:0:0:
305,294,60465,1,8,0:0:0:0:
305,294,60540,5,6,3:2:0:0:
388,74,60690,1,2,3:2:0:0:
512,300,60840,5,10,0:0:0:0:
446,7,60990,1,2,3:2:0:0:
364,371,61140,5,10,0:0:0:0:
475,90,61290,1,2,3:2:0:0:
489,384,61440,5,10,0:0:0:0:
241,159,61590,1,10,0:0:0:0:
245,135,61665,1,8,0:0:0:0:
249,111,61740,6,0,B|293:99|338:131|314:148|356:178|407:165,1,175.499991966248,6|0,3:2|0:0,0:0:0:0:
479,213,62040,2,0,P|497:159|470:108,1,116.999994644165,10|0,0:0|0:0,0:0:0:0:
305,294,62340,2,0,P|362:281|420:275,1,116.999994644165,0|0,3:0|3:0,0:0:0:0:
388,74,62640,1,10,0:0:0:0:
232,242,62790,1,10,0:0:0:0:
203,238,62865,1,8,0:0:0:0:
175,233,62940,6,0,P|118:220|60:214,1,116.999994644165,6|2,3:2|0:0,0:0:0:0:
0,0,63240,1,10,0:0:0:0:
133,123,63390,1,2,0:0:0:0:
0,288,63540,1,2,3:2:0:0:
45,85,63690,1,2,3:2:0:0:
126,332,63840,1,10,0:0:0:0:
175,233,63990,1,2,0:0:0:0:
10,384,64140,5,6,3:2:0:0:
10,384,65340,5,0,0:0:0:0:
47,376,65490,1,0,0:0:0:0:
86,370,65640,1,0,0:0:0:0:
195,321,65790,5,0,0:0:0:0:
176,317,65940,1,0,0:0:0:0:
156,314,66090,1,0,0:0:0:0:
43,221,66240,5,0,0:0:0:0:
80,213,66390,1,0,0:0:0:0:
119,207,66540,1,0,0:0:0:0:
229,153,66690,5,0,0:0:0:0:
65,97,66840,1,0,0:0:0:0:
147,125,66990,1,0,0:0:0:0:
305,12,67140,5,8,0:0:0:0:
175,43,67290,1,0,3:0:0:0:
247,156,67440,2,0,P|279:148|313:145,1,67.5000025749208
476,128,67740,6,0,B|499:84|493:32|459:16|459:16|422:51|421:113|453:150|453:150|492:189|497:228|482:267|429:311|380:277|359:217|391:187,1,540,2|0,3:2|0:0,0:0:0:0:
502,326,70140,6,0,B|465:358|418:362|343:354|302:298|298:206|298:206|283:299|240:338|166:338|126:324,1,540,2|0,0:0|0:0,0:0:0:0:
14,238,72540,6,0,B|84:266|151:238|117:203|185:169|254:203|219:271|151:238,1,283.499991348267,0|2,0:0|0:0,0:0:0:0:
3,108,73740,6,0,P|104:74|41:160,1,283.499991348267,2|0,0:0|0:0,0:0:0:0:
200,92,74940,6,0,B|270:72|343:124|304:151|372:199|454:179,1,283.499991348267,0|2,0:0|0:0,0:0:0:0:
399,35,76140,5,2,0:0:0:0:
396,55,76290,1,0,0:0:0:0:
392,74,76440,1,2,0:0:0:0:
512,0,76590,1,2,3:2:0:0:
453,179,76740,5,8,0:0:0:0:
312,10,76890,1,2,3:2:0:0:
475,89,77040,1,10,0:0:0:0:
475,89,77340,6,0,B|399:67|320:123|362:152|289:204|201:182,1,306.000005836487,4|0,3:2|3:0,0:0:0:0:
41,126,78090,1,2,0:0:0:0:
102,59,78240,2,0,P|126:88|131:126,1,76.5000014591217,2|0,0:0|0:0,0:0:0:0:
3,251,78540,6,0,P|66:213|132:245,1,153.000002918243,2|2,3:2|0:0,0:0:0:0:
210,359,78990,2,0,P|172:362|135:372,1,76.5000014591217,2|0,0:0|3:0,0:0:0:0:
72,305,79290,1,2,0:0:0:0:
239,273,79440,2,0,P|276:276|313:286,1,76.5000014591217,2|0,0:0|0:0,0:0:0:0:
477,199,79740,6,0,P|384:124|402:242,1,306.000005836487,0|0,3:0|3:0,0:0:0:0:
512,66,80490,1,2,0:0:0:0:
452,0,80640,2,0,P|414:3|377:13,1,76.5000014591217,2|0,0:0|0:0,0:0:0:0:
266,155,80940,6,0,P|344:162|427:183,1,153.000002918243,2|2,3:2|0:0,0:0:0:0:
295,69,81390,2,0,P|258:61|222:74,1,76.5000014591217,2|0,0:0|3:0,0:0:0:0:
164,139,81690,1,2,0:0:0:0:
296,221,81840,2,0,P|290:183|265:154,1,76.5000014591217,2|0,0:0|0:0,0:0:0:0:
0,152,82140,6,0,B|25:303|25:303|50:233,1,229.500004377365,0|0,3:0|0:0,0:0:0:0:
75,54,82740,2,0,P|38:42|0:40,1,76.5000014591217,0|0,3:0|0:0,0:0:0:0:
89,155,83040,2,0,P|125:143|163:140,1,76.5000014591217,2|0,0:0|0:0,0:0:0:0:
246,311,83340,6,0,P|177:338|117:296,1,153.000002918243,2|2,3:2|0:0,0:0:0:0:
186,246,83790,1,0,0:0:0:0:
362,296,83940,2,0,P|350:332|347:370,1,76.5000014591217,2|0,3:2|0:0,0:0:0:0:
296,221,84240,2,0,P|292:182|281:146,1,76.5000014591217,2|0,0:0|0:0,0:0:0:0:
268,127,84465,1,0,0:0:0:0:
268,127,84540,6,0,P|271:88|282:52,1,76.5000014591217,2|0,3:2|0:0,0:0:0:0:
419,101,84840,1,2,0:0:0:0:
449,186,84990,2,0,P|412:194|376:182,1,76.5000014591217,2|0,0:0|3:0,0:0:0:0:
265,306,85290,1,2,0:0:0:0:
223,224,85440,2,0,P|258:211|295:220,1,76.5000014591217,2|0,0:0|0:0,0:0:0:0:
512,337,85740,6,0,B|473:326|434:354|455:369|419:395|374:383,1,153.000002918243,4|0,3:2|0:0,0:0:0:0:
204,236,86190,1,8,0:0:0:0:
67,283,86340,1,2,3:2:0:0:
210,384,86490,1,0,3:0:0:0:
196,138,86640,1,10,0:0:0:0:
81,384,86790,1,8,0:0:0:0:
0,92,86940,6,0,B|61:67|77:9|77:9|120:58|182:59,1,236.249992790222,4|0,3:2|0:0,0:0:0:0:
209,218,87390,2,0,B|152:239|129:300|129:300|94:250|28:249,1,236.249992790222,4|0,3:2|0:0,0:0:0:0:
10,171,87840,2,0,B|195:138,1,188.999994232178,4|2,3:2|0:0,0:0:0:0:
512,92,89340,6,0,B|451:67|435:9|435:9|392:58|330:59,1,236.249992790222,4|0,3:2|0:0,0:0:0:0:
303,218,89790,2,0,B|360:239|383:300|383:300|418:250|484:249,1,236.249992790222,4|0,3:2|0:0,0:0:0:0:
502,171,90240,2,0,B|317:138,1,188.999994232178,4|2,3:2|0:0,0:0:0:0:
256,0,90690,5,2,0:0:0:0:
256,7,90765,1,0,0:0:0:0:
256,14,90840,2,0,L|256:94,1,67.5000025749208,2|0,0:0|0:0,0:0:0:0:
256,327,91140,1,4,0:3:0:0:
197,137,91290,1,8,0:3:0:0:
303,218,91440,1,8,0:3:0:0:
209,218,91590,1,8,0:3:0:0:
488,384,91740,6,0,P|425:320|340:347,1,188.999994232178,6|2,3:2|0:0,0:0:0:0:
88,272,92190,2,0,B|135:258|183:292|157:311|201:342|256:328,1,188.999994232178,6|2,3:2|0:0,0:0:0:0:
394,171,92640,1,6,3:2:0:0:
235,240,92790,1,2,0:0:0:0:
489,204,92940,6,0,B|513:72|513:72|472:122,1,188.999994232178,6|2,3:2|3:2,0:0:0:0:
394,171,93390,1,6,3:2:0:0:
394,171,93465,1,0,0:0:0:0:
394,171,93540,1,8,0:0:0:0:
235,0,93690,1,2,3:2:0:0:
433,35,93840,1,14,0:0:0:0:
279,157,93990,1,8,0:0:0:0:
0,36,94140,6,0,P|85:63|148:0,1,188.999994232178,4|0,3:2|0:0,0:0:0:0:
351,84,94590,2,0,B|304:70|256:104|282:123|238:154|183:140,1,188.999994232178,4|0,3:2|0:0,0:0:0:0:
7,184,95040,2,0,P|-14:224|0:268,1,94.499997116089,14|0,0:0|0:0,0:0:0:0:
109,360,95340,6,0,P|201:342|295:333,1,188.999994232178,2|2,3:2|0:0,0:0:0:0:
417,181,95790,2,0,P|371:170|324:165,1,94.499997116089,2|8,3:2|0:0,0:0:0:0:
384,344,96090,1,4,0:3:0:0:
512,200,96240,1,8,0:3:0:0:
448,272,96390,1,8,0:3:0:0:
320,62,96540,6,0,P|386:71|452:85,2,135.000005149842,4|0|0,3:2|0:0|3:0,0:0:0:0:
235,103,97290,1,0,0:0:0:0:
148,63,97440,2,0,P|137:32|142:-1,1,67.5000025749208,2|0,0:0|0:0,0:0:0:0:
36,150,97740,6,0,P|55:89|7:47,1,135.000005149842,2|2,3:2|0:0,0:0:0:0:
127,190,98190,2,0,P|159:182|193:179,1,67.5000025749208,2|0,0:0|3:0,0:0:0:0:
271,232,98490,1,2,0:0:0:0:
143,298,98640,2,0,P|110:290|76:287,1,67.5000025749208,2|0,0:0|0:0,0:0:0:0:
350,369,98940,6,0,P|381:380|414:375,1,67.5000025749208,4|0,3:2|0:0,0:0:0:0:
507,352,99240,1,2,0:0:0:0:
428,240,99390,1,0,0:0:0:0:
428,240,99465,1,0,0:0:0:0:
428,240,99540,2,0,P|402:261|390:292,1,67.5000025749208,2|0,3:2|0:0,0:0:0:0:
261,377,99840,2,0,P|255:344|234:318,1,67.5000025749208,2|0,0:0|0:0,0:0:0:0:
119,165,100140,6,0,P|133:231|142:297,2,135.000005149842,0|0|4,3:0|0:0|3:2,0:0:0:0:
57,7,100890,1,0,3:0:0:0:
8,186,101040,1,8,0:0:0:0:
92,84,101190,1,2,0:0:0:0:
335,193,101340,6,0,P|268:204|226:149,1,141.749995674133,6|0,3:2|0:0,0:0:0:0:
222,127,101640,1,2,3:2:0:0:
345,21,101790,1,2,0:0:0:0:
497,104,101940,1,2,3:2:0:0:
396,111,102090,1,2,0:0:0:0:
491,292,102240,2,0,P|497:240|509:190,1,94.499997116089,2|2,3:2|0:0,0:0:0:0:
311,105,102540,5,2,3:2:0:0:
388,277,102690,2,0,P|399:327|406:378,1,94.499997116089,2|0,0:0|3:0,0:0:0:0:
249,237,102990,1,2,0:0:0:0:
425,194,103140,1,2,3:2:0:0:
312,344,103290,1,2,0:0:0:0:
159,228,103440,1,2,3:2:0:0:
57,384,103590,1,2,0:0:0:0:
218,326,103740,6,0,P|148:311|78:304,1,141.749995674133,6|0,3:2|0:0,0:0:0:0:
54,301,104040,1,2,3:2:0:0:
249,237,104190,2,0,P|263:193|243:151,1,94.499997116089,2|0,0:0|3:0,0:0:0:0:
106,58,104490,1,2,0:0:0:0:
37,211,104640,1,2,3:2:0:0:
203,70,104790,1,2,0:0:0:0:
218,326,104940,5,12,0:0:0:0:
106,58,105090,1,0,3:0:0:0:
346,230,105240,5,12,0:0:0:0:
103,148,105390,1,0,3:0:0:0:
368,24,105540,5,12,0:0:0:0:
412,0,105615,1,8,0:0:0:0:
463,8,105690,1,8,0:0:0:0:
500,42,105765,1,8,0:0:0:0:
511,91,105840,1,10,0:0:0:0:
493,138,105915,1,8,0:0:0:0:
451,167,105990,1,10,0:0:0:0:
400,167,106065,1,8,0:0:0:0:
357,140,106140,6,0,B|313:128|268:160|292:177|250:207|199:194,1,175.499991966248,6|0,3:2|0:0,0:0:0:0:
178,186,106440,1,10,0:0:0:0:
368,24,106590,1,2,0:0:0:0:
315,261,106740,1,2,3:2:0:0:
216,106,106890,1,2,3:2:0:0:
451,167,107040,2,0,P|438:224|432:282,1,116.999994644165,10|2,0:0|0:0,0:0:0:0:
256,11,107340,6,0,P|174:-7|125:59,1,175.499991966248,2|0,3:2|0:0,0:0:0:0:
39,34,107640,2,0,P|51:92|57:150,1,116.999994644165,10|0,0:0|0:0,0:0:0:0:
137,384,107940,1,0,3:0:0:0:
267,181,108090,1,0,3:0:0:0:
0,221,108240,1,10,0:0:0:0:
111,293,108390,1,10,0:0:0:0:
135,297,108465,1,8,0:0:0:0:
159,301,108540,6,0,P|164:242|177:185,1,116.999994644165,6|2,3:2|0:0,0:0:0:0:
331,384,108840,1,10,0:0:0:0:
389,139,108990,1,2,0:0:0:0:
497,367,109140,1,2,3:2:0:0:
307,292,109290,1,2,3:2:0:0:
493,150,109440,2,0,P|525:196|513:252,1,116.999994644165,10|2,0:0|0:0,0:0:0:0:
224,29,109740,6,0,P|309:10|396:0,1,175.499991966248,2|0,3:2|0:0,0:0:0:0:
436,79,110040,2,0,P|377:84|320:97,1,116.999994644165,10|0,0:0|0:0,0:0:0:0:
176,185,110340,1,4,3:2:0:0:
406,217,110490,1,8,0:0:0:0:
424,214,110565,1,8,0:0:0:0:
441,211,110640,1,2,3:2:0:0:
359,384,110790,1,10,0:0:0:0:
330,380,110865,1,8,0:0:0:0:
303,380,110940,6,0,B|148:354|148:354|220:327,1,233.999989288331,6|8,3:2|0:0,0:0:0:0:
485,304,111390,1,2,0:0:0:0:
299,245,111540,1,2,3:2:0:0:
442,384,111690,1,0,3:0:0:0:
301,161,111840,1,10,0:0:0:0:
117,349,111990,1,2,0:0:0:0:
5,190,112140,6,0,P|15:134|63:104,1,116.999994644165,2|0,3:2|0:0,0:0:0:0:
211,174,112440,2,0,P|200:231|152:262,1,116.999994644165,10|0,0:0|0:0,0:0:0:0:
0,36,112740,2,0,P|45:4|102:17,1,116.999994644165,2|0,3:2|3:0,0:0:0:0:
219,327,113040,2,0,P|172:361|116:348,1,116.999994644165,10|8,0:0|0:0,0:0:0:0:
102,335,113265,1,8,0:0:0:0:
102,335,113340,6,0,P|89:218|64:104,1,233.999989288331,4|8,3:2|0:0,0:0:0:0:
249,0,113790,1,2,0:0:0:0:
211,174,113940,1,2,3:2:0:0:
47,25,114090,1,2,3:2:0:0:
153,261,114240,1,8,0:0:0:0:
512,54,114390,6,0,B|468:66|423:34|447:17|405:-13|354:0,1,175.499991966248,6|0,3:2|0:0,0:0:0:0:
333,7,114690,1,2,3:2:0:0:
512,159,114840,1,10,0:0:0:0:
211,174,114990,2,0,B|255:186|300:154|276:137|318:107|369:120,1,175.499991966248,6|0,3:2|0:0,0:0:0:0:
389,127,115290,5,10,0:0:0:0:
433,164,115365,1,8,0:0:0:0:
457,216,115440,1,10,0:0:0:0:
456,274,115515,1,8,0:0:0:0:
430,325,115590,1,8,0:0:0:0:
384,362,115665,1,8,0:0:0:0:
327,373,115740,6,0,P|269:360|211:355,1,116.999994644165,6|2,3:2|0:0,0:0:0:0:
0,230,116040,1,10,0:0:0:0:
115,182,116190,2,0,P|102:239|97:297,1,116.999994644165,2|2,0:0|3:2,0:0:0:0:
27,131,116490,1,2,3:2:0:0:
229,277,116640,1,10,0:0:0:0:
12,365,116790,1,2,0:0:0:0:
276,109,116940,6,0,B|320:97|365:129|341:146|383:176|432:163,1,175.499991966248,2|0,3:2|0:0,0:0:0:0:
510,119,117240,2,0,P|472:75|416:73,1,116.999994644165,10|0,0:0|0:0,0:0:0:0:
284,204,117540,1,0,3:0:0:0:
486,238,117690,1,0,3:0:0:0:
346,24,117840,1,10,0:0:0:0:
115,182,117990,1,10,0:0:0:0:
115,182,118065,1,8,0:0:0:0:
115,182,118140,5,6,3:2:0:0:
450,69,118290,1,2,3:2:0:0:
155,0,118440,5,10,0:0:0:0:
432,163,118590,1,2,3:2:0:0:
59,111,118740,5,10,0:0:0:0:
389,0,118890,1,2,3:2:0:0:
67,20,119040,5,10,0:0:0:0:
214,277,119190,1,10,0:0:0:0:
218,253,119265,1,8,0:0:0:0:
222,229,119340,6,0,P|233:141|251:57,1,175.499991966248,6|0,3:2|0:0,0:0:0:0:
340,63,119640,2,0,P|328:120|322:178,1,116.999994644165,10|0,0:0|0:0,0:0:0:0:
124,260,119940,2,0,P|129:201|142:144,1,116.999994644165,0|0,3:0|3:0,0:0:0:0:
320,206,120240,1,10,0:0:0:0:
178,346,120390,1,10,0:0:0:0:
149,350,120465,1,8,0:0:0:0:
121,355,120540,6,0,P|65:342|36:292,1,116.999994644165,6|2,3:2|0:0,0:0:0:0:
222,229,120840,1,10,0:0:0:0:
400,384,120990,1,2,0:0:0:0:
269,308,121140,1,2,3:2:0:0:
421,135,121290,1,2,3:2:0:0:
512,384,121440,1,10,0:0:0:0:
405,285,121590,1,2,0:0:0:0:
512,93,121740,6,0,P|509:36|465:-1,1,116.999994644165,6|0,3:2|3:0,0:0:0:0:
310,89,122040,1,2,0:0:0:0:
502,223,122190,1,8,0:0:0:0:
351,16,122340,5,2,0:0:0:0:
340,4,122440,6,0,B|303:-9|303:-9|269:8,1,77.9999964294435,8|8,0:3|0:3,0:0:0:0:
156,182,122640,5,4,0:3:0:0:
183,114,122740,5,8,0:3:0:0:
157,44,122840,5,8,0:3:0:0:
90,9,122940,6,0,B|63:1|39:0,1,51.7500009870529,8|0,3:2|0:0,0:0:0:0:
311,187,123090,1,8,3:2:0:0:
311,187,123540,6,0,P|303:155|310:123,1,67.5000025749208,0|2,0:0|0:0,0:0:0:0:
393,76,123840,2,0,P|401:108|404:142,1,67.5000025749208,2|2,0:0|0:0,0:0:0:0:
494,284,124140,2,0,P|502:251|495:219,1,67.5000025749208,2|0,0:0|0:0,0:0:0:0:
412,172,124440,2,0,P|403:204|400:238,1,67.5000025749208,2|0,0:0|0:0,0:0:0:0:
310,379,124740,2,0,P|302:347|309:315,1,67.5000025749208,0|2,0:0|0:0,0:0:0:0:
393,268,125040,1,2,0:0:0:0:
512,384,125190,1,2,3:2:0:0:
493,132,125340,6,0,B|495:108|502:81,1,51.7500009870529,8|0,3:2|0:0,0:0:0:0:
247,253,125490,1,10,3:2:0:0:
247,253,125940,6,0,P|214:261|182:254,1,67.5000025749208,2|2,0:0|0:0,0:0:0:0:
147,334,126240,2,0,P|118:318|101:290,1,67.5000025749208,2|2,0:0|0:0,0:0:0:0:
181,121,126540,2,0,P|205:146|215:178,1,67.5000025749208,2|0,0:0|0:0,0:0:0:0:
29,251,126840,2,0,P|26:217|17:184,1,67.5000025749208,2|0,0:0|0:0,0:0:0:0:
112,75,127140,2,0,P|102:107|100:141,1,67.5000025749208,0|2,0:0|0:0,0:0:0:0:
270,105,127440,2,0,P|267:71|258:38,1,67.5000025749208,0|2,0:0|0:0,0:0:0:0:
18,42,127740,6,0,B|25:69|27:93,1,51.7500009870529,8|0,3:2|0:0,0:0:0:0:
333,0,127890,1,10,3:2:0:0:
333,0,128340,6,0,P|366:2|399:11,1,67.5000025749208,2|2,0:0|0:0,0:0:0:0:
455,88,128640,2,0,P|421:90|388:99,1,67.5000025749208,2|2,0:0|0:0,0:0:0:0:
280,238,128940,2,0,P|313:240|346:249,1,67.5000025749208,2|2,0:0|0:0,0:0:0:0:
473,173,129240,2,0,P|439:175|406:184,1,67.5000025749208,2|0,0:0|0:0,0:0:0:0:
316,154,129540,1,0,0:0:0:0:
455,88,129690,1,0,3:0:0:0:
296,0,129840,2,0,P|288:33|295:65,1,67.5000025749208,10|2,0:0|0:0,0:0:0:0:
432,265,130140,6,0,B|459:257|483:256,1,51.7500009870529,8|0,3:2|0:0,0:0:0:0:
216,73,130290,1,8,3:2:0:0:
216,73,130740,5,0,0:0:0:0:
119,210,130890,1,2,3:2:0:0:
30,31,131040,2,0,P|62:23|95:30,1,67.5000025749208,10|0,0:0|0:0,0:0:0:0:
279,165,131340,6,0,B|239:154|199:182|220:198|183:224|137:213,1,155.250002961159,2|0,3:2|0:0,0:0:0:0:
119,210,131640,1,2,3:2:0:0:
287,259,131790,1,10,0:0:0:0:
153,127,131940,2,0,P|101:132|50:141,1,103.500001974106,2|0,3:2|3:0,0:0:0:0:
0,357,132240,5,4,0:3:0:0:
64,297,132340,5,8,0:3:0:0:
85,384,132440,5,8,0:3:0:0:
102,376,132540,6,0,P|195:358|290:349,1,188.999994232178,4|0,3:2|3:0,0:0:0:0:
506,229,132990,2,0,P|468:202|423:210,1,94.499997116089,2|0,0:0|3:0,0:0:0:0:
314,347,133290,1,2,0:0:0:0:
431,384,133440,2,0,P|436:337|448:291,1,94.499997116089,2|2,3:2|0:0,0:0:0:0:
396,120,133740,5,2,3:2:0:0:
328,246,133890,1,2,0:0:0:0:
193,54,134040,2,0,P|256:-10|341:17,1,188.999994232178,2|0,3:2|3:0,0:0:0:0:
294,170,134490,2,0,P|288:123|276:77,1,94.499997116089,2|0,0:0|3:0,0:0:0:0:
423,210,134790,1,2,0:0:0:0:
196,273,134940,6,0,P|190:226|178:180,1,94.499997116089,0|2,3:0|0:0,0:0:0:0:
47,0,135240,1,2,3:2:0:0:
0,157,135390,1,2,0:0:0:0:
190,86,135540,2,0,P|144:74|97:68,1,94.499997116089,2|2,3:2|0:0,0:0:0:0:
0,249,135840,1,2,3:2:0:0:
178,180,135990,1,2,0:0:0:0:
60,384,136140,6,0,P|51:338|78:301,1,94.499997116089,2|0,3:2|0:0,0:0:0:0:
309,301,136440,2,0,B|262:288|214:322|239:341|195:372|141:359,1,188.999994232178,2|0,3:2|3:0,0:0:0:0:
105,220,136890,1,2,0:0:0:0:
291,219,137040,2,0,P|317:256|309:301,1,94.499997116089,8|2,0:0|0:0,0:0:0:0:
0,249,137340,6,0,P|9:153|26:59,1,188.999994232178,4|2,3:2|3:2,0:0:0:0:
95,0,137790,1,2,3:2:0:0:
232,150,137940,1,10,0:0:0:0:
39,159,138090,1,8,0:0:0:0:
213,22,138240,2,0,P|250:49|296:40,1,94.499997116089,2|2,3:2|0:0,0:0:0:0:
496,153,138540,5,2,3:2:0:0:
381,6,138690,1,0,3:0:0:0:
311,205,138840,1,10,0:0:0:0:
378,128,138990,1,0,0:0:0:0:
504,329,139140,1,8,0:0:0:0:
411,224,139290,1,4,0:3:0:0:
286,328,139440,2,0,P|342:365|402:332,1,141.749995674133,8|0,0:3|0:0,0:0:0:0:
415,314,139740,5,10,3:2:0:0:
160,192,139890,1,8,3:2:0:0:
160,192,140190,1,8,0:3:0:0:
292,88,140340,1,4,0:3:0:0:
197,102,140490,1,8,0:3:0:0:
0,307,140640,6,0,P|88:276|130:359,1,198.000006042481,6|0,3:2|0:0,0:0:0:0:
131,353,141540,5,2,0:0:0:0:
164,364,141640,5,0,0:0:0:0:
195,349,141740,5,0,0:0:0:0:
209,317,141840,5,2,0:0:0:0:
484,79,151740,5,8,3:2:0:0:
320,296,151890,1,8,3:2:0:0:
320,296,152190,5,4,0:3:0:0:
499,208,152340,1,4,0:3:0:0:
431,293,152490,1,8,0:3:0:0:
271,193,152640,1,8,0:3:0:0:
405,0,152790,6,0,P|384:101|373:204,1,207.000003948212,6|0,3:2|3:0,0:0:0:0:
230,56,153240,2,0,P|264:19|315:22,1,103.500001974106,8|2,0:0|0:0,0:0:0:0:
271,193,153540,5,0,3:0:0:0:
254,196,153640,6,0,B|220:190|220:190|193:168,1,69.0000013160706,8|8,0:3|0:3,0:0:0:0:
143,95,153840,5,4,0:3:0:0:
69,96,153940,5,8,0:3:0:0:
15,148,154040,5,8,0:3:0:0:
9,223,154140,6,0,P|54:211|101:205,1,94.499997116089,6|2,3:2|0:0,0:0:0:0:
269,322,154440,1,2,3:2:0:0:
185,357,154590,2,0,P|170:313|192:272,1,94.499997116089,2|2,0:0|3:2,0:0:0:0:
374,204,154890,1,2,0:0:0:0:
512,334,155040,1,2,3:2:0:0:
355,293,155190,1,2,0:0:0:0:
507,112,155340,6,0,P|508:44|449:10,1,141.749995674133,2|0,3:2|0:0,0:0:0:0:
426,9,155640,2,0,B|378:-4|330:29|355:48|311:79|256:66,1,188.999994232178,2|0,3:2|3:0,0:0:0:0:
175,18,156090,1,0,0:0:0:0:
5,100,156240,1,2,3:2:0:0:
173,129,156390,1,2,0:0:0:0:
0,0,156540,5,2,3:2:0:0:
102,72,156690,2,0,P|90:117|84:164,1,94.499997116089,2|2,0:0|3:2,0:0:0:0:
18,349,156990,1,2,0:0:0:0:
0,258,157140,2,0,P|45:252|80:282,1,94.499997116089,2|2,3:2|0:0,0:0:0:0:
195,384,157440,1,2,3:2:0:0:
392,319,157590,1,2,0:0:0:0:
228,194,157740,6,0,P|239:239|245:286,1,94.499997116089,2|0,3:2|3:0,0:0:0:0:
474,370,158040,1,8,0:0:0:0:
346,183,158190,1,0,3:0:0:0:
340,215,158265,1,0,3:0:0:0:
335,247,158340,1,8,0:0:0:0:
444,143,158490,1,4,0:3:0:0:
448,165,158565,1,8,0:3:0:0:
452,187,158640,1,8,0:3:0:0:
370,71,158790,1,8,0:3:0:0:
368,82,158865,1,8,0:3:0:0:
367,93,158940,5,2,3:2:0:0:
449,27,159090,1,0,3:0:0:0:
512,93,159240,1,10,0:0:0:0:
275,126,159390,5,2,3:2:0:0:
474,283,159540,1,2,3:2:0:0:
253,322,159690,5,2,3:2:0:0:
444,143,159840,1,10,0:0:0:0:
161,75,159990,6,0,P|179:144|188:216,1,144,2|0,3:2|0:0,0:0:0:0:
484,8,161340,5,6,3:2:0:0:
287,156,161490,1,0,0:0:0:0:
477,252,161640,1,10,0:0:0:0:
386,88,161790,1,2,0:0:0:0:
303,303,161940,1,2,3:2:0:0:
481,146,162090,1,2,3:2:0:0:
456,365,162240,2,0,P|398:371|341:384,1,116.999994644165,10|2,0:0|0:0,0:0:0:0:
55,258,162540,6,0,P|135:279|187:215,1,175.499991966248,2|0,3:2|0:0,0:0:0:0:
143,137,162840,2,0,P|86:132|43:170,1,116.999994644165,10|0,0:0|0:0,0:0:0:0:
26,357,163140,1,0,3:0:0:0:
187,213,163290,1,0,3:0:0:0:
8,79,163440,1,10,0:0:0:0:
145,0,163590,1,10,0:0:0:0:
169,4,163665,1,8,0:0:0:0:
193,8,163740,6,0,P|252:13|309:26,1,116.999994644165,6|2,3:2|0:0,0:0:0:0:
425,190,164040,1,10,0:0:0:0:
231,137,164190,1,2,0:0:0:0:
419,9,164340,1,2,3:2:0:0:
313,201,164490,1,2,3:2:0:0:
512,212,164640,2,0,P|515:155|476:113,1,116.999994644165,10|2,0:0|0:0,0:0:0:0:
234,329,164940,6,0,B|278:317|323:349|299:366|341:396|392:383,1,175.499991966248,2|0,3:2|0:0,0:0:0:0:
469,340,165240,2,0,P|428:301|371:304,1,116.999994644165,10|0,0:0|0:0,0:0:0:0:
154,384,165540,1,4,3:2:0:0:
49,204,165690,1,8,0:0:0:0:
46,186,165765,1,8,0:0:0:0:
43,169,165840,1,2,3:2:0:0:
313,201,165990,1,10,0:0:0:0:
309,230,166065,1,8,0:0:0:0:
304,258,166140,5,6,3:2:0:0:
182,97,166290,1,2,0:0:0:0:
11,286,166440,1,8,0:0:0:0:
203,206,166590,1,2,0:0:0:0:
22,36,166740,2,0,P|34:93|39:151,1,116.999994644165,2|0,3:2|3:0,0:0:0:0:
221,322,167040,1,10,0:0:0:0:
289,114,167190,1,2,0:0:0:0:
425,269,167340,6,0,P|412:326|407:384,1,116.999994644165,2|0,3:2|0:0,0:0:0:0:
203,206,167640,2,0,P|215:263|220:321,1,116.999994644165,10|0,0:0|0:0,0:0:0:0:
502,85,167940,2,0,P|489:142|484:201,1,116.999994644165,2|0,3:2|3:0,0:0:0:0:
124,0,168240,2,0,P|136:57|141:115,1,116.999994644165,10|8,0:0|0:0,0:0:0:0:
145,138,168465,1,8,0:0:0:0:
145,138,168540,6,0,P|243:170|283:68,1,233.999989288331,4|8,3:2|0:0,0:0:0:0:
50,71,168990,1,2,0:0:0:0:
186,286,169140,1,2,3:2:0:0:
279,42,169290,1,2,3:2:0:0:
39,191,169440,1,8,0:0:0:0:
349,310,169590,6,0,P|432:292|482:358,1,175.499991966248,6|0,3:2|0:0,0:0:0:0:
486,382,169890,1,0,3:0:0:0:
262,341,170040,1,10,0:0:0:0:
421,70,170190,2,0,P|502:96|512:178,1,175.499991966248,6|0,3:2|0:0,0:0:0:0:
504,200,170490,5,10,0:0:0:0:
448,212,170565,1,8,0:0:0:0:
395,189,170640,1,8,0:0:0:0:
361,142,170715,1,8,0:0:0:0:
327,95,170790,1,8,0:0:0:0:
273,76,170865,1,8,0:0:0:0:
216,89,170940,6,0,P|204:146|198:204,1,116.999994644165,6|2,3:2|0:0,0:0:0:0:
102,384,171240,1,10,0:0:0:0:
9,245,171390,2,0,P|66:242|108:281,1,116.999994644165,2|2,0:0|3:2,0:0:0:0:
286,207,171690,1,2,3:2:0:0:
65,129,171840,1,10,0:0:0:0:
180,331,171990,1,2,0:0:0:0:
310,42,172140,6,0,P|398:53|482:71,1,175.499991966248,2|0,3:2|0:0,0:0:0:0:
476,160,172440,2,0,P|419:148|361:142,1,116.999994644165,10|0,0:0|0:0,0:0:0:0:
204,153,172740,1,0,3:0:0:0:
400,34,172890,1,0,3:0:0:0:
247,233,173040,1,10,0:0:0:0:
28,58,173190,1,10,0:0:0:0:
28,58,173265,1,8,0:0:0:0:
28,58,173340,5,6,3:2:0:0:
150,305,173490,1,2,3:2:0:0:
188,58,173640,5,10,0:0:0:0:
72,362,173790,1,2,3:2:0:0:
108,19,173940,5,10,0:0:0:0:
234,352,174090,1,2,3:2:0:0:
269,18,174240,5,10,0:0:0:0:
0,224,174390,1,10,0:0:0:0:
4,248,174465,1,8,0:0:0:0:
8,272,174540,6,0,B|52:284|97:252|73:235|115:205|166:218,1,175.499991966248,6|0,3:2|0:0,0:0:0:0:
238,170,174840,2,0,P|256:224|229:275,1,116.999994644165,10|0,0:0|0:0,0:0:0:0:
50,138,175140,2,0,P|107:124|165:118,1,116.999994644165,0|0,3:0|3:0,0:0:0:0:
150,305,175440,1,10,0:0:0:0:
0,56,175590,1,10,0:0:0:0:
29,52,175665,1,8,0:0:0:0:
57,47,175740,6,0,P|114:33|172:27,1,116.999994644165,6|2,3:2|0:0,0:0:0:0:
334,155,176040,1,10,0:0:0:0:
164,118,176190,1,2,0:0:0:0:
369,9,176340,1,2,3:2:0:0:
338,246,176490,1,2,3:2:0:0:
269,18,176640,1,10,0:0:0:0:
487,147,176790,1,2,0:0:0:0:
350,361,176940,6,0,P|294:351|264:303,1,116.999994644165,2|0,3:2|0:0,0:0:0:0:
334,155,177240,2,0,P|391:166|422:214,1,116.999994644165,10|0,0:0|0:0,0:0:0:0:
196,366,177540,2,0,P|164:321|177:264,1,116.999994644165,2|0,3:2|3:0,0:0:0:0:
487,147,177840,2,0,P|521:194|508:250,1,116.999994644165,10|8,0:0|0:0,0:0:0:0:
495,264,178065,1,8,0:0:0:0:
495,264,178140,6,0,P|445:253|394:246,1,103.500001974106,4|0,3:2|3:0,0:0:0:0:
265,99,178440,2,0,P|213:105|163:117,1,103.500001974106,8|0,0:0|0:0,0:0:0:0:
105,57,178665,1,8,0:0:0:0:
89,73,178740,2,0,P|70:119|94:164,1,103.500001974106,0|0,3:0|3:0,0:0:0:0:
252,207,179040,1,10,0:0:0:0:
0,384,179190,6,0,P|67:314|156:354,1,207.000003948212,6|0,3:2|3:0,0:0:0:0:
339,272,179640,2,0,P|288:272|255:235,1,103.500001974106,10|0,0:0|3:0,0:0:0:0:
452,187,179940,1,10,0:0:0:0:
464,371,180090,1,0,3:0:0:0:
329,179,180240,1,10,0:0:0:0:
509,40,180390,1,8,0:3:0:0:
505,69,180465,1,4,0:3:0:0:
500,97,180540,6,0,B|461:107|421:79|443:64|405:37|360:49,1,155.250002961159,12|0,0:0|0:0,0:0:0:0:
338,61,180840,1,0,3:0:0:0:
93,243,180990,6,0,B|132:233|172:261|150:276|188:303|233:291,1,155.250002961159,12|0,0:0|0:0,0:0:0:0:
255,279,181290,1,0,3:0:0:0:
36,168,181440,6,0,P|-1:201|0:251,1,103.500001974106,14|2,0:0|0:0,0:0:0:0:
83,384,181740,1,2,3:2:0:0:
214,175,181890,6,0,P|206:97|193:21,1,155.250002961159,12|0,0:0|0:0,0:0:0:0:
190,0,182190,1,0,3:0:0:0:
355,315,182340,6,0,P|362:237|375:161,1,155.250002961159,14|0,0:0|0:0,0:0:0:0:
379,140,182640,1,14,0:0:0:0:
380,133,182715,1,0,3:0:0:0:
381,126,182790,1,0,3:0:0:0:
130,309,182940,6,0,P|183:257|255:279,1,155.250002961159,12|0,0:0|0:0,0:0:0:0:
268,294,183240,1,0,3:0:0:0:
133,92,183390,6,0,P|61:112|8:61,1,155.250002961159,12|0,0:0|0:0,0:0:0:0:
0,41,183690,1,0,3:0:0:0:
285,0,183840,6,0,P|337:6|387:18,1,103.500001974106,14|2,0:0|3:2,0:0:0:0:
512,167,184140,1,10,0:0:0:0:
282,139,184290,5,4,3:2:0:0:
284,123,184365,1,0,3:0:0:0:
287,106,184440,1,10,0:0:0:0:
337,101,184515,1,8,0:0:0:0:
384,122,184590,1,8,0:0:0:0:
413,164,184665,1,8,0:0:0:0:
416,215,184740,2,0,B|391:219|366:226,1,51.7500009870529,6|0,3:2|3:0,0:0:0:0:
255,373,184890,2,0,B|280:377|305:384,1,51.7500009870529,0|0,3:0|3:0,0:0:0:0:
499,327,185040,5,14,0:0:0:0:
448,318,185115,1,8,0:0:0:0:
397,309,185190,1,8,0:0:0:0:
346,300,185265,1,8,0:0:0:0:
295,291,185340,5,4,3:2:0:0:
88,99,185490,1,8,0:0:0:0:
136,83,185565,1,8,0:0:0:0:
186,107,185640,1,8,0:0:0:0:
17,12,185790,5,4,3:2:0:0:
229,200,185940,1,8,0:0:0:0:
210,252,186015,1,8,0:0:0:0:
169,284,186090,1,8,0:0:0:0:
336,184,186240,5,4,3:2:0:0:
65,272,186390,1,8,0:0:0:0:
29,232,186465,1,8,0:0:0:0:
26,179,186540,1,8,0:0:0:0:
28,371,186690,5,4,3:2:0:0:
126,188,186840,1,8,0:0:0:0:
177,182,186915,1,8,0:0:0:0:
215,216,186990,1,8,0:0:0:0:
246,259,187065,1,8,0:0:0:0:
296,271,187140,5,4,3:2:0:0:
360,125,187290,1,4,0:3:0:0:
348,115,187365,1,4,0:3:0:0:
336,106,187440,2,0,P|296:137|294:186,1,103.500001974106,4|0,0:3|3:0,0:0:0:0:
512,384,187740,5,12,0:0:0:0:
417,242,187890,1,8,0:3:0:0:
422,215,187965,1,8,0:3:0:0:
427,188,188040,1,0,3:0:0:0:
337,352,188190,5,12,0:0:0:0:
512,200,188340,1,8,0:3:0:0:
507,173,188415,1,8,0:3:0:0:
502,146,188490,1,8,3:0:0:0:
422,384,188640,5,12,3:2:0:0:
310,23,188790,1,4,3:2:0:0:
256,192,188865,12,0,192540,0:0:0:0:
